<?xml version="1.0" standalone="no"?>
<!DOCTYPE svg PUBLIC "-//W3C//DTD SVG 1.1//EN" "http://www.w3.org/Graphics/SVG/1.1/DTD/svg11.dtd" >
<svg xmlns="http://www.w3.org/2000/svg" xmlns:xlink="http://www.w3.org/1999/xlink" version="1.1">
<metadata>
Created by FontForge 20151012 at Tue Apr  5 14:21:28 2016
 By Pierre Marchand,,,
Copyright 2003, 2009 B. Jackowski and J. M. Nowacki (on behalf of TeX users groups). This work is released under the GUST Font License --  see http://tug.org/fonts/licenses/GUST-FONT-LICENSE.txt for details.
</metadata>
<defs>
<font id="LMSans12-Regular" horiz-adv-x="490" >
  <font-face 
    font-family="LMSans12"
    font-weight="400"
    font-stretch="normal"
    units-per-em="1000"
    panose-1="0 0 5 0 0 0 0 0 0 0"
    ascent="806"
    descent="-194"
    x-height="444"
    cap-height="694"
    bbox="-411 -308 1407 1154"
    underline-thickness="44"
    underline-position="-175"
    stemh="60"
    stemv="86"
    unicode-range="U+0020-FB04"
  />
<missing-glyph horiz-adv-x="280" 
 />
    <glyph glyph-name="f_f" unicode="ff" horiz-adv-x="571" 
d="M340 628c-13 5 -43 16 -79 16c-29 0 -90 -10 -90 -80v-120h110v-58h-108v-386h-74v386h-73v58h73v90c0 101 72 170 163 170c35 0 66 -7 78 -10v-66zM611 628c-13 5 -43 16 -79 16c-29 0 -90 -10 -90 -80v-120h110v-58h-108v-386h-74v534c0 101 72 170 163 170
c35 0 66 -7 78 -10v-66z" />
    <glyph glyph-name="f_f_i" unicode="&#xfb00;i" horiz-adv-x="795" 
d="M719 614h-81v81h81v-81zM716 0h-74v444h74v-444zM560 386h-115v-386h-74v536c0 97 57 168 131 168c31 0 37 -2 58 -9v-68c-4 2 -28 17 -58 17c-27 0 -59 -18 -59 -78v-122h117v-58zM313 628c0 0 -32 16 -68 16c-26 0 -74 -11 -74 -80v-120h117v-58h-115v-386h-74v386h-73
v58h73v91c0 95 61 169 147 169c30 0 58 -7 67 -10v-66z" />
    <glyph glyph-name="f_f_l" unicode="ffl" horiz-adv-x="795" 
d="M313 628c0 0 -32 16 -68 16c-26 0 -74 -11 -74 -80v-120h117v-58h-115v-386h-74v386h-73v58h73v91c0 95 61 169 147 169c30 0 58 -7 67 -10v-66zM716 0h-74v694h74v-694zM560 386h-115v-386h-74v536c0 97 57 168 131 168c31 0 38 -2 58 -10v-66c-17 11 -38 16 -58 16
c-27 0 -59 -18 -59 -78v-122h117v-58z" />
    <glyph glyph-name="f_i" unicode="fi" horiz-adv-x="523" 
d="M447 614h-81v81h81v-81zM444 0h-74v444h74v-444zM288 386h-115v-386h-74v386h-73v58h73v92c0 97 57 168 131 168c31 0 38 -2 58 -10v-68c-14 10 -36 18 -58 18c-27 0 -59 -18 -59 -78v-122h117v-58z" />
    <glyph glyph-name="f_l" unicode="fl" horiz-adv-x="523" 
d="M288 386h-115v-386h-74v386h-73v58h73v92c0 97 57 168 131 168c31 0 38 -2 58 -10v-66c-17 11 -38 16 -58 16c-27 0 -59 -18 -59 -78v-122h117v-58zM444 0h-74v694h74v-694z" />
    <glyph glyph-name="I_J" unicode="IJ" horiz-adv-x="699" 
d="M176 0h-86v694h86v-694zM619 148c0 -107 -66 -169 -171 -169c-53 0 -109 12 -167 42l14 75c25 -29 68 -55 124 -55c88 0 116 53 116 111v542h84v-546z" />
    <glyph glyph-name="i_j" unicode="ij" horiz-adv-x="465" 
d="M158 568h-86v86h86v-86zM386 568h-86v86h86v-86zM152 0h-74v444h74v-444zM386 -59c0 -93 -60 -145 -123 -145c-46 0 -86 15 -118 34l15 60c10 -11 37 -31 76 -31c15 0 76 4 76 72v513h74v-503z" />
    <glyph glyph-name="f_k" unicode="fk" horiz-adv-x="780" 
d="M288 386h-115v-386h-74v386h-73v58h73v92c0 97 57 168 131 168c31 0 38 -2 58 -10v-66c-17 11 -38 16 -58 16c-27 0 -59 -18 -59 -78v-122h117v-58zM750 0h-82l-152 223l-76 -79v-144h-70v694h73v-451l193 201h92l-164 -171z" />
    <glyph glyph-name=".notdef" horiz-adv-x="280" 
 />
    <glyph glyph-name="acute.dup" 
d="M382 694l-146 -167h-60l130 167h76z" />
    <glyph glyph-name="AE.dup" horiz-adv-x="840" 
d="M798 0h-391v222h-218l-88 -222h-74l275 694h483v-63h-150c-12 0 -24 1 -36 1h-107v-241h265v-60h-265v-264h161c12 0 24 1 36 1h109v-68zM407 278v354h-56l-140 -354h196z" />
    <glyph glyph-name="ae.dup" horiz-adv-x="707" 
d="M679 225h-288c2 -112 71 -175 141 -175c39 0 91 14 135 57c0 -4 3 -27 3 -27c0 -5 3 -28 3 -33c0 -9 -63 -57 -142 -57c-62 0 -118 28 -161 77c-8 -11 -28 -42 -96 -62c-54 -15 -113 -15 -117 -15c-93 0 -111 92 -111 126c0 91 127 135 269 136v39c0 77 -44 110 -85 110
c-66 0 -111 -23 -149 -50l-6 66c48 27 94 42 154 42c74 0 115 -40 139 -77c60 77 135 77 148 77c162 0 163 -198 163 -234zM619 279c-12 83 -55 120 -103 120c-51 0 -101 -46 -119 -120h222zM319 133c0 17 -2 47 -3 65c-47 -2 -199 -10 -199 -81c0 -37 37 -67 89 -67
c26 0 58 6 80 20c33 20 33 42 33 63z" />
    <glyph glyph-name="cedilla.dup" horiz-adv-x="435" 
d="M274 -23l-64 -168h-68l72 168h60z" />
    <glyph glyph-name="circumflex.dup" 
d="M400 525h-59l-96 123l-96 -123h-59l125 172h60z" />
    <glyph glyph-name="dieresis.dup" 
d="M213 572h-77v78h77v-78zM354 572h-77v78h77v-78z" />
    <glyph glyph-name="Gcedilla" horiz-adv-x="653" 
d="M586 38c-64 -32 -135 -49 -206 -49c-86 0 -166 41 -222 105c-62 70 -92 161 -92 253c0 93 30 184 92 253c56 65 136 105 222 105c34 0 69 -3 102 -11c34 -8 66 -22 96 -38l-14 -83c-26 22 -54 42 -86 53c-31 12 -65 16 -98 16c-64 0 -122 -35 -162 -86
c-46 -59 -67 -134 -67 -209s21 -149 67 -208c40 -51 98 -87 162 -87c44 0 88 7 129 21v170h-129v60h206v-265zM363 -148l-37 -113h-36l23 113h-23v72h73v-72z" />
    <glyph glyph-name="gcedilla" 
d="M248 540h-73v72l37 113h36l-23 -113h23v-72zM475 393c-25 2 -48 2 -51 2c-37 0 -59 -3 -80 -5c-1 2 -3 4 -3 4c20 -28 33 -65 33 -101c0 -91 -71 -162 -157 -162c-40 0 -73 17 -90 29c-6 -9 -10 -15 -10 -37c0 -53 43 -53 57 -53h85c41 0 203 0 203 -140
c0 -76 -96 -135 -218 -135s-217 61 -217 134c0 28 12 71 63 104c-11 13 -25 38 -25 75c0 24 6 54 29 86c-22 30 -33 63 -33 99c0 88 70 161 157 161c20 0 60 -5 93 -33c66 32 134 33 153 33zM305 293c0 76 -44 106 -88 106c-31 0 -87 -18 -87 -107c0 -76 44 -106 88 -106
c31 0 87 18 87 107zM392 -71c0 69 -110 69 -132 69h-87c-76 0 -76 -65 -76 -68c0 -49 70 -80 148 -80s147 33 147 79z" />
    <glyph glyph-name="germandbls.dup" horiz-adv-x="469" 
d="M441 179c0 -107 -78 -189 -173 -189c-41 0 -87 14 -87 19l4 11l16 44c25 -11 52 -14 66 -14c58 0 99 51 99 129c0 106 -59 202 -160 205v60c101 2 133 69 133 114c0 57 -44 86 -93 86c-21 0 -94 -4 -94 -94v-550h-74v552c0 102 90 152 168 152c93 0 168 -65 168 -146
c0 -57 -35 -113 -96 -147c85 -51 123 -148 123 -232z" />
    <glyph glyph-name="hyphen.dup" horiz-adv-x="326" 
d="M271 193h-260v58h260v-58z" />
    <glyph glyph-name="Kcedilla" horiz-adv-x="674" 
d="M632 0h-92l-236 362l-129 -136v-226h-84v694h84v-369l350 369h94l-261 -275zM373 -148l-37 -113h-36l23 113h-23v72h73v-72z" />
    <glyph glyph-name="kcedilla" horiz-adv-x="475" 
d="M458 0h-82l-152 223l-76 -79v-144h-70v694h73v-451l193 201h92l-164 -171zM274 -148l-37 -113h-36l23 113h-23v72h73v-72z" />
    <glyph glyph-name="Lcedilla" horiz-adv-x="529" 
d="M487 0h-397v694h86v-632h48l263 2v-64zM301 -148l-37 -113h-36l23 113h-23v72h73v-72z" />
    <glyph glyph-name="lcedilla" horiz-adv-x="230" 
d="M152 0h-74v694h74v-694zM151 -148l-37 -113h-36l23 113h-23v72h73v-72z" />
    <glyph glyph-name="macron.dup" 
d="M421 579h-353v63h353v-63z" />
    <glyph glyph-name="Ncedilla" horiz-adv-x="686" 
d="M594 0h-123l-221 452l-81 168h-1v-620h-77v694h123l221 -452l81 -168h1v620h77v-694zM379 -148l-37 -113h-36l23 113h-23v72h73v-72z" />
    <glyph glyph-name="ncedilla" horiz-adv-x="502" 
d="M424 0h-76v294c0 35 -3 100 -96 100c-76 0 -99 -83 -99 -145v-249h-76v449h71v-68c38 48 86 73 142 73c121 0 134 -92 134 -153v-301zM287 -148l-37 -113h-36l23 113h-23v72h73v-72z" />
    <glyph glyph-name="OE.dup" horiz-adv-x="949" 
d="M907 0h-402c-25 0 -41 -2 -77 -10c-38 -8 -56 -11 -80 -11c-168 0 -324 154 -324 366c0 213 156 370 324 370c12 0 30 0 82 -12c43 -9 64 -9 75 -9h389v-63h-179c-12 0 -24 1 -36 1h-136v-241h323v-60h-323v-264h198c12 0 24 1 36 1h130v-68zM459 199v296
c0 136 -28 160 -107 160c-134 0 -244 -128 -244 -295c0 -176 107 -321 245 -321c79 0 106 26 106 160z" />
    <glyph glyph-name="oe.dup" horiz-adv-x="762" 
d="M734 225h-288c2 -112 71 -175 141 -175c39 0 91 14 135 57c0 -4 3 -27 3 -27c0 -5 3 -28 3 -33c0 -9 -63 -57 -142 -57c-62 0 -132 29 -177 101c-53 -82 -126 -101 -172 -101c-110 0 -207 101 -207 235c0 131 95 234 207 234c29 0 107 -6 170 -98c43 68 106 98 164 98
c162 0 163 -198 163 -234zM674 279c-12 83 -55 120 -103 120c-51 0 -101 -46 -119 -120h222zM370 230c0 120 -71 169 -133 169c-66 0 -136 -51 -136 -169c0 -123 69 -180 135 -180c69 0 134 60 134 180z" />
    <glyph glyph-name="Oslash.dup" horiz-adv-x="762" 
d="M707 345c0 -206 -149 -366 -327 -366c-82 0 -145 38 -150 41l-47 -84l-54 30l51 91c-54 44 -126 144 -126 288c0 207 148 370 327 370c52 0 105 -16 150 -41l47 84l54 -30l-51 -91c32 -31 126 -122 126 -292zM499 619c-30 19 -72 36 -119 36c-121 0 -242 -110 -242 -310
c0 -122 46 -194 76 -228zM623 345c0 83 -21 168 -76 231l-285 -501c22 -15 65 -36 119 -36c121 0 242 107 242 306z" />
    <glyph glyph-name="oslash.dup" 
d="M459 220c0 -129 -97 -230 -215 -230c-21 0 -50 4 -84 18l-66 -120l-53 30l68 123c-5 5 -79 67 -79 179c0 133 97 239 215 239c23 0 52 -4 85 -20l65 118l53 -30l-68 -122c53 -48 79 -118 79 -185zM301 386c-17 9 -37 13 -56 13c-70 0 -140 -58 -140 -179
c0 -21 2 -78 37 -120zM384 220c0 43 -9 90 -36 126l-158 -284c17 -8 37 -12 55 -12c65 0 139 50 139 170z" />
    <glyph glyph-name="quoteleft.dup" horiz-adv-x="272" 
d="M176 488h-81v80l41 126h40l-25 -125h25v-81z" />
    <glyph glyph-name="quoteright.dup" horiz-adv-x="272" 
d="M176 614l-41 -126h-40l25 125h-25v81h81v-80z" />
    <glyph glyph-name="Rcedilla" horiz-adv-x="630" 
d="M602 0h-86l-185 317h-156v-317h-84v694h236c141 0 248 -87 248 -187c0 -74 -59 -150 -168 -181zM496 507c0 67 -59 131 -180 131h-141v-261h141c126 0 180 68 180 130zM351 -148l-37 -113h-36l23 113h-23v72h73v-72z" />
    <glyph glyph-name="rcedilla" horiz-adv-x="333" 
d="M318 387c-90 -1 -166 -67 -166 -168v-219h-74v449h69v-88c27 39 80 92 171 93v-67zM151 -148l-37 -113h-36l23 113h-23v72h73v-72z" />
    <glyph glyph-name="tilde.dup" 
d="M407 670c-2 -79 -52 -118 -95 -118c-25 0 -45 12 -74 33c-10 7 -35 25 -58 25c-29 0 -38 -32 -38 -58h-60c2 79 52 118 95 118c25 0 45 -12 74 -33c10 -7 35 -25 58 -25c29 0 38 32 38 58h60z" />
    <glyph glyph-name="A" unicode="A" horiz-adv-x="647" 
d="M619 0h-89l-74 203h-282l-73 -203h-74l252 694h88zM435 259l-120 363l-119 -363h239z" />
    <glyph glyph-name="a" unicode="a" horiz-adv-x="469" 
d="M401 0h-74v37c-37 -31 -107 -47 -162 -47c-85 0 -111 81 -111 125c0 50 39 87 106 110c60 20 120 23 165 25v41c0 73 -40 110 -86 110c-58 0 -104 -18 -148 -50l-6 66c49 28 94 42 154 42c93 0 162 -70 162 -166v-293zM325 134v65c-61 0 -200 -15 -200 -83
c0 -37 37 -66 91 -66c15 0 49 3 76 20c33 20 33 44 33 64z" />
    <glyph glyph-name="ampersand" unicode="&#x26;" horiz-adv-x="741" 
d="M686 -5c-59 -16 -102 -16 -112 -16c-35 0 -90 5 -159 58c-85 -54 -163 -58 -194 -58c-107 0 -180 79 -180 166c0 70 41 107 69 132l80 72c-2 5 -32 82 -32 169c0 108 53 197 136 197c82 0 129 -82 129 -155c0 -64 -53 -130 -150 -216c39 -88 141 -209 153 -222
c75 65 131 159 165 284l61 -17c-23 -91 -73 -208 -180 -309c49 -39 89 -39 103 -39c29 0 72 6 111 20v-66zM353 561c0 25 -8 94 -59 94c-33 0 -71 -30 -71 -103c0 -33 6 -90 26 -149c53 52 104 101 104 158zM367 80c-40 43 -100 115 -152 211c-73 -62 -98 -84 -98 -140
c0 -49 33 -110 105 -110c59 0 115 21 145 39z" />
    <glyph glyph-name="asciicircum" unicode="^" horiz-adv-x="556" 
d="M561 584l-12 -22l-272 123l-271 -123l-11 22l283 160z" />
    <glyph glyph-name="asciitilde" unicode="~" horiz-adv-x="556" 
d="M555 290l-54 -44c-17 -14 -37 -25 -57 -35c-22 -10 -48 -18 -73 -18c-40 0 -71 17 -100 34c-35 20 -64 37 -104 37c-51 0 -104 -30 -153 -71l-14 17l54 44c17 14 37 25 57 35c22 10 48 18 73 18c40 0 71 -17 100 -34c35 -20 64 -37 104 -37c51 0 104 30 153 71z" />
    <glyph glyph-name="asterisk" unicode="*" 
d="M426 435c0 -17 -14 -34 -33 -34c-3 0 -12 0 -24 9l-99 71l7 -132l1 -9c0 -22 -16 -34 -34 -34c-15 0 -33 11 -33 34l8 141l-100 -71c-8 -6 -13 -9 -23 -9c-19 0 -33 17 -33 34c0 10 3 22 21 32l113 61l-113 61c-18 10 -21 22 -21 32c0 17 14 34 33 34c3 0 12 0 24 -9
l99 -71l-8 141c0 22 16 34 34 34c15 0 33 -11 33 -34l-8 -141l100 71c8 6 13 9 23 9c19 0 33 -17 33 -34c0 -10 -3 -22 -21 -32l-113 -61l113 -61c18 -10 21 -22 21 -32z" />
    <glyph glyph-name="at" unicode="@" horiz-adv-x="653" 
d="M598 85c-41 -46 -118 -95 -218 -95c-175 0 -326 155 -326 357c0 204 153 357 325 357c218 0 219 -256 219 -342c0 -184 -116 -241 -182 -241c-96 0 -182 96 -182 226s86 226 182 226c45 0 80 -23 82 -24c-25 69 -70 95 -120 95c-126 0 -249 -122 -249 -297
c0 -163 110 -297 254 -297c69 0 122 22 143 31c8 4 10 4 25 4h47zM523 347c0 96 -50 166 -107 166s-107 -71 -107 -166c0 -96 50 -166 107 -166s107 71 107 166z" />
    <glyph glyph-name="B" unicode="B" horiz-adv-x="650" 
d="M595 188c0 -98 -103 -188 -244 -188h-258v694h231c141 0 243 -84 243 -174c0 -58 -45 -125 -162 -157c103 -16 190 -87 190 -175zM490 519c0 66 -86 119 -193 119h-123v-247h124c106 0 192 58 192 128zM516 189c0 70 -80 142 -209 142h-133v-275h149
c112 0 193 63 193 133z" />
    <glyph glyph-name="b" unicode="b" horiz-adv-x="502" 
d="M466 223c0 -136 -87 -233 -182 -233c-35 0 -84 11 -130 55v-45h-76v694h74v-296c62 50 126 56 155 56c93 0 159 -108 159 -231zM390 223c0 125 -72 171 -133 171c-49 0 -85 -29 -103 -57v-207c0 -17 4 -35 28 -56c18 -14 37 -24 65 -24c61 0 143 43 143 173z" />
    <glyph glyph-name="backslash" unicode="\" horiz-adv-x="500" 
d="M443 -230c0 -11 -9 -20 -20 -20c-14 0 -18 11 -22 22l-340 940c-5 13 -5 18 -5 18c0 11 9 20 20 20c14 0 18 -11 22 -22l340 -940c5 -13 5 -18 5 -18z" />
    <glyph glyph-name="bar" unicode="|" horiz-adv-x="278" 
d="M159 -217c0 -14 0 -33 -20 -33s-20 19 -20 33v934c0 14 0 33 20 33s20 -19 20 -33v-934z" />
    <glyph glyph-name="braceleft" unicode="{" horiz-adv-x="500" 
d="M427 -239c0 -11 -8 -11 -20 -11c-31 0 -96 8 -139 38c-52 37 -52 71 -52 129v198c0 100 -85 121 -128 124c-10 1 -16 1 -16 11s7 11 14 11c63 4 90 31 104 45c26 28 26 44 26 138v183c2 72 91 123 191 123c12 0 20 0 20 -11c0 -6 -4 -10 -9 -11c-70 -4 -93 -28 -111 -46
c-24 -25 -24 -47 -24 -119v-180c0 -28 0 -99 -118 -133c39 -11 103 -37 116 -103c2 -10 2 -61 2 -91v-150c0 -35 0 -37 3 -48c9 -36 46 -81 125 -86c10 -1 16 -1 16 -11z" />
    <glyph glyph-name="braceright" unicode="}" horiz-adv-x="500" 
d="M427 250c0 -10 -7 -11 -14 -11c-63 -4 -90 -31 -104 -45c-26 -28 -26 -44 -26 -138v-183c-2 -72 -91 -123 -191 -123c-10 0 -20 0 -20 11c0 6 4 10 9 11c70 4 93 28 111 46c24 25 24 47 24 119v180c0 28 0 99 118 133c-39 11 -103 37 -116 103c-2 10 -2 61 -2 91v150
c0 35 0 37 -3 48c-9 36 -46 81 -125 86c-10 1 -16 1 -16 11c0 11 10 11 20 11c32 0 96 -9 139 -38c52 -37 52 -71 52 -129v-198c0 -100 85 -121 128 -124c10 -1 16 -1 16 -11z" />
    <glyph glyph-name="bracketleft" unicode="[" horiz-adv-x="283" 
d="M261 -250h-162v1000h162v-60h-91v-880h91v-60z" />
    <glyph glyph-name="bracketright" unicode="]" horiz-adv-x="283" 
d="M183 -250h-162v60h91v880h-91v60h162v-1000z" />
    <glyph glyph-name="C" unicode="C" horiz-adv-x="626" 
d="M575 45c-29 -18 -59 -35 -93 -45c-33 -9 -68 -11 -102 -11c-86 0 -166 41 -222 105c-62 70 -92 161 -92 253c0 93 30 184 92 253c56 65 136 105 222 105c31 0 63 -2 94 -8s61 -15 91 -27l-15 -83c-25 18 -52 33 -81 43c-29 9 -59 12 -89 12c-64 0 -122 -35 -162 -86
c-46 -59 -67 -134 -67 -209s21 -149 67 -208c40 -51 98 -87 162 -87c34 0 68 2 100 12c33 11 62 31 89 51z" />
    <glyph glyph-name="c" unicode="c" horiz-adv-x="435" 
d="M407 42c-55 -40 -111 -52 -160 -52c-120 0 -212 105 -212 233c0 114 78 236 216 236c59 0 92 -8 150 -42l-12 -65c-43 29 -71 45 -138 45c-100 0 -140 -91 -140 -174c0 -97 54 -171 137 -171c56 0 107 19 153 56l2 -28c1 -4 4 -35 4 -38z" />
    <glyph glyph-name="colon" unicode=":" horiz-adv-x="272" 
d="M176 363h-81v81h81v-81zM176 0h-81v81h81v-81z" />
    <glyph glyph-name="comma" unicode="," horiz-adv-x="272" 
d="M176 1l-41 -126h-40l25 125h-25v81h81v-80z" />
    <glyph glyph-name="D" unicode="D" horiz-adv-x="704" 
d="M649 341c0 -190 -134 -341 -301 -341h-257v694h257c168 0 301 -158 301 -353zM565 342c0 181 -106 296 -240 296h-150v-582h150c129 0 240 103 240 286z" />
    <glyph glyph-name="d" unicode="d" horiz-adv-x="502" 
d="M423 0h-76v51c-50 -49 -106 -61 -143 -61c-95 0 -169 103 -169 232c0 130 78 232 173 232c43 0 95 -14 141 -52v292h74v-694zM347 118v223c-22 33 -54 53 -93 53c-58 0 -143 -40 -143 -173c0 -124 72 -171 133 -171c44 0 79 25 103 68z" />
    <glyph glyph-name="dollar" unicode="$" 
d="M435 195c0 -103 -70 -187 -161 -202v-49h-58v47c-74 7 -129 36 -172 68l12 68c25 -23 79 -66 160 -73v270c-143 32 -162 147 -162 189c0 91 65 173 162 189v48h58v-47c88 -7 143 -54 143 -58l-11 -62c-34 30 -79 54 -132 58v-243c125 -29 161 -135 161 -203zM216 413v226
c-62 -16 -92 -67 -92 -113c0 -43 26 -97 92 -113zM365 183c0 52 -30 109 -91 126v-253c54 15 91 66 91 127z" />
    <glyph glyph-name="E" unicode="E" horiz-adv-x="583" 
d="M541 0h-451v692h438v-63h-180c-12 0 -24 1 -36 1h-136v-240h324v-60h-324v-263h198c12 0 24 1 36 1h131v-68z" />
    <glyph glyph-name="e" unicode="e" horiz-adv-x="435" 
d="M407 225h-305c2 -106 68 -175 145 -175c30 0 89 7 148 57c0 -4 3 -27 3 -27s3 -33 3 -37c-55 -40 -110 -53 -156 -53c-116 0 -212 103 -212 235c0 130 90 234 198 234c29 0 99 -8 140 -77c32 -53 36 -114 36 -157zM348 279c-17 106 -86 120 -117 120
c-59 0 -106 -53 -123 -120h240z" />
    <glyph glyph-name="eight" unicode="8" 
d="M448 180c0 -105 -86 -201 -204 -201c-114 0 -203 94 -203 201c0 80 55 147 136 174c-62 18 -123 73 -123 148c0 91 81 174 191 174c106 0 190 -80 190 -174c0 -74 -60 -129 -123 -148c81 -27 136 -94 136 -174zM366 501c0 73 -50 118 -122 118c-67 0 -121 -42 -121 -118
c0 -64 43 -117 122 -117c75 0 121 50 121 117zM369 181c0 104 -69 143 -125 143c-52 0 -124 -36 -124 -143c0 -94 58 -142 125 -142c63 0 124 45 124 142z" />
    <glyph glyph-name="equal" unicode="=" horiz-adv-x="762" 
d="M707 345c0 -18 -18 -18 -32 -18h-589c-15 0 -32 0 -32 19c0 18 18 18 32 18h589c15 0 32 0 32 -19zM707 153c0 -18 -18 -18 -32 -18h-589c-15 0 -32 0 -32 19c0 18 18 18 32 18h589c15 0 32 0 32 -19z" />
    <glyph glyph-name="exclam" unicode="!" horiz-adv-x="311" 
d="M196 694l-8 -521h-65l-8 521h81zM196 0h-81v81h81v-81z" />
    <glyph glyph-name="F" unicode="F" horiz-adv-x="556" 
d="M514 629h-173c-12 0 -24 1 -36 1h-129v-254h297v-60h-297v-316h-86v692h424v-63z" />
    <glyph glyph-name="f" unicode="f" horiz-adv-x="299" 
d="M339 628c-12 5 -43 16 -78 16c-33 0 -90 -12 -90 -80v-120h109v-58h-107v-386h-74v386h-73v58h73v90c0 97 68 170 163 170c37 0 70 -8 77 -10v-66z" />
    <glyph glyph-name="five" unicode="5" 
d="M440 203c0 -125 -97 -224 -215 -224c-27 0 -121 5 -187 99l33 54c32 -63 98 -93 153 -93c58 0 130 40 130 166c0 119 -53 161 -100 161c-41 0 -85 -22 -110 -79h-65v368h328v-62h-257v-207c28 25 65 40 105 40c101 0 185 -98 185 -223z" />
    <glyph glyph-name="four" unicode="4" 
d="M462 172h-97v-172h-79v172h-259v60l248 423h90v-423h97v-60zM291 232v378c-1 -37 -65 -160 -77 -183c-42 -80 -81 -144 -110 -195h187z" />
    <glyph glyph-name="G" unicode="G" horiz-adv-x="653" 
d="M586 38c-64 -32 -135 -49 -206 -49c-86 0 -166 41 -222 105c-62 70 -92 161 -92 253c0 93 30 184 92 253c56 65 136 105 222 105c34 0 69 -3 102 -11c34 -8 66 -22 96 -38l-14 -83c-26 22 -54 42 -86 53c-31 12 -65 16 -98 16c-64 0 -122 -35 -162 -86
c-46 -59 -67 -134 -67 -209s21 -149 67 -208c40 -51 98 -87 162 -87c44 0 88 7 129 21v170h-129v60h206v-265z" />
    <glyph glyph-name="g" unicode="g" 
d="M475 393c-25 2 -48 2 -51 2c-37 0 -59 -3 -80 -5c-1 2 -3 4 -3 4c20 -28 33 -65 33 -101c0 -91 -71 -162 -157 -162c-40 0 -73 17 -90 29c-6 -9 -10 -15 -10 -37c0 -53 43 -53 57 -53h85c41 0 203 0 203 -140c0 -76 -96 -135 -218 -135s-217 61 -217 134
c0 28 12 71 63 104c-11 13 -25 38 -25 75c0 24 6 54 29 86c-22 30 -33 63 -33 99c0 88 70 161 157 161c20 0 60 -5 93 -33c66 32 134 33 153 33zM305 293c0 76 -44 106 -88 106c-31 0 -87 -18 -87 -107c0 -76 44 -106 88 -106c31 0 87 18 87 107zM392 -71
c0 69 -110 69 -132 69h-87c-76 0 -76 -65 -76 -68c0 -49 70 -80 148 -80s147 33 147 79z" />
    <glyph glyph-name="grave" unicode="`" 
d="M314 527h-60l-146 167h76z" />
    <glyph glyph-name="greater" unicode="&#x3e;" horiz-adv-x="762" 
d="M679 250c0 -7 -1 -13 -20 -22l-541 -249c-14 -6 -17 -7 -17 -7c-12 0 -19 10 -19 18c0 6 0 13 20 22l515 238l-514 237c-13 6 -21 10 -21 22c0 8 7 18 19 18c0 0 4 -1 17 -7l541 -249c18 -8 20 -15 20 -21z" />
    <glyph glyph-name="H" unicode="H" horiz-adv-x="686" 
d="M595 0h-86v331h-333v-331h-86v694h86v-303h333v303h86v-694z" />
    <glyph glyph-name="h" unicode="h" horiz-adv-x="502" 
d="M424 0h-76v294c0 35 -3 100 -96 100c-76 0 -99 -83 -99 -145v-249h-76v694h74v-309c24 30 70 69 139 69c121 0 134 -92 134 -153v-301z" />
    <glyph glyph-name="hyphen" unicode="-" horiz-adv-x="326" 
d="M271 193h-260v58h260v-58z" />
    <glyph glyph-name="I" unicode="I" horiz-adv-x="266" 
d="M176 0h-86v694h86v-694z" />
    <glyph glyph-name="i" unicode="i" horiz-adv-x="230" 
d="M152 0h-74v444h74v-444zM158 568h-86v86h86v-86z" />
    <glyph glyph-name="J" unicode="J" horiz-adv-x="459" 
d="M379 148c0 -107 -66 -169 -171 -169c-53 0 -109 12 -167 42l14 75c25 -29 68 -55 124 -55c88 0 116 53 116 111v542h84v-546z" />
    <glyph glyph-name="j" unicode="j" horiz-adv-x="258" 
d="M179 -59c0 -93 -60 -145 -123 -145c-46 0 -86 15 -118 34l20 60c2 -3 29 -31 73 -31c21 0 74 6 74 72v513h74v-503zM179 568h-86v86h86v-86z" />
    <glyph glyph-name="K" unicode="K" horiz-adv-x="674" 
d="M632 0h-92l-236 362l-129 -136v-226h-84v694h84v-369l350 369h94l-261 -275z" />
    <glyph glyph-name="k" unicode="k" horiz-adv-x="475" 
d="M458 0h-82l-152 223l-76 -79v-144h-70v694h73v-451l193 201h92l-164 -171z" />
    <glyph glyph-name="L" unicode="L" horiz-adv-x="529" 
d="M487 0h-397v694h86v-632h48l263 2v-64z" />
    <glyph glyph-name="l" unicode="l" horiz-adv-x="230" 
d="M152 0h-74v694h74v-694z" />
    <glyph glyph-name="less" unicode="&#x3c;" horiz-adv-x="762" 
d="M679 -9c0 -11 -8 -19 -19 -19c0 0 -4 1 -17 7l-541 249c-19 9 -20 15 -20 22c0 6 2 13 20 21l541 249c14 6 17 7 17 7c11 0 19 -8 19 -19c0 -6 -2 -13 -20 -21l-515 -238l515 -237c18 -8 20 -15 20 -21z" />
    <glyph glyph-name="M" unicode="M" horiz-adv-x="850" 
d="M754 0h-77v618h-1c-18 -75 -183 -511 -216 -597h-73c-38 100 -200 528 -214 596h-1v-617h-77v694h114l152 -409c16 -41 16 -43 34 -97c13 -39 26 -76 29 -93h1c10 46 49 151 101 291l114 308h114v-694z" />
    <glyph glyph-name="m" unicode="m" horiz-adv-x="774" 
d="M697 0h-76v294c0 37 -5 100 -97 100c-73 0 -99 -79 -99 -145v-249h-76v294c0 37 -5 100 -97 100c-73 0 -99 -79 -99 -145v-249h-76v449h71v-69c17 21 60 74 142 74c52 0 107 -18 125 -81c15 22 62 81 147 81c117 0 135 -84 135 -153v-301z" />
    <glyph glyph-name="N" unicode="N" horiz-adv-x="686" 
d="M594 0h-123l-221 452l-81 168h-1v-620h-77v694h123l221 -452l81 -168h1v620h77v-694z" />
    <glyph glyph-name="n" unicode="n" horiz-adv-x="502" 
d="M424 0h-76v294c0 35 -3 100 -96 100c-76 0 -99 -83 -99 -145v-249h-76v449h71v-68c38 48 86 73 142 73c121 0 134 -92 134 -153v-301z" />
    <glyph glyph-name="nine" unicode="9" 
d="M447 335c0 -219 -119 -356 -246 -356c-44 0 -85 11 -130 46l31 53c27 -26 58 -39 99 -39c92 0 157 99 165 239c-38 -47 -94 -82 -167 -82c-91 0 -157 109 -157 238c0 57 9 110 57 167c35 42 77 75 149 75c88 0 199 -69 199 -341zM364 411c0 7 0 17 -1 24
c-2 49 -19 184 -115 184c-54 0 -81 -32 -96 -54c-30 -45 -31 -87 -31 -131c0 -54 4 -83 23 -119c33 -59 77 -59 94 -59c83 0 126 79 126 155z" />
    <glyph glyph-name="numbersign" unicode="#" horiz-adv-x="816" 
d="M761 153c0 -18 -18 -18 -32 -18h-220l-81 -306c-3 -10 -6 -23 -20 -23c-11 0 -19 8 -19 19c0 0 0 4 4 18l77 292h-187l-81 -306c-3 -10 -6 -23 -20 -23c-11 0 -19 8 -19 19c0 0 0 4 4 18l77 292h-158c-15 0 -32 0 -32 19c0 18 18 18 32 18h169l41 155h-210
c-15 0 -32 0 -32 19c0 18 18 18 32 18h220l81 307c3 10 6 23 20 23c11 0 19 -8 19 -19c0 0 0 -4 -4 -18l-77 -293h187l81 307c3 10 6 23 20 23c11 0 19 -8 19 -19c0 0 0 -4 -4 -18l-77 -293h158c15 0 32 0 32 -19c0 -18 -18 -18 -32 -18h-169l-41 -155h210c15 0 32 0 32 -19
zM522 327h-188l-41 -155h188z" />
    <glyph glyph-name="O" unicode="O" horiz-adv-x="722" 
d="M667 345c0 -209 -142 -366 -307 -366c-161 0 -306 155 -306 366c0 209 141 370 307 370c162 0 306 -158 306 -370zM581 360c0 181 -107 293 -221 293c-111 0 -220 -109 -220 -293c0 -193 105 -318 221 -318c112 0 220 122 220 318z" />
    <glyph glyph-name="o" unicode="o" 
d="M459 220c0 -129 -97 -230 -215 -230c-114 0 -214 99 -214 230c0 133 97 239 215 239c115 0 214 -104 214 -239zM383 230c0 117 -70 169 -139 169c-63 0 -138 -48 -138 -169c0 -118 67 -178 139 -178c67 0 138 55 138 178z" />
    <glyph glyph-name="one" unicode="1" 
d="M416 0h-322v58h122v518c-21 -9 -67 -24 -128 -24v40c0 18 1 19 15 19c108 2 156 49 172 65h19v-618h122v-58z" />
    <glyph glyph-name="P" unicode="P" horiz-adv-x="623" 
d="M568 492c0 -104 -95 -203 -233 -203h-158v-289h-86v694h244c136 0 233 -96 233 -202zM489 493c0 75 -58 145 -175 145h-139v-291h139c114 0 175 67 175 146z" />
    <glyph glyph-name="p" unicode="p" horiz-adv-x="502" 
d="M466 223c0 -136 -86 -233 -182 -233c-54 0 -96 24 -130 55v-239h-76v638h74v-47c52 44 116 57 157 57c93 0 157 -110 157 -231zM390 222c0 95 -60 170 -134 170c-41 0 -79 -22 -102 -56v-206c0 -16 3 -34 28 -56c18 -14 37 -24 65 -24c74 0 143 72 143 172z" />
    <glyph glyph-name="parenleft" unicode="(" horiz-adv-x="381" 
d="M326 -251h-60c-145 129 -188 325 -188 501c0 163 38 366 188 500h60c-67 -62 -172 -206 -172 -501c0 -91 10 -184 37 -273c35 -113 96 -191 135 -227z" />
    <glyph glyph-name="parenright" unicode=")" horiz-adv-x="381" 
d="M302 249c0 -163 -38 -366 -188 -500h-60c67 62 172 206 172 501c0 91 -10 184 -37 273c-35 113 -96 191 -135 227h60c145 -129 188 -325 188 -501z" />
    <glyph glyph-name="percent" unicode="%" horiz-adv-x="816" 
d="M326 548c0 -115 -63 -201 -135 -201c-69 0 -137 81 -137 202c0 118 67 201 137 201s135 -83 135 -202zM645 731c0 0 0 -6 -7 -18l-426 -752c-5 -9 -9 -17 -20 -17s-19 9 -19 19c0 0 0 6 7 18l425 751c10 18 17 18 22 18c8 0 18 -6 18 -19zM761 145
c0 -115 -63 -201 -135 -201c-69 0 -137 81 -137 202c0 118 67 201 137 201s135 -83 135 -202zM256 549c0 72 -26 141 -65 141c-18 0 -62 -13 -62 -142c0 -124 42 -141 62 -141c38 0 65 67 65 142zM691 146c0 72 -26 141 -65 141c-18 0 -62 -13 -62 -142
c0 -124 42 -141 62 -141c38 0 65 67 65 142z" />
    <glyph glyph-name="period" unicode="." horiz-adv-x="272" 
d="M176 0h-81v81h81v-81z" />
    <glyph glyph-name="plus" unicode="+" horiz-adv-x="762" 
d="M707 249c0 -18 -18 -18 -32 -18h-276v-276c0 -15 0 -32 -19 -32c-18 0 -18 18 -18 32v276h-276c-15 0 -32 0 -32 19c0 18 18 18 32 18h276v276c0 15 0 32 19 32c18 0 18 -18 18 -32v-276h276c15 0 32 0 32 -19z" />
    <glyph glyph-name="Q" unicode="Q" horiz-adv-x="722" 
d="M667 345c0 -123 -46 -232 -145 -312l117 -158h-101l-84 121c-13 -5 -51 -17 -93 -17c-165 0 -307 157 -307 366s141 370 307 370c162 0 306 -158 306 -370zM583 345c0 187 -106 308 -223 308c-113 0 -222 -118 -222 -308c0 -186 107 -304 223 -304c28 0 36 2 56 9
l-100 144h87l78 -105c51 42 101 128 101 256z" />
    <glyph glyph-name="q" unicode="q" horiz-adv-x="502" 
d="M423 -194h-76v245c-14 -15 -67 -61 -144 -61c-94 0 -168 104 -168 231c0 134 85 233 183 233c61 0 104 -33 131 -64v64h74v-648zM349 139v148c0 40 -31 105 -95 105c-71 0 -143 -68 -143 -171c0 -93 59 -171 134 -171c29 0 66 13 93 54c11 15 11 16 11 35z" />
    <glyph glyph-name="question" unicode="?" horiz-adv-x="462" 
d="M407 549c0 -69 -35 -102 -55 -119c-38 -31 -103 -102 -103 -209v-48h-65v51c0 111 53 199 109 248c17 14 38 33 38 78c0 81 -58 94 -112 94c-31 0 -87 -5 -143 -55l-22 62c30 22 86 53 164 53c142 0 189 -78 189 -155zM257 0h-81v81h81v-81z" />
    <glyph glyph-name="quotedbl" unicode="&#x22;" horiz-adv-x="424" 
d="M174 429h-76v286h76v-286zM326 429h-76v286h76v-286z" />
    <glyph glyph-name="quotesingle" unicode="'" horiz-adv-x="272" 
d="M174 429h-76v286h76v-286z" />
    <glyph glyph-name="R" unicode="R" horiz-adv-x="630" 
d="M602 0h-86l-185 317h-156v-317h-84v694h236c141 0 248 -87 248 -187c0 -74 -59 -150 -168 -181zM496 507c0 67 -59 131 -180 131h-141v-261h141c126 0 180 68 180 130z" />
    <glyph glyph-name="r" unicode="r" horiz-adv-x="333" 
d="M318 387c-90 -1 -166 -67 -166 -168v-219h-74v449h69v-88c27 39 80 92 171 93v-67z" />
    <glyph glyph-name="S" unicode="S" horiz-adv-x="544" 
d="M489 189c0 -111 -91 -210 -220 -210c-46 0 -134 9 -225 69l15 81c59 -54 137 -83 210 -83c86 0 143 64 143 133c0 35 -15 67 -32 85c-32 33 -46 37 -131 58c-64 16 -98 25 -147 75c-5 5 -48 51 -48 122c0 100 87 196 221 196c89 0 139 -27 180 -49l-15 -81
c-36 32 -81 65 -166 65c-88 0 -143 -59 -143 -120c0 -45 27 -70 40 -84c22 -21 47 -27 115 -44c67 -17 104 -27 150 -76c22 -25 53 -73 53 -137z" />
    <glyph glyph-name="s" unicode="s" horiz-adv-x="375" 
d="M352 127c0 -59 -31 -137 -160 -137c-92 0 -160 41 -165 44l12 68c54 -39 112 -50 152 -50c14 0 92 0 92 69c0 53 -58 65 -91 72c-59 12 -84 17 -120 48c-15 14 -39 44 -39 88c0 130 139 130 162 130s77 -1 141 -31l-12 -65c-44 25 -86 37 -139 37c-13 0 -83 0 -83 -62
c0 -50 51 -60 87 -67c61 -12 91 -18 128 -56c4 -5 35 -37 35 -88z" />
    <glyph glyph-name="semicolon" unicode=";" horiz-adv-x="272" 
d="M176 363h-81v81h81v-81zM176 1l-41 -126h-40l25 125h-25v81h81v-80z" />
    <glyph glyph-name="seven" unicode="7" 
d="M448 592c-110 -129 -217 -342 -217 -602h-81c0 328 173 528 233 598h-120c-12 0 -24 -1 -36 -1h-186v68h407v-63z" />
    <glyph glyph-name="six" unicode="6" 
d="M447 222c0 -72 -14 -119 -59 -173c-39 -46 -82 -70 -142 -70c-79 0 -204 56 -204 343c0 215 125 354 260 354c35 0 64 -5 105 -20v-58c-29 11 -60 21 -103 21c-99 0 -170 -93 -181 -241c37 45 93 81 167 81c91 0 157 -109 157 -237zM368 221c0 39 -1 79 -23 119
c-29 50 -61 59 -94 59c-86 0 -126 -83 -126 -153c-1 -7 -1 -20 -1 -28c3 -32 18 -179 122 -179c49 0 74 26 92 53c30 45 30 88 30 129z" />
    <glyph glyph-name="slash" unicode="/" 
d="M435 731c0 0 0 -4 -5 -17l-337 -943c-4 -11 -7 -21 -20 -21c-11 0 -19 8 -19 19c0 0 0 4 5 17l337 942c5 13 8 22 21 22c8 0 18 -6 18 -19z" />
    <glyph glyph-name="space" unicode=" " horiz-adv-x="326" 
 />
    <glyph glyph-name="T" unicode="T" horiz-adv-x="668" 
d="M632 626h-131c-12 0 -24 1 -36 1h-88v-627h-86v627h-88c-12 0 -24 -1 -36 -1h-132v63h597v-63z" />
    <glyph glyph-name="t" unicode="t" horiz-adv-x="354" 
d="M326 29c-31 -16 -77 -39 -144 -39c-69 0 -82 69 -82 127v269h-82v58h84v127h69v-127h138v-58h-138v-252c0 -35 6 -82 50 -82c18 0 55 4 90 35z" />
    <glyph glyph-name="three" unicode="3" 
d="M448 180c0 -106 -88 -201 -205 -201c-49 0 -137 16 -202 105l11 59c46 -72 125 -104 189 -104c72 0 121 61 121 142c0 55 -25 143 -128 143h-71v60c10 1 73 6 78 7c54 12 100 67 100 134c0 65 -48 94 -99 94c-67 0 -128 -43 -153 -107l-35 54c38 66 109 110 189 110
c97 0 178 -65 178 -151c0 -66 -39 -133 -109 -171c85 -29 136 -97 136 -174z" />
    <glyph glyph-name="two" unicode="2" 
d="M440 0h-391v63l223 222c67 66 88 124 88 176c0 86 -56 153 -142 153c-74 0 -111 -49 -136 -156c-9 12 -9 14 -41 54c27 93 82 164 190 164c132 0 209 -102 209 -213c0 -92 -63 -154 -137 -219c-65 -58 -158 -150 -184 -177h107c12 0 24 1 36 1h178v-68z" />
    <glyph glyph-name="U" unicode="U" horiz-adv-x="667" 
d="M576 233c0 -145 -111 -254 -241 -254s-245 107 -245 254v461h86v-462c0 -135 81 -197 160 -197c80 0 164 63 164 197v462h76v-461z" />
    <glyph glyph-name="u" unicode="u" horiz-adv-x="502" 
d="M424 0h-74v50c-61 -55 -140 -60 -168 -60c-82 0 -105 49 -105 121v333h76v-329c0 -44 7 -70 77 -70c65 0 118 37 118 113v286h76v-444z" />
    <glyph glyph-name="underscore" unicode="_" horiz-adv-x="647" 
d="M647 -163h-647v76h647v-76z" />
    <glyph glyph-name="V" unicode="V" horiz-adv-x="647" 
d="M632 694l-264 -694h-90l-264 694h90l160 -429c24 -64 56 -148 65 -191h1c11 49 61 181 101 288l125 332h76z" />
    <glyph glyph-name="v" unicode="v" horiz-adv-x="448" 
d="M433 444l-165 -444h-89l-165 444h78l92 -257c15 -43 35 -98 40 -133h1c6 37 43 143 60 191c50 137 19 51 73 199h75z" />
    <glyph glyph-name="W" unicode="W" horiz-adv-x="919" 
d="M904 694l-196 -694h-88l-109 396c-47 171 -54 223 -54 223h-1c-6 -53 -44 -190 -69 -279l-94 -340h-83l-196 694h85l84 -304l43 -160c4 -17 29 -114 33 -153h1c7 65 67 283 74 307l86 310h85l118 -430c17 -60 39 -146 44 -188h1c4 36 19 94 32 142c18 67 18 69 40 148
l91 328h73z" />
    <glyph glyph-name="w" unicode="w" horiz-adv-x="666" 
d="M650 444l-134 -444h-88l-71 250c-7 23 -27 95 -29 136h-1c-6 -70 -64 -260 -102 -386h-77l-134 444h76l71 -247c19 -67 30 -120 31 -139h1c3 42 27 128 45 190l57 196h69l66 -226c21 -71 37 -138 40 -162h1c4 43 32 137 46 185l60 203h73z" />
    <glyph glyph-name="X" unicode="X" horiz-adv-x="647" 
d="M632 0h-100l-216 306l-210 -306h-92l260 366l-247 328h101l188 -262l183 262h93l-234 -328z" />
    <glyph glyph-name="x" unicode="x" horiz-adv-x="448" 
d="M447 0h-84l-142 186l-138 -186h-83l187 229l-182 215h85l131 -162l126 162h84l-177 -215z" />
    <glyph glyph-name="Y" unicode="Y" horiz-adv-x="647" 
d="M643 694l-278 -416v-278h-84v278l-278 416h100l170 -255c43 -65 54 -85 57 -90c16 27 36 58 55 86l172 259h86z" />
    <glyph glyph-name="y" unicode="y" horiz-adv-x="448" 
d="M433 444l-209 -538c-43 -110 -90 -110 -114 -110c-32 0 -65 7 -71 8l-6 65c31 -12 63 -15 77 -15c18 0 33 5 55 55l35 91l-186 444h79l71 -175c8 -20 61 -152 66 -211h1c4 72 81 268 127 386h75z" />
    <glyph glyph-name="Z" unicode="Z" horiz-adv-x="598" 
d="M548 0h-494v41l380 593h-134c-12 0 -24 -1 -36 -1h-196v61h475v-40l-380 -592h32l259 2h94v-64z" />
    <glyph glyph-name="z" unicode="z" horiz-adv-x="425" 
d="M393 0h-366v40l261 346h-76c-12 0 -24 -1 -36 -1h-135v59h349v-39l-261 -345h85c12 0 24 1 36 1h143v-61z" />
    <glyph glyph-name="zero" unicode="0" 
d="M448 326c0 -98 -7 -171 -41 -242c-34 -69 -97 -105 -163 -105c-68 0 -132 40 -162 106c-32 70 -41 132 -41 241c0 86 6 167 39 238c37 79 100 112 165 112c53 0 131 -23 174 -135c26 -71 29 -148 29 -215zM372 338c0 92 0 278 -128 278c-41 0 -85 -24 -109 -95
c-18 -57 -18 -118 -18 -183c0 -94 0 -299 128 -299c26 0 82 11 109 107c18 62 18 128 18 192z" />
    <glyph glyph-name="Aacute" unicode="&#xc1;" horiz-adv-x="647" 
d="M619 0h-89l-74 203h-282l-73 -203h-74l252 694h88zM435 259l-120 363l-119 -363h239zM514 867l-197 -122h-89l175 122h111z" />
    <glyph glyph-name="aacute" unicode="&#xe1;" horiz-adv-x="469" 
d="M401 0h-74v37c-37 -31 -107 -47 -162 -47c-85 0 -111 81 -111 125c0 50 39 87 106 110c60 20 120 23 165 25v41c0 73 -40 110 -86 110c-58 0 -104 -18 -148 -50l-6 66c49 28 94 42 154 42c93 0 162 -70 162 -166v-293zM325 134v65c-61 0 -200 -15 -200 -83
c0 -37 37 -66 91 -66c15 0 49 3 76 20c33 20 33 44 33 64zM372 694l-146 -167h-60l130 167h76z" />
    <glyph glyph-name="Abreve" unicode="&#x102;" horiz-adv-x="647" 
d="M619 0h-89l-74 203h-282l-73 -203h-74l252 694h88zM435 259l-120 363l-119 -363h239zM489 923c-2 -105 -78 -178 -166 -178c-85 0 -163 71 -165 178h60c2 -72 54 -113 106 -113c48 0 103 38 105 113h60z" />
    <glyph glyph-name="abreve" unicode="&#x103;" horiz-adv-x="469" 
d="M401 0h-74v37c-37 -31 -107 -47 -162 -47c-85 0 -111 81 -111 125c0 50 39 87 106 110c60 20 120 23 165 25v41c0 73 -40 110 -86 110c-58 0 -104 -18 -148 -50l-6 66c49 28 94 42 154 42c93 0 162 -70 162 -166v-293zM325 134v65c-61 0 -200 -15 -200 -83
c0 -37 37 -66 91 -66c15 0 49 3 76 20c33 20 33 44 33 64zM400 700c-2 -105 -78 -178 -166 -178c-85 0 -163 71 -165 178h60c2 -72 54 -113 106 -113c48 0 103 38 105 113h60z" />
    <glyph glyph-name="Abreveacute" unicode="&#x1eae;" horiz-adv-x="647" 
d="M619 0h-89l-74 203h-282l-73 -203h-74l252 694h88zM435 259l-120 363l-119 -363h239zM489 923c-2 -105 -78 -178 -166 -178c-85 0 -163 71 -165 178h60c2 -72 54 -113 106 -113c48 0 103 38 105 113h60zM467 1080l-197 -122h-89l175 122h111z" />
    <glyph glyph-name="abreveacute" unicode="&#x1eaf;" horiz-adv-x="469" 
d="M401 0h-74v37c-37 -31 -107 -47 -162 -47c-85 0 -111 81 -111 125c0 50 39 87 106 110c60 20 120 23 165 25v41c0 73 -40 110 -86 110c-58 0 -104 -18 -148 -50l-6 66c49 28 94 42 154 42c93 0 162 -70 162 -166v-293zM325 134v65c-61 0 -200 -15 -200 -83
c0 -37 37 -66 91 -66c15 0 49 3 76 20c33 20 33 44 33 64zM400 700c-2 -105 -78 -178 -166 -178c-85 0 -163 71 -165 178h60c2 -72 54 -113 106 -113c48 0 103 38 105 113h60zM378 857l-197 -122h-89l175 122h111z" />
    <glyph glyph-name="Abrevedotbelow" unicode="&#x1eb6;" horiz-adv-x="647" 
d="M619 0h-89l-74 203h-282l-73 -203h-74l252 694h88zM435 259l-120 363l-119 -363h239zM489 923c-2 -105 -78 -178 -166 -178c-85 0 -163 71 -165 178h60c2 -72 54 -113 106 -113c48 0 103 38 105 113h60zM367 -200h-86v86h86v-86z" />
    <glyph glyph-name="abrevedotbelow" unicode="&#x1eb7;" horiz-adv-x="469" 
d="M401 0h-74v37c-37 -31 -107 -47 -162 -47c-85 0 -111 81 -111 125c0 50 39 87 106 110c60 20 120 23 165 25v41c0 73 -40 110 -86 110c-58 0 -104 -18 -148 -50l-6 66c49 28 94 42 154 42c93 0 162 -70 162 -166v-293zM325 134v65c-61 0 -200 -15 -200 -83
c0 -37 37 -66 91 -66c15 0 49 3 76 20c33 20 33 44 33 64zM400 700c-2 -105 -78 -178 -166 -178c-85 0 -163 71 -165 178h60c2 -72 54 -113 106 -113c48 0 103 38 105 113h60zM277 -200h-86v86h86v-86z" />
    <glyph glyph-name="Abrevegrave" unicode="&#x1eb0;" horiz-adv-x="647" 
d="M619 0h-89l-74 203h-282l-73 -203h-74l252 694h88zM435 259l-120 363l-119 -363h239zM489 923c-2 -105 -78 -178 -166 -178c-85 0 -163 71 -165 178h60c2 -72 54 -113 106 -113c48 0 103 38 105 113h60zM467 958l-175 122h-111l197 -122h89z" />
    <glyph glyph-name="abrevegrave" unicode="&#x1eb1;" horiz-adv-x="469" 
d="M401 0h-74v37c-37 -31 -107 -47 -162 -47c-85 0 -111 81 -111 125c0 50 39 87 106 110c60 20 120 23 165 25v41c0 73 -40 110 -86 110c-58 0 -104 -18 -148 -50l-6 66c49 28 94 42 154 42c93 0 162 -70 162 -166v-293zM325 134v65c-61 0 -200 -15 -200 -83
c0 -37 37 -66 91 -66c15 0 49 3 76 20c33 20 33 44 33 64zM400 700c-2 -105 -78 -178 -166 -178c-85 0 -163 71 -165 178h60c2 -72 54 -113 106 -113c48 0 103 38 105 113h60zM378 735l-175 122h-111l197 -122h89z" />
    <glyph glyph-name="Abrevehookabove" unicode="&#x1eb2;" horiz-adv-x="647" 
d="M619 0h-89l-74 203h-282l-73 -203h-74l252 694h88zM435 259l-120 363l-119 -363h239zM489 923c-2 -105 -78 -178 -166 -178c-85 0 -163 71 -165 178h60c2 -72 54 -113 106 -113c48 0 103 38 105 113h60zM419 1075c0 -20 -10 -39 -27 -50c-3 -3 -6 -5 -12 -8
c-33 -21 -49 -35 -49 -59v-20h-1h-26v20c0 40 21 78 55 96c9 4 15 12 15 21c0 13 -4 24 -13 31c-11 7 -24 8 -44 8c-30 0 -58 -17 -72 -44h-1h-1l-14 40c21 28 54 44 88 44c30 0 56 -6 75 -21c18 -13 27 -35 27 -58z" />
    <glyph glyph-name="abrevehookabove" unicode="&#x1eb3;" horiz-adv-x="469" 
d="M401 0h-74v37c-37 -31 -107 -47 -162 -47c-85 0 -111 81 -111 125c0 50 39 87 106 110c60 20 120 23 165 25v41c0 73 -40 110 -86 110c-58 0 -104 -18 -148 -50l-6 66c49 28 94 42 154 42c93 0 162 -70 162 -166v-293zM325 134v65c-61 0 -200 -15 -200 -83
c0 -37 37 -66 91 -66c15 0 49 3 76 20c33 20 33 44 33 64zM400 700c-2 -105 -78 -178 -166 -178c-85 0 -163 71 -165 178h60c2 -72 54 -113 106 -113c48 0 103 38 105 113h60zM330 852c0 -20 -10 -39 -27 -50c-3 -3 -6 -5 -12 -8c-33 -21 -49 -35 -49 -59v-20h-1h-26v20
c0 40 21 78 55 96c9 4 15 12 15 21c0 13 -4 24 -13 31c-11 7 -24 8 -44 8c-30 0 -58 -17 -72 -44h-1h-1l-14 40c21 28 54 44 88 44c30 0 56 -6 75 -21c18 -13 27 -35 27 -58z" />
    <glyph glyph-name="Abrevetilde" unicode="&#x1eb4;" horiz-adv-x="647" 
d="M619 0h-89l-74 203h-282l-73 -203h-74l252 694h88zM435 259l-120 363l-119 -363h239zM489 923c-2 -105 -78 -178 -166 -178c-85 0 -163 71 -165 178h60c2 -72 54 -113 106 -113c48 0 103 38 105 113h60zM486 1096c-2 -79 -52 -118 -95 -118c-25 0 -45 12 -74 33
c-10 7 -35 25 -58 25c-29 0 -38 -32 -38 -58h-60c2 79 52 118 95 118c25 0 45 -12 74 -33c10 -7 35 -25 58 -25c29 0 38 32 38 58h60z" />
    <glyph glyph-name="abrevetilde" unicode="&#x1eb5;" horiz-adv-x="469" 
d="M401 0h-74v37c-37 -31 -107 -47 -162 -47c-85 0 -111 81 -111 125c0 50 39 87 106 110c60 20 120 23 165 25v41c0 73 -40 110 -86 110c-58 0 -104 -18 -148 -50l-6 66c49 28 94 42 154 42c93 0 162 -70 162 -166v-293zM325 134v65c-61 0 -200 -15 -200 -83
c0 -37 37 -66 91 -66c15 0 49 3 76 20c33 20 33 44 33 64zM400 700c-2 -105 -78 -178 -166 -178c-85 0 -163 71 -165 178h60c2 -72 54 -113 106 -113c48 0 103 38 105 113h60zM397 873c-2 -79 -52 -118 -95 -118c-25 0 -45 12 -74 33c-10 7 -35 25 -58 25
c-29 0 -38 -32 -38 -58h-60c2 79 52 118 95 118c25 0 45 -12 74 -33c10 -7 35 -25 58 -25c29 0 38 32 38 58h60z" />
    <glyph glyph-name="Acaron" unicode="&#x1cd;" horiz-adv-x="647" 
d="M619 0h-89l-74 203h-282l-73 -203h-74l252 694h88zM435 259l-120 363l-119 -363h239zM480 869l-126 -134h-60l-126 134h59l97 -97l97 97h59z" />
    <glyph glyph-name="acaron" unicode="&#x1ce;" horiz-adv-x="469" 
d="M401 0h-74v37c-37 -31 -107 -47 -162 -47c-85 0 -111 81 -111 125c0 50 39 87 106 110c60 20 120 23 165 25v41c0 73 -40 110 -86 110c-58 0 -104 -18 -148 -50l-6 66c49 28 94 42 154 42c93 0 162 -70 162 -166v-293zM325 134v65c-61 0 -200 -15 -200 -83
c0 -37 37 -66 91 -66c15 0 49 3 76 20c33 20 33 44 33 64zM390 697l-125 -172h-60l-125 172h59l96 -123l96 123h59z" />
    <glyph glyph-name="Acircumflex" unicode="&#xc2;" horiz-adv-x="647" 
d="M619 0h-89l-74 203h-282l-73 -203h-74l252 694h88zM435 259l-120 363l-119 -363h239zM480 735h-59l-97 97l-97 -97h-59l126 134h60z" />
    <glyph glyph-name="acircumflex" unicode="&#xe2;" horiz-adv-x="469" 
d="M401 0h-74v37c-37 -31 -107 -47 -162 -47c-85 0 -111 81 -111 125c0 50 39 87 106 110c60 20 120 23 165 25v41c0 73 -40 110 -86 110c-58 0 -104 -18 -148 -50l-6 66c49 28 94 42 154 42c93 0 162 -70 162 -166v-293zM325 134v65c-61 0 -200 -15 -200 -83
c0 -37 37 -66 91 -66c15 0 49 3 76 20c33 20 33 44 33 64zM390 525h-59l-96 123l-96 -123h-59l125 172h60z" />
    <glyph glyph-name="Acircumflexacute" unicode="&#x1ea4;" horiz-adv-x="647" 
d="M619 0h-89l-74 203h-282l-73 -203h-74l252 694h88zM435 259l-120 363l-119 -363h239zM480 735h-59l-97 97l-97 -97h-59l126 134h60zM467 1026l-197 -122h-89l175 122h111z" />
    <glyph glyph-name="acircumflexacute" unicode="&#x1ea5;" horiz-adv-x="469" 
d="M401 0h-74v37c-37 -31 -107 -47 -162 -47c-85 0 -111 81 -111 125c0 50 39 87 106 110c60 20 120 23 165 25v41c0 73 -40 110 -86 110c-58 0 -104 -18 -148 -50l-6 66c49 28 94 42 154 42c93 0 162 -70 162 -166v-293zM325 134v65c-61 0 -200 -15 -200 -83
c0 -37 37 -66 91 -66c15 0 49 3 76 20c33 20 33 44 33 64zM391 525h-59l-97 97l-97 -97h-59l126 134h60zM378 816l-197 -122h-89l175 122h111z" />
    <glyph glyph-name="Acircumflexdotbelow" unicode="&#x1eac;" horiz-adv-x="647" 
d="M619 0h-89l-74 203h-282l-73 -203h-74l252 694h88zM435 259l-120 363l-119 -363h239zM480 735h-59l-97 97l-97 -97h-59l126 134h60zM367 -200h-86v86h86v-86z" />
    <glyph glyph-name="acircumflexdotbelow" unicode="&#x1ead;" horiz-adv-x="469" 
d="M401 0h-74v37c-37 -31 -107 -47 -162 -47c-85 0 -111 81 -111 125c0 50 39 87 106 110c60 20 120 23 165 25v41c0 73 -40 110 -86 110c-58 0 -104 -18 -148 -50l-6 66c49 28 94 42 154 42c93 0 162 -70 162 -166v-293zM325 134v65c-61 0 -200 -15 -200 -83
c0 -37 37 -66 91 -66c15 0 49 3 76 20c33 20 33 44 33 64zM390 525h-59l-96 123l-96 -123h-59l125 172h60zM277 -200h-86v86h86v-86z" />
    <glyph glyph-name="Acircumflexgrave" unicode="&#x1ea6;" horiz-adv-x="647" 
d="M619 0h-89l-74 203h-282l-73 -203h-74l252 694h88zM435 259l-120 363l-119 -363h239zM480 735h-59l-97 97l-97 -97h-59l126 134h60zM467 904l-175 122h-111l197 -122h89z" />
    <glyph glyph-name="acircumflexgrave" unicode="&#x1ea7;" horiz-adv-x="469" 
d="M401 0h-74v37c-37 -31 -107 -47 -162 -47c-85 0 -111 81 -111 125c0 50 39 87 106 110c60 20 120 23 165 25v41c0 73 -40 110 -86 110c-58 0 -104 -18 -148 -50l-6 66c49 28 94 42 154 42c93 0 162 -70 162 -166v-293zM325 134v65c-61 0 -200 -15 -200 -83
c0 -37 37 -66 91 -66c15 0 49 3 76 20c33 20 33 44 33 64zM391 525h-59l-97 97l-97 -97h-59l126 134h60zM378 694l-175 122h-111l197 -122h89z" />
    <glyph glyph-name="Acircumflexhookabove" unicode="&#x1ea8;" horiz-adv-x="647" 
d="M619 0h-89l-74 203h-282l-73 -203h-74l252 694h88zM435 259l-120 363l-119 -363h239zM480 735h-59l-97 97l-97 -97h-59l126 134h60zM514 1021c0 -20 -10 -39 -27 -50c-3 -3 -6 -5 -12 -8c-33 -21 -49 -35 -49 -59v-20h-1h-26v20c0 40 21 78 55 96c9 4 15 12 15 21
c0 13 -4 24 -13 31c-11 7 -24 8 -44 8c-30 0 -58 -17 -72 -44h-1h-1l-14 40c21 28 54 44 88 44c30 0 56 -6 75 -21c18 -13 27 -35 27 -58z" />
    <glyph glyph-name="acircumflexhookabove" unicode="&#x1ea9;" horiz-adv-x="469" 
d="M401 0h-74v37c-37 -31 -107 -47 -162 -47c-85 0 -111 81 -111 125c0 50 39 87 106 110c60 20 120 23 165 25v41c0 73 -40 110 -86 110c-58 0 -104 -18 -148 -50l-6 66c49 28 94 42 154 42c93 0 162 -70 162 -166v-293zM325 134v65c-61 0 -200 -15 -200 -83
c0 -37 37 -66 91 -66c15 0 49 3 76 20c33 20 33 44 33 64zM391 525h-59l-97 97l-97 -97h-59l126 134h60zM425 811c0 -20 -10 -39 -27 -50c-3 -3 -6 -5 -12 -8c-33 -21 -49 -35 -49 -59v-20h-1h-26v20c0 40 21 78 55 96c9 4 15 12 15 21c0 13 -4 24 -13 31c-11 7 -24 8 -44 8
c-30 0 -58 -17 -72 -44h-1h-1l-14 40c21 28 54 44 88 44c30 0 56 -6 75 -21c18 -13 27 -35 27 -58z" />
    <glyph glyph-name="Acircumflextilde" unicode="&#x1eaa;" horiz-adv-x="647" 
d="M619 0h-89l-74 203h-282l-73 -203h-74l252 694h88zM435 259l-120 363l-119 -363h239zM480 735h-59l-97 97l-97 -97h-59l126 134h60zM487 1042c-2 -79 -52 -118 -95 -118c-25 0 -45 12 -74 33c-10 7 -35 25 -58 25c-29 0 -38 -32 -38 -58h-60c2 79 52 118 95 118
c25 0 45 -12 74 -33c10 -7 35 -25 58 -25c29 0 38 32 38 58h60z" />
    <glyph glyph-name="acircumflextilde" unicode="&#x1eab;" horiz-adv-x="469" 
d="M401 0h-74v37c-37 -31 -107 -47 -162 -47c-85 0 -111 81 -111 125c0 50 39 87 106 110c60 20 120 23 165 25v41c0 73 -40 110 -86 110c-58 0 -104 -18 -148 -50l-6 66c49 28 94 42 154 42c93 0 162 -70 162 -166v-293zM325 134v65c-61 0 -200 -15 -200 -83
c0 -37 37 -66 91 -66c15 0 49 3 76 20c33 20 33 44 33 64zM391 525h-59l-97 97l-97 -97h-59l126 134h60zM398 832c-2 -79 -52 -118 -95 -118c-25 0 -45 12 -74 33c-10 7 -35 25 -58 25c-29 0 -38 -32 -38 -58h-60c2 79 52 118 95 118c25 0 45 -12 74 -33
c10 -7 35 -25 58 -25c29 0 38 32 38 58h60z" />
    <glyph glyph-name="acute" unicode="&#xb4;" 
d="M382 694l-146 -167h-60l130 167h76z" />
    <glyph glyph-name="uni0301" unicode="&#x301;" horiz-adv-x="0" 
d="M-97 694l-146 -167h-60l130 167h76z" />
    <glyph glyph-name="Adblgrave" unicode="&#x200;" horiz-adv-x="647" 
d="M619 0h-89l-74 203h-282l-73 -203h-74l252 694h88zM435 259l-120 363l-119 -363h239zM436 745h-60l-78 167h76zM273 745h-60l-78 167h76z" />
    <glyph glyph-name="adblgrave" unicode="&#x201;" horiz-adv-x="469" 
d="M401 0h-74v37c-37 -31 -107 -47 -162 -47c-85 0 -111 81 -111 125c0 50 39 87 106 110c60 20 120 23 165 25v41c0 73 -40 110 -86 110c-58 0 -104 -18 -148 -50l-6 66c49 28 94 42 154 42c93 0 162 -70 162 -166v-293zM325 134v65c-61 0 -200 -15 -200 -83
c0 -37 37 -66 91 -66c15 0 49 3 76 20c33 20 33 44 33 64zM374 527h-60l-78 167h76zM211 527h-60l-78 167h76z" />
    <glyph glyph-name="Adieresis" unicode="&#xc4;" horiz-adv-x="647" 
d="M619 0h-89l-74 203h-282l-73 -203h-74l252 694h88zM435 259l-120 363l-119 -363h239zM279 735h-77v78h77v-78zM446 735h-77v78h77v-78z" />
    <glyph glyph-name="adieresis" unicode="&#xe4;" horiz-adv-x="469" 
d="M401 0h-74v37c-37 -31 -107 -47 -162 -47c-85 0 -111 81 -111 125c0 50 39 87 106 110c60 20 120 23 165 25v41c0 73 -40 110 -86 110c-58 0 -104 -18 -148 -50l-6 66c49 28 94 42 154 42c93 0 162 -70 162 -166v-293zM325 134v65c-61 0 -200 -15 -200 -83
c0 -37 37 -66 91 -66c15 0 49 3 76 20c33 20 33 44 33 64zM203 572h-77v78h77v-78zM344 572h-77v78h77v-78z" />
    <glyph glyph-name="Adotbelow" unicode="&#x1ea0;" horiz-adv-x="647" 
d="M619 0h-89l-74 203h-282l-73 -203h-74l252 694h88zM435 259l-120 363l-119 -363h239zM367 -200h-86v86h86v-86z" />
    <glyph glyph-name="adotbelow" unicode="&#x1ea1;" horiz-adv-x="469" 
d="M401 0h-74v37c-37 -31 -107 -47 -162 -47c-85 0 -111 81 -111 125c0 50 39 87 106 110c60 20 120 23 165 25v41c0 73 -40 110 -86 110c-58 0 -104 -18 -148 -50l-6 66c49 28 94 42 154 42c93 0 162 -70 162 -166v-293zM325 134v65c-61 0 -200 -15 -200 -83
c0 -37 37 -66 91 -66c15 0 49 3 76 20c33 20 33 44 33 64zM277 -200h-86v86h86v-86z" />
    <glyph glyph-name="AE" unicode="&#xc6;" horiz-adv-x="840" 
d="M798 0h-391v222h-218l-88 -222h-74l275 694h483v-63h-150c-12 0 -24 1 -36 1h-107v-241h265v-60h-265v-264h161c12 0 24 1 36 1h109v-68zM407 278v354h-56l-140 -354h196z" />
    <glyph glyph-name="ae" unicode="&#xe6;" horiz-adv-x="707" 
d="M679 225h-288c2 -112 71 -175 141 -175c39 0 91 14 135 57c0 -4 3 -27 3 -27c0 -5 3 -28 3 -33c0 -9 -63 -57 -142 -57c-62 0 -118 28 -161 77c-8 -11 -28 -42 -96 -62c-54 -15 -113 -15 -117 -15c-93 0 -111 92 -111 126c0 91 127 135 269 136v39c0 77 -44 110 -85 110
c-66 0 -111 -23 -149 -50l-6 66c48 27 94 42 154 42c74 0 115 -40 139 -77c60 77 135 77 148 77c162 0 163 -198 163 -234zM619 279c-12 83 -55 120 -103 120c-51 0 -101 -46 -119 -120h222zM319 133c0 17 -2 47 -3 65c-47 -2 -199 -10 -199 -81c0 -37 37 -67 89 -67
c26 0 58 6 80 20c33 20 33 42 33 63z" />
    <glyph glyph-name="AEacute" unicode="&#x1fc;" horiz-adv-x="840" 
d="M798 0h-391v222h-218l-88 -222h-74l275 694h483v-63h-150c-12 0 -24 1 -36 1h-107v-241h265v-60h-265v-264h161c12 0 24 1 36 1h109v-68zM407 278v354h-56l-140 -354h196zM610 867l-197 -122h-89l175 122h111z" />
    <glyph glyph-name="aeacute" unicode="&#x1fd;" horiz-adv-x="707" 
d="M679 225h-288c2 -112 71 -175 141 -175c39 0 91 14 135 57c0 -4 3 -27 3 -27c0 -5 3 -28 3 -33c0 -9 -63 -57 -142 -57c-62 0 -118 28 -161 77c-8 -11 -28 -42 -96 -62c-54 -15 -113 -15 -117 -15c-93 0 -111 92 -111 126c0 91 127 135 269 136v39c0 77 -44 110 -85 110
c-66 0 -111 -23 -149 -50l-6 66c48 27 94 42 154 42c74 0 115 -40 139 -77c60 77 135 77 148 77c162 0 163 -198 163 -234zM619 279c-12 83 -55 120 -103 120c-51 0 -101 -46 -119 -120h222zM319 133c0 17 -2 47 -3 65c-47 -2 -199 -10 -199 -81c0 -37 37 -67 89 -67
c26 0 58 6 80 20c33 20 33 42 33 63zM491 694l-146 -167h-60l130 167h76z" />
    <glyph glyph-name="Agrave" unicode="&#xc0;" horiz-adv-x="647" 
d="M619 0h-89l-74 203h-282l-73 -203h-74l252 694h88zM435 259l-120 363l-119 -363h239zM420 745h-89l-197 122h111z" />
    <glyph glyph-name="agrave" unicode="&#xe0;" horiz-adv-x="469" 
d="M401 0h-74v37c-37 -31 -107 -47 -162 -47c-85 0 -111 81 -111 125c0 50 39 87 106 110c60 20 120 23 165 25v41c0 73 -40 110 -86 110c-58 0 -104 -18 -148 -50l-6 66c49 28 94 42 154 42c93 0 162 -70 162 -166v-293zM325 134v65c-61 0 -200 -15 -200 -83
c0 -37 37 -66 91 -66c15 0 49 3 76 20c33 20 33 44 33 64zM304 527h-60l-146 167h76z" />
    <glyph glyph-name="Ahookabove" unicode="&#x1ea2;" horiz-adv-x="647" 
d="M619 0h-89l-74 203h-282l-73 -203h-74l252 694h88zM435 259l-120 363l-119 -363h239zM419 872c0 -20 -10 -39 -27 -50c-3 -3 -6 -5 -12 -8c-33 -21 -49 -35 -49 -59v-20h-1h-26v20c0 40 21 78 55 96c9 4 15 12 15 21c0 13 -4 24 -13 31c-11 7 -24 8 -44 8
c-30 0 -58 -17 -72 -44h-1h-1l-14 40c21 28 54 44 88 44c30 0 56 -6 75 -21c18 -13 27 -35 27 -58z" />
    <glyph glyph-name="ahookabove" unicode="&#x1ea3;" horiz-adv-x="469" 
d="M401 0h-74v37c-37 -31 -107 -47 -162 -47c-85 0 -111 81 -111 125c0 50 39 87 106 110c60 20 120 23 165 25v41c0 73 -40 110 -86 110c-58 0 -104 -18 -148 -50l-6 66c49 28 94 42 154 42c93 0 162 -70 162 -166v-293zM325 134v65c-61 0 -200 -15 -200 -83
c0 -37 37 -66 91 -66c15 0 49 3 76 20c33 20 33 44 33 64zM330 640c0 -20 -10 -39 -27 -50c-3 -3 -6 -5 -12 -8c-33 -21 -49 -35 -49 -59v-20h-1h-26v20c0 40 21 78 55 96c9 4 15 12 15 21c0 13 -4 24 -13 31c-11 7 -24 8 -44 8c-30 0 -58 -17 -72 -44h-1h-1l-14 40
c21 28 54 44 88 44c30 0 56 -6 75 -21c18 -13 27 -35 27 -58z" />
    <glyph glyph-name="Alpha" unicode="&#x391;" horiz-adv-x="647" 
d="M619 0h-89l-74 203h-282l-73 -203h-74l252 694h88zM435 259l-120 363l-119 -363h239z" />
    <glyph glyph-name="Amacron" unicode="&#x100;" horiz-adv-x="647" 
d="M619 0h-89l-74 203h-282l-73 -203h-74l252 694h88zM435 259l-120 363l-119 -363h239zM500 755h-353v63h353v-63z" />
    <glyph glyph-name="amacron" unicode="&#x101;" horiz-adv-x="469" 
d="M401 0h-74v37c-37 -31 -107 -47 -162 -47c-85 0 -111 81 -111 125c0 50 39 87 106 110c60 20 120 23 165 25v41c0 73 -40 110 -86 110c-58 0 -104 -18 -148 -50l-6 66c49 28 94 42 154 42c93 0 162 -70 162 -166v-293zM325 134v65c-61 0 -200 -15 -200 -83
c0 -37 37 -66 91 -66c15 0 49 3 76 20c33 20 33 44 33 64zM411 579h-353v63h353v-63z" />
    <glyph glyph-name="anglearc" unicode="&#x2222;" horiz-adv-x="762" 
d="M707 18c0 -13 -13 -21 -24 -17l-138 52c-19 -44 -43 -86 -73 -123c-4 -4 -9 -7 -14 -7c-10 0 -18 8 -18 18c0 4 1 8 4 11c27 35 50 73 67 114l-445 167c-7 3 -12 9 -12 17s5 14 12 17l445 167c-17 41 -40 79 -67 114c-3 3 -4 7 -4 11c0 10 8 18 18 18c5 0 10 -3 14 -7
c30 -37 54 -79 73 -123l138 52c11 4 24 -4 24 -17c0 -8 -5 -14 -12 -17l-138 -52c18 -52 27 -107 27 -163s-9 -111 -27 -163l138 -52c7 -3 12 -9 12 -17zM548 250c0 52 -8 102 -24 151l-401 -151l401 -151c16 49 24 99 24 151z" />
    <glyph glyph-name="angleleft" unicode="&#x2329;" horiz-adv-x="381" 
d="M326 -230c0 -9 -8 -20 -18 -20c-14 0 -19 14 -23 25l-10 26l-70 187l-88 235c-3 8 -9 18 -9 27c0 10 7 22 10 31l169 451c3 8 7 16 16 18l5 1c8 0 16 -7 18 -16c0 -5 -2 -10 -3 -15l-50 -133l-122 -325c-2 -4 -4 -8 -4 -11c0 -8 6 -18 9 -25l165 -440c2 -5 4 -10 5 -16z
" />
    <glyph glyph-name="angleright" unicode="&#x232a;" horiz-adv-x="381" 
d="M272 251c0 -10 -7 -22 -10 -31l-24 -64l-83 -220l-62 -166c-3 -9 -8 -19 -19 -20c-10 0 -20 7 -20 18c0 7 4 15 7 22l168 449c2 4 4 8 4 11c0 9 -6 19 -9 27l-22 57l-72 193l-71 189c-2 5 -4 10 -5 15c0 9 5 17 14 19l4 1c14 0 19 -13 23 -24l167 -447
c4 -9 10 -19 10 -29z" />
    <glyph glyph-name="Aogonek" unicode="&#x104;" horiz-adv-x="647" 
d="M640 -187c-40 -19 -65 -25 -98 -25c-67 0 -98 42 -99 85c-3 51 37 99 87 127l-74 203h-282l-73 -203h-74l252 694h88l252 -694h-25c-46 -26 -89 -60 -88 -104c1 -30 25 -36 53 -38c22 -1 45 5 67 14zM435 259l-120 363l-119 -363h239z" />
    <glyph glyph-name="aogonek" unicode="&#x105;" horiz-adv-x="469" 
d="M437 -187c-40 -19 -65 -25 -98 -25c-67 0 -98 42 -99 85c-3 51 37 99 87 127v37c-37 -31 -107 -47 -162 -47c-85 0 -111 81 -111 125c0 50 39 87 106 110c60 20 120 23 165 25v41c0 73 -40 110 -86 110c-58 0 -104 -18 -148 -50l-6 66c49 28 94 42 154 42
c93 0 162 -70 162 -166v-293h-11c-46 -26 -88 -60 -87 -104c1 -30 25 -36 53 -38c22 -1 45 5 67 14zM325 134v65c-61 0 -200 -15 -200 -83c0 -37 37 -66 91 -66c15 0 49 3 76 20c33 20 33 44 33 64z" />
    <glyph glyph-name="Aring" unicode="&#xc5;" horiz-adv-x="647" 
d="M619 0h-89l-74 203h-282l-73 -203h-74l252 694h88zM435 259l-120 363l-119 -363h239zM373 778c0 37 -41 37 -49 37c-19 0 -49 -6 -49 -37c0 -37 41 -37 49 -37c19 0 49 6 49 37zM433 777c0 -42 -45 -83 -109 -83c-61 0 -109 38 -109 85c0 42 45 83 109 83
c61 0 109 -38 109 -85z" />
    <glyph glyph-name="aring" unicode="&#xe5;" horiz-adv-x="469" 
d="M401 0h-74v37c-37 -31 -107 -47 -162 -47c-85 0 -111 81 -111 125c0 50 39 87 106 110c60 20 120 23 165 25v41c0 73 -40 110 -86 110c-58 0 -104 -18 -148 -50l-6 66c49 28 94 42 154 42c93 0 162 -70 162 -166v-293zM325 134v65c-61 0 -200 -15 -200 -83
c0 -37 37 -66 91 -66c15 0 49 3 76 20c33 20 33 44 33 64zM284 601c0 37 -41 37 -49 37c-19 0 -49 -6 -49 -37c0 -37 41 -37 49 -37c19 0 49 6 49 37zM344 600c0 -42 -45 -83 -109 -83c-61 0 -109 38 -109 85c0 42 45 83 109 83c61 0 109 -38 109 -85z" />
    <glyph glyph-name="Aringacute" unicode="&#x1fa;" horiz-adv-x="647" 
d="M619 0h-89l-74 203h-282l-73 -203h-74l252 694h88zM435 259l-120 363l-119 -363h239zM373 778c0 37 -41 37 -49 37c-19 0 -49 -6 -49 -37c0 -37 41 -37 49 -37c19 0 49 6 49 37zM433 777c0 -42 -45 -83 -109 -83c-61 0 -109 38 -109 85c0 42 45 83 109 83
c61 0 109 -38 109 -85zM467 1019l-197 -122h-89l175 122h111z" />
    <glyph glyph-name="aringacute" unicode="&#x1fb;" horiz-adv-x="469" 
d="M401 0h-74v37c-37 -31 -107 -47 -162 -47c-85 0 -111 81 -111 125c0 50 39 87 106 110c60 20 120 23 165 25v41c0 73 -40 110 -86 110c-58 0 -104 -18 -148 -50l-6 66c49 28 94 42 154 42c93 0 162 -70 162 -166v-293zM325 134v65c-61 0 -200 -15 -200 -83
c0 -37 37 -66 91 -66c15 0 49 3 76 20c33 20 33 44 33 64zM284 601c0 37 -41 37 -49 37c-19 0 -49 -6 -49 -37c0 -37 41 -37 49 -37c19 0 49 6 49 37zM344 600c0 -42 -45 -83 -109 -83c-61 0 -109 38 -109 85c0 42 45 83 109 83c61 0 109 -38 109 -85zM378 842l-197 -122
h-89l175 122h111z" />
    <glyph glyph-name="uni2193" unicode="&#x2193;" 
d="M462 37c-113 -26 -199 -117 -218 -231c-18 114 -104 205 -217 231v37c83 -19 154 -71 199 -140v742c0 25 37 25 37 0v-742c44 69 115 121 199 140v-37z" />
    <glyph glyph-name="uni2190" unicode="&#x2190;" horiz-adv-x="979" 
d="M924 251c0 -17 -14 -19 -26 -19h-748c77 -70 123 -148 140 -244h-29c-7 0 -10 4 -10 11l-6 24c-26 98 -98 185 -191 227v1c93 42 165 129 191 227l6 24c0 7 3 11 10 11h29c-17 -96 -63 -174 -140 -244h746c13 0 27 -2 28 -18z" />
    <glyph glyph-name="uni2192" unicode="&#x2192;" horiz-adv-x="979" 
d="M924 250c-93 -42 -165 -129 -191 -227l-6 -24c0 -7 -3 -11 -10 -11h-29c17 96 63 174 140 244h-746c-13 0 -27 2 -28 18c0 17 14 19 26 19h748c-77 70 -123 148 -140 244h29c8 0 10 -5 10 -12c20 -91 72 -168 145 -220c16 -11 36 -20 52 -31z" />
    <glyph glyph-name="uni2191" unicode="&#x2191;" 
d="M462 426c-84 19 -155 71 -199 140v-742c0 -25 -37 -25 -37 0v742c-45 -69 -116 -121 -199 -140v37c113 26 199 117 217 231c19 -114 105 -205 218 -231v-37z" />
    <glyph glyph-name="asterisk.math" unicode="&#x2217;" horiz-adv-x="489" 
d="M425 159c0 -21 -16 -35 -37 -35c-15 1 -27 14 -39 22c-26 19 -52 39 -79 57l5 -91c1 -15 3 -31 3 -47c0 -22 -16 -36 -34 -36c-23 0 -34 19 -34 34c0 46 5 94 8 140c-27 -18 -53 -38 -79 -57c-12 -8 -24 -21 -39 -22c-21 0 -37 14 -37 35c0 17 9 25 25 33l73 40
c11 6 22 13 33 18v2c-11 5 -22 12 -33 18l-73 40c-16 8 -25 17 -25 33c0 21 16 35 37 35c15 -1 27 -14 39 -22c26 -19 52 -39 79 -57l-5 91c-1 15 -3 31 -3 47c0 22 16 36 34 36c23 0 34 -19 34 -34c0 -46 -5 -94 -8 -140c27 18 53 38 79 57c12 8 24 21 39 22
c21 0 37 -14 37 -35c0 -17 -9 -25 -25 -33l-73 -40c-11 -6 -22 -13 -33 -18v-2c11 -5 22 -12 33 -18l73 -40c16 -8 25 -17 25 -33z" />
    <glyph glyph-name="Atilde" unicode="&#xc3;" horiz-adv-x="647" 
d="M619 0h-89l-74 203h-282l-73 -203h-74l252 694h88zM435 259l-120 363l-119 -363h239zM486 853c-2 -79 -52 -118 -95 -118c-25 0 -45 12 -74 33c-10 7 -35 25 -58 25c-29 0 -38 -32 -38 -58h-60c2 79 52 118 95 118c25 0 45 -12 74 -33c10 -7 35 -25 58 -25
c29 0 38 32 38 58h60z" />
    <glyph glyph-name="atilde" unicode="&#xe3;" horiz-adv-x="469" 
d="M401 0h-74v37c-37 -31 -107 -47 -162 -47c-85 0 -111 81 -111 125c0 50 39 87 106 110c60 20 120 23 165 25v41c0 73 -40 110 -86 110c-58 0 -104 -18 -148 -50l-6 66c49 28 94 42 154 42c93 0 162 -70 162 -166v-293zM325 134v65c-61 0 -200 -15 -200 -83
c0 -37 37 -66 91 -66c15 0 49 3 76 20c33 20 33 44 33 64zM397 670c-2 -79 -52 -118 -95 -118c-25 0 -45 12 -74 33c-10 7 -35 25 -58 25c-29 0 -38 -32 -38 -58h-60c2 79 52 118 95 118c25 0 45 -12 74 -33c10 -7 35 -25 58 -25c29 0 38 32 38 58h60z" />
    <glyph glyph-name="baht" unicode="&#xe3f;" horiz-adv-x="650" 
d="M595 188c0 -98 -103 -188 -244 -188h-3v-62h-62v62h-193v694h193v62h62v-63c128 -9 219 -88 219 -173c0 -58 -45 -125 -162 -157c103 -16 190 -87 190 -175zM490 519c0 55 -60 101 -142 115v-239c82 15 142 65 142 124zM286 391v247h-112v-247h112zM516 189
c0 62 -63 126 -168 139v-271c99 9 168 67 168 132zM286 56v275h-112v-275h112z" />
    <glyph glyph-name="Beta" unicode="&#x392;" horiz-adv-x="650" 
d="M595 188c0 -98 -103 -188 -244 -188h-258v694h231c141 0 243 -84 243 -174c0 -58 -45 -125 -162 -157c103 -16 190 -87 190 -175zM490 519c0 66 -86 119 -193 119h-123v-247h124c106 0 192 58 192 128zM516 189c0 70 -80 142 -209 142h-133v-275h149
c112 0 193 63 193 133z" />
    <glyph glyph-name="blanksymbol" unicode="&#x2422;" horiz-adv-x="502" 
d="M466 223c0 -136 -87 -233 -182 -233c-35 0 -84 11 -130 55v-45h-76v470l-36 -33l-42 45l78 73v139h74v-70l52 49l43 -45l-95 -88v-142c62 50 126 56 155 56c93 0 159 -108 159 -231zM390 223c0 125 -72 171 -133 171c-49 0 -85 -29 -103 -57v-207c0 -17 4 -35 28 -56
c18 -14 37 -24 65 -24c61 0 143 43 143 173z" />
    <glyph glyph-name="breve" unicode="&#x2d8;" 
d="M410 700c-2 -105 -78 -178 -166 -178c-85 0 -163 71 -165 178h60c2 -72 54 -113 106 -113c48 0 103 38 105 113h60z" />
    <glyph glyph-name="uni032E" unicode="&#x32e;" horiz-adv-x="0" 
d="M-69 -68c-2 -105 -78 -178 -166 -178c-85 0 -163 71 -165 178h60c2 -72 54 -113 106 -113c48 0 103 38 105 113h60z" />
    <glyph glyph-name="uni032F" unicode="&#x32f;" horiz-adv-x="0" 
d="M-69 -246h-60c-2 72 -54 113 -106 113c-48 0 -103 -38 -105 -113h-60c2 105 78 178 166 178c85 0 163 -71 165 -178z" />
    <glyph glyph-name="uni0306" unicode="&#x306;" horiz-adv-x="0" 
d="M-69 700c-2 -105 -78 -178 -166 -178c-85 0 -163 71 -165 178h60c2 -72 54 -113 106 -113c48 0 103 38 105 113h60z" />
    <glyph glyph-name="uni0311" unicode="&#x311;" horiz-adv-x="0" 
d="M-69 522h-60c-2 72 -54 113 -106 113c-48 0 -103 -38 -105 -113h-60c2 105 78 178 166 178c85 0 163 -71 165 -178z" />
    <glyph glyph-name="brokenbar" unicode="&#xa6;" horiz-adv-x="278" 
d="M159 343c0 -15 -6 -31 -20 -31s-20 16 -20 31v374c0 14 0 33 20 33s20 -19 20 -33v-374zM159 -217c0 -14 0 -33 -20 -33s-20 19 -20 33v374c0 15 6 31 20 31s20 -16 20 -31v-374z" />
    <glyph glyph-name="bullet" unicode="&#x2022;" horiz-adv-x="762" 
d="M521 128h-280v280h280v-280z" />
    <glyph glyph-name="Cacute" unicode="&#x106;" horiz-adv-x="626" 
d="M575 45c-29 -18 -59 -35 -93 -45c-33 -9 -68 -11 -102 -11c-86 0 -166 41 -222 105c-62 70 -92 161 -92 253c0 93 30 184 92 253c56 65 136 105 222 105c31 0 63 -2 94 -8s61 -15 91 -27l-15 -83c-25 18 -52 33 -81 43c-29 9 -59 12 -89 12c-64 0 -122 -35 -162 -86
c-46 -59 -67 -134 -67 -209s21 -149 67 -208c40 -51 98 -87 162 -87c34 0 68 2 100 12c33 11 62 31 89 51zM534 867l-197 -122h-89l175 122h111z" />
    <glyph glyph-name="cacute" unicode="&#x107;" horiz-adv-x="435" 
d="M407 42c-55 -40 -111 -52 -160 -52c-120 0 -212 105 -212 233c0 114 78 236 216 236c59 0 92 -8 150 -42l-12 -65c-43 29 -71 45 -138 45c-100 0 -140 -91 -140 -174c0 -97 54 -171 137 -171c56 0 107 19 153 56l2 -28c1 -4 4 -35 4 -38zM376 694l-146 -167h-60l130 167
h76z" />
    <glyph glyph-name="caron" unicode="&#x2c7;" 
d="M400 697l-125 -172h-60l-125 172h59l96 -123l96 123h59z" />
    <glyph glyph-name="uni030C" unicode="&#x30c;" horiz-adv-x="0" 
d="M-79 697l-125 -172h-60l-125 172h59l96 -123l96 123h59z" />
    <glyph glyph-name="Ccaron" unicode="&#x10c;" horiz-adv-x="626" 
d="M575 45c-29 -18 -59 -35 -93 -45c-33 -9 -68 -11 -102 -11c-86 0 -166 41 -222 105c-62 70 -92 161 -92 253c0 93 30 184 92 253c56 65 136 105 222 105c31 0 63 -2 94 -8s61 -15 91 -27l-15 -83c-25 18 -52 33 -81 43c-29 9 -59 12 -89 12c-64 0 -122 -35 -162 -86
c-46 -59 -67 -134 -67 -209s21 -149 67 -208c40 -51 98 -87 162 -87c34 0 68 2 100 12c33 11 62 31 89 51zM500 869l-126 -134h-60l-126 134h59l97 -97l97 97h59z" />
    <glyph glyph-name="ccaron" unicode="&#x10d;" horiz-adv-x="435" 
d="M407 42c-55 -40 -111 -52 -160 -52c-120 0 -212 105 -212 233c0 114 78 236 216 236c59 0 92 -8 150 -42l-12 -65c-43 29 -71 45 -138 45c-100 0 -140 -91 -140 -174c0 -97 54 -171 137 -171c56 0 107 19 153 56l2 -28c1 -4 4 -35 4 -38zM394 697l-125 -172h-60l-125 172
h59l96 -123l96 123h59z" />
    <glyph glyph-name="Ccedilla" unicode="&#xc7;" horiz-adv-x="626" 
d="M576 35c-71 -45 -111 -56 -189 -56c-191 0 -321 175 -321 368c0 196 133 368 320 368c59 0 112 -9 179 -35l-15 -81c-68 50 -130 54 -166 54c-133 0 -232 -139 -232 -306c0 -155 88 -306 236 -306c80 0 119 16 182 63zM390 -44l-64 -168h-68l72 168h60z" />
    <glyph glyph-name="ccedilla" unicode="&#xe7;" horiz-adv-x="435" 
d="M407 42c-55 -40 -111 -52 -160 -52c-120 0 -212 105 -212 233c0 114 78 236 216 236c59 0 92 -8 150 -42l-12 -65c-43 29 -71 45 -138 45c-100 0 -140 -91 -140 -174c0 -97 54 -171 137 -171c56 0 107 19 153 56l2 -28c1 -4 4 -35 4 -38zM285 -44l-64 -168h-68l72 168h60
z" />
    <glyph glyph-name="Ccircumflex" unicode="&#x108;" horiz-adv-x="626" 
d="M575 45c-29 -18 -59 -35 -93 -45c-33 -9 -68 -11 -102 -11c-86 0 -166 41 -222 105c-62 70 -92 161 -92 253c0 93 30 184 92 253c56 65 136 105 222 105c31 0 63 -2 94 -8s61 -15 91 -27l-15 -83c-25 18 -52 33 -81 43c-29 9 -59 12 -89 12c-64 0 -122 -35 -162 -86
c-46 -59 -67 -134 -67 -209s21 -149 67 -208c40 -51 98 -87 162 -87c34 0 68 2 100 12c33 11 62 31 89 51zM500 735h-59l-97 97l-97 -97h-59l126 134h60z" />
    <glyph glyph-name="ccircumflex" unicode="&#x109;" horiz-adv-x="435" 
d="M407 42c-55 -40 -111 -52 -160 -52c-120 0 -212 105 -212 233c0 114 78 236 216 236c59 0 92 -8 150 -42l-12 -65c-43 29 -71 45 -138 45c-100 0 -140 -91 -140 -174c0 -97 54 -171 137 -171c56 0 107 19 153 56l2 -28c1 -4 4 -35 4 -38zM394 525h-59l-96 123l-96 -123
h-59l125 172h60z" />
    <glyph glyph-name="Cdotaccent" unicode="&#x10a;" horiz-adv-x="626" 
d="M575 45c-29 -18 -59 -35 -93 -45c-33 -9 -68 -11 -102 -11c-86 0 -166 41 -222 105c-62 70 -92 161 -92 253c0 93 30 184 92 253c56 65 136 105 222 105c31 0 63 -2 94 -8s61 -15 91 -27l-15 -83c-25 18 -52 33 -81 43c-29 9 -59 12 -89 12c-64 0 -122 -35 -162 -86
c-46 -59 -67 -134 -67 -209s21 -149 67 -208c40 -51 98 -87 162 -87c34 0 68 2 100 12c33 11 62 31 89 51zM387 735h-86v86h86v-86z" />
    <glyph glyph-name="cdotaccent" unicode="&#x10b;" horiz-adv-x="435" 
d="M407 42c-55 -40 -111 -52 -160 -52c-120 0 -212 105 -212 233c0 114 78 236 216 236c59 0 92 -8 150 -42l-12 -65c-43 29 -71 45 -138 45c-100 0 -140 -91 -140 -174c0 -97 54 -171 137 -171c56 0 107 19 153 56l2 -28c1 -4 4 -35 4 -38zM282 568h-86v86h86v-86z" />
    <glyph glyph-name="cedilla" unicode="&#xb8;" horiz-adv-x="435" 
d="M274 -23l-64 -168h-68l72 168h60z" />
    <glyph glyph-name="cent" unicode="&#xa2;" horiz-adv-x="435" 
d="M407 42c-46 -34 -94 -48 -137 -51v-53h-62v56c-100 19 -173 115 -173 229c0 102 62 210 173 232v51h62v-47c48 -2 80 -12 131 -42l-12 -65c-39 26 -65 42 -119 45v-344c48 4 91 23 131 55l2 -28c1 -4 4 -35 4 -38zM208 58v333c-69 -22 -97 -98 -97 -168
c0 -81 37 -145 97 -165z" />
    <glyph glyph-name="centigrade" unicode="&#x2103;" horiz-adv-x="843" 
d="M793 43c0 -7 -3 -8 -8 -12l-15 -9c-56 -33 -111 -42 -170 -42c-200 0 -316 193 -316 368c0 186 127 368 325 368c59 0 118 -14 173 -35l-14 -82c-8 3 -14 8 -21 13c-46 29 -97 41 -150 41c-8 0 -16 -1 -24 -2c-136 -22 -203 -175 -203 -303c0 -124 72 -305 228 -305
c40 0 82 3 119 20c25 12 46 30 70 43c1 -21 6 -42 6 -63zM218 586c0 -55 -42 -100 -97 -108h-9c-68 0 -111 53 -111 108c0 54 41 101 97 109h9c68 0 111 -54 111 -109zM181 586v7c-5 34 -32 62 -67 65h-5c-38 0 -71 -33 -71 -71v-7c5 -34 32 -62 67 -65h5c38 0 71 33 71 71z
" />
    <glyph glyph-name="Chi" unicode="&#x3a7;" horiz-adv-x="647" 
d="M632 0h-100l-216 306l-210 -306h-92l260 366l-247 328h101l188 -262l183 262h93l-234 -328z" />
    <glyph glyph-name="circumflex" unicode="&#x2c6;" 
d="M400 525h-59l-96 123l-96 -123h-59l125 172h60z" />
    <glyph glyph-name="uni0302" unicode="&#x302;" horiz-adv-x="0" 
d="M-79 525h-59l-96 123l-96 -123h-59l125 172h60z" />
    <glyph glyph-name="colonmonetary" unicode="&#x20a1;" horiz-adv-x="626" 
d="M576 35c-71 -45 -111 -56 -189 -56h-12v-72h-62v81c-150 39 -247 192 -247 359c0 169 99 321 247 359v81h62v-72h11c59 0 112 -9 179 -35l-15 -81c-68 50 -130 54 -166 54h-9v-612h13c80 0 119 16 182 63zM313 55v584c-96 -39 -161 -156 -161 -292
c0 -127 59 -251 161 -292z" />
    <glyph glyph-name="uni0326" unicode="&#x326;" horiz-adv-x="0" 
d="M-198 -148l-37 -113h-36l23 113h-23v72h73v-72z" />
    <glyph glyph-name="copyright" unicode="&#xa9;" horiz-adv-x="694" 
d="M694 347c0 -192 -155 -347 -347 -347s-347 155 -347 347s155 347 347 347s347 -155 347 -347zM659 347c0 173 -139 312 -312 312c-172 0 -312 -139 -312 -312c0 -172 140 -312 312 -312c173 0 312 140 312 312zM492 145c-46 -29 -71 -36 -122 -36
c-124 0 -208 113 -208 238c0 127 86 239 207 239c39 0 73 -6 116 -23l-9 -52c-44 32 -85 35 -108 35c-86 0 -150 -91 -150 -199c0 -100 57 -198 153 -198c51 0 77 10 118 41z" />
    <glyph glyph-name="currency" unicode="&#xa4;" horiz-adv-x="762" 
d="M612 480c12 -13 0 -25 -10 -35l-76 -76c27 -32 43 -74 43 -119c0 -46 -16 -87 -43 -120l76 -76c10 -10 22 -22 9 -36c-13 -12 -25 0 -35 10l-76 76c-33 -26 -74 -42 -119 -42s-87 16 -120 42l-76 -76c-10 -10 -22 -22 -36 -9c-12 13 0 25 10 35l76 76
c-26 33 -43 75 -43 120s16 87 43 119l-76 76c-10 10 -22 22 -9 36c13 12 25 0 35 -10l76 -76c32 27 74 43 120 43c45 0 87 -16 119 -42l76 75c10 10 22 22 36 9zM533 250c0 84 -68 152 -152 152s-153 -68 -153 -152s69 -152 153 -152s152 68 152 152z" />
    <glyph glyph-name="dagger" unicode="&#x2020;" horiz-adv-x="444" 
d="M387 430c0 -5 -2 -33 -37 -33c-21 0 -50 8 -69 14c-19 5 -39 9 -50 10c2 -27 5 -48 10 -71c14 -71 14 -78 14 -132c0 -96 -5 -199 -9 -262c-2 -51 -5 -104 -11 -154c-2 -13 -2 -18 -14 -18c-11 0 -12 6 -13 20c-9 95 -20 263 -20 414c0 53 0 61 14 133c5 25 8 45 10 70
c-20 -2 -45 -9 -48 -10c-21 -6 -50 -14 -71 -14c-31 0 -37 21 -37 34c0 5 2 33 37 33c21 0 50 -8 69 -14c19 -5 39 -9 50 -10c-1 29 -4 61 -11 107c-4 24 -13 82 -13 117c0 9 0 41 34 41c33 0 33 -33 33 -41c0 -37 -6 -74 -11 -111c-11 -65 -12 -93 -13 -113
c20 2 45 9 48 10c21 6 50 14 71 14c31 0 37 -21 37 -34z" />
    <glyph glyph-name="daggerdbl" unicode="&#x2021;" horiz-adv-x="444" 
d="M387 477c0 -5 -2 -33 -37 -33c-21 0 -50 8 -69 14c-19 5 -39 9 -50 10c1 -26 6 -54 13 -95c7 -35 11 -64 11 -84c0 -14 -4 -39 -34 -39c-11 0 -33 4 -33 39c0 28 7 68 13 101c3 14 10 48 11 78c-20 -2 -45 -9 -48 -10c-21 -6 -50 -14 -71 -14c-31 0 -37 21 -37 34
c0 5 2 33 37 33c21 0 50 -8 69 -14c19 -5 39 -9 50 -10c-1 26 -6 54 -13 95c-7 35 -11 64 -11 84c0 36 23 39 33 39c34 0 34 -32 34 -39c0 -28 -7 -68 -13 -101c-3 -14 -10 -48 -11 -78c20 2 45 9 48 10c21 6 50 14 71 14c31 0 37 -21 37 -34zM387 22c0 -15 -10 -33 -34 -33
c-5 0 -23 0 -56 9c-40 11 -43 12 -66 14c2 -30 7 -61 10 -72c6 -34 14 -77 14 -106c0 -14 -4 -39 -34 -39c-11 0 -33 4 -33 39c0 5 0 28 11 84c7 42 11 66 13 94c-17 -2 -24 -3 -63 -13c-11 -4 -35 -10 -59 -10s-34 18 -34 33c0 13 9 33 34 33c7 0 24 0 56 -9
c40 -11 43 -12 66 -14c-2 30 -7 61 -10 72c-6 34 -14 77 -14 106c0 14 4 39 34 39c11 0 33 -4 33 -39c0 -5 0 -28 -11 -84c-7 -42 -11 -66 -13 -94c22 2 29 4 55 12c31 8 48 11 68 11c21 0 33 -16 33 -33z" />
    <glyph glyph-name="dblbracketleft" unicode="&#x27e6;" horiz-adv-x="394" 
d="M372 -249h-256v1000h256v-37h-97v-926h97v-37zM238 -212v926h-85v-926h85z" />
    <glyph glyph-name="dblbracketright" unicode="&#x27e7;" horiz-adv-x="394" 
d="M277 -249h-255v37h96v926h-96v37h255v-1000zM240 -212v926h-85v-926h85z" />
    <glyph glyph-name="uni030F" unicode="&#x30f;" horiz-adv-x="0" 
d="M-95 527h-60l-78 167h76zM-258 527h-60l-78 167h76z" />
    <glyph glyph-name="dblverticalbar" unicode="&#x2016;" horiz-adv-x="386" 
d="M159 -217c0 -14 0 -33 -20 -33s-20 19 -20 33v934c0 14 0 33 20 33s20 -19 20 -33v-934zM267 -217c0 -14 0 -33 -20 -33s-20 19 -20 33v934c0 14 0 33 20 33s20 -19 20 -33v-934z" />
    <glyph glyph-name="Dcaron" unicode="&#x10e;" horiz-adv-x="704" 
d="M649 341c0 -190 -134 -341 -301 -341h-257v694h257c168 0 301 -158 301 -353zM565 342c0 181 -106 296 -240 296h-150v-582h150c129 0 240 103 240 286zM406 869l-126 -134h-60l-126 134h59l97 -97l97 97h59z" />
    <glyph glyph-name="dcaron" unicode="&#x10f;" horiz-adv-x="502" 
d="M423 0h-76v51c-50 -49 -106 -61 -143 -61c-95 0 -169 103 -169 232c0 130 78 232 173 232c43 0 95 -14 141 -52v292h74v-694zM347 118v223c-22 33 -54 53 -93 53c-58 0 -143 -40 -143 -173c0 -124 72 -171 133 -171c44 0 79 25 103 68zM532 622l-37 -113h-36l23 113h-23
v72h73v-72z" />
    <glyph glyph-name="Dcroat" unicode="&#x110;" horiz-adv-x="704" 
d="M649 341c0 -190 -134 -341 -301 -341h-257v316h-76v62h76v316h257c168 0 301 -158 301 -353zM565 342c0 181 -106 296 -240 296h-150v-260h101v-62h-101v-260h150c129 0 240 103 240 286z" />
    <glyph glyph-name="dcroat" unicode="&#x111;" horiz-adv-x="502" 
d="M499 538h-76v-538h-76v51c-50 -49 -106 -61 -143 -61c-95 0 -169 103 -169 232c0 130 78 232 173 232c43 0 95 -14 141 -52v136h-148v62h148v94h74v-94h76v-62zM347 118v223c-22 33 -54 53 -93 53c-58 0 -143 -40 -143 -173c0 -124 72 -171 133 -171c44 0 79 25 103 68z
" />
    <glyph glyph-name="Ddotbelow" unicode="&#x1e0c;" horiz-adv-x="704" 
d="M649 341c0 -190 -134 -341 -301 -341h-257v694h257c168 0 301 -158 301 -353zM565 342c0 181 -106 296 -240 296h-150v-582h150c129 0 240 103 240 286zM293 -200h-86v86h86v-86z" />
    <glyph glyph-name="ddotbelow" unicode="&#x1e0d;" horiz-adv-x="502" 
d="M423 0h-76v51c-50 -49 -106 -61 -143 -61c-95 0 -169 103 -169 232c0 130 78 232 173 232c43 0 95 -14 141 -52v292h74v-694zM347 118v223c-22 33 -54 53 -93 53c-58 0 -143 -40 -143 -173c0 -124 72 -171 133 -171c44 0 79 25 103 68zM294 -200h-86v86h86v-86z" />
    <glyph glyph-name="degree" unicode="&#xb0;" horiz-adv-x="367" 
d="M320 558c0 -75 -61 -136 -136 -136c-76 0 -136 61 -136 136c0 76 60 136 136 136c75 0 136 -60 136 -136zM284 558c0 56 -45 100 -100 100c-56 0 -100 -44 -100 -100c0 -55 44 -100 100 -100c55 0 100 45 100 100z" />
    <glyph glyph-name="Delta" unicode="&#x394;" horiz-adv-x="816" 
d="M774 0h-733l321 694h91zM642 81l-171 370l-37 83l-36 88c-11 -33 -32 -78 -67 -158l-176 -383h487z" />
    <glyph glyph-name="diameter" unicode="&#x2300;" horiz-adv-x="762" 
d="M707 558c0 -5 -2 -9 -5 -13l-92 -92c48 -54 77 -125 77 -203c0 -169 -137 -306 -306 -306c-78 0 -149 29 -203 77l-93 -93c-4 -3 -8 -5 -13 -5c-10 0 -18 8 -18 18c0 5 2 9 5 13l93 93c-48 54 -77 125 -77 203c0 169 137 306 306 306c78 0 149 -29 203 -77l92 92
c4 3 8 5 13 5c10 0 18 -8 18 -18zM651 250c0 68 -25 130 -67 178l-381 -381c48 -42 110 -67 178 -67c149 0 270 121 270 270zM559 453c-48 42 -110 67 -178 67c-149 0 -270 -121 -270 -270c0 -68 25 -130 67 -178z" />
    <glyph glyph-name="dieresis" unicode="&#xa8;" 
d="M213 572h-77v78h77v-78zM354 572h-77v78h77v-78z" />
    <glyph glyph-name="uni0308" unicode="&#x308;" horiz-adv-x="0" 
d="M-266 572h-77v78h77v-78zM-125 572h-77v78h77v-78z" />
    <glyph glyph-name="discount" unicode="&#x2052;" horiz-adv-x="489" 
d="M433 731c0 -3 0 -5 -1 -8c-24 -56 -54 -112 -81 -167l-62 -130l-186 -386c-3 -8 -12 -36 -28 -39h-2c-9 0 -18 8 -19 17c0 5 2 10 4 14l60 126l215 447c24 47 58 139 78 145c2 1 6 1 6 1c10 0 16 -10 16 -20zM416 19c-2 -14 -13 -18 -27 -18h-63c-13 0 -28 0 -28 23v79
c1 8 7 13 14 15c4 1 8 1 12 1h67c18 0 25 -10 25 -27v-73zM191 652c-2 -16 -14 -18 -27 -18h-67c-13 0 -24 4 -24 22v70c0 12 4 23 17 25c4 1 8 1 12 1h64c19 0 25 -11 25 -28v-72z" />
    <glyph glyph-name="divide" unicode="&#xf7;" horiz-adv-x="762" 
d="M707 250c0 -18 -18 -18 -32 -18h-589c-15 0 -32 0 -32 19c0 18 18 18 32 18h589c15 0 32 0 32 -19zM421 329h-81v81h81v-81zM421 91h-81v81h81v-81z" />
    <glyph glyph-name="divorced" unicode="&#x26ae;" horiz-adv-x="489" 
d="M161 249c0 -101 -65 -221 -181 -221c-114 0 -177 124 -177 223s54 209 166 222c4 0 8 1 12 1c116 0 180 -124 180 -225zM685 251c0 -86 -38 -172 -118 -209c-18 -8 -40 -14 -60 -14c-115 0 -180 123 -180 224c0 100 56 207 168 221c5 0 9 1 14 1c113 0 176 -123 176 -223
zM283 -113h-77v728h77v-728zM87 250c0 69 -26 154 -113 154c-86 -9 -102 -101 -102 -159v-11c7 -63 34 -136 109 -136h5c77 6 101 89 101 152zM616 249c0 58 -25 155 -102 155c-89 0 -113 -88 -113 -154c0 -67 28 -151 107 -151c72 0 102 71 107 134c1 5 1 11 1 16z" />
    <glyph glyph-name="Dlinebelow" unicode="&#x1e0e;" horiz-adv-x="704" 
d="M649 341c0 -190 -134 -341 -301 -341h-257v694h257c168 0 301 -158 301 -353zM565 342c0 181 -106 296 -240 296h-150v-582h150c129 0 240 103 240 286zM426 -188h-353v63h353v-63z" />
    <glyph glyph-name="dlinebelow" unicode="&#x1e0f;" horiz-adv-x="502" 
d="M423 0h-76v51c-50 -49 -106 -61 -143 -61c-95 0 -169 103 -169 232c0 130 78 232 173 232c43 0 95 -14 141 -52v292h74v-694zM347 118v223c-22 33 -54 53 -93 53c-58 0 -143 -40 -143 -173c0 -124 72 -171 133 -171c44 0 79 25 103 68zM427 -188h-353v63h353v-63z" />
    <glyph glyph-name="dong" unicode="&#x20ab;" horiz-adv-x="502" 
d="M474 546h-72v-511h-72v48c-48 -46 -101 -58 -136 -58c-90 0 -161 98 -161 221s74 220 165 220c40 0 90 -13 134 -49v129h-141v59h141v89h70v-89h72v-59zM474 -62h-441v62h441v-62zM330 147v212c-21 31 -52 50 -89 50c-55 0 -136 -38 -136 -164c0 -118 69 -163 127 -163
c42 0 75 24 98 65z" />
    <glyph glyph-name="dotaccent" unicode="&#x2d9;" horiz-adv-x="272" 
d="M179 568h-86v86h86v-86z" />
    <glyph glyph-name="uni0307" unicode="&#x307;" horiz-adv-x="0" 
d="M-191 568h-86v86h86v-86z" />
    <glyph glyph-name="uni0323" unicode="&#x323;" horiz-adv-x="0" 
d="M-191 -200h-86v86h86v-86z" />
    <glyph glyph-name="dotlessi" unicode="&#x131;" horiz-adv-x="230" 
d="M152 0h-74v444h74v-444z" />
    <glyph glyph-name="uni0237" unicode="&#x237;" horiz-adv-x="258" 
d="M179 -59c0 -93 -60 -145 -123 -145c-46 0 -86 15 -118 34l20 60c2 -3 29 -31 73 -31c21 0 74 6 74 72v513h74v-503z" />
    <glyph glyph-name="Eacute" unicode="&#xc9;" horiz-adv-x="583" 
d="M541 0h-451v692h438v-63h-180c-12 0 -24 1 -36 1h-136v-240h324v-60h-324v-263h198c12 0 24 1 36 1h131v-68zM482 867l-197 -122h-89l175 122h111z" />
    <glyph glyph-name="eacute" unicode="&#xe9;" horiz-adv-x="435" 
d="M407 225h-305c2 -106 68 -175 145 -175c30 0 89 7 148 57c0 -4 3 -27 3 -27s3 -33 3 -37c-55 -40 -110 -53 -156 -53c-116 0 -212 103 -212 235c0 130 90 234 198 234c29 0 99 -8 140 -77c32 -53 36 -114 36 -157zM348 279c-17 106 -86 120 -117 120
c-59 0 -106 -53 -123 -120h240zM355 694l-146 -167h-60l130 167h76z" />
    <glyph glyph-name="Ebreve" unicode="&#x114;" horiz-adv-x="583" 
d="M541 0h-451v692h438v-63h-180c-12 0 -24 1 -36 1h-136v-240h324v-60h-324v-263h198c12 0 24 1 36 1h131v-68zM457 923c-2 -105 -78 -178 -166 -178c-85 0 -163 71 -165 178h60c2 -72 54 -113 106 -113c48 0 103 38 105 113h60z" />
    <glyph glyph-name="ebreve" unicode="&#x115;" horiz-adv-x="435" 
d="M407 225h-305c2 -106 68 -175 145 -175c30 0 89 7 148 57c0 -4 3 -27 3 -27s3 -33 3 -37c-55 -40 -110 -53 -156 -53c-116 0 -212 103 -212 235c0 130 90 234 198 234c29 0 99 -8 140 -77c32 -53 36 -114 36 -157zM348 279c-17 106 -86 120 -117 120
c-59 0 -106 -53 -123 -120h240zM383 700c-2 -105 -78 -178 -166 -178c-85 0 -163 71 -165 178h60c2 -72 54 -113 106 -113c48 0 103 38 105 113h60z" />
    <glyph glyph-name="Ecaron" unicode="&#x11a;" horiz-adv-x="583" 
d="M541 0h-451v692h438v-63h-180c-12 0 -24 1 -36 1h-136v-240h324v-60h-324v-263h198c12 0 24 1 36 1h131v-68zM448 869l-126 -134h-60l-126 134h59l97 -97l97 97h59z" />
    <glyph glyph-name="ecaron" unicode="&#x11b;" horiz-adv-x="435" 
d="M407 225h-305c2 -106 68 -175 145 -175c30 0 89 7 148 57c0 -4 3 -27 3 -27s3 -33 3 -37c-55 -40 -110 -53 -156 -53c-116 0 -212 103 -212 235c0 130 90 234 198 234c29 0 99 -8 140 -77c32 -53 36 -114 36 -157zM348 279c-17 106 -86 120 -117 120
c-59 0 -106 -53 -123 -120h240zM373 697l-125 -172h-60l-125 172h59l96 -123l96 123h59z" />
    <glyph glyph-name="Ecircumflex" unicode="&#xca;" horiz-adv-x="583" 
d="M541 0h-451v692h438v-63h-180c-12 0 -24 1 -36 1h-136v-240h324v-60h-324v-263h198c12 0 24 1 36 1h131v-68zM448 735h-59l-97 97l-97 -97h-59l126 134h60z" />
    <glyph glyph-name="ecircumflex" unicode="&#xea;" horiz-adv-x="435" 
d="M407 225h-305c2 -106 68 -175 145 -175c30 0 89 7 148 57c0 -4 3 -27 3 -27s3 -33 3 -37c-55 -40 -110 -53 -156 -53c-116 0 -212 103 -212 235c0 130 90 234 198 234c29 0 99 -8 140 -77c32 -53 36 -114 36 -157zM348 279c-17 106 -86 120 -117 120
c-59 0 -106 -53 -123 -120h240zM373 525h-59l-96 123l-96 -123h-59l125 172h60z" />
    <glyph glyph-name="Ecircumflexacute" unicode="&#x1ebe;" horiz-adv-x="583" 
d="M541 0h-451v692h438v-63h-180c-12 0 -24 1 -36 1h-136v-240h324v-60h-324v-263h198c12 0 24 1 36 1h131v-68zM448 735h-59l-97 97l-97 -97h-59l126 134h60zM435 1026l-197 -122h-89l175 122h111z" />
    <glyph glyph-name="ecircumflexacute" unicode="&#x1ebf;" horiz-adv-x="435" 
d="M407 225h-305c2 -106 68 -175 145 -175c30 0 89 7 148 57c0 -4 3 -27 3 -27s3 -33 3 -37c-55 -40 -110 -53 -156 -53c-116 0 -212 103 -212 235c0 130 90 234 198 234c29 0 99 -8 140 -77c32 -53 36 -114 36 -157zM348 279c-17 106 -86 120 -117 120
c-59 0 -106 -53 -123 -120h240zM374 525h-59l-97 97l-97 -97h-59l126 134h60zM361 816l-197 -122h-89l175 122h111z" />
    <glyph glyph-name="Ecircumflexdotbelow" unicode="&#x1ec6;" horiz-adv-x="583" 
d="M541 0h-451v692h438v-63h-180c-12 0 -24 1 -36 1h-136v-240h324v-60h-324v-263h198c12 0 24 1 36 1h131v-68zM448 735h-59l-97 97l-97 -97h-59l126 134h60zM335 -200h-86v86h86v-86z" />
    <glyph glyph-name="ecircumflexdotbelow" unicode="&#x1ec7;" horiz-adv-x="435" 
d="M407 225h-305c2 -106 68 -175 145 -175c30 0 89 7 148 57c0 -4 3 -27 3 -27s3 -33 3 -37c-55 -40 -110 -53 -156 -53c-116 0 -212 103 -212 235c0 130 90 234 198 234c29 0 99 -8 140 -77c32 -53 36 -114 36 -157zM348 279c-17 106 -86 120 -117 120
c-59 0 -106 -53 -123 -120h240zM373 525h-59l-96 123l-96 -123h-59l125 172h60zM261 -200h-86v86h86v-86z" />
    <glyph glyph-name="Ecircumflexgrave" unicode="&#x1ec0;" horiz-adv-x="583" 
d="M541 0h-451v692h438v-63h-180c-12 0 -24 1 -36 1h-136v-240h324v-60h-324v-263h198c12 0 24 1 36 1h131v-68zM448 735h-59l-97 97l-97 -97h-59l126 134h60zM435 904l-175 122h-111l197 -122h89z" />
    <glyph glyph-name="ecircumflexgrave" unicode="&#x1ec1;" horiz-adv-x="435" 
d="M407 225h-305c2 -106 68 -175 145 -175c30 0 89 7 148 57c0 -4 3 -27 3 -27s3 -33 3 -37c-55 -40 -110 -53 -156 -53c-116 0 -212 103 -212 235c0 130 90 234 198 234c29 0 99 -8 140 -77c32 -53 36 -114 36 -157zM348 279c-17 106 -86 120 -117 120
c-59 0 -106 -53 -123 -120h240zM374 525h-59l-97 97l-97 -97h-59l126 134h60zM361 694l-175 122h-111l197 -122h89z" />
    <glyph glyph-name="Ecircumflexhookabove" unicode="&#x1ec2;" horiz-adv-x="583" 
d="M541 0h-451v692h438v-63h-180c-12 0 -24 1 -36 1h-136v-240h324v-60h-324v-263h198c12 0 24 1 36 1h131v-68zM448 735h-59l-97 97l-97 -97h-59l126 134h60zM482 1021c0 -20 -10 -39 -27 -50c-3 -3 -6 -5 -12 -8c-33 -21 -49 -35 -49 -59v-20h-1h-26v20c0 40 21 78 55 96
c9 4 15 12 15 21c0 13 -4 24 -13 31c-11 7 -24 8 -44 8c-30 0 -58 -17 -72 -44h-1h-1l-14 40c21 28 54 44 88 44c30 0 56 -6 75 -21c18 -13 27 -35 27 -58z" />
    <glyph glyph-name="ecircumflexhookabove" unicode="&#x1ec3;" horiz-adv-x="435" 
d="M407 225h-305c2 -106 68 -175 145 -175c30 0 89 7 148 57c0 -4 3 -27 3 -27s3 -33 3 -37c-55 -40 -110 -53 -156 -53c-116 0 -212 103 -212 235c0 130 90 234 198 234c29 0 99 -8 140 -77c32 -53 36 -114 36 -157zM348 279c-17 106 -86 120 -117 120
c-59 0 -106 -53 -123 -120h240zM374 525h-59l-97 97l-97 -97h-59l126 134h60zM408 811c0 -20 -10 -39 -27 -50c-3 -3 -6 -5 -12 -8c-33 -21 -49 -35 -49 -59v-20h-1h-26v20c0 40 21 78 55 96c9 4 15 12 15 21c0 13 -4 24 -13 31c-11 7 -24 8 -44 8c-30 0 -58 -17 -72 -44h-1
h-1l-14 40c21 28 54 44 88 44c30 0 56 -6 75 -21c18 -13 27 -35 27 -58z" />
    <glyph glyph-name="Ecircumflextilde" unicode="&#x1ec4;" horiz-adv-x="583" 
d="M541 0h-451v692h438v-63h-180c-12 0 -24 1 -36 1h-136v-240h324v-60h-324v-263h198c12 0 24 1 36 1h131v-68zM448 735h-59l-97 97l-97 -97h-59l126 134h60zM455 1042c-2 -79 -52 -118 -95 -118c-25 0 -45 12 -74 33c-10 7 -35 25 -58 25c-29 0 -38 -32 -38 -58h-60
c2 79 52 118 95 118c25 0 45 -12 74 -33c10 -7 35 -25 58 -25c29 0 38 32 38 58h60z" />
    <glyph glyph-name="ecircumflextilde" unicode="&#x1ec5;" horiz-adv-x="435" 
d="M407 225h-305c2 -106 68 -175 145 -175c30 0 89 7 148 57c0 -4 3 -27 3 -27s3 -33 3 -37c-55 -40 -110 -53 -156 -53c-116 0 -212 103 -212 235c0 130 90 234 198 234c29 0 99 -8 140 -77c32 -53 36 -114 36 -157zM348 279c-17 106 -86 120 -117 120
c-59 0 -106 -53 -123 -120h240zM374 525h-59l-97 97l-97 -97h-59l126 134h60zM381 832c-2 -79 -52 -118 -95 -118c-25 0 -45 12 -74 33c-10 7 -35 25 -58 25c-29 0 -38 -32 -38 -58h-60c2 79 52 118 95 118c25 0 45 -12 74 -33c10 -7 35 -25 58 -25c29 0 38 32 38 58h60z
" />
    <glyph glyph-name="Edblgrave" unicode="&#x204;" horiz-adv-x="583" 
d="M541 0h-451v692h438v-63h-180c-12 0 -24 1 -36 1h-136v-240h324v-60h-324v-263h198c12 0 24 1 36 1h131v-68zM431 745h-60l-78 167h76zM268 745h-60l-78 167h76z" />
    <glyph glyph-name="edblgrave" unicode="&#x205;" horiz-adv-x="435" 
d="M407 225h-305c2 -106 68 -175 145 -175c30 0 89 7 148 57c0 -4 3 -27 3 -27s3 -33 3 -37c-55 -40 -110 -53 -156 -53c-116 0 -212 103 -212 235c0 130 90 234 198 234c29 0 99 -8 140 -77c32 -53 36 -114 36 -157zM348 279c-17 106 -86 120 -117 120
c-59 0 -106 -53 -123 -120h240zM357 527h-60l-78 167h76zM194 527h-60l-78 167h76z" />
    <glyph glyph-name="Edieresis" unicode="&#xcb;" horiz-adv-x="583" 
d="M541 0h-451v692h438v-63h-180c-12 0 -24 1 -36 1h-136v-240h324v-60h-324v-263h198c12 0 24 1 36 1h131v-68zM247 735h-77v78h77v-78zM414 735h-77v78h77v-78z" />
    <glyph glyph-name="edieresis" unicode="&#xeb;" horiz-adv-x="435" 
d="M407 225h-305c2 -106 68 -175 145 -175c30 0 89 7 148 57c0 -4 3 -27 3 -27s3 -33 3 -37c-55 -40 -110 -53 -156 -53c-116 0 -212 103 -212 235c0 130 90 234 198 234c29 0 99 -8 140 -77c32 -53 36 -114 36 -157zM348 279c-17 106 -86 120 -117 120
c-59 0 -106 -53 -123 -120h240zM186 572h-77v78h77v-78zM327 572h-77v78h77v-78z" />
    <glyph glyph-name="Edotaccent" unicode="&#x116;" horiz-adv-x="583" 
d="M541 0h-451v692h438v-63h-180c-12 0 -24 1 -36 1h-136v-240h324v-60h-324v-263h198c12 0 24 1 36 1h131v-68zM335 735h-86v86h86v-86z" />
    <glyph glyph-name="edotaccent" unicode="&#x117;" horiz-adv-x="435" 
d="M407 225h-305c2 -106 68 -175 145 -175c30 0 89 7 148 57c0 -4 3 -27 3 -27s3 -33 3 -37c-55 -40 -110 -53 -156 -53c-116 0 -212 103 -212 235c0 130 90 234 198 234c29 0 99 -8 140 -77c32 -53 36 -114 36 -157zM348 279c-17 106 -86 120 -117 120
c-59 0 -106 -53 -123 -120h240zM261 568h-86v86h86v-86z" />
    <glyph glyph-name="Edotbelow" unicode="&#x1eb8;" horiz-adv-x="583" 
d="M541 0h-451v692h438v-63h-180c-12 0 -24 1 -36 1h-136v-240h324v-60h-324v-263h198c12 0 24 1 36 1h131v-68zM335 -200h-86v86h86v-86z" />
    <glyph glyph-name="edotbelow" unicode="&#x1eb9;" horiz-adv-x="435" 
d="M407 225h-305c2 -106 68 -175 145 -175c30 0 89 7 148 57c0 -4 3 -27 3 -27s3 -33 3 -37c-55 -40 -110 -53 -156 -53c-116 0 -212 103 -212 235c0 130 90 234 198 234c29 0 99 -8 140 -77c32 -53 36 -114 36 -157zM348 279c-17 106 -86 120 -117 120
c-59 0 -106 -53 -123 -120h240zM261 -200h-86v86h86v-86z" />
    <glyph glyph-name="Egrave" unicode="&#xc8;" horiz-adv-x="583" 
d="M541 0h-451v692h438v-63h-180c-12 0 -24 1 -36 1h-136v-240h324v-60h-324v-263h198c12 0 24 1 36 1h131v-68zM388 745h-89l-197 122h111z" />
    <glyph glyph-name="egrave" unicode="&#xe8;" horiz-adv-x="435" 
d="M407 225h-305c2 -106 68 -175 145 -175c30 0 89 7 148 57c0 -4 3 -27 3 -27s3 -33 3 -37c-55 -40 -110 -53 -156 -53c-116 0 -212 103 -212 235c0 130 90 234 198 234c29 0 99 -8 140 -77c32 -53 36 -114 36 -157zM348 279c-17 106 -86 120 -117 120
c-59 0 -106 -53 -123 -120h240zM287 527h-60l-146 167h76z" />
    <glyph glyph-name="Ehookabove" unicode="&#x1eba;" horiz-adv-x="583" 
d="M541 0h-451v692h438v-63h-180c-12 0 -24 1 -36 1h-136v-240h324v-60h-324v-263h198c12 0 24 1 36 1h131v-68zM387 872c0 -20 -10 -39 -27 -50c-3 -3 -6 -5 -12 -8c-33 -21 -49 -35 -49 -59v-20h-1h-26v20c0 40 21 78 55 96c9 4 15 12 15 21c0 13 -4 24 -13 31
c-11 7 -24 8 -44 8c-30 0 -58 -17 -72 -44h-1h-1l-14 40c21 28 54 44 88 44c30 0 56 -6 75 -21c18 -13 27 -35 27 -58z" />
    <glyph glyph-name="ehookabove" unicode="&#x1ebb;" horiz-adv-x="435" 
d="M407 225h-305c2 -106 68 -175 145 -175c30 0 89 7 148 57c0 -4 3 -27 3 -27s3 -33 3 -37c-55 -40 -110 -53 -156 -53c-116 0 -212 103 -212 235c0 130 90 234 198 234c29 0 99 -8 140 -77c32 -53 36 -114 36 -157zM348 279c-17 106 -86 120 -117 120
c-59 0 -106 -53 -123 -120h240zM313 640c0 -20 -10 -39 -27 -50c-3 -3 -6 -5 -12 -8c-33 -21 -49 -35 -49 -59v-20h-1h-26v20c0 40 21 78 55 96c9 4 15 12 15 21c0 13 -4 24 -13 31c-11 7 -24 8 -44 8c-30 0 -58 -17 -72 -44h-1h-1l-14 40c21 28 54 44 88 44
c30 0 56 -6 75 -21c18 -13 27 -35 27 -58z" />
    <glyph glyph-name="ellipsis" unicode="&#x2026;" horiz-adv-x="612" 
d="M177 0h-81v81h81v-81zM347 0h-81v81h81v-81zM517 0h-81v81h81v-81z" />
    <glyph glyph-name="Emacron" unicode="&#x112;" horiz-adv-x="583" 
d="M541 0h-451v692h438v-63h-180c-12 0 -24 1 -36 1h-136v-240h324v-60h-324v-263h198c12 0 24 1 36 1h131v-68zM468 755h-353v63h353v-63z" />
    <glyph glyph-name="emacron" unicode="&#x113;" horiz-adv-x="435" 
d="M407 225h-305c2 -106 68 -175 145 -175c30 0 89 7 148 57c0 -4 3 -27 3 -27s3 -33 3 -37c-55 -40 -110 -53 -156 -53c-116 0 -212 103 -212 235c0 130 90 234 198 234c29 0 99 -8 140 -77c32 -53 36 -114 36 -157zM348 279c-17 106 -86 120 -117 120
c-59 0 -106 -53 -123 -120h240zM394 579h-353v63h353v-63z" />
    <glyph glyph-name="emdash" unicode="&#x2014;" horiz-adv-x="979" 
d="M978 244h-978v60h978v-60z" />
    <glyph glyph-name="endash" unicode="&#x2013;" 
d="M489 244h-489v60h489v-60z" />
    <glyph glyph-name="Eng" unicode="&#x14a;" horiz-adv-x="686" 
d="M595 347c0 -180 -60 -368 -218 -368v76c119 0 132 154 132 292s-13 292 -132 292c-100 0 -181 -76 -201 -174v-465h-86v694h86v-68c51 55 122 89 201 89c158 0 218 -187 218 -368z" />
    <glyph glyph-name="eng" unicode="&#x14b;" horiz-adv-x="502" 
d="M424 0c0 -106 -53 -208 -148 -208v62c60 0 72 76 72 146v294c0 35 -3 100 -96 100c-76 0 -99 -83 -99 -145v-249h-76v449h71v-68c38 48 86 73 142 73c121 0 134 -92 134 -153v-301z" />
    <glyph glyph-name="Eogonek" unicode="&#x118;" horiz-adv-x="583" 
d="M546 -187c-40 -19 -65 -25 -98 -25c-67 0 -98 42 -99 85c-3 51 45 102 87 127h-346v692h438v-63h-180c-12 0 -24 1 -36 1h-136v-240h324v-60h-324v-263h198c12 0 24 1 36 1h131v-68h-42c-46 -26 -88 -60 -87 -104c1 -30 25 -36 53 -38c22 -1 45 5 67 14z" />
    <glyph glyph-name="eogonek" unicode="&#x119;" horiz-adv-x="435" 
d="M407 225h-305c2 -106 68 -175 145 -175c30 0 89 7 148 57c0 -4 3 -27 3 -27s3 -33 3 -37c-28 -20 -55 -32 -82 -41c-46 -26 -89 -62 -88 -106c1 -30 25 -36 53 -38c22 -1 45 5 67 14l14 -59c-40 -19 -65 -25 -98 -25c-67 0 -98 42 -99 85c-3 47 26 88 70 117
c-113 4 -205 106 -205 235c0 130 90 234 198 234c29 0 99 -8 140 -77c32 -53 36 -114 36 -157zM348 279c-17 106 -86 120 -117 120c-59 0 -106 -53 -123 -120h240z" />
    <glyph glyph-name="Epsilon" unicode="&#x395;" horiz-adv-x="583" 
d="M541 0h-451v692h438v-63h-180c-12 0 -24 1 -36 1h-136v-240h324v-60h-324v-263h198c12 0 24 1 36 1h131v-68z" />
    <glyph glyph-name="Ereversed" unicode="&#x18e;" horiz-adv-x="583" 
d="M541 0h-451v68h131c12 0 24 -1 36 -1h198v263h-324v60h324v240h-136c-12 0 -24 -1 -36 -1h-180v63h438v-692z" />
    <glyph glyph-name="ereversed" unicode="&#x258;" horiz-adv-x="435" 
d="M407 225c0 -132 -96 -235 -212 -235c-46 0 -101 13 -156 53c0 4 3 37 3 37s3 23 3 27c59 -50 118 -57 148 -57c77 0 143 69 145 175h-305c0 43 4 104 36 157c41 69 111 77 140 77c108 0 198 -104 198 -234zM332 279c-17 67 -64 120 -123 120c-31 0 -100 -14 -117 -120
h240z" />
    <glyph glyph-name="estimated" unicode="&#x212e;" horiz-adv-x="655" 
d="M627 362h-517v-35c10 -146 107 -267 234 -276h13c65 0 130 11 192 31c22 8 44 18 66 26c1 -19 6 -39 6 -58c0 -10 -12 -12 -20 -15c-82 -29 -164 -44 -250 -44c-9 0 -17 0 -26 1c-175 23 -294 176 -298 345v8c0 176 117 365 317 365c70 0 143 -24 192 -73
c72 -71 91 -178 91 -275zM549 417c-6 58 -22 123 -62 169c-36 42 -90 64 -144 64c-134 0 -203 -122 -228 -233h434z" />
    <glyph glyph-name="Eta" unicode="&#x397;" horiz-adv-x="686" 
d="M595 0h-86v331h-333v-331h-86v694h86v-303h333v303h86v-694z" />
    <glyph glyph-name="Eth" unicode="&#xd0;" horiz-adv-x="704" 
d="M649 341c0 -190 -134 -341 -301 -341h-257v316h-76v62h76v316h257c168 0 301 -158 301 -353zM565 342c0 181 -106 296 -240 296h-150v-260h101v-62h-101v-260h150c129 0 240 103 240 286z" />
    <glyph glyph-name="eth" unicode="&#xf0;" 
d="M455 219c-3 -140 -106 -229 -211 -229c-114 0 -211 101 -211 230c0 134 97 239 211 239c47 0 85 -18 101 -27c-29 60 -70 114 -118 158l-72 -57l-36 46l61 48c-31 21 -64 39 -99 53l39 49c41 -15 80 -36 114 -60l74 58l36 -46l-63 -49c113 -102 177 -253 174 -413z
M385 225c0 97 -56 174 -142 174c-66 0 -140 -51 -140 -169c0 -117 68 -178 141 -178c85 0 141 77 141 173z" />
    <glyph glyph-name="Etilde" unicode="&#x1ebc;" horiz-adv-x="583" 
d="M541 0h-451v692h438v-63h-180c-12 0 -24 1 -36 1h-136v-240h324v-60h-324v-263h198c12 0 24 1 36 1h131v-68zM454 853c-2 -79 -52 -118 -95 -118c-25 0 -45 12 -74 33c-10 7 -35 25 -58 25c-29 0 -38 -32 -38 -58h-60c2 79 52 118 95 118c25 0 45 -12 74 -33
c10 -7 35 -25 58 -25c29 0 38 32 38 58h60z" />
    <glyph glyph-name="etilde" unicode="&#x1ebd;" horiz-adv-x="435" 
d="M407 225h-305c2 -106 68 -175 145 -175c30 0 89 7 148 57c0 -4 3 -27 3 -27s3 -33 3 -37c-55 -40 -110 -53 -156 -53c-116 0 -212 103 -212 235c0 130 90 234 198 234c29 0 99 -8 140 -77c32 -53 36 -114 36 -157zM348 279c-17 106 -86 120 -117 120
c-59 0 -106 -53 -123 -120h240zM380 670c-2 -79 -52 -118 -95 -118c-25 0 -45 12 -74 33c-10 7 -35 25 -58 25c-29 0 -38 -32 -38 -58h-60c2 79 52 118 95 118c25 0 45 -12 74 -33c10 -7 35 -25 58 -25c29 0 38 32 38 58h60z" />
    <glyph glyph-name="eturned" unicode="&#x1dd;" horiz-adv-x="435" 
d="M407 224c0 -130 -90 -234 -198 -234c-29 0 -99 8 -140 77c-32 53 -36 114 -36 157h305c-2 106 -68 175 -145 175c-30 0 -89 -7 -148 -57c0 4 -3 27 -3 27s-3 33 -3 37c55 40 110 53 156 53c116 0 212 -103 212 -235zM332 170h-240c17 -106 86 -120 117 -120
c59 0 106 53 123 120z" />
    <glyph glyph-name="Euro" unicode="&#x20ac;" horiz-adv-x="586" 
d="M537 35c-52 -45 -81 -56 -149 -56c-77 0 -144 46 -190 108c-36 50 -59 108 -70 168h-79l10 56h62c-1 12 -1 24 -1 36s0 24 1 36h-72l10 56h69c11 61 34 118 70 169c46 62 113 107 190 107c53 0 91 -9 138 -34l-15 -83c-35 39 -71 55 -123 55c-56 0 -100 -41 -129 -89
c-23 -39 -37 -81 -45 -125h269l-10 -56h-266c-1 -12 -1 -24 -1 -36s0 -24 1 -36h254l-10 -56h-237c8 -44 22 -86 45 -124c29 -49 73 -90 129 -90c68 0 97 13 143 64z" />
    <glyph glyph-name="exclamdown" unicode="&#xa1;" horiz-adv-x="311" 
d="M196 419h-81v81h81v-81zM196 -194h-81l8 521h65z" />
    <glyph glyph-name="florin" unicode="&#x192;" horiz-adv-x="299" 
d="M339 628c-12 5 -43 16 -78 16c-33 0 -90 -12 -90 -80v-120h109v-58h-107v-386h-74v386h-73v58h73v90c0 97 68 170 163 170c37 0 70 -8 77 -10v-66z" />
    <glyph glyph-name="fraction" unicode="&#x2044;" horiz-adv-x="542" 
d="M488 674l-392 -654h-42l392 654h42z" />
    <glyph glyph-name="fraction.alt" unicode="&#x2215;" horiz-adv-x="0" 
d="M217 674l-392 -654h-42l392 654h42z" />
    <glyph glyph-name="Gacute" unicode="&#x1f4;" horiz-adv-x="653" 
d="M586 38c-64 -32 -135 -49 -206 -49c-86 0 -166 41 -222 105c-62 70 -92 161 -92 253c0 93 30 184 92 253c56 65 136 105 222 105c34 0 69 -3 102 -11c34 -8 66 -22 96 -38l-14 -83c-26 22 -54 42 -86 53c-31 12 -65 16 -98 16c-64 0 -122 -35 -162 -86
c-46 -59 -67 -134 -67 -209s21 -149 67 -208c40 -51 98 -87 162 -87c44 0 88 7 129 21v170h-129v60h206v-265zM517 867l-197 -122h-89l175 122h111z" />
    <glyph glyph-name="gacute" unicode="&#x1f5;" 
d="M475 393c-25 2 -48 2 -51 2c-37 0 -59 -3 -80 -5c-1 2 -3 4 -3 4c20 -28 33 -65 33 -101c0 -91 -71 -162 -157 -162c-40 0 -73 17 -90 29c-6 -9 -10 -15 -10 -37c0 -53 43 -53 57 -53h85c41 0 203 0 203 -140c0 -76 -96 -135 -218 -135s-217 61 -217 134
c0 28 12 71 63 104c-11 13 -25 38 -25 75c0 24 6 54 29 86c-22 30 -33 63 -33 99c0 88 70 161 157 161c20 0 60 -5 93 -33c66 32 134 33 153 33zM305 293c0 76 -44 106 -88 106c-31 0 -87 -18 -87 -107c0 -76 44 -106 88 -106c31 0 87 18 87 107zM392 -71
c0 69 -110 69 -132 69h-87c-76 0 -76 -65 -76 -68c0 -49 70 -80 148 -80s147 33 147 79zM348 694l-146 -167h-60l130 167h76z" />
    <glyph glyph-name="Gamma" unicode="&#x393;" horiz-adv-x="529" 
d="M487 629h-159c-12 0 -24 1 -36 1h-116v-630h-86v692h397v-63z" />
    <glyph glyph-name="Gbreve" unicode="&#x11e;" horiz-adv-x="653" 
d="M586 38c-64 -32 -135 -49 -206 -49c-86 0 -166 41 -222 105c-62 70 -92 161 -92 253c0 93 30 184 92 253c56 65 136 105 222 105c34 0 69 -3 102 -11c34 -8 66 -22 96 -38l-14 -83c-26 22 -54 42 -86 53c-31 12 -65 16 -98 16c-64 0 -122 -35 -162 -86
c-46 -59 -67 -134 -67 -209s21 -149 67 -208c40 -51 98 -87 162 -87c44 0 88 7 129 21v170h-129v60h206v-265zM492 923c-2 -105 -78 -178 -166 -178c-85 0 -163 71 -165 178h60c2 -72 54 -113 106 -113c48 0 103 38 105 113h60z" />
    <glyph glyph-name="gbreve" unicode="&#x11f;" 
d="M475 393c-25 2 -48 2 -51 2c-37 0 -59 -3 -80 -5c-1 2 -3 4 -3 4c20 -28 33 -65 33 -101c0 -91 -71 -162 -157 -162c-40 0 -73 17 -90 29c-6 -9 -10 -15 -10 -37c0 -53 43 -53 57 -53h85c41 0 203 0 203 -140c0 -76 -96 -135 -218 -135s-217 61 -217 134
c0 28 12 71 63 104c-11 13 -25 38 -25 75c0 24 6 54 29 86c-22 30 -33 63 -33 99c0 88 70 161 157 161c20 0 60 -5 93 -33c66 32 134 33 153 33zM305 293c0 76 -44 106 -88 106c-31 0 -87 -18 -87 -107c0 -76 44 -106 88 -106c31 0 87 18 87 107zM392 -71
c0 69 -110 69 -132 69h-87c-76 0 -76 -65 -76 -68c0 -49 70 -80 148 -80s147 33 147 79zM376 700c-2 -105 -78 -178 -166 -178c-85 0 -163 71 -165 178h60c2 -72 54 -113 106 -113c48 0 103 38 105 113h60z" />
    <glyph glyph-name="Gcaron" unicode="&#x1e6;" horiz-adv-x="653" 
d="M586 38c-64 -32 -135 -49 -206 -49c-86 0 -166 41 -222 105c-62 70 -92 161 -92 253c0 93 30 184 92 253c56 65 136 105 222 105c34 0 69 -3 102 -11c34 -8 66 -22 96 -38l-14 -83c-26 22 -54 42 -86 53c-31 12 -65 16 -98 16c-64 0 -122 -35 -162 -86
c-46 -59 -67 -134 -67 -209s21 -149 67 -208c40 -51 98 -87 162 -87c44 0 88 7 129 21v170h-129v60h206v-265zM483 869l-126 -134h-60l-126 134h59l97 -97l97 97h59z" />
    <glyph glyph-name="gcaron" unicode="&#x1e7;" 
d="M475 393c-25 2 -48 2 -51 2c-37 0 -59 -3 -80 -5c-1 2 -3 4 -3 4c20 -28 33 -65 33 -101c0 -91 -71 -162 -157 -162c-40 0 -73 17 -90 29c-6 -9 -10 -15 -10 -37c0 -53 43 -53 57 -53h85c41 0 203 0 203 -140c0 -76 -96 -135 -218 -135s-217 61 -217 134
c0 28 12 71 63 104c-11 13 -25 38 -25 75c0 24 6 54 29 86c-22 30 -33 63 -33 99c0 88 70 161 157 161c20 0 60 -5 93 -33c66 32 134 33 153 33zM305 293c0 76 -44 106 -88 106c-31 0 -87 -18 -87 -107c0 -76 44 -106 88 -106c31 0 87 18 87 107zM392 -71
c0 69 -110 69 -132 69h-87c-76 0 -76 -65 -76 -68c0 -49 70 -80 148 -80s147 33 147 79zM366 697l-125 -172h-60l-125 172h59l96 -123l96 123h59z" />
    <glyph glyph-name="Gcircumflex" unicode="&#x11c;" horiz-adv-x="653" 
d="M586 38c-64 -32 -135 -49 -206 -49c-86 0 -166 41 -222 105c-62 70 -92 161 -92 253c0 93 30 184 92 253c56 65 136 105 222 105c34 0 69 -3 102 -11c34 -8 66 -22 96 -38l-14 -83c-26 22 -54 42 -86 53c-31 12 -65 16 -98 16c-64 0 -122 -35 -162 -86
c-46 -59 -67 -134 -67 -209s21 -149 67 -208c40 -51 98 -87 162 -87c44 0 88 7 129 21v170h-129v60h206v-265zM483 735h-59l-97 97l-97 -97h-59l126 134h60z" />
    <glyph glyph-name="gcircumflex" unicode="&#x11d;" 
d="M475 393c-25 2 -48 2 -51 2c-37 0 -59 -3 -80 -5c-1 2 -3 4 -3 4c20 -28 33 -65 33 -101c0 -91 -71 -162 -157 -162c-40 0 -73 17 -90 29c-6 -9 -10 -15 -10 -37c0 -53 43 -53 57 -53h85c41 0 203 0 203 -140c0 -76 -96 -135 -218 -135s-217 61 -217 134
c0 28 12 71 63 104c-11 13 -25 38 -25 75c0 24 6 54 29 86c-22 30 -33 63 -33 99c0 88 70 161 157 161c20 0 60 -5 93 -33c66 32 134 33 153 33zM305 293c0 76 -44 106 -88 106c-31 0 -87 -18 -87 -107c0 -76 44 -106 88 -106c31 0 87 18 87 107zM392 -71
c0 69 -110 69 -132 69h-87c-76 0 -76 -65 -76 -68c0 -49 70 -80 148 -80s147 33 147 79zM366 525h-59l-96 123l-96 -123h-59l125 172h60z" />
    <glyph glyph-name="Gcommaaccent" unicode="&#x122;" horiz-adv-x="653" 
d="M586 38c-64 -32 -135 -49 -206 -49c-86 0 -166 41 -222 105c-62 70 -92 161 -92 253c0 93 30 184 92 253c56 65 136 105 222 105c34 0 69 -3 102 -11c34 -8 66 -22 96 -38l-14 -83c-26 22 -54 42 -86 53c-31 12 -65 16 -98 16c-64 0 -122 -35 -162 -86
c-46 -59 -67 -134 -67 -209s21 -149 67 -208c40 -51 98 -87 162 -87c44 0 88 7 129 21v170h-129v60h206v-265zM363 -148l-37 -113h-36l23 113h-23v72h73v-72z" />
    <glyph glyph-name="gcommaaccent" unicode="&#x123;" 
d="M248 540h-73v72l37 113h36l-23 -113h23v-72zM475 393c-25 2 -48 2 -51 2c-37 0 -59 -3 -80 -5c-1 2 -3 4 -3 4c20 -28 33 -65 33 -101c0 -91 -71 -162 -157 -162c-40 0 -73 17 -90 29c-6 -9 -10 -15 -10 -37c0 -53 43 -53 57 -53h85c41 0 203 0 203 -140
c0 -76 -96 -135 -218 -135s-217 61 -217 134c0 28 12 71 63 104c-11 13 -25 38 -25 75c0 24 6 54 29 86c-22 30 -33 63 -33 99c0 88 70 161 157 161c20 0 60 -5 93 -33c66 32 134 33 153 33zM305 293c0 76 -44 106 -88 106c-31 0 -87 -18 -87 -107c0 -76 44 -106 88 -106
c31 0 87 18 87 107zM392 -71c0 69 -110 69 -132 69h-87c-76 0 -76 -65 -76 -68c0 -49 70 -80 148 -80s147 33 147 79z" />
    <glyph glyph-name="Gdotaccent" unicode="&#x120;" horiz-adv-x="653" 
d="M586 38c-64 -32 -135 -49 -206 -49c-86 0 -166 41 -222 105c-62 70 -92 161 -92 253c0 93 30 184 92 253c56 65 136 105 222 105c34 0 69 -3 102 -11c34 -8 66 -22 96 -38l-14 -83c-26 22 -54 42 -86 53c-31 12 -65 16 -98 16c-64 0 -122 -35 -162 -86
c-46 -59 -67 -134 -67 -209s21 -149 67 -208c40 -51 98 -87 162 -87c44 0 88 7 129 21v170h-129v60h206v-265zM369 735h-86v86h86v-86z" />
    <glyph glyph-name="gdotaccent" unicode="&#x121;" 
d="M475 393c-25 2 -48 2 -51 2c-37 0 -59 -3 -80 -5c-1 2 -3 4 -3 4c20 -28 33 -65 33 -101c0 -91 -71 -162 -157 -162c-40 0 -73 17 -90 29c-6 -9 -10 -15 -10 -37c0 -53 43 -53 57 -53h85c41 0 203 0 203 -140c0 -76 -96 -135 -218 -135s-217 61 -217 134
c0 28 12 71 63 104c-11 13 -25 38 -25 75c0 24 6 54 29 86c-22 30 -33 63 -33 99c0 88 70 161 157 161c20 0 60 -5 93 -33c66 32 134 33 153 33zM305 293c0 76 -44 106 -88 106c-31 0 -87 -18 -87 -107c0 -76 44 -106 88 -106c31 0 87 18 87 107zM392 -71
c0 69 -110 69 -132 69h-87c-76 0 -76 -65 -76 -68c0 -49 70 -80 148 -80s147 33 147 79zM254 568h-86v86h86v-86z" />
    <glyph glyph-name="germandbls" unicode="&#xdf;" horiz-adv-x="469" 
d="M441 179c0 -107 -78 -189 -173 -189c-41 0 -87 14 -87 19l4 11l16 44c25 -11 52 -14 66 -14c58 0 99 51 99 129c0 106 -59 202 -160 205v60c101 2 133 69 133 114c0 57 -44 86 -93 86c-21 0 -94 -4 -94 -94v-550h-74v552c0 102 90 152 168 152c93 0 168 -65 168 -146
c0 -57 -35 -113 -96 -147c85 -51 123 -148 123 -232z" />
    <glyph glyph-name="uni0300" unicode="&#x300;" horiz-adv-x="0" 
d="M-165 527h-60l-146 167h76z" />
    <glyph glyph-name="guillemotleft" unicode="&#xab;" 
d="M272 0h-60l-103 225l103 224h60l-87 -224zM435 0h-60l-103 225l103 224h60l-87 -224z" />
    <glyph glyph-name="guillemotright" unicode="&#xbb;" 
d="M381 225l-103 -225h-60l87 225l-87 224h60zM218 225l-103 -225h-60l87 225l-87 224h60z" />
    <glyph glyph-name="guilsinglleft" unicode="&#x2039;" horiz-adv-x="327" 
d="M272 0h-60l-103 225l103 224h60l-87 -224z" />
    <glyph glyph-name="guilsinglright" unicode="&#x203a;" horiz-adv-x="327" 
d="M218 225l-103 -225h-60l87 225l-87 224h60z" />
    <glyph glyph-name="Hbar" unicode="&#x126;" horiz-adv-x="686" 
d="M646 490h-51v-490h-86v331h-333v-331h-86v490h-51v62h51v142h86v-142h333v142h86v-142h51v-62zM509 391v99h-333v-99h333z" />
    <glyph glyph-name="hbar" unicode="&#x127;" horiz-adv-x="502" 
d="M424 0h-76v294c0 35 -3 100 -96 100c-76 0 -99 -83 -99 -145v-249h-76v538h-76v62h76v94h74v-94h100v-62h-100v-153c24 30 70 69 139 69c121 0 134 -92 134 -153v-301z" />
    <glyph glyph-name="Hbrevebelow" unicode="&#x1e2a;" horiz-adv-x="686" 
d="M595 0h-86v331h-333v-331h-86v694h86v-303h333v303h86v-694zM508 -68c-2 -105 -78 -178 -166 -178c-85 0 -163 71 -165 178h60c2 -72 54 -113 106 -113c48 0 103 38 105 113h60z" />
    <glyph glyph-name="hbrevebelow" unicode="&#x1e2b;" horiz-adv-x="502" 
d="M424 0h-76v294c0 35 -3 100 -96 100c-76 0 -99 -83 -99 -145v-249h-76v694h74v-309c24 30 70 69 139 69c121 0 134 -92 134 -153v-301zM416 -68c-2 -105 -78 -178 -166 -178c-85 0 -163 71 -165 178h60c2 -72 54 -113 106 -113c48 0 103 38 105 113h60z" />
    <glyph glyph-name="Hcircumflex" unicode="&#x124;" horiz-adv-x="686" 
d="M595 0h-86v331h-333v-331h-86v694h86v-303h333v303h86v-694zM499 735h-59l-97 97l-97 -97h-59l126 134h60z" />
    <glyph glyph-name="hcircumflex" unicode="&#x125;" horiz-adv-x="502" 
d="M424 0h-76v294c0 35 -3 100 -96 100c-76 0 -99 -83 -99 -145v-249h-76v694h74v-309c24 30 70 69 139 69c121 0 134 -92 134 -153v-301zM407 735h-59l-97 97l-97 -97h-59l126 134h60z" />
    <glyph glyph-name="Hdieresis" unicode="&#x1e26;" horiz-adv-x="686" 
d="M595 0h-86v331h-333v-331h-86v694h86v-303h333v303h86v-694zM298 735h-77v78h77v-78zM465 735h-77v78h77v-78z" />
    <glyph glyph-name="hdieresis" unicode="&#x1e27;" horiz-adv-x="502" 
d="M424 0h-76v294c0 35 -3 100 -96 100c-76 0 -99 -83 -99 -145v-249h-76v694h74v-309c24 30 70 69 139 69c121 0 134 -92 134 -153v-301zM206 735h-77v78h77v-78zM373 735h-77v78h77v-78z" />
    <glyph glyph-name="Hdotbelow" unicode="&#x1e24;" horiz-adv-x="686" 
d="M595 0h-86v331h-333v-331h-86v694h86v-303h333v303h86v-694zM386 -200h-86v86h86v-86z" />
    <glyph glyph-name="hdotbelow" unicode="&#x1e25;" horiz-adv-x="502" 
d="M424 0h-76v294c0 35 -3 100 -96 100c-76 0 -99 -83 -99 -145v-249h-76v694h74v-309c24 30 70 69 139 69c121 0 134 -92 134 -153v-301zM294 -200h-86v86h86v-86z" />
    <glyph glyph-name="uni0309" unicode="&#x309;" horiz-adv-x="0" 
d="M-139 640c0 -20 -10 -39 -27 -50c-3 -3 -6 -5 -12 -8c-33 -21 -49 -35 -49 -59v-20h-1h-26v20c0 40 21 78 55 96c9 4 15 12 15 21c0 13 -4 24 -13 31c-11 7 -24 8 -44 8c-30 0 -58 -17 -72 -44h-1h-1l-14 40c21 28 54 44 88 44c30 0 56 -6 75 -21c18 -13 27 -35 27 -58z
" />
    <glyph glyph-name="hungarumlaut" unicode="&#x2dd;" 
d="M244 694l-78 -167h-60l62 167h76zM407 694l-78 -167h-60l62 167h76z" />
    <glyph glyph-name="uni030B" unicode="&#x30b;" horiz-adv-x="0" 
d="M-235 694l-78 -167h-60l62 167h76zM-72 694l-78 -167h-60l62 167h76z" />
    <glyph glyph-name="Iacute" unicode="&#xcd;" horiz-adv-x="266" 
d="M176 0h-86v694h86v-694zM376 867l-197 -122h-89l175 122h111z" />
    <glyph glyph-name="iacute" unicode="&#xed;" horiz-adv-x="230" 
d="M152 0h-74v444h74v-444zM284 694l-146 -167h-60l130 167h76z" />
    <glyph glyph-name="Ibreve" unicode="&#x12c;" horiz-adv-x="266" 
d="M176 0h-86v694h86v-694zM298 923c-2 -105 -78 -178 -166 -178c-85 0 -163 71 -165 178h60c2 -72 54 -113 106 -113c48 0 103 38 105 113h60z" />
    <glyph glyph-name="ibreve" unicode="&#x12d;" horiz-adv-x="230" 
d="M152 0h-74v444h74v-444zM280 700c-2 -105 -78 -178 -166 -178c-85 0 -163 71 -165 178h60c2 -72 54 -113 106 -113c48 0 103 38 105 113h60z" />
    <glyph glyph-name="Icaron" unicode="&#x1cf;" horiz-adv-x="266" 
d="M176 0h-86v694h86v-694zM289 869l-126 -134h-60l-126 134h59l97 -97l97 97h59z" />
    <glyph glyph-name="icaron" unicode="&#x1d0;" horiz-adv-x="230" 
d="M152 0h-74v444h74v-444zM270 697l-125 -172h-60l-125 172h59l96 -123l96 123h59z" />
    <glyph glyph-name="Icircumflex" unicode="&#xce;" horiz-adv-x="266" 
d="M176 0h-86v694h86v-694zM289 735h-59l-97 97l-97 -97h-59l126 134h60z" />
    <glyph glyph-name="icircumflex" unicode="&#xee;" horiz-adv-x="230" 
d="M152 0h-74v444h74v-444zM270 525h-59l-96 123l-96 -123h-59l125 172h60z" />
    <glyph glyph-name="Idblgrave" unicode="&#x208;" horiz-adv-x="266" 
d="M176 0h-86v694h86v-694zM272 745h-60l-78 167h76zM109 745h-60l-78 167h76z" />
    <glyph glyph-name="idblgrave" unicode="&#x209;" horiz-adv-x="230" 
d="M152 0h-74v444h74v-444zM254 527h-60l-78 167h76zM91 527h-60l-78 167h76z" />
    <glyph glyph-name="Idieresis" unicode="&#xcf;" horiz-adv-x="266" 
d="M176 0h-86v694h86v-694zM88 735h-77v78h77v-78zM255 735h-77v78h77v-78z" />
    <glyph glyph-name="idieresis" unicode="&#xef;" horiz-adv-x="230" 
d="M152 0h-74v444h74v-444zM83 572h-77v78h77v-78zM224 572h-77v78h77v-78z" />
    <glyph glyph-name="Idieresisacute" unicode="&#x1e2e;" horiz-adv-x="266" 
d="M176 0h-86v694h86v-694zM88 735h-77v78h77v-78zM255 735h-77v78h77v-78zM323 986l-197 -122h-89l175 122h111z" />
    <glyph glyph-name="idieresisacute" unicode="&#x1e2f;" horiz-adv-x="230" 
d="M152 0h-74v444h74v-444zM83 572h-77v78h77v-78zM224 572h-77v78h77v-78zM305 828l-197 -122h-89l175 122h111z" />
    <glyph glyph-name="Idotaccent" unicode="&#x130;" horiz-adv-x="266" 
d="M176 0h-86v694h86v-694zM176 735h-86v86h86v-86z" />
    <glyph glyph-name="Idotbelow" unicode="&#x1eca;" horiz-adv-x="266" 
d="M176 0h-86v694h86v-694zM176 -200h-86v86h86v-86z" />
    <glyph glyph-name="idotbelow" unicode="&#x1ecb;" horiz-adv-x="230" 
d="M152 0h-74v444h74v-444zM158 568h-86v86h86v-86zM158 -200h-86v86h86v-86z" />
    <glyph glyph-name="Igrave" unicode="&#xcc;" horiz-adv-x="266" 
d="M176 0h-86v694h86v-694zM176 745h-89l-197 122h111z" />
    <glyph glyph-name="igrave" unicode="&#xec;" horiz-adv-x="230" 
d="M152 0h-74v444h74v-444zM152 527h-60l-146 167h76z" />
    <glyph glyph-name="Ihookabove" unicode="&#x1ec8;" horiz-adv-x="266" 
d="M176 0h-86v694h86v-694zM228 872c0 -20 -10 -39 -27 -50c-3 -3 -6 -5 -12 -8c-33 -21 -49 -35 -49 -59v-20h-1h-26v20c0 40 21 78 55 96c9 4 15 12 15 21c0 13 -4 24 -13 31c-11 7 -24 8 -44 8c-30 0 -58 -17 -72 -44h-1h-1l-14 40c21 28 54 44 88 44c30 0 56 -6 75 -21
c18 -13 27 -35 27 -58z" />
    <glyph glyph-name="ihookabove" unicode="&#x1ec9;" horiz-adv-x="230" 
d="M152 0h-74v444h74v-444zM210 640c0 -20 -10 -39 -27 -50c-3 -3 -6 -5 -12 -8c-33 -21 -49 -35 -49 -59v-20h-1h-26v20c0 40 21 78 55 96c9 4 15 12 15 21c0 13 -4 24 -13 31c-11 7 -24 8 -44 8c-30 0 -58 -17 -72 -44h-1h-1l-14 40c21 28 54 44 88 44c30 0 56 -6 75 -21
c18 -13 27 -35 27 -58z" />
    <glyph glyph-name="Imacron" unicode="&#x12a;" horiz-adv-x="266" 
d="M176 0h-86v694h86v-694zM309 755h-353v63h353v-63z" />
    <glyph glyph-name="imacron" unicode="&#x12b;" horiz-adv-x="230" 
d="M152 0h-74v444h74v-444zM291 579h-353v63h353v-63z" />
    <glyph glyph-name="infinity" unicode="&#x221e;" horiz-adv-x="979" 
d="M449 213l-45 60c-46 63 -96 132 -173 132c-80 0 -117 -92 -117 -183c0 -95 33 -192 116 -192c102 0 169 89 219 183zM865 222c0 95 -33 192 -116 192c-102 0 -169 -89 -219 -183l45 -60c46 -63 96 -132 173 -132c80 0 117 92 117 183zM925 222c0 -128 -86 -243 -208 -243
c-88 0 -151 74 -204 146l-22 30c-53 -95 -124 -179 -228 -179c-123 0 -209 116 -209 246c0 128 86 243 208 243c88 0 151 -74 204 -146l22 -30c53 95 124 179 228 179c123 0 209 -116 209 -246z" />
    <glyph glyph-name="interrobang" unicode="&#x203d;" horiz-adv-x="462" 
d="M272 0h-81v81h81v-81zM394 549c0 -61 -22 -94 -43 -114c-56 -57 -87 -133 -87 -212v-50h-65v53c0 22 2 43 5 64l-4 352c-37 -4 -86 -17 -137 -53l-22 62c33 20 89 46 158 52v22h65l-1 -23c95 -12 131 -78 131 -153zM318 551c0 48 -14 80 -55 90l-3 -209c9 14 20 28 31 41
c13 16 27 32 27 78z" />
    <glyph glyph-name="Iogonek" unicode="&#x12e;" horiz-adv-x="266" 
d="M223 -187c-40 -19 -65 -25 -98 -25c-67 0 -98 42 -99 85c-3 51 37 99 87 127h-23v694h86v-694c-46 -26 -88 -60 -87 -104c1 -30 25 -36 53 -38c22 -1 45 5 67 14z" />
    <glyph glyph-name="iogonek" unicode="&#x12f;" horiz-adv-x="230" 
d="M158 593h-86v86h86v-86zM199 -187c-40 -19 -65 -25 -98 -25c-67 0 -98 42 -99 85c-3 51 37 99 87 127h-11v444h74v-444c-46 -26 -88 -60 -87 -104c1 -30 25 -36 53 -38c22 -1 45 5 67 14z" />
    <glyph glyph-name="Iota" unicode="&#x399;" horiz-adv-x="266" 
d="M176 0h-86v694h86v-694z" />
    <glyph glyph-name="Itilde" unicode="&#x128;" horiz-adv-x="266" 
d="M176 0h-86v694h86v-694zM295 853c-2 -79 -52 -118 -95 -118c-25 0 -45 12 -74 33c-10 7 -35 25 -58 25c-29 0 -38 -32 -38 -58h-60c2 79 52 118 95 118c25 0 45 -12 74 -33c10 -7 35 -25 58 -25c29 0 38 32 38 58h60z" />
    <glyph glyph-name="itilde" unicode="&#x129;" horiz-adv-x="230" 
d="M152 0h-74v444h74v-444zM277 670c-2 -79 -52 -118 -95 -118c-25 0 -45 12 -74 33c-10 7 -35 25 -58 25c-29 0 -38 -32 -38 -58h-60c2 79 52 118 95 118c25 0 45 -12 74 -33c10 -7 35 -25 58 -25c29 0 38 32 38 58h60z" />
    <glyph glyph-name="jcaron" unicode="&#x1f0;" horiz-adv-x="258" 
d="M179 -59c0 -93 -60 -145 -123 -145c-46 0 -86 15 -118 34l20 60c2 -3 29 -31 73 -31c21 0 74 6 74 72v513h74v-503zM291 697l-125 -172h-60l-125 172h59l96 -123l96 123h59z" />
    <glyph glyph-name="Jcircumflex" unicode="&#x134;" horiz-adv-x="459" 
d="M379 148c0 -107 -66 -169 -171 -169c-53 0 -109 12 -167 42l14 75c25 -29 68 -55 124 -55c88 0 116 53 116 111v542h84v-546zM493 735h-59l-97 97l-97 -97h-59l126 134h60z" />
    <glyph glyph-name="jcircumflex" unicode="&#x135;" horiz-adv-x="258" 
d="M179 -59c0 -93 -60 -145 -123 -145c-46 0 -86 15 -118 34l20 60c2 -3 29 -31 73 -31c21 0 74 6 74 72v513h74v-503zM291 525h-59l-96 123l-96 -123h-59l125 172h60z" />
    <glyph glyph-name="Kappa" unicode="&#x39a;" horiz-adv-x="674" 
d="M632 0h-92l-236 362l-129 -136v-226h-84v694h84v-369l350 369h94l-261 -275z" />
    <glyph glyph-name="Kcommaaccent" unicode="&#x136;" horiz-adv-x="674" 
d="M632 0h-92l-236 362l-129 -136v-226h-84v694h84v-369l350 369h94l-261 -275zM373 -148l-37 -113h-36l23 113h-23v72h73v-72z" />
    <glyph glyph-name="kcommaaccent" unicode="&#x137;" horiz-adv-x="475" 
d="M458 0h-82l-152 223l-76 -79v-144h-70v694h73v-451l193 201h92l-164 -171zM274 -148l-37 -113h-36l23 113h-23v72h73v-72z" />
    <glyph glyph-name="Lacute" unicode="&#x139;" horiz-adv-x="529" 
d="M487 0h-397v694h86v-632h48l263 2v-64zM376 867l-197 -122h-89l175 122h111z" />
    <glyph glyph-name="lacute" unicode="&#x13a;" horiz-adv-x="230" 
d="M152 0h-74v694h74v-694zM364 867l-197 -122h-89l175 122h111z" />
    <glyph glyph-name="Lambda" unicode="&#x39b;" horiz-adv-x="593" 
d="M565 0h-91l-99 309c-25 79 -80 250 -87 309h-1c-7 -58 -64 -236 -90 -316l-97 -302h-73l226 694h86z" />
    <glyph glyph-name="Lcaron" unicode="&#x13d;" horiz-adv-x="529" 
d="M487 0h-397v694h86v-632h48l263 2v-64zM303 622l-37 -113h-36l23 113h-23v72h73v-72z" />
    <glyph glyph-name="lcaron" unicode="&#x13e;" horiz-adv-x="230" 
d="M152 0h-74v694h74v-694zM261 622l-37 -113h-36l23 113h-23v72h73v-72z" />
    <glyph glyph-name="Lcommaaccent" unicode="&#x13b;" horiz-adv-x="529" 
d="M487 0h-397v694h86v-632h48l263 2v-64zM301 -148l-37 -113h-36l23 113h-23v72h73v-72z" />
    <glyph glyph-name="lcommaaccent" unicode="&#x13c;" horiz-adv-x="230" 
d="M152 0h-74v694h74v-694zM151 -148l-37 -113h-36l23 113h-23v72h73v-72z" />
    <glyph glyph-name="Ldot" unicode="&#x13f;" horiz-adv-x="529" 
d="M487 0h-397v694h86v-632h48l263 2v-64zM440 325h-86v86h86v-86z" />
    <glyph glyph-name="ldot" unicode="&#x140;" horiz-adv-x="280" 
d="M152 0h-74v694h74v-694zM298 325h-86v86h86v-86z" />
    <glyph glyph-name="Ldotbelow" unicode="&#x1e36;" horiz-adv-x="529" 
d="M487 0h-397v694h86v-632h48l263 2v-64zM307 -200h-86v86h86v-86z" />
    <glyph glyph-name="ldotbelow" unicode="&#x1e37;" horiz-adv-x="230" 
d="M152 0h-74v694h74v-694zM158 -200h-86v86h86v-86z" />
    <glyph glyph-name="Ldotbelowmacron" unicode="&#x1e38;" horiz-adv-x="529" 
d="M487 0h-397v694h86v-632h48l263 2v-64zM307 -200h-86v86h86v-86zM309 755h-353v63h353v-63z" />
    <glyph glyph-name="ldotbelowmacron" unicode="&#x1e39;" horiz-adv-x="230" 
d="M152 0h-74v694h74v-694zM158 -200h-86v86h86v-86zM303 755h-353v63h353v-63z" />
    <glyph glyph-name="uni0332" unicode="&#x332;" horiz-adv-x="0" 
d="M-58 -188h-353v63h353v-63z" />
    <glyph glyph-name="lira" unicode="&#x20a4;" horiz-adv-x="647" 
d="M582 148c0 -88 -53 -169 -135 -169c-35 0 -69 7 -103 16c-77 19 -175 44 -211 -2l-60 48c50 63 99 132 110 212h-118v62h117l-3 12c-2 7 -3 13 -6 19l-12 33h-96v62h76c-26 129 62 253 188 253c107 0 189 -92 189 -201h-76c0 67 -48 125 -113 125
c-79 0 -132 -82 -113 -165l3 -12h169v-62h-146l3 -8c3 -8 6 -16 8 -25l6 -31h129v-62h-129v-6c-7 -54 -28 -105 -55 -152c53 0 106 -13 159 -27c27 -7 56 -13 84 -13c41 0 59 47 59 93h76z" />
    <glyph glyph-name="logicalnot" unicode="&#xac;" horiz-adv-x="762" 
d="M707 153c0 -10 -8 -18 -18 -18s-18 8 -18 18v175h-599c-10 0 -18 8 -18 18s8 18 18 18h617c10 0 18 -8 18 -18v-193z" />
    <glyph glyph-name="longs" unicode="&#x17f;" horiz-adv-x="278" 
d="M318 628c-12 5 -43 16 -78 16c-33 0 -88 -12 -88 -80v-564h-74v534c0 97 68 170 163 170c37 0 77 -10 77 -10v-66z" />
    <glyph glyph-name="Lslash" unicode="&#x141;" horiz-adv-x="611" 
d="M559 0h-397v291l-65 -56l-37 43l102 87v329h86v-257l132 111l38 -45l-170 -141v-300h48l263 2v-64z" />
    <glyph glyph-name="lslash" unicode="&#x142;" horiz-adv-x="314" 
d="M308 448l-109 -94v-354h-74v291l-60 -54l-38 45l98 88v324h74v-263l69 61z" />
    <glyph glyph-name="macron" unicode="&#xaf;" 
d="M421 579h-353v63h353v-63z" />
    <glyph glyph-name="uni0331" unicode="&#x331;" horiz-adv-x="0" 
d="M-58 -188h-353v63h353v-63z" />
    <glyph glyph-name="uni0304" unicode="&#x304;" horiz-adv-x="0" 
d="M-58 579h-353v63h353v-63z" />
    <glyph glyph-name="married" unicode="&#x26ad;" horiz-adv-x="489" 
d="M577 252c0 -114 -87 -223 -207 -223c-27 0 -53 5 -78 15c-17 6 -39 25 -48 25c-5 0 -15 -7 -21 -12c-30 -18 -68 -28 -103 -28c-120 0 -209 107 -209 221c0 109 76 209 195 223c5 0 10 1 15 1c37 0 78 -13 108 -33c4 -2 10 -8 15 -8s15 7 21 12c30 18 68 28 103 28
c119 0 209 -106 209 -221zM197 121c-29 32 -40 87 -40 131c0 46 13 92 40 129c-22 12 -44 21 -70 23h-7c-95 0 -140 -78 -140 -154c0 -77 48 -152 140 -152h8c25 2 47 11 69 23zM508 251c0 77 -48 152 -140 152h-8c-25 -2 -47 -11 -69 -23v-1c29 -31 40 -86 40 -130
c0 -46 -13 -92 -40 -129c22 -12 44 -21 70 -23h7c95 0 140 78 140 154zM256 254v13c-2 18 -7 34 -11 51h-2c-5 -24 -11 -46 -11 -71v-14c2 -18 7 -34 11 -51h2c5 24 11 47 11 72z" />
    <glyph glyph-name="Mdotbelow" unicode="&#x1e42;" horiz-adv-x="850" 
d="M754 0h-77v618h-1c-18 -75 -183 -511 -216 -597h-73c-38 100 -200 528 -214 596h-1v-617h-77v694h114l152 -409c16 -41 16 -43 34 -97c13 -39 26 -76 29 -93h1c10 46 49 151 101 291l114 308h114v-694zM468 -200h-86v86h86v-86z" />
    <glyph glyph-name="mdotbelow" unicode="&#x1e43;" horiz-adv-x="774" 
d="M697 0h-76v294c0 37 -5 100 -97 100c-73 0 -99 -79 -99 -145v-249h-76v294c0 37 -5 100 -97 100c-73 0 -99 -79 -99 -145v-249h-76v449h71v-69c17 21 60 74 142 74c52 0 107 -18 125 -81c15 22 62 81 147 81c117 0 135 -84 135 -153v-301zM430 -200h-86v86h86v-86z" />
    <glyph glyph-name="uni2127" unicode="&#x2127;" horiz-adv-x="707" 
d="M664 626h-82c-12 0 -24 1 -36 1h-51c9 -36 19 -66 70 -155c48 -85 89 -156 89 -240c0 -136 -129 -253 -299 -253c-169 0 -299 116 -299 253c0 84 42 157 85 232c44 78 62 113 74 163h-51c-12 0 -24 -1 -36 -1h-82v68h238c-1 -78 -29 -143 -70 -228
c-41 -87 -72 -158 -72 -233c0 -112 93 -194 213 -194s213 81 213 194c0 82 -38 161 -76 239c-48 100 -66 158 -66 222h238v-68z" />
    <glyph glyph-name="minus" unicode="&#x2212;" horiz-adv-x="762" 
d="M707 250c0 -18 -18 -18 -32 -18h-589c-15 0 -32 0 -32 19c0 18 18 18 32 18h589c15 0 32 0 32 -19z" />
    <glyph glyph-name="Mu" unicode="&#x39c;" horiz-adv-x="850" 
d="M754 0h-77v618h-1c-18 -75 -183 -511 -216 -597h-73c-38 100 -200 528 -214 596h-1v-617h-77v694h114l152 -409c16 -41 16 -43 34 -97c13 -39 26 -76 29 -93h1c10 46 49 151 101 291l114 308h114v-694z" />
    <glyph glyph-name="uni00B5" unicode="&#xb5;" horiz-adv-x="502" 
d="M425 0h-75v50c-61 -55 -138 -60 -168 -60c-10 0 -18 0 -29 2v-186h-77v638h77v-327c0 -44 5 -72 77 -72c59 0 118 31 118 115v284h77v-444z" />
    <glyph glyph-name="multiply" unicode="&#xd7;" horiz-adv-x="762" 
d="M612 480c12 -13 0 -25 -10 -35l-195 -195l195 -196c10 -10 22 -22 9 -36c-13 -12 -25 0 -35 10l-195 195l-196 -195c-10 -10 -22 -22 -36 -9c-12 13 0 25 10 35l195 196l-195 195c-10 10 -22 22 -9 36c13 12 25 0 35 -10l196 -195l195 195c10 10 22 22 36 9z" />
    <glyph glyph-name="uni266A" unicode="&#x266a;" horiz-adv-x="598" 
d="M544 139c0 -12 -5 -26 -19 -26h-1c-13 2 -17 11 -17 26l-3 33c-8 66 -29 129 -55 188l-48 108c-8 20 -15 40 -24 60v-430c-12 -82 -88 -125 -161 -125c-76 0 -161 48 -161 137c0 88 89 124 162 124c44 0 89 -13 123 -41v506c0 12 0 28 16 31c22 0 21 -17 22 -31
c13 -202 160 -358 166 -560z" />
    <glyph glyph-name="Nacute" unicode="&#x143;" horiz-adv-x="686" 
d="M594 0h-123l-221 452l-81 168h-1v-620h-77v694h123l221 -452l81 -168h1v620h77v-694zM533 867l-197 -122h-89l175 122h111z" />
    <glyph glyph-name="nacute" unicode="&#x144;" horiz-adv-x="502" 
d="M424 0h-76v294c0 35 -3 100 -96 100c-76 0 -99 -83 -99 -145v-249h-76v449h71v-68c38 48 86 73 142 73c121 0 134 -92 134 -153v-301zM388 694l-146 -167h-60l130 167h76z" />
    <glyph glyph-name="naira" unicode="&#x20a6;" horiz-adv-x="686" 
d="M635 253h-41v-253h-123l-124 253h-179v-253h-77v253h-41v62h41v64h-41v62h41v253h123l124 -253h179v253h77v-253h41v-62h-41v-64h41v-62zM255 441l-5 11l-81 168h-1v-179h87zM317 315l-31 64h-118v-64h149zM517 315v64h-149l31 -64h118zM517 74v179h-87l5 -11l81 -168h1z
" />
    <glyph glyph-name="uni00A0" unicode="&#xa0;" 
 />
    <glyph glyph-name="Ncaron" unicode="&#x147;" horiz-adv-x="686" 
d="M594 0h-123l-221 452l-81 168h-1v-620h-77v694h123l221 -452l81 -168h1v620h77v-694zM499 869l-126 -134h-60l-126 134h59l97 -97l97 97h59z" />
    <glyph glyph-name="ncaron" unicode="&#x148;" horiz-adv-x="502" 
d="M424 0h-76v294c0 35 -3 100 -96 100c-76 0 -99 -83 -99 -145v-249h-76v449h71v-68c38 48 86 73 142 73c121 0 134 -92 134 -153v-301zM406 697l-125 -172h-60l-125 172h59l96 -123l96 123h59z" />
    <glyph glyph-name="Ncommaaccent" unicode="&#x145;" horiz-adv-x="686" 
d="M594 0h-123l-221 452l-81 168h-1v-620h-77v694h123l221 -452l81 -168h1v620h77v-694zM379 -148l-37 -113h-36l23 113h-23v72h73v-72z" />
    <glyph glyph-name="ncommaaccent" unicode="&#x146;" horiz-adv-x="502" 
d="M424 0h-76v294c0 35 -3 100 -96 100c-76 0 -99 -83 -99 -145v-249h-76v449h71v-68c38 48 86 73 142 73c121 0 134 -92 134 -153v-301zM287 -148l-37 -113h-36l23 113h-23v72h73v-72z" />
    <glyph glyph-name="Ndotaccent" unicode="&#x1e44;" horiz-adv-x="686" 
d="M594 0h-123l-221 452l-81 168h-1v-620h-77v694h123l221 -452l81 -168h1v620h77v-694zM386 735h-86v86h86v-86z" />
    <glyph glyph-name="ndotaccent" unicode="&#x1e45;" horiz-adv-x="502" 
d="M424 0h-76v294c0 35 -3 100 -96 100c-76 0 -99 -83 -99 -145v-249h-76v449h71v-68c38 48 86 73 142 73c121 0 134 -92 134 -153v-301zM294 568h-86v86h86v-86z" />
    <glyph glyph-name="Ndotbelow" unicode="&#x1e46;" horiz-adv-x="686" 
d="M594 0h-123l-221 452l-81 168h-1v-620h-77v694h123l221 -452l81 -168h1v620h77v-694zM386 -200h-86v86h86v-86z" />
    <glyph glyph-name="ndotbelow" unicode="&#x1e47;" horiz-adv-x="502" 
d="M424 0h-76v294c0 35 -3 100 -96 100c-76 0 -99 -83 -99 -145v-249h-76v449h71v-68c38 48 86 73 142 73c121 0 134 -92 134 -153v-301zM294 -200h-86v86h86v-86z" />
    <glyph glyph-name="Ntilde" unicode="&#xd1;" horiz-adv-x="686" 
d="M594 0h-123l-221 452l-81 168h-1v-620h-77v694h123l221 -452l81 -168h1v620h77v-694zM505 853c-2 -79 -52 -118 -95 -118c-25 0 -45 12 -74 33c-10 7 -35 25 -58 25c-29 0 -38 -32 -38 -58h-60c2 79 52 118 95 118c25 0 45 -12 74 -33c10 -7 35 -25 58 -25
c29 0 38 32 38 58h60z" />
    <glyph glyph-name="ntilde" unicode="&#xf1;" horiz-adv-x="502" 
d="M424 0h-76v294c0 35 -3 100 -96 100c-76 0 -99 -83 -99 -145v-249h-76v449h71v-68c38 48 86 73 142 73c121 0 134 -92 134 -153v-301zM413 670c-2 -79 -52 -118 -95 -118c-25 0 -45 12 -74 33c-10 7 -35 25 -58 25c-29 0 -38 -32 -38 -58h-60c2 79 52 118 95 118
c25 0 45 -12 74 -33c10 -7 35 -25 58 -25c29 0 38 32 38 58h60z" />
    <glyph glyph-name="Nu" unicode="&#x39d;" horiz-adv-x="686" 
d="M594 0h-123l-221 452l-81 168h-1v-620h-77v694h123l221 -452l81 -168h1v620h77v-694z" />
    <glyph glyph-name="numero" unicode="&#x2116;" horiz-adv-x="794" 
d="M720 405c0 -56 -32 -133 -98 -133c-67 0 -98 77 -98 133c0 66 31 142 98 142c66 0 98 -83 98 -142zM718 164h-192v58h192v-58zM442 1h-114l-146 545c-5 20 -6 31 -10 67v-612h-77v694h114l138 -518c11 -40 16 -71 18 -104v622h77v-694zM660 406c0 36 -4 81 -38 81
s-39 -45 -39 -81c0 -31 9 -70 39 -70c26 0 38 39 38 70z" />
    <glyph glyph-name="Oacute" unicode="&#xd3;" horiz-adv-x="722" 
d="M667 345c0 -209 -142 -366 -307 -366c-161 0 -306 155 -306 366c0 209 141 370 307 370c162 0 306 -158 306 -370zM581 360c0 181 -107 293 -221 293c-111 0 -220 -109 -220 -293c0 -193 105 -318 221 -318c112 0 220 122 220 318zM551 867l-197 -122h-89l175 122h111z
" />
    <glyph glyph-name="oacute" unicode="&#xf3;" 
d="M459 220c0 -129 -97 -230 -215 -230c-114 0 -214 99 -214 230c0 133 97 239 215 239c115 0 214 -104 214 -239zM383 230c0 117 -70 169 -139 169c-63 0 -138 -48 -138 -169c0 -118 67 -178 139 -178c67 0 138 55 138 178zM382 694l-146 -167h-60l130 167h76z" />
    <glyph glyph-name="Obreve" unicode="&#x14e;" horiz-adv-x="722" 
d="M667 345c0 -209 -142 -366 -307 -366c-161 0 -306 155 -306 366c0 209 141 370 307 370c162 0 306 -158 306 -370zM581 360c0 181 -107 293 -221 293c-111 0 -220 -109 -220 -293c0 -193 105 -318 221 -318c112 0 220 122 220 318zM526 923c-2 -105 -78 -178 -166 -178
c-85 0 -163 71 -165 178h60c2 -72 54 -113 106 -113c48 0 103 38 105 113h60z" />
    <glyph glyph-name="obreve" unicode="&#x14f;" 
d="M459 220c0 -129 -97 -230 -215 -230c-114 0 -214 99 -214 230c0 133 97 239 215 239c115 0 214 -104 214 -239zM383 230c0 117 -70 169 -139 169c-63 0 -138 -48 -138 -169c0 -118 67 -178 139 -178c67 0 138 55 138 178zM410 700c-2 -105 -78 -178 -166 -178
c-85 0 -163 71 -165 178h60c2 -72 54 -113 106 -113c48 0 103 38 105 113h60z" />
    <glyph glyph-name="Ocaron" unicode="&#x1d1;" horiz-adv-x="722" 
d="M667 345c0 -209 -142 -366 -307 -366c-161 0 -306 155 -306 366c0 209 141 370 307 370c162 0 306 -158 306 -370zM581 360c0 181 -107 293 -221 293c-111 0 -220 -109 -220 -293c0 -193 105 -318 221 -318c112 0 220 122 220 318zM517 869l-126 -134h-60l-126 134h59
l97 -97l97 97h59z" />
    <glyph glyph-name="ocaron" unicode="&#x1d2;" 
d="M459 220c0 -129 -97 -230 -215 -230c-114 0 -214 99 -214 230c0 133 97 239 215 239c115 0 214 -104 214 -239zM383 230c0 117 -70 169 -139 169c-63 0 -138 -48 -138 -169c0 -118 67 -178 139 -178c67 0 138 55 138 178zM400 697l-125 -172h-60l-125 172h59l96 -123
l96 123h59z" />
    <glyph glyph-name="Ocircumflex" unicode="&#xd4;" horiz-adv-x="722" 
d="M667 345c0 -209 -142 -366 -307 -366c-161 0 -306 155 -306 366c0 209 141 370 307 370c162 0 306 -158 306 -370zM581 360c0 181 -107 293 -221 293c-111 0 -220 -109 -220 -293c0 -193 105 -318 221 -318c112 0 220 122 220 318zM517 735h-59l-97 97l-97 -97h-59
l126 134h60z" />
    <glyph glyph-name="ocircumflex" unicode="&#xf4;" 
d="M459 220c0 -129 -97 -230 -215 -230c-114 0 -214 99 -214 230c0 133 97 239 215 239c115 0 214 -104 214 -239zM383 230c0 117 -70 169 -139 169c-63 0 -138 -48 -138 -169c0 -118 67 -178 139 -178c67 0 138 55 138 178zM400 525h-59l-96 123l-96 -123h-59l125 172h60z
" />
    <glyph glyph-name="Ocircumflexacute" unicode="&#x1ed0;" horiz-adv-x="722" 
d="M667 345c0 -209 -142 -366 -307 -366c-161 0 -306 155 -306 366c0 209 141 370 307 370c162 0 306 -158 306 -370zM581 360c0 181 -107 293 -221 293c-111 0 -220 -109 -220 -293c0 -193 105 -318 221 -318c112 0 220 122 220 318zM517 735h-59l-97 97l-97 -97h-59
l126 134h60zM504 1026l-197 -122h-89l175 122h111z" />
    <glyph glyph-name="ocircumflexacute" unicode="&#x1ed1;" 
d="M459 220c0 -129 -97 -230 -215 -230c-114 0 -214 99 -214 230c0 133 97 239 215 239c115 0 214 -104 214 -239zM383 230c0 117 -70 169 -139 169c-63 0 -138 -48 -138 -169c0 -118 67 -178 139 -178c67 0 138 55 138 178zM401 525h-59l-97 97l-97 -97h-59l126 134h60z
M388 816l-197 -122h-89l175 122h111z" />
    <glyph glyph-name="Ocircumflexdotbelow" unicode="&#x1ed8;" horiz-adv-x="722" 
d="M667 345c0 -209 -142 -366 -307 -366c-161 0 -306 155 -306 366c0 209 141 370 307 370c162 0 306 -158 306 -370zM581 360c0 181 -107 293 -221 293c-111 0 -220 -109 -220 -293c0 -193 105 -318 221 -318c112 0 220 122 220 318zM517 735h-59l-97 97l-97 -97h-59
l126 134h60zM404 -200h-86v86h86v-86z" />
    <glyph glyph-name="ocircumflexdotbelow" unicode="&#x1ed9;" 
d="M459 220c0 -129 -97 -230 -215 -230c-114 0 -214 99 -214 230c0 133 97 239 215 239c115 0 214 -104 214 -239zM383 230c0 117 -70 169 -139 169c-63 0 -138 -48 -138 -169c0 -118 67 -178 139 -178c67 0 138 55 138 178zM400 525h-59l-96 123l-96 -123h-59l125 172h60z
M288 -200h-86v86h86v-86z" />
    <glyph glyph-name="Ocircumflexgrave" unicode="&#x1ed2;" horiz-adv-x="722" 
d="M667 345c0 -209 -142 -366 -307 -366c-161 0 -306 155 -306 366c0 209 141 370 307 370c162 0 306 -158 306 -370zM581 360c0 181 -107 293 -221 293c-111 0 -220 -109 -220 -293c0 -193 105 -318 221 -318c112 0 220 122 220 318zM517 735h-59l-97 97l-97 -97h-59
l126 134h60zM504 904l-175 122h-111l197 -122h89z" />
    <glyph glyph-name="ocircumflexgrave" unicode="&#x1ed3;" 
d="M459 220c0 -129 -97 -230 -215 -230c-114 0 -214 99 -214 230c0 133 97 239 215 239c115 0 214 -104 214 -239zM383 230c0 117 -70 169 -139 169c-63 0 -138 -48 -138 -169c0 -118 67 -178 139 -178c67 0 138 55 138 178zM401 525h-59l-97 97l-97 -97h-59l126 134h60z
M388 694l-175 122h-111l197 -122h89z" />
    <glyph glyph-name="Ocircumflexhookabove" unicode="&#x1ed4;" horiz-adv-x="722" 
d="M667 345c0 -209 -142 -366 -307 -366c-161 0 -306 155 -306 366c0 209 141 370 307 370c162 0 306 -158 306 -370zM581 360c0 181 -107 293 -221 293c-111 0 -220 -109 -220 -293c0 -193 105 -318 221 -318c112 0 220 122 220 318zM517 735h-59l-97 97l-97 -97h-59
l126 134h60zM551 1021c0 -20 -10 -39 -27 -50c-3 -3 -6 -5 -12 -8c-33 -21 -49 -35 -49 -59v-20h-1h-26v20c0 40 21 78 55 96c9 4 15 12 15 21c0 13 -4 24 -13 31c-11 7 -24 8 -44 8c-30 0 -58 -17 -72 -44h-1h-1l-14 40c21 28 54 44 88 44c30 0 56 -6 75 -21
c18 -13 27 -35 27 -58z" />
    <glyph glyph-name="ocircumflexhookabove" unicode="&#x1ed5;" 
d="M459 220c0 -129 -97 -230 -215 -230c-114 0 -214 99 -214 230c0 133 97 239 215 239c115 0 214 -104 214 -239zM383 230c0 117 -70 169 -139 169c-63 0 -138 -48 -138 -169c0 -118 67 -178 139 -178c67 0 138 55 138 178zM401 525h-59l-97 97l-97 -97h-59l126 134h60z
M435 811c0 -20 -10 -39 -27 -50c-3 -3 -6 -5 -12 -8c-33 -21 -49 -35 -49 -59v-20h-1h-26v20c0 40 21 78 55 96c9 4 15 12 15 21c0 13 -4 24 -13 31c-11 7 -24 8 -44 8c-30 0 -58 -17 -72 -44h-1h-1l-14 40c21 28 54 44 88 44c30 0 56 -6 75 -21c18 -13 27 -35 27 -58z" />
    <glyph glyph-name="Ocircumflextilde" unicode="&#x1ed6;" horiz-adv-x="722" 
d="M667 345c0 -209 -142 -366 -307 -366c-161 0 -306 155 -306 366c0 209 141 370 307 370c162 0 306 -158 306 -370zM581 360c0 181 -107 293 -221 293c-111 0 -220 -109 -220 -293c0 -193 105 -318 221 -318c112 0 220 122 220 318zM517 735h-59l-97 97l-97 -97h-59
l126 134h60zM524 1042c-2 -79 -52 -118 -95 -118c-25 0 -45 12 -74 33c-10 7 -35 25 -58 25c-29 0 -38 -32 -38 -58h-60c2 79 52 118 95 118c25 0 45 -12 74 -33c10 -7 35 -25 58 -25c29 0 38 32 38 58h60z" />
    <glyph glyph-name="ocircumflextilde" unicode="&#x1ed7;" 
d="M459 220c0 -129 -97 -230 -215 -230c-114 0 -214 99 -214 230c0 133 97 239 215 239c115 0 214 -104 214 -239zM383 230c0 117 -70 169 -139 169c-63 0 -138 -48 -138 -169c0 -118 67 -178 139 -178c67 0 138 55 138 178zM401 525h-59l-97 97l-97 -97h-59l126 134h60z
M408 832c-2 -79 -52 -118 -95 -118c-25 0 -45 12 -74 33c-10 7 -35 25 -58 25c-29 0 -38 -32 -38 -58h-60c2 79 52 118 95 118c25 0 45 -12 74 -33c10 -7 35 -25 58 -25c29 0 38 32 38 58h60z" />
    <glyph glyph-name="Odblgrave" unicode="&#x20c;" horiz-adv-x="722" 
d="M667 345c0 -209 -142 -366 -307 -366c-161 0 -306 155 -306 366c0 209 141 370 307 370c162 0 306 -158 306 -370zM581 360c0 181 -107 293 -221 293c-111 0 -220 -109 -220 -293c0 -193 105 -318 221 -318c112 0 220 122 220 318zM500 745h-60l-78 167h76zM337 745h-60
l-78 167h76z" />
    <glyph glyph-name="odblgrave" unicode="&#x20d;" 
d="M459 220c0 -129 -97 -230 -215 -230c-114 0 -214 99 -214 230c0 133 97 239 215 239c115 0 214 -104 214 -239zM383 230c0 117 -70 169 -139 169c-63 0 -138 -48 -138 -169c0 -118 67 -178 139 -178c67 0 138 55 138 178zM384 527h-60l-78 167h76zM221 527h-60l-78 167
h76z" />
    <glyph glyph-name="Odieresis" unicode="&#xd6;" horiz-adv-x="722" 
d="M667 345c0 -209 -142 -366 -307 -366c-161 0 -306 155 -306 366c0 209 141 370 307 370c162 0 306 -158 306 -370zM581 360c0 181 -107 293 -221 293c-111 0 -220 -109 -220 -293c0 -193 105 -318 221 -318c112 0 220 122 220 318zM316 735h-77v78h77v-78zM483 735h-77
v78h77v-78z" />
    <glyph glyph-name="odieresis" unicode="&#xf6;" 
d="M459 220c0 -129 -97 -230 -215 -230c-114 0 -214 99 -214 230c0 133 97 239 215 239c115 0 214 -104 214 -239zM383 230c0 117 -70 169 -139 169c-63 0 -138 -48 -138 -169c0 -118 67 -178 139 -178c67 0 138 55 138 178zM213 572h-77v78h77v-78zM354 572h-77v78h77v-78z
" />
    <glyph glyph-name="Odotbelow" unicode="&#x1ecc;" horiz-adv-x="722" 
d="M667 345c0 -209 -142 -366 -307 -366c-161 0 -306 155 -306 366c0 209 141 370 307 370c162 0 306 -158 306 -370zM581 360c0 181 -107 293 -221 293c-111 0 -220 -109 -220 -293c0 -193 105 -318 221 -318c112 0 220 122 220 318zM404 -200h-86v86h86v-86z" />
    <glyph glyph-name="odotbelow" unicode="&#x1ecd;" 
d="M459 220c0 -129 -97 -230 -215 -230c-114 0 -214 99 -214 230c0 133 97 239 215 239c115 0 214 -104 214 -239zM383 230c0 117 -70 169 -139 169c-63 0 -138 -48 -138 -169c0 -118 67 -178 139 -178c67 0 138 55 138 178zM288 -200h-86v86h86v-86z" />
    <glyph glyph-name="OE" unicode="&#x152;" horiz-adv-x="949" 
d="M907 0h-402c-25 0 -41 -2 -77 -10c-38 -8 -56 -11 -80 -11c-168 0 -324 154 -324 366c0 213 156 370 324 370c12 0 30 0 82 -12c43 -9 64 -9 75 -9h389v-63h-179c-12 0 -24 1 -36 1h-136v-241h323v-60h-323v-264h198c12 0 24 1 36 1h130v-68zM459 199v296
c0 136 -28 160 -107 160c-134 0 -244 -128 -244 -295c0 -176 107 -321 245 -321c79 0 106 26 106 160z" />
    <glyph glyph-name="oe" unicode="&#x153;" horiz-adv-x="762" 
d="M734 225h-288c2 -112 71 -175 141 -175c39 0 91 14 135 57c0 -4 3 -27 3 -27c0 -5 3 -28 3 -33c0 -9 -63 -57 -142 -57c-62 0 -132 29 -177 101c-53 -82 -126 -101 -172 -101c-110 0 -207 101 -207 235c0 131 95 234 207 234c29 0 107 -6 170 -98c43 68 106 98 164 98
c162 0 163 -198 163 -234zM674 279c-12 83 -55 120 -103 120c-51 0 -101 -46 -119 -120h222zM370 230c0 120 -71 169 -133 169c-66 0 -136 -51 -136 -169c0 -123 69 -180 135 -180c69 0 134 60 134 180z" />
    <glyph glyph-name="ogonek" unicode="&#x2db;" 
d="M343 -187c-40 -19 -65 -25 -98 -25c-67 0 -98 42 -99 85c-3 51 37 99 87 127h63c-46 -26 -88 -60 -87 -104c1 -30 25 -36 53 -38c22 -1 45 5 67 14z" />
    <glyph glyph-name="Ograve" unicode="&#xd2;" horiz-adv-x="722" 
d="M667 345c0 -209 -142 -366 -307 -366c-161 0 -306 155 -306 366c0 209 141 370 307 370c162 0 306 -158 306 -370zM581 360c0 181 -107 293 -221 293c-111 0 -220 -109 -220 -293c0 -193 105 -318 221 -318c112 0 220 122 220 318zM457 745h-89l-197 122h111z" />
    <glyph glyph-name="ograve" unicode="&#xf2;" 
d="M459 220c0 -129 -97 -230 -215 -230c-114 0 -214 99 -214 230c0 133 97 239 215 239c115 0 214 -104 214 -239zM383 230c0 117 -70 169 -139 169c-63 0 -138 -48 -138 -169c0 -118 67 -178 139 -178c67 0 138 55 138 178zM314 527h-60l-146 167h76z" />
    <glyph glyph-name="ohm" unicode="&#x2126;" horiz-adv-x="707" 
d="M662 0h-238c1 78 29 143 70 228c41 87 72 158 72 233c0 112 -93 194 -213 194s-213 -81 -213 -194c0 -82 38 -161 76 -239c48 -100 66 -158 66 -222h-238v68h82c12 0 24 -1 36 -1h51c-9 36 -19 66 -70 155c-48 85 -89 156 -89 240c0 136 129 253 299 253
c169 0 299 -116 299 -253c0 -84 -42 -157 -85 -232c-44 -78 -62 -113 -74 -163h51c12 0 24 1 36 1h82v-68z" />
    <glyph glyph-name="Ohookabove" unicode="&#x1ece;" horiz-adv-x="722" 
d="M667 345c0 -209 -142 -366 -307 -366c-161 0 -306 155 -306 366c0 209 141 370 307 370c162 0 306 -158 306 -370zM581 360c0 181 -107 293 -221 293c-111 0 -220 -109 -220 -293c0 -193 105 -318 221 -318c112 0 220 122 220 318zM456 872c0 -20 -10 -39 -27 -50
c-3 -3 -6 -5 -12 -8c-33 -21 -49 -35 -49 -59v-20h-1h-26v20c0 40 21 78 55 96c9 4 15 12 15 21c0 13 -4 24 -13 31c-11 7 -24 8 -44 8c-30 0 -58 -17 -72 -44h-1h-1l-14 40c21 28 54 44 88 44c30 0 56 -6 75 -21c18 -13 27 -35 27 -58z" />
    <glyph glyph-name="ohookabove" unicode="&#x1ecf;" 
d="M459 220c0 -129 -97 -230 -215 -230c-114 0 -214 99 -214 230c0 133 97 239 215 239c115 0 214 -104 214 -239zM383 230c0 117 -70 169 -139 169c-63 0 -138 -48 -138 -169c0 -118 67 -178 139 -178c67 0 138 55 138 178zM340 640c0 -20 -10 -39 -27 -50
c-3 -3 -6 -5 -12 -8c-33 -21 -49 -35 -49 -59v-20h-1h-26v20c0 40 21 78 55 96c9 4 15 12 15 21c0 13 -4 24 -13 31c-11 7 -24 8 -44 8c-30 0 -58 -17 -72 -44h-1h-1l-14 40c21 28 54 44 88 44c30 0 56 -6 75 -21c18 -13 27 -35 27 -58z" />
    <glyph glyph-name="Ohorn" unicode="&#x1a0;" horiz-adv-x="722" 
d="M666 345c0 -94 -29 -187 -89 -259c-55 -65 -132 -107 -217 -107c-84 0 -162 42 -216 107c-60 72 -90 165 -90 259c0 95 29 188 90 262c54 65 132 108 216 108c55 0 107 -18 151 -48l31 27h-23l-1 1v79l1 1h79l1 -1v-79v-1l-62 -47c14 -12 27 -26 40 -40
c60 -74 89 -167 89 -262zM580 361c0 74 -18 148 -63 207c-37 50 -94 85 -157 85s-119 -35 -157 -85c-45 -59 -63 -133 -63 -207c0 -80 17 -160 63 -226c37 -53 93 -92 157 -92s121 39 157 92c46 66 63 146 63 226z" />
    <glyph glyph-name="ohorn" unicode="&#x1a1;" horiz-adv-x="489" 
d="M457 445l-67 -52l3 -3c41 -47 62 -108 62 -170c0 -60 -21 -119 -62 -163c-38 -42 -92 -67 -149 -67s-111 25 -149 67c-41 44 -62 103 -62 163c0 62 21 123 62 170c38 43 91 70 149 70c45 0 88 -17 123 -45l33 29h-23l-1 1v79l1 1h79l1 -1v-79zM385 231
c0 44 -11 88 -39 121c-25 31 -63 48 -102 48c-40 0 -77 -17 -103 -48c-28 -33 -39 -77 -39 -121c0 -46 11 -93 39 -129c25 -31 63 -50 103 -50s78 19 102 50c29 36 39 83 39 129z" />
    <glyph glyph-name="Ohornacute" unicode="&#x1eda;" horiz-adv-x="722" 
d="M666 345c0 -94 -29 -187 -89 -259c-55 -65 -132 -107 -217 -107c-84 0 -162 42 -216 107c-60 72 -90 165 -90 259c0 95 29 188 90 262c54 65 132 108 216 108c55 0 107 -18 151 -48l31 27h-23l-1 1v79l1 1h79l1 -1v-79v-1l-62 -47c14 -12 27 -26 40 -40
c60 -74 89 -167 89 -262zM580 361c0 74 -18 148 -63 207c-37 50 -94 85 -157 85s-119 -35 -157 -85c-45 -59 -63 -133 -63 -207c0 -80 17 -160 63 -226c37 -53 93 -92 157 -92s121 39 157 92c46 66 63 146 63 226zM524 867l-197 -122h-89l175 122h111z" />
    <glyph glyph-name="ohornacute" unicode="&#x1edb;" horiz-adv-x="489" 
d="M457 445l-67 -52l3 -3c41 -47 62 -108 62 -170c0 -60 -21 -119 -62 -163c-38 -42 -92 -67 -149 -67s-111 25 -149 67c-41 44 -62 103 -62 163c0 62 21 123 62 170c38 43 91 70 149 70c45 0 88 -17 123 -45l33 29h-23l-1 1v79l1 1h79l1 -1v-79zM385 231
c0 44 -11 88 -39 121c-25 31 -63 48 -102 48c-40 0 -77 -17 -103 -48c-28 -33 -39 -77 -39 -121c0 -46 11 -93 39 -129c25 -31 63 -50 103 -50s78 19 102 50c29 36 39 83 39 129zM355 694l-146 -167h-60l130 167h76z" />
    <glyph glyph-name="Ohorndotbelow" unicode="&#x1ee2;" horiz-adv-x="722" 
d="M666 345c0 -94 -29 -187 -89 -259c-55 -65 -132 -107 -217 -107c-84 0 -162 42 -216 107c-60 72 -90 165 -90 259c0 95 29 188 90 262c54 65 132 108 216 108c55 0 107 -18 151 -48l31 27h-23l-1 1v79l1 1h79l1 -1v-79v-1l-62 -47c14 -12 27 -26 40 -40
c60 -74 89 -167 89 -262zM580 361c0 74 -18 148 -63 207c-37 50 -94 85 -157 85s-119 -35 -157 -85c-45 -59 -63 -133 -63 -207c0 -80 17 -160 63 -226c37 -53 93 -92 157 -92s121 39 157 92c46 66 63 146 63 226zM404 -200h-86v86h86v-86z" />
    <glyph glyph-name="ohorndotbelow" unicode="&#x1ee3;" horiz-adv-x="489" 
d="M457 445l-67 -52l3 -3c41 -47 62 -108 62 -170c0 -60 -21 -119 -62 -163c-38 -42 -92 -67 -149 -67s-111 25 -149 67c-41 44 -62 103 -62 163c0 62 21 123 62 170c38 43 91 70 149 70c45 0 88 -17 123 -45l33 29h-23l-1 1v79l1 1h79l1 -1v-79zM385 231
c0 44 -11 88 -39 121c-25 31 -63 48 -102 48c-40 0 -77 -17 -103 -48c-28 -33 -39 -77 -39 -121c0 -46 11 -93 39 -129c25 -31 63 -50 103 -50s78 19 102 50c29 36 39 83 39 129zM288 -200h-86v86h86v-86z" />
    <glyph glyph-name="Ohorngrave" unicode="&#x1edc;" horiz-adv-x="722" 
d="M666 345c0 -94 -29 -187 -89 -259c-55 -65 -132 -107 -217 -107c-84 0 -162 42 -216 107c-60 72 -90 165 -90 259c0 95 29 188 90 262c54 65 132 108 216 108c55 0 107 -18 151 -48l31 27h-23l-1 1v79l1 1h79l1 -1v-79v-1l-62 -47c14 -12 27 -26 40 -40
c60 -74 89 -167 89 -262zM580 361c0 74 -18 148 -63 207c-37 50 -94 85 -157 85s-119 -35 -157 -85c-45 -59 -63 -133 -63 -207c0 -80 17 -160 63 -226c37 -53 93 -92 157 -92s121 39 157 92c46 66 63 146 63 226zM457 745h-89l-197 122h111z" />
    <glyph glyph-name="ohorngrave" unicode="&#x1edd;" horiz-adv-x="489" 
d="M457 445l-67 -52l3 -3c41 -47 62 -108 62 -170c0 -60 -21 -119 -62 -163c-38 -42 -92 -67 -149 -67s-111 25 -149 67c-41 44 -62 103 -62 163c0 62 21 123 62 170c38 43 91 70 149 70c45 0 88 -17 123 -45l33 29h-23l-1 1v79l1 1h79l1 -1v-79zM385 231
c0 44 -11 88 -39 121c-25 31 -63 48 -102 48c-40 0 -77 -17 -103 -48c-28 -33 -39 -77 -39 -121c0 -46 11 -93 39 -129c25 -31 63 -50 103 -50s78 19 102 50c29 36 39 83 39 129zM314 527h-60l-146 167h76z" />
    <glyph glyph-name="Ohornhookabove" unicode="&#x1ede;" horiz-adv-x="722" 
d="M666 345c0 -94 -29 -187 -89 -259c-55 -65 -132 -107 -217 -107c-84 0 -162 42 -216 107c-60 72 -90 165 -90 259c0 95 29 188 90 262c54 65 132 108 216 108c55 0 107 -18 151 -48l31 27h-23l-1 1v79l1 1h79l1 -1v-79v-1l-62 -47c14 -12 27 -26 40 -40
c60 -74 89 -167 89 -262zM580 361c0 74 -18 148 -63 207c-37 50 -94 85 -157 85s-119 -35 -157 -85c-45 -59 -63 -133 -63 -207c0 -80 17 -160 63 -226c37 -53 93 -92 157 -92s121 39 157 92c46 66 63 146 63 226zM456 872c0 -20 -10 -39 -27 -50c-3 -3 -6 -5 -12 -8
c-33 -21 -49 -35 -49 -59v-20h-1h-26v20c0 40 21 78 55 96c9 4 15 12 15 21c0 13 -4 24 -13 31c-11 7 -24 8 -44 8c-30 0 -58 -17 -72 -44h-1h-1l-14 40c21 28 54 44 88 44c30 0 56 -6 75 -21c18 -13 27 -35 27 -58z" />
    <glyph glyph-name="ohornhookabove" unicode="&#x1edf;" horiz-adv-x="489" 
d="M457 445l-67 -52l3 -3c41 -47 62 -108 62 -170c0 -60 -21 -119 -62 -163c-38 -42 -92 -67 -149 -67s-111 25 -149 67c-41 44 -62 103 -62 163c0 62 21 123 62 170c38 43 91 70 149 70c45 0 88 -17 123 -45l33 29h-23l-1 1v79l1 1h79l1 -1v-79zM385 231
c0 44 -11 88 -39 121c-25 31 -63 48 -102 48c-40 0 -77 -17 -103 -48c-28 -33 -39 -77 -39 -121c0 -46 11 -93 39 -129c25 -31 63 -50 103 -50s78 19 102 50c29 36 39 83 39 129zM340 640c0 -20 -10 -39 -27 -50c-3 -3 -6 -5 -12 -8c-33 -21 -49 -35 -49 -59v-20h-1h-26v20
c0 40 21 78 55 96c9 4 15 12 15 21c0 13 -4 24 -13 31c-11 7 -24 8 -44 8c-30 0 -58 -17 -72 -44h-1h-1l-14 40c21 28 54 44 88 44c30 0 56 -6 75 -21c18 -13 27 -35 27 -58z" />
    <glyph glyph-name="Ohorntilde" unicode="&#x1ee0;" horiz-adv-x="722" 
d="M666 345c0 -94 -29 -187 -89 -259c-55 -65 -132 -107 -217 -107c-84 0 -162 42 -216 107c-60 72 -90 165 -90 259c0 95 29 188 90 262c54 65 132 108 216 108c55 0 107 -18 151 -48l31 27h-23l-1 1v79l1 1h79l1 -1v-79v-1l-62 -47c14 -12 27 -26 40 -40
c60 -74 89 -167 89 -262zM580 361c0 74 -18 148 -63 207c-37 50 -94 85 -157 85s-119 -35 -157 -85c-45 -59 -63 -133 -63 -207c0 -80 17 -160 63 -226c37 -53 93 -92 157 -92s121 39 157 92c46 66 63 146 63 226zM523 853c-2 -79 -52 -118 -95 -118c-25 0 -45 12 -74 33
c-10 7 -35 25 -58 25c-29 0 -38 -32 -38 -58h-60c2 79 52 118 95 118c25 0 45 -12 74 -33c10 -7 35 -25 58 -25c29 0 38 32 38 58h60z" />
    <glyph glyph-name="ohorntilde" unicode="&#x1ee1;" horiz-adv-x="489" 
d="M457 445l-67 -52l3 -3c41 -47 62 -108 62 -170c0 -60 -21 -119 -62 -163c-38 -42 -92 -67 -149 -67s-111 25 -149 67c-41 44 -62 103 -62 163c0 62 21 123 62 170c38 43 91 70 149 70c45 0 88 -17 123 -45l33 29h-23l-1 1v79l1 1h79l1 -1v-79zM385 231
c0 44 -11 88 -39 121c-25 31 -63 48 -102 48c-40 0 -77 -17 -103 -48c-28 -33 -39 -77 -39 -121c0 -46 11 -93 39 -129c25 -31 63 -50 103 -50s78 19 102 50c29 36 39 83 39 129zM407 670c-2 -79 -52 -118 -95 -118c-25 0 -45 12 -74 33c-10 7 -35 25 -58 25
c-29 0 -38 -32 -38 -58h-60c2 79 52 118 95 118c25 0 45 -12 74 -33c10 -7 35 -25 58 -25c29 0 38 32 38 58h60z" />
    <glyph glyph-name="Ohungarumlaut" unicode="&#x150;" horiz-adv-x="722" 
d="M667 345c0 -209 -142 -366 -307 -366c-161 0 -306 155 -306 366c0 209 141 370 307 370c162 0 306 -158 306 -370zM581 360c0 181 -107 293 -221 293c-111 0 -220 -109 -220 -293c0 -193 105 -318 221 -318c112 0 220 122 220 318zM360 912l-78 -167h-60l62 167h76z
M523 912l-78 -167h-60l62 167h76z" />
    <glyph glyph-name="ohungarumlaut" unicode="&#x151;" 
d="M459 220c0 -129 -97 -230 -215 -230c-114 0 -214 99 -214 230c0 133 97 239 215 239c115 0 214 -104 214 -239zM383 230c0 117 -70 169 -139 169c-63 0 -138 -48 -138 -169c0 -118 67 -178 139 -178c67 0 138 55 138 178zM244 694l-78 -167h-60l62 167h76zM407 694
l-78 -167h-60l62 167h76z" />
    <glyph glyph-name="Omacron" unicode="&#x14c;" horiz-adv-x="722" 
d="M667 345c0 -209 -142 -366 -307 -366c-161 0 -306 155 -306 366c0 209 141 370 307 370c162 0 306 -158 306 -370zM581 360c0 181 -107 293 -221 293c-111 0 -220 -109 -220 -293c0 -193 105 -318 221 -318c112 0 220 122 220 318zM537 755h-353v63h353v-63z" />
    <glyph glyph-name="omacron" unicode="&#x14d;" 
d="M459 220c0 -129 -97 -230 -215 -230c-114 0 -214 99 -214 230c0 133 97 239 215 239c115 0 214 -104 214 -239zM383 230c0 117 -70 169 -139 169c-63 0 -138 -48 -138 -169c0 -118 67 -178 139 -178c67 0 138 55 138 178zM421 579h-353v63h353v-63z" />
    <glyph glyph-name="Omega" unicode="&#x3a9;" horiz-adv-x="707" 
d="M662 0h-238c1 78 29 143 70 228c41 87 72 158 72 233c0 112 -93 194 -213 194s-213 -81 -213 -194c0 -82 38 -161 76 -239c48 -100 66 -158 66 -222h-238v68h82c12 0 24 -1 36 -1h51c-9 36 -19 66 -70 155c-48 85 -89 156 -89 240c0 136 129 253 299 253
c169 0 299 -116 299 -253c0 -84 -42 -157 -85 -232c-44 -78 -62 -113 -74 -163h51c12 0 24 1 36 1h82v-68z" />
    <glyph glyph-name="Omicron" unicode="&#x39f;" horiz-adv-x="722" 
d="M667 345c0 -209 -142 -366 -307 -366c-161 0 -306 155 -306 366c0 209 141 370 307 370c162 0 306 -158 306 -370zM581 360c0 181 -107 293 -221 293c-111 0 -220 -109 -220 -293c0 -193 105 -318 221 -318c112 0 220 122 220 318z" />
    <glyph glyph-name="onehalf" unicode="&#xbd;" horiz-adv-x="765" 
d="M300 310h-232v35h88v310c-16 -5 -49 -14 -93 -14v24c0 11 1 11 11 11c78 2 112 30 124 39h14v-370h88v-35zM702 0h-282v38l161 133c48 40 63 74 63 106c0 51 -40 91 -102 91c-54 0 -80 -29 -98 -93c-7 7 -7 8 -30 32c20 56 59 99 137 99c95 0 151 -62 151 -128
c0 -55 -46 -93 -99 -132c-47 -34 -114 -90 -133 -106h77c9 0 18 1 26 1h129v-41zM599 674l-392 -654h-42l392 654h42z" />
    <glyph glyph-name="onequarter" unicode="&#xbc;" horiz-adv-x="765" 
d="M300 310h-232v35h88v310c-16 -5 -49 -14 -93 -14v24c0 11 1 11 11 11c78 2 112 30 124 39h14v-370h88v-35zM702 103h-70v-103h-57v103h-187v36l179 254h65v-254h70v-36zM637 674l-391 -654h-42l391 654h42zM578 139v227c0 -22 -46 -96 -55 -110c-30 -48 -58 -86 -79 -117
h134z" />
    <glyph glyph-name="one.superior" unicode="&#xb9;" horiz-adv-x="363" 
d="M300 310h-232v35h88v310c-16 -5 -49 -14 -93 -14v24c0 11 1 11 11 11c78 2 112 30 124 39h14v-370h88v-35z" />
    <glyph glyph-name="Oogonek" unicode="&#x1ea;" horiz-adv-x="722" 
d="M667 345c0 -189 -116 -335 -260 -362c-34 -23 -60 -52 -60 -87c1 -30 25 -36 53 -38c22 -1 45 5 67 14l14 -59c-40 -19 -65 -25 -98 -25c-67 0 -98 42 -99 85c-2 40 22 79 57 107c-153 11 -287 162 -287 365c0 209 141 370 307 370c162 0 306 -158 306 -370zM581 360
c0 181 -107 293 -221 293c-111 0 -220 -109 -220 -293c0 -193 105 -318 221 -318c112 0 220 122 220 318z" />
    <glyph glyph-name="oogonek" unicode="&#x1eb;" 
d="M459 220c0 -106 -65 -193 -154 -221c-46 -26 -87 -59 -86 -103c1 -30 25 -36 53 -38c22 -1 45 5 67 14l14 -59c-40 -19 -65 -25 -98 -25c-67 0 -98 42 -99 85c-3 46 29 89 72 118c-107 8 -198 104 -198 229c0 133 97 239 215 239c115 0 214 -104 214 -239zM383 230
c0 117 -70 169 -139 169c-63 0 -138 -48 -138 -169c0 -118 67 -178 139 -178c67 0 138 55 138 178z" />
    <glyph glyph-name="openbullet" unicode="&#x25e6;" horiz-adv-x="762" 
d="M521 128h-280v280h280v-280zM485 268c0 57 -47 104 -104 104s-104 -47 -104 -104s47 -104 104 -104s104 47 104 104z" />
    <glyph glyph-name="ordfeminine" unicode="&#xaa;" horiz-adv-x="365" 
d="M328 394h-62v26c-31 -22 -90 -33 -136 -33c-71 0 -93 57 -93 88c0 35 33 61 89 77c50 14 101 16 139 17v29c0 51 -34 77 -73 77c-48 0 -87 -13 -124 -35l-5 46c41 20 79 29 129 29c78 0 136 -49 136 -116v-205zM297 335c0 -12 -13 -21 -31 -21h-167c-17 0 -31 9 -31 21
s14 22 31 22h167c18 0 31 -10 31 -22zM265 488v45c-52 0 -168 -10 -168 -58c0 -26 31 -46 76 -46c13 0 41 2 64 14c28 14 28 31 28 45z" />
    <glyph glyph-name="ordmasculine" unicode="&#xba;" horiz-adv-x="411" 
d="M386 548c0 -90 -82 -161 -181 -161c-96 0 -180 69 -180 161c0 93 82 167 181 167c96 0 180 -72 180 -167zM355 335c0 -12 -14 -21 -31 -21h-237c-17 0 -31 9 -31 21s14 22 31 22h237c17 0 31 -10 31 -22zM322 555c0 82 -59 118 -117 118c-53 0 -116 -33 -116 -118
c0 -82 56 -124 117 -124c56 0 116 38 116 124z" />
    <glyph glyph-name="Oslash" unicode="&#xd8;" horiz-adv-x="762" 
d="M707 345c0 -206 -149 -366 -327 -366c-82 0 -145 38 -150 41l-47 -84l-54 30l51 91c-54 44 -126 144 -126 288c0 207 148 370 327 370c52 0 105 -16 150 -41l47 84l54 -30l-51 -91c32 -31 126 -122 126 -292zM499 619c-30 19 -72 36 -119 36c-121 0 -242 -110 -242 -310
c0 -122 46 -194 76 -228zM623 345c0 83 -21 168 -76 231l-285 -501c22 -15 65 -36 119 -36c121 0 242 107 242 306z" />
    <glyph glyph-name="oslash" unicode="&#xf8;" 
d="M459 220c0 -129 -97 -230 -215 -230c-21 0 -50 4 -84 18l-66 -120l-53 30l68 123c-5 5 -79 67 -79 179c0 133 97 239 215 239c23 0 52 -4 85 -20l65 118l53 -30l-68 -122c53 -48 79 -118 79 -185zM301 386c-17 9 -37 13 -56 13c-70 0 -140 -58 -140 -179
c0 -21 2 -78 37 -120zM384 220c0 43 -9 90 -36 126l-158 -284c17 -8 37 -12 55 -12c65 0 139 50 139 170z" />
    <glyph glyph-name="Oslashacute" unicode="&#x1fe;" horiz-adv-x="762" 
d="M707 345c0 -206 -149 -366 -327 -366c-82 0 -145 38 -150 41l-47 -84l-54 30l51 91c-54 44 -126 144 -126 288c0 207 148 370 327 370c52 0 105 -16 150 -41l47 84l54 -30l-51 -91c32 -31 126 -122 126 -292zM499 619c-30 19 -72 36 -119 36c-121 0 -242 -110 -242 -310
c0 -122 46 -194 76 -228zM623 345c0 83 -21 168 -76 231l-285 -501c22 -15 65 -36 119 -36c121 0 242 107 242 306zM571 867l-197 -122h-89l175 122h111z" />
    <glyph glyph-name="oslashacute" unicode="&#x1ff;" 
d="M459 220c0 -129 -97 -230 -215 -230c-21 0 -50 4 -84 18l-66 -120l-53 30l68 123c-5 5 -79 67 -79 179c0 133 97 239 215 239c23 0 52 -4 85 -20l65 118l53 -30l-68 -122c53 -48 79 -118 79 -185zM301 386c-17 9 -37 13 -56 13c-70 0 -140 -58 -140 -179
c0 -21 2 -78 37 -120zM384 220c0 43 -9 90 -36 126l-158 -284c17 -8 37 -12 55 -12c65 0 139 50 139 170zM382 694l-146 -167h-60l130 167h76z" />
    <glyph glyph-name="Otilde" unicode="&#xd5;" horiz-adv-x="722" 
d="M667 345c0 -209 -142 -366 -307 -366c-161 0 -306 155 -306 366c0 209 141 370 307 370c162 0 306 -158 306 -370zM581 360c0 181 -107 293 -221 293c-111 0 -220 -109 -220 -293c0 -193 105 -318 221 -318c112 0 220 122 220 318zM523 853c-2 -79 -52 -118 -95 -118
c-25 0 -45 12 -74 33c-10 7 -35 25 -58 25c-29 0 -38 -32 -38 -58h-60c2 79 52 118 95 118c25 0 45 -12 74 -33c10 -7 35 -25 58 -25c29 0 38 32 38 58h60z" />
    <glyph glyph-name="otilde" unicode="&#xf5;" 
d="M459 220c0 -129 -97 -230 -215 -230c-114 0 -214 99 -214 230c0 133 97 239 215 239c115 0 214 -104 214 -239zM383 230c0 117 -70 169 -139 169c-63 0 -138 -48 -138 -169c0 -118 67 -178 139 -178c67 0 138 55 138 178zM407 670c-2 -79 -52 -118 -95 -118
c-25 0 -45 12 -74 33c-10 7 -35 25 -58 25c-29 0 -38 -32 -38 -58h-60c2 79 52 118 95 118c25 0 45 -12 74 -33c10 -7 35 -25 58 -25c29 0 38 32 38 58h60z" />
    <glyph glyph-name="paragraph" unicode="&#xb6;" horiz-adv-x="611" 
d="M582 674c0 -20 -19 -20 -33 -20h-50v-815c0 -14 0 -33 -20 -33s-20 19 -20 33v815h-70v-815c0 -14 0 -33 -20 -33s-20 19 -20 33v391c-128 5 -293 76 -293 233c0 126 110 231 250 231h243c14 0 33 0 33 -20z" />
    <glyph glyph-name="periodcentered" unicode="&#xb7;" horiz-adv-x="762" 
d="M421 307h-81v81h81v-81z" />
    <glyph glyph-name="permyriad" unicode="&#x2031;" horiz-adv-x="1443" 
d="M1407 145c0 -115 -63 -201 -135 -201c-69 0 -137 81 -137 202c0 118 67 201 137 201s135 -83 135 -202zM1065 145c0 -115 -63 -201 -135 -201c-69 0 -137 81 -137 202c0 118 67 201 137 201s135 -83 135 -202zM326 548c0 -115 -63 -201 -135 -201c-69 0 -137 81 -137 202
c0 118 67 201 137 201s135 -83 135 -202zM723 145c0 -115 -63 -201 -135 -201c-69 0 -137 81 -137 202c0 118 67 201 137 201s135 -83 135 -202zM607 731c0 0 0 -6 -7 -18l-426 -752c-5 -9 -9 -17 -20 -17s-19 9 -19 19c0 0 0 6 7 18l425 751c10 18 17 18 22 18
c8 0 18 -6 18 -19zM1337 146c0 72 -26 141 -65 141c-18 0 -62 -13 -62 -142c0 -124 42 -141 62 -141c38 0 65 67 65 142zM995 146c0 72 -26 141 -65 141c-18 0 -62 -13 -62 -142c0 -124 42 -141 62 -141c38 0 65 67 65 142zM256 549c0 72 -26 141 -65 141
c-18 0 -62 -13 -62 -142c0 -124 42 -141 62 -141c38 0 65 67 65 142zM653 146c0 72 -26 141 -65 141c-18 0 -62 -13 -62 -142c0 -124 42 -141 62 -141c38 0 65 67 65 142z" />
    <glyph glyph-name="perthousand" unicode="&#x2030;" horiz-adv-x="1135" 
d="M1073 145c0 -115 -63 -201 -135 -201c-69 0 -137 81 -137 202c0 118 67 201 137 201s135 -83 135 -202zM334 548c0 -115 -63 -201 -135 -201c-69 0 -137 81 -137 202c0 118 67 201 137 201s135 -83 135 -202zM731 145c0 -115 -63 -201 -135 -201c-69 0 -137 81 -137 202
c0 118 67 201 137 201s135 -83 135 -202zM615 731c0 0 0 -6 -7 -18l-426 -752c-5 -9 -9 -17 -20 -17s-19 9 -19 19c0 0 0 6 7 18l425 751c10 18 17 18 22 18c8 0 18 -6 18 -19zM1003 146c0 72 -26 141 -65 141c-18 0 -62 -13 -62 -142c0 -124 42 -141 62 -141
c38 0 65 67 65 142zM264 549c0 72 -26 141 -65 141c-18 0 -62 -13 -62 -142c0 -124 42 -141 62 -141c38 0 65 67 65 142zM661 146c0 72 -26 141 -65 141c-18 0 -62 -13 -62 -142c0 -124 42 -141 62 -141c38 0 65 67 65 142z" />
    <glyph glyph-name="peso" unicode="&#x20b1;" horiz-adv-x="623" 
d="M568 492c0 -104 -95 -203 -233 -203h-158v-84h134v-62h-134v-143h-86v143h-71v62h71v489h244c136 0 233 -96 233 -202zM489 493c0 75 -58 145 -175 145h-139v-291h139c114 0 175 67 175 146z" />
    <glyph glyph-name="Phi" unicode="&#x3a6;" horiz-adv-x="707" 
d="M652 347c0 -113 -100 -224 -261 -241v-106h-81v107c-136 13 -256 114 -256 240s120 227 256 240v107h81v-106c160 -17 261 -128 261 -241zM310 167v360c-111 -16 -172 -93 -172 -180s61 -164 172 -180zM568 347c0 87 -62 165 -177 181v-362c115 16 177 94 177 181z" />
    <glyph glyph-name="Pi" unicode="&#x3a0;" horiz-adv-x="686" 
d="M595 0h-86v632h-333v-632h-86v692h505v-692z" />
    <glyph glyph-name="plusminus" unicode="&#xb1;" horiz-adv-x="762" 
d="M707 18c0 -18 -18 -18 -32 -18h-589c-15 0 -32 0 -32 19c0 18 18 18 32 18h276v271h-276c-15 0 -32 0 -32 19c0 18 18 18 32 18h276v276c0 15 0 32 19 32c18 0 18 -18 18 -32v-276h276c15 0 32 0 32 -19c0 -18 -18 -18 -32 -18h-276v-271h276c15 0 32 0 32 -19z" />
    <glyph glyph-name="Psi" unicode="&#x3a8;" horiz-adv-x="762" 
d="M707 553c-59 -3 -69 -74 -69 -128c0 -60 -2 -291 -219 -318v-107h-81v107c-182 27 -214 194 -215 297c0 67 -5 145 -69 149v60h71c64 0 79 -44 79 -192c0 -72 7 -216 134 -252v525h81v-525c137 34 138 197 138 271c0 163 36 173 79 173h71v-60z" />
    <glyph glyph-name="published" unicode="&#x2117;" horiz-adv-x="694" 
d="M694 347c0 -192 -155 -347 -347 -347s-347 155 -347 347s155 347 347 347s347 -155 347 -347zM659 347c0 173 -139 312 -312 312c-172 0 -312 -139 -312 -312c0 -172 140 -312 312 -312c173 0 312 140 312 312zM521 441c0 -67 -62 -131 -151 -131h-103v-188h-55v450h158
c88 0 151 -62 151 -131zM470 442c0 48 -38 94 -114 94h-90v-189h90c74 0 114 44 114 95z" />
    <glyph glyph-name="questiondown" unicode="&#xbf;" horiz-adv-x="462" 
d="M257 419h-81v81h81v-81zM407 -151c-38 -23 -106 -53 -189 -53c-120 0 -164 72 -164 155c0 61 22 94 43 114c56 57 87 133 87 212v50h65v-53c0 -91 -33 -178 -92 -247c-13 -16 -27 -32 -27 -78c0 -59 20 -93 88 -93c38 0 101 8 167 55z" />
    <glyph glyph-name="quillbracketleft" unicode="&#x2045;" horiz-adv-x="354" 
d="M302 -308c-85 0 -196 39 -225 132c-6 21 -7 42 -7 63v209c0 82 70 154 152 154v2c-18 0 -37 6 -54 12c-62 25 -99 77 -99 146c0 11 1 23 1 34v169c0 23 0 46 12 67c39 65 144 71 220 71v-60c-15 0 -31 1 -46 1c-65 0 -109 -18 -109 -72v-177c0 -11 -1 -23 -1 -34
c0 -90 82 -128 155 -128v-60c-76 0 -154 -39 -154 -130v-219c0 -35 11 -71 37 -96c22 -20 45 -24 74 -24h44v-60z" />
    <glyph glyph-name="quillbracketright" unicode="&#x2046;" horiz-adv-x="354" 
d="M283 -111c0 -24 0 -47 -13 -68c-38 -63 -143 -70 -218 -70v60c14 0 29 -1 43 -1c66 0 111 18 111 72v177c0 12 1 24 1 36c0 86 -83 126 -156 126v60c102 0 156 60 156 126c0 12 -1 24 -1 36v177c0 66 -63 72 -111 72c-14 0 -29 -1 -43 -1v60c75 0 180 -7 218 -70
c13 -21 13 -44 13 -68v-204c0 -11 0 -22 -2 -33c-10 -68 -82 -124 -150 -124v-2c18 0 38 -6 55 -13c67 -27 97 -80 97 -145v-203z" />
    <glyph glyph-name="quotedblbase" unicode="&#x201e;" horiz-adv-x="462" 
d="M177 1l-41 -126h-40l25 125h-25v81h81v-80zM367 1l-41 -126h-40l25 125h-25v81h81v-80z" />
    <glyph glyph-name="quotedblleft" unicode="&#x201c;" horiz-adv-x="462" 
d="M176 488h-81v80l41 126h40l-25 -125h25v-81zM366 488h-81v80l41 126h40l-25 -125h25v-81z" />
    <glyph glyph-name="quotedblright" unicode="&#x201d;" horiz-adv-x="462" 
d="M177 614l-41 -126h-40l25 125h-25v81h81v-80zM367 614l-41 -126h-40l25 125h-25v81h81v-80z" />
    <glyph glyph-name="quoteleft" unicode="&#x2018;" horiz-adv-x="272" 
d="M176 488h-81v80l41 126h40l-25 -125h25v-81z" />
    <glyph glyph-name="quoteright" unicode="&#x2019;" horiz-adv-x="272" 
d="M176 614l-41 -126h-40l25 125h-25v81h81v-80z" />
    <glyph glyph-name="quotesinglbase" unicode="&#x201a;" horiz-adv-x="272" 
d="M177 1l-41 -126h-40l25 125h-25v81h81v-80z" />
    <glyph glyph-name="Racute" unicode="&#x154;" horiz-adv-x="630" 
d="M602 0h-86l-185 317h-156v-317h-84v694h236c141 0 248 -87 248 -187c0 -74 -59 -150 -168 -181zM496 507c0 67 -59 131 -180 131h-141v-261h141c126 0 180 68 180 130zM505 867l-197 -122h-89l175 122h111z" />
    <glyph glyph-name="racute" unicode="&#x155;" horiz-adv-x="333" 
d="M318 387c-90 -1 -166 -67 -166 -168v-219h-74v449h69v-88c27 39 80 92 171 93v-67zM284 694l-146 -167h-60l130 167h76z" />
    <glyph glyph-name="radical" unicode="&#x221a;" horiz-adv-x="462" 
d="M509 748c0 -15 -16 -18 -28 -18h-75c-12 0 -11 -12 -14 -20c-13 -61 -30 -122 -45 -183c-49 -193 -89 -387 -142 -579c-5 -22 -5 -53 -34 -53c-15 0 -15 8 -15 17l-34 176c-5 21 -7 43 -13 63l-45 -81l-31 30l-10 13l122 217l50 -262h2c2 14 6 28 10 42l130 530
c11 47 15 127 58 127h86c12 0 28 -2 28 -19z" />
    <glyph glyph-name="Rcaron" unicode="&#x158;" horiz-adv-x="630" 
d="M602 0h-86l-185 317h-156v-317h-84v694h236c141 0 248 -87 248 -187c0 -74 -59 -150 -168 -181zM496 507c0 67 -59 131 -180 131h-141v-261h141c126 0 180 68 180 130zM471 869l-126 -134h-60l-126 134h59l97 -97l97 97h59z" />
    <glyph glyph-name="rcaron" unicode="&#x159;" horiz-adv-x="333" 
d="M318 387c-90 -1 -166 -67 -166 -168v-219h-74v449h69v-88c27 39 80 92 171 93v-67zM322 697l-125 -172h-60l-125 172h59l96 -123l96 123h59z" />
    <glyph glyph-name="Rcommaaccent" unicode="&#x156;" horiz-adv-x="630" 
d="M602 0h-86l-185 317h-156v-317h-84v694h236c141 0 248 -87 248 -187c0 -74 -59 -150 -168 -181zM496 507c0 67 -59 131 -180 131h-141v-261h141c126 0 180 68 180 130zM351 -148l-37 -113h-36l23 113h-23v72h73v-72z" />
    <glyph glyph-name="rcommaaccent" unicode="&#x157;" horiz-adv-x="333" 
d="M318 387c-90 -1 -166 -67 -166 -168v-219h-74v449h69v-88c27 39 80 92 171 93v-67zM151 -148l-37 -113h-36l23 113h-23v72h73v-72z" />
    <glyph glyph-name="Rdblgrave" unicode="&#x210;" horiz-adv-x="630" 
d="M602 0h-86l-185 317h-156v-317h-84v694h236c141 0 248 -87 248 -187c0 -74 -59 -150 -168 -181zM496 507c0 67 -59 131 -180 131h-141v-261h141c126 0 180 68 180 130zM427 745h-60l-78 167h76zM264 745h-60l-78 167h76z" />
    <glyph glyph-name="rdblgrave" unicode="&#x211;" horiz-adv-x="333" 
d="M318 387c-90 -1 -166 -67 -166 -168v-219h-74v449h69v-88c27 39 80 92 171 93v-67zM306 527h-60l-78 167h76zM143 527h-60l-78 167h76z" />
    <glyph glyph-name="Rdotaccent" unicode="&#x1e58;" horiz-adv-x="630" 
d="M602 0h-86l-185 317h-156v-317h-84v694h236c141 0 248 -87 248 -187c0 -74 -59 -150 -168 -181zM496 507c0 67 -59 131 -180 131h-141v-261h141c126 0 180 68 180 130zM358 735h-86v86h86v-86z" />
    <glyph glyph-name="rdotaccent" unicode="&#x1e59;" horiz-adv-x="333" 
d="M318 387c-90 -1 -166 -67 -166 -168v-219h-74v449h69v-88c27 39 80 92 171 93v-67zM209 568h-86v86h86v-86z" />
    <glyph glyph-name="Rdotbelow" unicode="&#x1e5a;" horiz-adv-x="630" 
d="M602 0h-86l-185 317h-156v-317h-84v694h236c141 0 248 -87 248 -187c0 -74 -59 -150 -168 -181zM496 507c0 67 -59 131 -180 131h-141v-261h141c126 0 180 68 180 130zM358 -200h-86v86h86v-86z" />
    <glyph glyph-name="rdotbelow" unicode="&#x1e5b;" horiz-adv-x="333" 
d="M318 387c-90 -1 -166 -67 -166 -168v-219h-74v449h69v-88c27 39 80 92 171 93v-67zM158 -200h-86v86h86v-86z" />
    <glyph glyph-name="Rdotbelowmacron" unicode="&#x1e5c;" horiz-adv-x="630" 
d="M602 0h-86l-185 317h-156v-317h-84v694h236c141 0 248 -87 248 -187c0 -74 -59 -150 -168 -181zM496 507c0 67 -59 131 -180 131h-141v-261h141c126 0 180 68 180 130zM358 -200h-86v86h86v-86zM491 755h-353v63h353v-63z" />
    <glyph glyph-name="rdotbelowmacron" unicode="&#x1e5d;" horiz-adv-x="333" 
d="M318 387c-90 -1 -166 -67 -166 -168v-219h-74v449h69v-88c27 39 80 92 171 93v-67zM158 -200h-86v86h86v-86zM343 579h-353v63h353v-63z" />
    <glyph glyph-name="recipe" unicode="&#x211e;" horiz-adv-x="630" 
d="M602 0h-86l-45 77l-73 -69l-43 46l84 78l-108 185h-156v-317h-84v694h236c141 0 248 -87 248 -187c0 -74 -59 -150 -168 -181l86 -144l67 63l42 -45l-77 -72zM496 507c0 67 -59 131 -180 131h-141v-261h141c126 0 180 68 180 130z" />
    <glyph glyph-name="referencemark" unicode="&#x203b;" horiz-adv-x="762" 
d="M612 480c12 -13 0 -25 -10 -35l-195 -195l195 -196c10 -10 22 -22 9 -36c-13 -12 -25 0 -35 10l-195 195l-196 -195c-10 -10 -22 -22 -36 -9c-12 13 0 25 10 35l195 196l-195 195c-10 10 -22 22 -9 36c13 12 25 0 35 -10l196 -195l195 195c10 10 22 22 36 9zM416 451
c0 -19 -16 -35 -35 -35c-20 0 -35 16 -35 35s15 35 35 35c19 0 35 -16 35 -35zM214 250c0 -20 -16 -35 -35 -35s-35 15 -35 35c0 19 16 35 35 35s35 -16 35 -35zM416 48c0 -19 -16 -35 -35 -35c-20 0 -35 16 -35 35s15 35 35 35c19 0 35 -16 35 -35zM617 250
c0 -20 -16 -35 -35 -35s-35 15 -35 35c0 19 16 35 35 35s35 -16 35 -35z" />
    <glyph glyph-name="registered" unicode="&#xae;" horiz-adv-x="694" 
d="M694 347c0 -192 -155 -347 -347 -347s-347 155 -347 347s155 347 347 347s347 -155 347 -347zM659 347c0 173 -139 312 -312 312c-172 0 -312 -139 -312 -312c0 -172 140 -312 312 -312c173 0 312 140 312 312zM528 122h-56l-120 206h-101v-206h-54v450h153
c91 0 160 -56 160 -121c0 -48 -38 -97 -109 -117zM459 451c0 43 -38 85 -117 85h-91v-169h91c82 0 117 44 117 84z" />
    <glyph glyph-name="Rho" unicode="&#x3a1;" horiz-adv-x="623" 
d="M568 492c0 -104 -95 -203 -233 -203h-158v-289h-86v694h244c136 0 233 -96 233 -202zM489 493c0 75 -58 145 -175 145h-139v-291h139c114 0 175 67 175 146z" />
    <glyph glyph-name="ring" unicode="&#x2da;" horiz-adv-x="647" 
d="M373 601c0 37 -41 37 -49 37c-19 0 -49 -6 -49 -37c0 -37 41 -37 49 -37c19 0 49 6 49 37zM433 600c0 -42 -45 -83 -109 -83c-61 0 -109 38 -109 85c0 42 45 83 109 83c61 0 109 -38 109 -85z" />
    <glyph glyph-name="uni030A" unicode="&#x30a;" horiz-adv-x="0" 
d="M-185 601c0 37 -41 37 -49 37c-19 0 -49 -6 -49 -37c0 -37 41 -37 49 -37c19 0 49 6 49 37zM-125 600c0 -42 -45 -83 -109 -83c-61 0 -109 38 -109 85c0 42 45 83 109 83c61 0 109 -38 109 -85z" />
    <glyph glyph-name="ringhalfleft" unicode="&#x2bf;" horiz-adv-x="375" 
d="M321 348c0 -2 -1 -3 -2 -4c-39 -29 -79 -37 -114 -37c-85 0 -151 74 -151 166c0 81 56 167 154 167c42 0 65 -5 106 -29c2 -1 3 -3 3 -5v-1l-8 -45c-1 -3 -3 -5 -6 -5c-1 0 -3 0 -4 1c-28 19 -46 30 -91 30c-65 0 -90 -60 -90 -113c0 -63 34 -112 88 -112
c37 0 71 13 101 37c1 1 3 2 4 2c3 0 6 -3 6 -6l1 -19c1 -5 3 -25 3 -27z" />
    <glyph glyph-name="ringhalfright" unicode="&#x2be;" horiz-adv-x="375" 
d="M321 474c0 -81 -56 -167 -154 -167c-42 0 -65 5 -106 29c-2 1 -3 3 -3 5v1l8 45c1 3 3 5 6 5c1 0 3 0 4 -1c28 -19 46 -30 91 -30c65 0 90 60 90 113c0 63 -34 112 -88 112c-37 0 -71 -13 -101 -37c-1 -1 -3 -2 -4 -2c-3 0 -6 3 -6 6l-1 19c-1 5 -3 25 -3 27s1 3 2 4
c39 29 79 37 114 37c85 0 151 -74 151 -166z" />
    <glyph glyph-name="Sacute" unicode="&#x15a;" horiz-adv-x="544" 
d="M489 189c0 -111 -91 -210 -220 -210c-46 0 -134 9 -225 69l15 81c59 -54 137 -83 210 -83c86 0 143 64 143 133c0 35 -15 67 -32 85c-32 33 -46 37 -131 58c-64 16 -98 25 -147 75c-5 5 -48 51 -48 122c0 100 87 196 221 196c89 0 139 -27 180 -49l-15 -81
c-36 32 -81 65 -166 65c-88 0 -143 -59 -143 -120c0 -45 27 -70 40 -84c22 -21 47 -27 115 -44c67 -17 104 -27 150 -76c22 -25 53 -73 53 -137zM462 867l-197 -122h-89l175 122h111z" />
    <glyph glyph-name="sacute" unicode="&#x15b;" horiz-adv-x="375" 
d="M352 127c0 -59 -31 -137 -160 -137c-92 0 -160 41 -165 44l12 68c54 -39 112 -50 152 -50c14 0 92 0 92 69c0 53 -58 65 -91 72c-59 12 -84 17 -120 48c-15 14 -39 44 -39 88c0 130 139 130 162 130s77 -1 141 -31l-12 -65c-44 25 -86 37 -139 37c-13 0 -83 0 -83 -62
c0 -50 51 -60 87 -67c61 -12 91 -18 128 -56c4 -5 35 -37 35 -88zM325 694l-146 -167h-60l130 167h76z" />
    <glyph glyph-name="Scaron" unicode="&#x160;" horiz-adv-x="544" 
d="M489 189c0 -111 -91 -210 -220 -210c-46 0 -134 9 -225 69l15 81c59 -54 137 -83 210 -83c86 0 143 64 143 133c0 35 -15 67 -32 85c-32 33 -46 37 -131 58c-64 16 -98 25 -147 75c-5 5 -48 51 -48 122c0 100 87 196 221 196c89 0 139 -27 180 -49l-15 -81
c-36 32 -81 65 -166 65c-88 0 -143 -59 -143 -120c0 -45 27 -70 40 -84c22 -21 47 -27 115 -44c67 -17 104 -27 150 -76c22 -25 53 -73 53 -137zM428 869l-126 -134h-60l-126 134h59l97 -97l97 97h59z" />
    <glyph glyph-name="scaron" unicode="&#x161;" horiz-adv-x="375" 
d="M352 127c0 -59 -31 -137 -160 -137c-92 0 -160 41 -165 44l12 68c54 -39 112 -50 152 -50c14 0 92 0 92 69c0 53 -58 65 -91 72c-59 12 -84 17 -120 48c-15 14 -39 44 -39 88c0 130 139 130 162 130s77 -1 141 -31l-12 -65c-44 25 -86 37 -139 37c-13 0 -83 0 -83 -62
c0 -50 51 -60 87 -67c61 -12 91 -18 128 -56c4 -5 35 -37 35 -88zM343 697l-125 -172h-60l-125 172h59l96 -123l96 123h59z" />
    <glyph glyph-name="Scedilla" unicode="&#x15e;" horiz-adv-x="544" 
d="M489 189c0 -111 -91 -210 -220 -210c-46 0 -134 9 -225 69l15 81c59 -54 137 -83 210 -83c86 0 143 64 143 133c0 35 -15 67 -32 85c-32 33 -46 37 -131 58c-64 16 -98 25 -147 75c-5 5 -48 51 -48 122c0 100 87 196 221 196c89 0 139 -27 180 -49l-15 -81
c-36 32 -81 65 -166 65c-88 0 -143 -59 -143 -120c0 -45 27 -70 40 -84c22 -21 47 -27 115 -44c67 -17 104 -27 150 -76c22 -25 53 -73 53 -137zM318 -44l-64 -168h-68l72 168h60z" />
    <glyph glyph-name="scedilla" unicode="&#x15f;" horiz-adv-x="375" 
d="M352 127c0 -59 -31 -137 -160 -137c-92 0 -160 41 -165 44l12 68c54 -39 112 -50 152 -50c14 0 92 0 92 69c0 53 -58 65 -91 72c-59 12 -84 17 -120 48c-15 14 -39 44 -39 88c0 130 139 130 162 130s77 -1 141 -31l-12 -65c-44 25 -86 37 -139 37c-13 0 -83 0 -83 -62
c0 -50 51 -60 87 -67c61 -12 91 -18 128 -56c4 -5 35 -37 35 -88zM233 -44l-64 -168h-68l72 168h60z" />
    <glyph glyph-name="schwa" unicode="&#x259;" horiz-adv-x="435" 
d="M407 224c0 -130 -90 -234 -198 -234c-29 0 -99 8 -140 77c-32 53 -36 114 -36 157h305c-2 106 -68 175 -145 175c-30 0 -89 -7 -148 -57c0 4 -3 27 -3 27s-3 33 -3 37c55 40 110 53 156 53c116 0 212 -103 212 -235zM332 170h-240c17 -106 86 -120 117 -120
c59 0 106 53 123 120z" />
    <glyph glyph-name="Scircumflex" unicode="&#x15c;" horiz-adv-x="544" 
d="M489 189c0 -111 -91 -210 -220 -210c-46 0 -134 9 -225 69l15 81c59 -54 137 -83 210 -83c86 0 143 64 143 133c0 35 -15 67 -32 85c-32 33 -46 37 -131 58c-64 16 -98 25 -147 75c-5 5 -48 51 -48 122c0 100 87 196 221 196c89 0 139 -27 180 -49l-15 -81
c-36 32 -81 65 -166 65c-88 0 -143 -59 -143 -120c0 -45 27 -70 40 -84c22 -21 47 -27 115 -44c67 -17 104 -27 150 -76c22 -25 53 -73 53 -137zM428 735h-59l-97 97l-97 -97h-59l126 134h60z" />
    <glyph glyph-name="scircumflex" unicode="&#x15d;" horiz-adv-x="375" 
d="M352 127c0 -59 -31 -137 -160 -137c-92 0 -160 41 -165 44l12 68c54 -39 112 -50 152 -50c14 0 92 0 92 69c0 53 -58 65 -91 72c-59 12 -84 17 -120 48c-15 14 -39 44 -39 88c0 130 139 130 162 130s77 -1 141 -31l-12 -65c-44 25 -86 37 -139 37c-13 0 -83 0 -83 -62
c0 -50 51 -60 87 -67c61 -12 91 -18 128 -56c4 -5 35 -37 35 -88zM343 525h-59l-96 123l-96 -123h-59l125 172h60z" />
    <glyph glyph-name="uni0218" unicode="&#x218;" horiz-adv-x="544" 
d="M489 189c0 -111 -91 -210 -220 -210c-46 0 -134 9 -225 69l15 81c59 -54 137 -83 210 -83c86 0 143 64 143 133c0 35 -15 67 -32 85c-32 33 -46 37 -131 58c-64 16 -98 25 -147 75c-5 5 -48 51 -48 122c0 100 87 196 221 196c89 0 139 -27 180 -49l-15 -81
c-36 32 -81 65 -166 65c-88 0 -143 -59 -143 -120c0 -45 27 -70 40 -84c22 -21 47 -27 115 -44c67 -17 104 -27 150 -76c22 -25 53 -73 53 -137zM308 -148l-37 -113h-36l23 113h-23v72h73v-72z" />
    <glyph glyph-name="uni0219" unicode="&#x219;" horiz-adv-x="375" 
d="M352 127c0 -59 -31 -137 -160 -137c-92 0 -160 41 -165 44l12 68c54 -39 112 -50 152 -50c14 0 92 0 92 69c0 53 -58 65 -91 72c-59 12 -84 17 -120 48c-15 14 -39 44 -39 88c0 130 139 130 162 130s77 -1 141 -31l-12 -65c-44 25 -86 37 -139 37c-13 0 -83 0 -83 -62
c0 -50 51 -60 87 -67c61 -12 91 -18 128 -56c4 -5 35 -37 35 -88zM224 -148l-37 -113h-36l23 113h-23v72h73v-72z" />
    <glyph glyph-name="Sdotbelow" unicode="&#x1e62;" horiz-adv-x="544" 
d="M489 189c0 -111 -91 -210 -220 -210c-46 0 -134 9 -225 69l15 81c59 -54 137 -83 210 -83c86 0 143 64 143 133c0 35 -15 67 -32 85c-32 33 -46 37 -131 58c-64 16 -98 25 -147 75c-5 5 -48 51 -48 122c0 100 87 196 221 196c89 0 139 -27 180 -49l-15 -81
c-36 32 -81 65 -166 65c-88 0 -143 -59 -143 -120c0 -45 27 -70 40 -84c22 -21 47 -27 115 -44c67 -17 104 -27 150 -76c22 -25 53 -73 53 -137zM315 -200h-86v86h86v-86z" />
    <glyph glyph-name="sdotbelow" unicode="&#x1e63;" horiz-adv-x="375" 
d="M352 127c0 -59 -31 -137 -160 -137c-92 0 -160 41 -165 44l12 68c54 -39 112 -50 152 -50c14 0 92 0 92 69c0 53 -58 65 -91 72c-59 12 -84 17 -120 48c-15 14 -39 44 -39 88c0 130 139 130 162 130s77 -1 141 -31l-12 -65c-44 25 -86 37 -139 37c-13 0 -83 0 -83 -62
c0 -50 51 -60 87 -67c61 -12 91 -18 128 -56c4 -5 35 -37 35 -88zM231 -200h-86v86h86v-86z" />
    <glyph glyph-name="section" unicode="&#xa7;" horiz-adv-x="518" 
d="M484 200c0 -57 -28 -109 -73 -142c20 -28 33 -59 33 -94c0 -99 -84 -175 -185 -175c-100 0 -185 73 -185 170h76c0 -58 50 -102 109 -102c60 0 109 47 109 107c0 52 -48 84 -96 107l-99 48c-75 36 -139 99 -139 181c0 56 28 109 73 142c-20 27 -33 59 -33 94
c0 99 84 175 185 175c100 0 185 -73 185 -170h-76c0 58 -50 102 -109 102c-60 0 -109 -47 -109 -107c0 -52 48 -84 96 -107l99 -48c75 -36 139 -99 139 -181zM408 200c0 53 -47 89 -96 112l-99 48c-19 9 -38 21 -55 33c-31 -20 -48 -56 -48 -93c0 -53 47 -89 96 -112l99 -48
c19 -10 38 -21 55 -34c31 21 48 56 48 94z" />
    <glyph glyph-name="servicemark" unicode="&#x2120;" horiz-adv-x="836" 
d="M293 379c0 -67 -54 -126 -132 -126c-27 0 -80 5 -135 41l9 49c36 -33 83 -50 126 -50c52 0 86 38 86 80c0 21 -9 40 -19 51c-19 20 -28 22 -79 35c-38 9 -58 15 -88 45c-3 3 -29 30 -29 73c0 60 53 117 133 117c53 0 83 -16 108 -29l-9 -49c-22 20 -49 39 -100 39
c-52 0 -85 -35 -85 -72c0 -27 16 -42 24 -50c13 -13 28 -16 69 -26c40 -11 62 -17 90 -46c13 -15 31 -44 31 -82zM746 265h-46v371h-1c-11 -45 -110 -306 -130 -358h-43c-23 60 -120 317 -129 358v-371h-47v417h69l91 -246c10 -24 10 -25 20 -58c8 -23 16 -45 18 -56
c6 28 30 91 61 175l68 185h69v-417z" />
    <glyph glyph-name="uni00AD" unicode="&#xad;" horiz-adv-x="326" 
d="M271 193h-260v58h260v-58z" />
    <glyph glyph-name="Sigma" unicode="&#x3a3;" horiz-adv-x="707" 
d="M652 0h-598l226 336l-226 296v62h598v-63h-254c-12 0 -24 1 -36 1h-200l217 -285l-188 -280h189c12 0 24 1 36 1h236v-68z" />
    <glyph glyph-name="sterling" unicode="&#xa3;" horiz-adv-x="647" 
d="M582 148c0 -88 -53 -169 -135 -169c-35 0 -69 7 -103 16c-77 19 -175 44 -211 -2l-60 48c51 64 100 133 110 215c3 20 2 40 -1 60h-117v62h96c-8 19 -15 38 -19 58c-29 131 59 258 187 258c107 0 189 -92 189 -201h-76c0 67 -48 125 -113 125c-79 0 -132 -82 -113 -165
c6 -26 17 -50 27 -75h145v-62h-130c4 -23 4 -46 1 -69c-7 -54 -28 -105 -55 -152c53 0 106 -13 159 -27c27 -7 56 -13 84 -13c41 0 59 47 59 93h76z" />
    <glyph glyph-name="Tau" unicode="&#x3a4;" horiz-adv-x="668" 
d="M632 626h-131c-12 0 -24 1 -36 1h-88v-627h-86v627h-88c-12 0 -24 -1 -36 -1h-132v63h597v-63z" />
    <glyph glyph-name="Tcaron" unicode="&#x164;" horiz-adv-x="668" 
d="M632 626h-131c-12 0 -24 1 -36 1h-88v-627h-86v627h-88c-12 0 -24 -1 -36 -1h-132v63h597v-63zM490 869l-126 -134h-60l-126 134h59l97 -97l97 97h59z" />
    <glyph glyph-name="tcaron" unicode="&#x165;" horiz-adv-x="354" 
d="M326 29c-31 -16 -77 -39 -144 -39c-69 0 -82 69 -82 127v269h-82v58h84v127h69v-127h138v-58h-138v-252c0 -35 6 -82 50 -82c18 0 55 4 90 35zM280 594l-37 -113h-36l23 113h-23v72h73v-72z" />
    <glyph glyph-name="Tcedilla" unicode="&#x162;" horiz-adv-x="668" 
d="M632 626h-131c-12 0 -24 1 -36 1h-88v-627h-86v627h-88c-12 0 -24 -1 -36 -1h-132v63h597v-63zM364 -23l-64 -168h-68l72 168h60z" />
    <glyph glyph-name="tcedilla" unicode="&#x163;" horiz-adv-x="354" 
d="M326 29c-31 -16 -77 -39 -144 -39c-69 0 -82 69 -82 127v269h-82v58h84v127h69v-127h138v-58h-138v-252c0 -35 6 -82 50 -82c18 0 55 4 90 35zM238 -23l-64 -168h-68l72 168h60z" />
    <glyph glyph-name="uni021A" unicode="&#x21a;" horiz-adv-x="668" 
d="M632 626h-131c-12 0 -24 1 -36 1h-88v-627h-86v627h-88c-12 0 -24 -1 -36 -1h-132v63h597v-63zM370 -148l-37 -113h-36l23 113h-23v72h73v-72z" />
    <glyph glyph-name="uni021B" unicode="&#x21b;" horiz-adv-x="354" 
d="M326 29c-31 -16 -77 -39 -144 -39c-69 0 -82 69 -82 127v269h-82v58h84v127h69v-127h138v-58h-138v-252c0 -35 6 -82 50 -82c18 0 55 4 90 35zM213 -148l-37 -113h-36l23 113h-23v72h73v-72z" />
    <glyph glyph-name="tdieresis" unicode="&#x1e97;" horiz-adv-x="354" 
d="M326 29c-31 -16 -77 -39 -144 -39c-69 0 -82 69 -82 127v269h-82v58h84v127h69v-127h138v-58h-138v-252c0 -35 6 -82 50 -82c18 0 55 4 90 35zM92 612h-77v78h77v-78zM259 612h-77v78h77v-78z" />
    <glyph glyph-name="Tdotbelow" unicode="&#x1e6c;" horiz-adv-x="668" 
d="M632 626h-131c-12 0 -24 1 -36 1h-88v-627h-86v627h-88c-12 0 -24 -1 -36 -1h-132v63h597v-63zM377 -200h-86v86h86v-86z" />
    <glyph glyph-name="tdotbelow" unicode="&#x1e6d;" horiz-adv-x="354" 
d="M326 29c-31 -16 -77 -39 -144 -39c-69 0 -82 69 -82 127v269h-82v58h84v127h69v-127h138v-58h-138v-252c0 -35 6 -82 50 -82c18 0 55 4 90 35zM220 -200h-86v86h86v-86z" />
    <glyph glyph-name="Theta" unicode="&#x398;" horiz-adv-x="762" 
d="M707 345c0 -206 -149 -366 -327 -366c-174 0 -326 157 -326 366c0 207 148 370 327 370c175 0 326 -160 326 -370zM626 345c0 184 -114 310 -246 310c-128 0 -245 -123 -245 -310c0 -183 115 -305 246 -305c127 0 245 119 245 305zM571 307h-381v81h381v-81z" />
    <glyph glyph-name="Thorn" unicode="&#xde;" horiz-adv-x="568" 
d="M513 374c0 -79 -58 -194 -218 -194h-126v-180h-72v694h72v-127h139c122 0 205 -94 205 -193zM434 373c0 70 -64 138 -167 138h-98v-275h98c139 0 167 99 167 137z" />
    <glyph glyph-name="thorn" unicode="&#xfe;" horiz-adv-x="502" 
d="M466 223c0 -136 -86 -233 -182 -233c-54 0 -96 24 -130 55v-239h-76v888h74v-297c52 44 116 57 157 57c93 0 157 -110 157 -231zM390 222c0 95 -60 170 -134 170c-41 0 -79 -22 -102 -56v-206c0 -16 3 -34 28 -56c18 -14 37 -24 65 -24c74 0 143 72 143 172z" />
    <glyph glyph-name="threequarters" unicode="&#xbe;" horiz-adv-x="765" 
d="M352 418c0 -64 -63 -121 -148 -121c-35 0 -98 10 -145 63l8 36c33 -44 90 -63 136 -63c52 0 87 37 87 85c0 33 -18 86 -92 86h-51v36c7 1 52 4 56 4c39 8 72 41 72 81c0 39 -35 56 -71 56c-48 0 -92 -26 -110 -64l-26 32c28 40 79 66 136 66c70 0 129 -39 129 -90
c0 -40 -28 -80 -79 -103c61 -17 98 -58 98 -104zM702 103h-70v-103h-57v103h-187v36l179 254h65v-254h70v-36zM637 674l-391 -654h-42l391 654h42zM578 139v227c0 -22 -46 -96 -55 -110c-30 -48 -58 -86 -79 -117h134z" />
    <glyph glyph-name="three.superior" unicode="&#xb3;" horiz-adv-x="352" 
d="M323 418c0 -64 -64 -121 -148 -121c-35 0 -99 10 -145 63l7 36c34 -44 90 -63 137 -63c51 0 87 37 87 85c0 33 -18 86 -93 86h-51v36c8 1 53 4 57 4c38 8 72 41 72 81c0 39 -35 56 -72 56c-48 0 -92 -26 -110 -64l-25 32c27 40 78 66 136 66c70 0 128 -39 128 -90
c0 -40 -28 -80 -78 -103c61 -17 98 -58 98 -104z" />
    <glyph glyph-name="uni2040" unicode="&#x2040;" horiz-adv-x="581" 
d="M505 571h-77c-3 50 -87 64 -134 64c-22 0 -137 -4 -141 -64h-77c1 50 45 84 87 103c42 18 86 24 131 24c83 0 209 -36 211 -127z" />
    <glyph glyph-name="tilde" unicode="&#x2dc;" 
d="M407 670c-2 -79 -52 -118 -95 -118c-25 0 -45 12 -74 33c-10 7 -35 25 -58 25c-29 0 -38 -32 -38 -58h-60c2 79 52 118 95 118c25 0 45 -12 74 -33c10 -7 35 -25 58 -25c29 0 38 32 38 58h60z" />
    <glyph glyph-name="uni0330" unicode="&#x330;" horiz-adv-x="0" 
d="M-72 -98c-2 -79 -52 -118 -95 -118c-25 0 -45 12 -74 33c-10 7 -35 25 -58 25c-29 0 -38 -32 -38 -58h-60c2 79 52 118 95 118c25 0 45 -12 74 -33c10 -7 35 -25 58 -25c29 0 38 32 38 58h60z" />
    <glyph glyph-name="uni0303" unicode="&#x303;" horiz-adv-x="0" 
d="M-72 670c-2 -79 -52 -118 -95 -118c-25 0 -45 12 -74 33c-10 7 -35 25 -58 25c-29 0 -38 -32 -38 -58h-60c2 79 52 118 95 118c25 0 45 -12 74 -33c10 -7 35 -25 58 -25c29 0 38 32 38 58h60z" />
    <glyph glyph-name="Tlinebelow" unicode="&#x1e6e;" horiz-adv-x="668" 
d="M632 626h-131c-12 0 -24 1 -36 1h-88v-627h-86v627h-88c-12 0 -24 -1 -36 -1h-132v63h597v-63zM510 -188h-353v63h353v-63z" />
    <glyph glyph-name="tlinebelow" unicode="&#x1e6f;" horiz-adv-x="354" 
d="M326 29c-31 -16 -77 -39 -144 -39c-69 0 -82 69 -82 127v269h-82v58h84v127h69v-127h138v-58h-138v-252c0 -35 6 -82 50 -82c18 0 55 4 90 35zM353 -188h-353v63h353v-63z" />
    <glyph glyph-name="trademark" unicode="&#x2122;" horiz-adv-x="910" 
d="M379 657h-78h-22h-53v-376h-51v376h-53h-22h-79v37h358v-37zM832 281h-47v371c-11 -45 -110 -307 -130 -358h-44c-22 60 -120 316 -128 357h-1v-370h-46v416h69l91 -245c9 -25 9 -26 20 -58c8 -24 16 -46 18 -56c6 28 30 91 61 175l68 184h69v-416z" />
    <glyph glyph-name="two.superior" unicode="&#xb2;" horiz-adv-x="346" 
d="M317 310h-282v38l161 133c48 39 63 74 63 105c0 52 -40 92 -102 92c-53 0 -80 -29 -98 -93c-6 7 -6 8 -29 32c19 56 59 98 136 98c95 0 151 -61 151 -127c0 -56 -46 -93 -99 -132c-47 -35 -114 -90 -132 -106h77c8 0 17 1 26 1h128v-41z" />
    <glyph glyph-name="Uacute" unicode="&#xda;" horiz-adv-x="667" 
d="M576 233c0 -145 -111 -254 -241 -254s-245 107 -245 254v461h86v-462c0 -135 81 -197 160 -197c80 0 164 63 164 197v462h76v-461zM524 867l-197 -122h-89l175 122h111z" />
    <glyph glyph-name="uacute" unicode="&#xfa;" horiz-adv-x="502" 
d="M424 0h-74v50c-61 -55 -140 -60 -168 -60c-82 0 -105 49 -105 121v333h76v-329c0 -44 7 -70 77 -70c65 0 118 37 118 113v286h76v-444zM388 694l-146 -167h-60l130 167h76z" />
    <glyph glyph-name="Ubreve" unicode="&#x16c;" horiz-adv-x="667" 
d="M576 233c0 -145 -111 -254 -241 -254s-245 107 -245 254v461h86v-462c0 -135 81 -197 160 -197c80 0 164 63 164 197v462h76v-461zM499 923c-2 -105 -78 -178 -166 -178c-85 0 -163 71 -165 178h60c2 -72 54 -113 106 -113c48 0 103 38 105 113h60z" />
    <glyph glyph-name="ubreve" unicode="&#x16d;" horiz-adv-x="502" 
d="M424 0h-74v50c-61 -55 -140 -60 -168 -60c-82 0 -105 49 -105 121v333h76v-329c0 -44 7 -70 77 -70c65 0 118 37 118 113v286h76v-444zM416 700c-2 -105 -78 -178 -166 -178c-85 0 -163 71 -165 178h60c2 -72 54 -113 106 -113c48 0 103 38 105 113h60z" />
    <glyph glyph-name="Ucaron" unicode="&#x1d3;" horiz-adv-x="667" 
d="M576 233c0 -145 -111 -254 -241 -254s-245 107 -245 254v461h86v-462c0 -135 81 -197 160 -197c80 0 164 63 164 197v462h76v-461zM490 869l-126 -134h-60l-126 134h59l97 -97l97 97h59z" />
    <glyph glyph-name="ucaron" unicode="&#x1d4;" horiz-adv-x="502" 
d="M424 0h-74v50c-61 -55 -140 -60 -168 -60c-82 0 -105 49 -105 121v333h76v-329c0 -44 7 -70 77 -70c65 0 118 37 118 113v286h76v-444zM406 697l-125 -172h-60l-125 172h59l96 -123l96 123h59z" />
    <glyph glyph-name="Ucircumflex" unicode="&#xdb;" horiz-adv-x="667" 
d="M576 233c0 -145 -111 -254 -241 -254s-245 107 -245 254v461h86v-462c0 -135 81 -197 160 -197c80 0 164 63 164 197v462h76v-461zM490 735h-59l-97 97l-97 -97h-59l126 134h60z" />
    <glyph glyph-name="ucircumflex" unicode="&#xfb;" horiz-adv-x="502" 
d="M424 0h-74v50c-61 -55 -140 -60 -168 -60c-82 0 -105 49 -105 121v333h76v-329c0 -44 7 -70 77 -70c65 0 118 37 118 113v286h76v-444zM406 525h-59l-96 123l-96 -123h-59l125 172h60z" />
    <glyph glyph-name="Udblgrave" unicode="&#x214;" horiz-adv-x="667" 
d="M576 233c0 -145 -111 -254 -241 -254s-245 107 -245 254v461h86v-462c0 -135 81 -197 160 -197c80 0 164 63 164 197v462h76v-461zM473 745h-60l-78 167h76zM310 745h-60l-78 167h76z" />
    <glyph glyph-name="udblgrave" unicode="&#x215;" horiz-adv-x="502" 
d="M424 0h-74v50c-61 -55 -140 -60 -168 -60c-82 0 -105 49 -105 121v333h76v-329c0 -44 7 -70 77 -70c65 0 118 37 118 113v286h76v-444zM390 527h-60l-78 167h76zM227 527h-60l-78 167h76z" />
    <glyph glyph-name="Udieresis" unicode="&#xdc;" horiz-adv-x="667" 
d="M576 233c0 -145 -111 -254 -241 -254s-245 107 -245 254v461h86v-462c0 -135 81 -197 160 -197c80 0 164 63 164 197v462h76v-461zM289 735h-77v78h77v-78zM456 735h-77v78h77v-78z" />
    <glyph glyph-name="udieresis" unicode="&#xfc;" horiz-adv-x="502" 
d="M424 0h-74v50c-61 -55 -140 -60 -168 -60c-82 0 -105 49 -105 121v333h76v-329c0 -44 7 -70 77 -70c65 0 118 37 118 113v286h76v-444zM219 572h-77v78h77v-78zM360 572h-77v78h77v-78z" />
    <glyph glyph-name="Udieresisacute" unicode="&#x1d7;" horiz-adv-x="667" 
d="M576 233c0 -145 -111 -254 -241 -254s-245 107 -245 254v461h86v-462c0 -135 81 -197 160 -197c80 0 164 63 164 197v462h76v-461zM289 735h-77v78h77v-78zM456 735h-77v78h77v-78zM524 986l-197 -122h-89l175 122h111z" />
    <glyph glyph-name="udieresisacute" unicode="&#x1d8;" horiz-adv-x="502" 
d="M424 0h-74v50c-61 -55 -140 -60 -168 -60c-82 0 -105 49 -105 121v333h76v-329c0 -44 7 -70 77 -70c65 0 118 37 118 113v286h76v-444zM219 572h-77v78h77v-78zM360 572h-77v78h77v-78zM441 828l-197 -122h-89l175 122h111z" />
    <glyph glyph-name="Udieresiscaron" unicode="&#x1d9;" horiz-adv-x="667" 
d="M576 233c0 -145 -111 -254 -241 -254s-245 107 -245 254v461h86v-462c0 -135 81 -197 160 -197c80 0 164 63 164 197v462h76v-461zM289 735h-77v78h77v-78zM456 735h-77v78h77v-78zM490 988l-126 -134h-60l-126 134h59l97 -97l97 97h59z" />
    <glyph glyph-name="udieresiscaron" unicode="&#x1da;" horiz-adv-x="502" 
d="M424 0h-74v50c-61 -55 -140 -60 -168 -60c-82 0 -105 49 -105 121v333h76v-329c0 -44 7 -70 77 -70c65 0 118 37 118 113v286h76v-444zM219 572h-77v78h77v-78zM360 572h-77v78h77v-78zM407 830l-126 -134h-60l-126 134h59l97 -97l97 97h59z" />
    <glyph glyph-name="Udieresisgrave" unicode="&#x1db;" horiz-adv-x="667" 
d="M576 233c0 -145 -111 -254 -241 -254s-245 107 -245 254v461h86v-462c0 -135 81 -197 160 -197c80 0 164 63 164 197v462h76v-461zM289 735h-77v78h77v-78zM456 735h-77v78h77v-78zM430 864h-89l-197 122h111z" />
    <glyph glyph-name="udieresisgrave" unicode="&#x1dc;" horiz-adv-x="502" 
d="M424 0h-74v50c-61 -55 -140 -60 -168 -60c-82 0 -105 49 -105 121v333h76v-329c0 -44 7 -70 77 -70c65 0 118 37 118 113v286h76v-444zM219 572h-77v78h77v-78zM360 572h-77v78h77v-78zM347 706h-89l-197 122h111z" />
    <glyph glyph-name="Udotbelow" unicode="&#x1ee4;" horiz-adv-x="667" 
d="M576 233c0 -145 -111 -254 -241 -254s-245 107 -245 254v461h86v-462c0 -135 81 -197 160 -197c80 0 164 63 164 197v462h76v-461zM376 -200h-86v86h86v-86z" />
    <glyph glyph-name="udotbelow" unicode="&#x1ee5;" horiz-adv-x="502" 
d="M424 0h-74v50c-61 -55 -140 -60 -168 -60c-82 0 -105 49 -105 121v333h76v-329c0 -44 7 -70 77 -70c65 0 118 37 118 113v286h76v-444zM294 -200h-86v86h86v-86z" />
    <glyph glyph-name="Ugrave" unicode="&#xd9;" horiz-adv-x="667" 
d="M576 233c0 -145 -111 -254 -241 -254s-245 107 -245 254v461h86v-462c0 -135 81 -197 160 -197c80 0 164 63 164 197v462h76v-461zM430 745h-89l-197 122h111z" />
    <glyph glyph-name="ugrave" unicode="&#xf9;" horiz-adv-x="502" 
d="M424 0h-74v50c-61 -55 -140 -60 -168 -60c-82 0 -105 49 -105 121v333h76v-329c0 -44 7 -70 77 -70c65 0 118 37 118 113v286h76v-444zM320 527h-60l-146 167h76z" />
    <glyph glyph-name="Uhookabove" unicode="&#x1ee6;" horiz-adv-x="667" 
d="M576 233c0 -145 -111 -254 -241 -254s-245 107 -245 254v461h86v-462c0 -135 81 -197 160 -197c80 0 164 63 164 197v462h76v-461zM429 872c0 -20 -10 -39 -27 -50c-3 -3 -6 -5 -12 -8c-33 -21 -49 -35 -49 -59v-20h-1h-26v20c0 40 21 78 55 96c9 4 15 12 15 21
c0 13 -4 24 -13 31c-11 7 -24 8 -44 8c-30 0 -58 -17 -72 -44h-1h-1l-14 40c21 28 54 44 88 44c30 0 56 -6 75 -21c18 -13 27 -35 27 -58z" />
    <glyph glyph-name="uhookabove" unicode="&#x1ee7;" horiz-adv-x="502" 
d="M424 0h-74v50c-61 -55 -140 -60 -168 -60c-82 0 -105 49 -105 121v333h76v-329c0 -44 7 -70 77 -70c65 0 118 37 118 113v286h76v-444zM346 640c0 -20 -10 -39 -27 -50c-3 -3 -6 -5 -12 -8c-33 -21 -49 -35 -49 -59v-20h-1h-26v20c0 40 21 78 55 96c9 4 15 12 15 21
c0 13 -4 24 -13 31c-11 7 -24 8 -44 8c-30 0 -58 -17 -72 -44h-1h-1l-14 40c21 28 54 44 88 44c30 0 56 -6 75 -21c18 -13 27 -35 27 -58z" />
    <glyph glyph-name="Uhorn" unicode="&#x1af;" horiz-adv-x="667" 
d="M667 695l-1 -1l-96 -70v-393c0 -66 -24 -130 -69 -178c-44 -46 -105 -74 -169 -74c-63 0 -124 28 -168 74c-45 48 -69 112 -69 178v463h76v-463c0 -50 12 -101 44 -141c29 -35 72 -55 117 -55c46 0 89 20 117 55c33 40 45 91 45 141v463h76v-32l40 32h-23l-1 1v79l1 1h79
l1 -1v-79z" />
    <glyph glyph-name="uhorn" unicode="&#x1b0;" horiz-adv-x="502" 
d="M521 445l-1 -1l-96 -70v-374h-74v50c-40 -38 -102 -60 -170 -60c-33 0 -61 8 -79 29c-19 24 -24 54 -24 93v332h76v-332c0 -24 3 -42 17 -53c15 -12 34 -14 67 -14c60 0 111 46 111 105v294h76v-32l40 32h-24v1v79v1h80l1 -1v-79z" />
    <glyph glyph-name="Uhornacute" unicode="&#x1ee8;" horiz-adv-x="667" 
d="M667 695l-1 -1l-96 -70v-393c0 -66 -24 -130 -69 -178c-44 -46 -105 -74 -169 -74c-63 0 -124 28 -168 74c-45 48 -69 112 -69 178v463h76v-463c0 -50 12 -101 44 -141c29 -35 72 -55 117 -55c46 0 89 20 117 55c33 40 45 91 45 141v463h76v-32l40 32h-23l-1 1v79l1 1h79
l1 -1v-79zM496 867l-197 -122h-89l175 122h111z" />
    <glyph glyph-name="uhornacute" unicode="&#x1ee9;" horiz-adv-x="502" 
d="M521 445l-1 -1l-96 -70v-374h-74v50c-40 -38 -102 -60 -170 -60c-33 0 -61 8 -79 29c-19 24 -24 54 -24 93v332h76v-332c0 -24 3 -42 17 -53c15 -12 34 -14 67 -14c60 0 111 46 111 105v294h76v-32l40 32h-24v1v79v1h80l1 -1v-79zM361 694l-146 -167h-60l130 167h76z" />
    <glyph glyph-name="Uhorndotbelow" unicode="&#x1ef0;" horiz-adv-x="667" 
d="M667 695l-1 -1l-96 -70v-393c0 -66 -24 -130 -69 -178c-44 -46 -105 -74 -169 -74c-63 0 -124 28 -168 74c-45 48 -69 112 -69 178v463h76v-463c0 -50 12 -101 44 -141c29 -35 72 -55 117 -55c46 0 89 20 117 55c33 40 45 91 45 141v463h76v-32l40 32h-23l-1 1v79l1 1h79
l1 -1v-79zM376 -200h-86v86h86v-86z" />
    <glyph glyph-name="uhorndotbelow" unicode="&#x1ef1;" horiz-adv-x="502" 
d="M521 445l-1 -1l-96 -70v-374h-74v50c-40 -38 -102 -60 -170 -60c-33 0 -61 8 -79 29c-19 24 -24 54 -24 93v332h76v-332c0 -24 3 -42 17 -53c15 -12 34 -14 67 -14c60 0 111 46 111 105v294h76v-32l40 32h-24v1v79v1h80l1 -1v-79zM294 -200h-86v86h86v-86z" />
    <glyph glyph-name="Uhorngrave" unicode="&#x1eea;" horiz-adv-x="667" 
d="M667 695l-1 -1l-96 -70v-393c0 -66 -24 -130 -69 -178c-44 -46 -105 -74 -169 -74c-63 0 -124 28 -168 74c-45 48 -69 112 -69 178v463h76v-463c0 -50 12 -101 44 -141c29 -35 72 -55 117 -55c46 0 89 20 117 55c33 40 45 91 45 141v463h76v-32l40 32h-23l-1 1v79l1 1h79
l1 -1v-79zM429 745h-89l-197 122h111z" />
    <glyph glyph-name="uhorngrave" unicode="&#x1eeb;" horiz-adv-x="502" 
d="M521 445l-1 -1l-96 -70v-374h-74v50c-40 -38 -102 -60 -170 -60c-33 0 -61 8 -79 29c-19 24 -24 54 -24 93v332h76v-332c0 -24 3 -42 17 -53c15 -12 34 -14 67 -14c60 0 111 46 111 105v294h76v-32l40 32h-24v1v79v1h80l1 -1v-79zM320 527h-60l-146 167h76z" />
    <glyph glyph-name="Uhornhookabove" unicode="&#x1eec;" horiz-adv-x="667" 
d="M667 695l-1 -1l-96 -70v-393c0 -66 -24 -130 -69 -178c-44 -46 -105 -74 -169 -74c-63 0 -124 28 -168 74c-45 48 -69 112 -69 178v463h76v-463c0 -50 12 -101 44 -141c29 -35 72 -55 117 -55c46 0 89 20 117 55c33 40 45 91 45 141v463h76v-32l40 32h-23l-1 1v79l1 1h79
l1 -1v-79zM428 872c0 -20 -10 -39 -27 -50c-3 -3 -6 -5 -12 -8c-33 -21 -49 -35 -49 -59v-20h-1h-26v20c0 40 21 78 55 96c9 4 15 12 15 21c0 13 -4 24 -13 31c-11 7 -24 8 -44 8c-30 0 -58 -17 -72 -44h-1h-1l-14 40c21 28 54 44 88 44c30 0 56 -6 75 -21
c18 -13 27 -35 27 -58z" />
    <glyph glyph-name="uhornhookabove" unicode="&#x1eed;" horiz-adv-x="502" 
d="M521 445l-1 -1l-96 -70v-374h-74v50c-40 -38 -102 -60 -170 -60c-33 0 -61 8 -79 29c-19 24 -24 54 -24 93v332h76v-332c0 -24 3 -42 17 -53c15 -12 34 -14 67 -14c60 0 111 46 111 105v294h76v-32l40 32h-24v1v79v1h80l1 -1v-79zM346 640c0 -20 -10 -39 -27 -50
c-3 -3 -6 -5 -12 -8c-33 -21 -49 -35 -49 -59v-20h-1h-26v20c0 40 21 78 55 96c9 4 15 12 15 21c0 13 -4 24 -13 31c-11 7 -24 8 -44 8c-30 0 -58 -17 -72 -44h-1h-1l-14 40c21 28 54 44 88 44c30 0 56 -6 75 -21c18 -13 27 -35 27 -58z" />
    <glyph glyph-name="Uhorntilde" unicode="&#x1eee;" horiz-adv-x="667" 
d="M667 695l-1 -1l-96 -70v-393c0 -66 -24 -130 -69 -178c-44 -46 -105 -74 -169 -74c-63 0 -124 28 -168 74c-45 48 -69 112 -69 178v463h76v-463c0 -50 12 -101 44 -141c29 -35 72 -55 117 -55c46 0 89 20 117 55c33 40 45 91 45 141v463h76v-32l40 32h-23l-1 1v79l1 1h79
l1 -1v-79zM495 853c-2 -79 -52 -118 -95 -118c-25 0 -45 12 -74 33c-10 7 -35 25 -58 25c-29 0 -38 -32 -38 -58h-60c2 79 52 118 95 118c25 0 45 -12 74 -33c10 -7 35 -25 58 -25c29 0 38 32 38 58h60z" />
    <glyph glyph-name="uhorntilde" unicode="&#x1eef;" horiz-adv-x="502" 
d="M521 445l-1 -1l-96 -70v-374h-74v50c-40 -38 -102 -60 -170 -60c-33 0 -61 8 -79 29c-19 24 -24 54 -24 93v332h76v-332c0 -24 3 -42 17 -53c15 -12 34 -14 67 -14c60 0 111 46 111 105v294h76v-32l40 32h-24v1v79v1h80l1 -1v-79zM413 670c-2 -79 -52 -118 -95 -118
c-25 0 -45 12 -74 33c-10 7 -35 25 -58 25c-29 0 -38 -32 -38 -58h-60c2 79 52 118 95 118c25 0 45 -12 74 -33c10 -7 35 -25 58 -25c29 0 38 32 38 58h60z" />
    <glyph glyph-name="Uhungarumlaut" unicode="&#x170;" horiz-adv-x="667" 
d="M576 233c0 -145 -111 -254 -241 -254s-245 107 -245 254v461h86v-462c0 -135 81 -197 160 -197c80 0 164 63 164 197v462h76v-461zM333 912l-78 -167h-60l62 167h76zM496 912l-78 -167h-60l62 167h76z" />
    <glyph glyph-name="uhungarumlaut" unicode="&#x171;" horiz-adv-x="502" 
d="M424 0h-74v50c-61 -55 -140 -60 -168 -60c-82 0 -105 49 -105 121v333h76v-329c0 -44 7 -70 77 -70c65 0 118 37 118 113v286h76v-444zM250 694l-78 -167h-60l62 167h76zM413 694l-78 -167h-60l62 167h76z" />
    <glyph glyph-name="Umacron" unicode="&#x16a;" horiz-adv-x="667" 
d="M576 233c0 -145 -111 -254 -241 -254s-245 107 -245 254v461h86v-462c0 -135 81 -197 160 -197c80 0 164 63 164 197v462h76v-461zM510 755h-353v63h353v-63z" />
    <glyph glyph-name="umacron" unicode="&#x16b;" horiz-adv-x="502" 
d="M424 0h-74v50c-61 -55 -140 -60 -168 -60c-82 0 -105 49 -105 121v333h76v-329c0 -44 7 -70 77 -70c65 0 118 37 118 113v286h76v-444zM427 579h-353v63h353v-63z" />
    <glyph glyph-name="uni203F" unicode="&#x203f;" horiz-adv-x="581" 
d="M505 -67c-1 -50 -45 -84 -87 -103c-42 -18 -86 -24 -131 -24c-83 0 -209 36 -211 127h77c3 -50 87 -64 134 -64c22 0 137 4 141 64h77z" />
    <glyph glyph-name="uni2054" unicode="&#x2054;" horiz-adv-x="581" 
d="M505 -194h-77c-3 50 -87 64 -134 64c-22 0 -137 -4 -141 -64h-77c1 50 45 84 87 103c42 18 86 24 131 24c83 0 209 -36 211 -127z" />
    <glyph glyph-name="uni2010" unicode="&#x2010;" horiz-adv-x="326" 
d="M293 193h-260v58h260v-58z" />
    <glyph glyph-name="uni2011" unicode="&#x2011;" horiz-adv-x="326" 
d="M293 193h-260v58h260v-58z" />
    <glyph glyph-name="uni2423" unicode="&#x2423;" 
d="M448 -97c0 -12 -9 -21 -21 -21h-365c-11 0 -21 9 -21 21v322c0 28 42 28 42 0v-301h323v301c0 28 42 28 42 0v-322z" />
    <glyph glyph-name="Uogonek" unicode="&#x172;" horiz-adv-x="667" 
d="M576 233c0 -129 -88 -229 -199 -250c-34 -23 -60 -52 -59 -87c1 -30 25 -36 53 -38c22 -1 45 5 67 14l14 -59c-40 -19 -65 -25 -98 -25c-67 0 -98 42 -99 85c-2 40 22 79 57 107c-120 12 -222 115 -222 253v461h86v-462c0 -135 81 -197 160 -197c80 0 164 63 164 197v462
h76v-461z" />
    <glyph glyph-name="uogonek" unicode="&#x173;" horiz-adv-x="502" 
d="M471 -187c-40 -19 -65 -25 -98 -25c-67 0 -98 42 -99 85c-3 51 37 99 87 127h-11v50c-61 -55 -140 -60 -168 -60c-82 0 -105 49 -105 121v333h76v-329c0 -44 7 -70 77 -70c65 0 118 37 118 113v286h76v-444c-46 -26 -88 -60 -87 -104c1 -30 25 -36 53 -38
c22 -1 45 5 67 14z" />
    <glyph glyph-name="Upsilon" unicode="&#x3a5;" horiz-adv-x="762" 
d="M707 555h-76c-2 58 -37 95 -80 95c-75 0 -127 -56 -127 -265v-385h-86v383c0 219 -58 267 -128 267c-43 0 -78 -37 -80 -95h-76c2 98 77 160 156 160c132 0 160 -150 170 -217h1c17 113 60 217 170 217c79 0 154 -62 156 -160z" />
    <glyph glyph-name="Uring" unicode="&#x16e;" horiz-adv-x="667" 
d="M576 233c0 -145 -111 -254 -241 -254s-245 107 -245 254v461h86v-462c0 -135 81 -197 160 -197c80 0 164 63 164 197v462h76v-461zM383 778c0 37 -41 37 -49 37c-19 0 -49 -6 -49 -37c0 -37 41 -37 49 -37c19 0 49 6 49 37zM443 777c0 -42 -45 -83 -109 -83
c-61 0 -109 38 -109 85c0 42 45 83 109 83c61 0 109 -38 109 -85z" />
    <glyph glyph-name="uring" unicode="&#x16f;" horiz-adv-x="502" 
d="M424 0h-74v50c-61 -55 -140 -60 -168 -60c-82 0 -105 49 -105 121v333h76v-329c0 -44 7 -70 77 -70c65 0 118 37 118 113v286h76v-444zM301 601c0 37 -41 37 -49 37c-19 0 -49 -6 -49 -37c0 -37 41 -37 49 -37c19 0 49 6 49 37zM361 600c0 -42 -45 -83 -109 -83
c-61 0 -109 38 -109 85c0 42 45 83 109 83c61 0 109 -38 109 -85z" />
    <glyph glyph-name="Utilde" unicode="&#x168;" horiz-adv-x="667" 
d="M576 233c0 -145 -111 -254 -241 -254s-245 107 -245 254v461h86v-462c0 -135 81 -197 160 -197c80 0 164 63 164 197v462h76v-461zM496 853c-2 -79 -52 -118 -95 -118c-25 0 -45 12 -74 33c-10 7 -35 25 -58 25c-29 0 -38 -32 -38 -58h-60c2 79 52 118 95 118
c25 0 45 -12 74 -33c10 -7 35 -25 58 -25c29 0 38 32 38 58h60z" />
    <glyph glyph-name="utilde" unicode="&#x169;" horiz-adv-x="502" 
d="M424 0h-74v50c-61 -55 -140 -60 -168 -60c-82 0 -105 49 -105 121v333h76v-329c0 -44 7 -70 77 -70c65 0 118 37 118 113v286h76v-444zM413 670c-2 -79 -52 -118 -95 -118c-25 0 -45 12 -74 33c-10 7 -35 25 -58 25c-29 0 -38 -32 -38 -58h-60c2 79 52 118 95 118
c25 0 45 -12 74 -33c10 -7 35 -25 58 -25c29 0 38 32 38 58h60z" />
    <glyph glyph-name="Wacute" unicode="&#x1e82;" horiz-adv-x="919" 
d="M904 694l-196 -694h-88l-109 396c-47 171 -54 223 -54 223h-1c-6 -53 -44 -190 -69 -279l-94 -340h-83l-196 694h85l84 -304l43 -160c4 -17 29 -114 33 -153h1c7 65 67 283 74 307l86 310h85l118 -430c17 -60 39 -146 44 -188h1c4 36 19 94 32 142c18 67 18 69 40 148
l91 328h73zM650 867l-197 -122h-89l175 122h111z" />
    <glyph glyph-name="wacute" unicode="&#x1e83;" horiz-adv-x="666" 
d="M650 444l-134 -444h-88l-71 250c-7 23 -27 95 -29 136h-1c-6 -70 -64 -260 -102 -386h-77l-134 444h76l71 -247c19 -67 30 -120 31 -139h1c3 42 27 128 45 190l57 196h69l66 -226c21 -71 37 -138 40 -162h1c4 43 32 137 46 185l60 203h73zM470 694l-146 -167h-60l130 167
h76z" />
    <glyph glyph-name="Wcircumflex" unicode="&#x174;" horiz-adv-x="919" 
d="M904 694l-196 -694h-88l-109 396c-47 171 -54 223 -54 223h-1c-6 -53 -44 -190 -69 -279l-94 -340h-83l-196 694h85l84 -304l43 -160c4 -17 29 -114 33 -153h1c7 65 67 283 74 307l86 310h85l118 -430c17 -60 39 -146 44 -188h1c4 36 19 94 32 142c18 67 18 69 40 148
l91 328h73zM616 735h-59l-97 97l-97 -97h-59l126 134h60z" />
    <glyph glyph-name="wcircumflex" unicode="&#x175;" horiz-adv-x="666" 
d="M650 444l-134 -444h-88l-71 250c-7 23 -27 95 -29 136h-1c-6 -70 -64 -260 -102 -386h-77l-134 444h76l71 -247c19 -67 30 -120 31 -139h1c3 42 27 128 45 190l57 196h69l66 -226c21 -71 37 -138 40 -162h1c4 43 32 137 46 185l60 203h73zM488 525h-59l-96 123l-96 -123
h-59l125 172h60z" />
    <glyph glyph-name="Wdieresis" unicode="&#x1e84;" horiz-adv-x="919" 
d="M904 694l-196 -694h-88l-109 396c-47 171 -54 223 -54 223h-1c-6 -53 -44 -190 -69 -279l-94 -340h-83l-196 694h85l84 -304l43 -160c4 -17 29 -114 33 -153h1c7 65 67 283 74 307l86 310h85l118 -430c17 -60 39 -146 44 -188h1c4 36 19 94 32 142c18 67 18 69 40 148
l91 328h73zM415 735h-77v78h77v-78zM582 735h-77v78h77v-78z" />
    <glyph glyph-name="wdieresis" unicode="&#x1e85;" horiz-adv-x="666" 
d="M650 444l-134 -444h-88l-71 250c-7 23 -27 95 -29 136h-1c-6 -70 -64 -260 -102 -386h-77l-134 444h76l71 -247c19 -67 30 -120 31 -139h1c3 42 27 128 45 190l57 196h69l66 -226c21 -71 37 -138 40 -162h1c4 43 32 137 46 185l60 203h73zM301 572h-77v78h77v-78z
M442 572h-77v78h77v-78z" />
    <glyph glyph-name="Wgrave" unicode="&#x1e80;" horiz-adv-x="919" 
d="M904 694l-196 -694h-88l-109 396c-47 171 -54 223 -54 223h-1c-6 -53 -44 -190 -69 -279l-94 -340h-83l-196 694h85l84 -304l43 -160c4 -17 29 -114 33 -153h1c7 65 67 283 74 307l86 310h85l118 -430c17 -60 39 -146 44 -188h1c4 36 19 94 32 142c18 67 18 69 40 148
l91 328h73zM556 745h-89l-197 122h111z" />
    <glyph glyph-name="wgrave" unicode="&#x1e81;" horiz-adv-x="666" 
d="M650 444l-134 -444h-88l-71 250c-7 23 -27 95 -29 136h-1c-6 -70 -64 -260 -102 -386h-77l-134 444h76l71 -247c19 -67 30 -120 31 -139h1c3 42 27 128 45 190l57 196h69l66 -226c21 -71 37 -138 40 -162h1c4 43 32 137 46 185l60 203h73zM402 527h-60l-146 167h76z" />
    <glyph glyph-name="won" unicode="&#x20a9;" horiz-adv-x="919" 
d="M904 253h-124l-72 -253h-88l-70 253h-187l-70 -253h-83l-72 253h-124v62h107l-18 64h-89v62h71l-71 253h85l70 -253h181l70 253h85l69 -253h187l70 253h73l-71 -253h71v-62h-89l-18 -64h107v-62zM533 315l-17 64h-118l-11 -39l-7 -25h153zM333 379h-147l17 -64h112z
M299 253h-79l6 -23c4 -17 29 -114 33 -153h1c4 34 22 109 39 176zM744 379h-153l18 -64h117l14 51zM709 253h-83c17 -59 36 -137 41 -177h1c4 36 19 94 32 142zM499 441c-36 135 -42 178 -42 178h-1c-4 -35 -22 -107 -41 -178h84z" />
    <glyph glyph-name="Xi" unicode="&#x39e;" horiz-adv-x="653" 
d="M606 616h-122l-159 1l-157 -1h-122v73h560v-73zM611 0h-570v73h125l161 -1l159 1h125v-73zM543 322h-434v72h434v-72z" />
    <glyph glyph-name="Yacute" unicode="&#xdd;" horiz-adv-x="647" 
d="M643 694l-278 -416v-278h-84v278l-278 416h100l170 -255c43 -65 54 -85 57 -90c16 27 36 58 55 86l172 259h86zM514 867l-197 -122h-89l175 122h111z" />
    <glyph glyph-name="yacute" unicode="&#xfd;" horiz-adv-x="448" 
d="M433 444l-209 -538c-43 -110 -90 -110 -114 -110c-32 0 -65 7 -71 8l-6 65c31 -12 63 -15 77 -15c18 0 33 5 55 55l35 91l-186 444h79l71 -175c8 -20 61 -152 66 -211h1c4 72 81 268 127 386h75zM361 694l-146 -167h-60l130 167h76z" />
    <glyph glyph-name="Ycircumflex" unicode="&#x176;" horiz-adv-x="647" 
d="M643 694l-278 -416v-278h-84v278l-278 416h100l170 -255c43 -65 54 -85 57 -90c16 27 36 58 55 86l172 259h86zM480 735h-59l-97 97l-97 -97h-59l126 134h60z" />
    <glyph glyph-name="ycircumflex" unicode="&#x177;" horiz-adv-x="448" 
d="M433 444l-209 -538c-43 -110 -90 -110 -114 -110c-32 0 -65 7 -71 8l-6 65c31 -12 63 -15 77 -15c18 0 33 5 55 55l35 91l-186 444h79l71 -175c8 -20 61 -152 66 -211h1c4 72 81 268 127 386h75zM379 525h-59l-96 123l-96 -123h-59l125 172h60z" />
    <glyph glyph-name="Ydieresis" unicode="&#x178;" horiz-adv-x="647" 
d="M643 694l-278 -416v-278h-84v278l-278 416h100l170 -255c43 -65 54 -85 57 -90c16 27 36 58 55 86l172 259h86zM279 735h-77v78h77v-78zM446 735h-77v78h77v-78z" />
    <glyph glyph-name="ydieresis" unicode="&#xff;" horiz-adv-x="448" 
d="M433 444l-209 -538c-43 -110 -90 -110 -114 -110c-32 0 -65 7 -71 8l-6 65c31 -12 63 -15 77 -15c18 0 33 5 55 55l35 91l-186 444h79l71 -175c8 -20 61 -152 66 -211h1c4 72 81 268 127 386h75zM192 572h-77v78h77v-78zM333 572h-77v78h77v-78z" />
    <glyph glyph-name="Ydotbelow" unicode="&#x1ef4;" horiz-adv-x="647" 
d="M643 694l-278 -416v-278h-84v278l-278 416h100l170 -255c43 -65 54 -85 57 -90c16 27 36 58 55 86l172 259h86zM367 -200h-86v86h86v-86z" />
    <glyph glyph-name="ydotbelow" unicode="&#x1ef5;" horiz-adv-x="448" 
d="M433 444l-209 -538c-43 -110 -90 -110 -114 -110c-32 0 -65 7 -71 8l-6 65c31 -12 63 -15 77 -15c18 0 33 5 55 55l35 91l-186 444h79l71 -175c8 -20 61 -152 66 -211h1c4 72 81 268 127 386h75zM379 -200h-86v86h86v-86z" />
    <glyph glyph-name="yen" unicode="&#xa5;" horiz-adv-x="647" 
d="M643 694l-224 -335h120v-62h-161l-13 -19v-64h174v-62h-174v-152h-84v152h-173v62h173v64l-13 19h-160v62h119l-224 335h100l170 -255l51 -80h12l49 76l172 259h86z" />
    <glyph glyph-name="Ygrave" unicode="&#x1ef2;" horiz-adv-x="647" 
d="M643 694l-278 -416v-278h-84v278l-278 416h100l170 -255c43 -65 54 -85 57 -90c16 27 36 58 55 86l172 259h86zM420 745h-89l-197 122h111z" />
    <glyph glyph-name="ygrave" unicode="&#x1ef3;" horiz-adv-x="448" 
d="M433 444l-209 -538c-43 -110 -90 -110 -114 -110c-32 0 -65 7 -71 8l-6 65c31 -12 63 -15 77 -15c18 0 33 5 55 55l35 91l-186 444h79l71 -175c8 -20 61 -152 66 -211h1c4 72 81 268 127 386h75zM293 527h-60l-146 167h76z" />
    <glyph glyph-name="Yhookabove" unicode="&#x1ef6;" horiz-adv-x="647" 
d="M643 694l-278 -416v-278h-84v278l-278 416h100l170 -255c43 -65 54 -85 57 -90c16 27 36 58 55 86l172 259h86zM419 872c0 -20 -10 -39 -27 -50c-3 -3 -6 -5 -12 -8c-33 -21 -49 -35 -49 -59v-20h-1h-26v20c0 40 21 78 55 96c9 4 15 12 15 21c0 13 -4 24 -13 31
c-11 7 -24 8 -44 8c-30 0 -58 -17 -72 -44h-1h-1l-14 40c21 28 54 44 88 44c30 0 56 -6 75 -21c18 -13 27 -35 27 -58z" />
    <glyph glyph-name="yhookabove" unicode="&#x1ef7;" horiz-adv-x="448" 
d="M433 444l-209 -538c-43 -110 -90 -110 -114 -110c-32 0 -65 7 -71 8l-6 65c31 -12 63 -15 77 -15c18 0 33 5 55 55l35 91l-186 444h79l71 -175c8 -20 61 -152 66 -211h1c4 72 81 268 127 386h75zM319 640c0 -20 -10 -39 -27 -50c-3 -3 -6 -5 -12 -8
c-33 -21 -49 -35 -49 -59v-20h-1h-26v20c0 40 21 78 55 96c9 4 15 12 15 21c0 13 -4 24 -13 31c-11 7 -24 8 -44 8c-30 0 -58 -17 -72 -44h-1h-1l-14 40c21 28 54 44 88 44c30 0 56 -6 75 -21c18 -13 27 -35 27 -58z" />
    <glyph glyph-name="Ytilde" unicode="&#x1ef8;" horiz-adv-x="647" 
d="M643 694l-278 -416v-278h-84v278l-278 416h100l170 -255c43 -65 54 -85 57 -90c16 27 36 58 55 86l172 259h86zM486 853c-2 -79 -52 -118 -95 -118c-25 0 -45 12 -74 33c-10 7 -35 25 -58 25c-29 0 -38 -32 -38 -58h-60c2 79 52 118 95 118c25 0 45 -12 74 -33
c10 -7 35 -25 58 -25c29 0 38 32 38 58h60z" />
    <glyph glyph-name="ytilde" unicode="&#x1ef9;" horiz-adv-x="448" 
d="M433 444l-209 -538c-43 -110 -90 -110 -114 -110c-32 0 -65 7 -71 8l-6 65c31 -12 63 -15 77 -15c18 0 33 5 55 55l35 91l-186 444h79l71 -175c8 -20 61 -152 66 -211h1c4 72 81 268 127 386h75zM386 670c-2 -79 -52 -118 -95 -118c-25 0 -45 12 -74 33
c-10 7 -35 25 -58 25c-29 0 -38 -32 -38 -58h-60c2 79 52 118 95 118c25 0 45 -12 74 -33c10 -7 35 -25 58 -25c29 0 38 32 38 58h60z" />
    <glyph glyph-name="Zacute" unicode="&#x179;" horiz-adv-x="598" 
d="M548 0h-494v41l380 593h-134c-12 0 -24 -1 -36 -1h-196v61h475v-40l-380 -592h32l259 2h94v-64zM489 867l-197 -122h-89l175 122h111z" />
    <glyph glyph-name="zacute" unicode="&#x17a;" horiz-adv-x="425" 
d="M393 0h-366v40l261 346h-76c-12 0 -24 -1 -36 -1h-135v59h349v-39l-261 -345h85c12 0 24 1 36 1h143v-61zM350 694l-146 -167h-60l130 167h76z" />
    <glyph glyph-name="Zcaron" unicode="&#x17d;" horiz-adv-x="598" 
d="M548 0h-494v41l380 593h-134c-12 0 -24 -1 -36 -1h-196v61h475v-40l-380 -592h32l259 2h94v-64zM455 869l-126 -134h-60l-126 134h59l97 -97l97 97h59z" />
    <glyph glyph-name="zcaron" unicode="&#x17e;" horiz-adv-x="425" 
d="M393 0h-366v40l261 346h-76c-12 0 -24 -1 -36 -1h-135v59h349v-39l-261 -345h85c12 0 24 1 36 1h143v-61zM368 697l-125 -172h-60l-125 172h59l96 -123l96 123h59z" />
    <glyph glyph-name="Zdotaccent" unicode="&#x17b;" horiz-adv-x="598" 
d="M548 0h-494v41l380 593h-134c-12 0 -24 -1 -36 -1h-196v61h475v-40l-380 -592h32l259 2h94v-64zM342 735h-86v86h86v-86z" />
    <glyph glyph-name="zdotaccent" unicode="&#x17c;" horiz-adv-x="425" 
d="M393 0h-366v40l261 346h-76c-12 0 -24 -1 -36 -1h-135v59h349v-39l-261 -345h85c12 0 24 1 36 1h143v-61zM255 568h-86v86h86v-86z" />
    <glyph glyph-name="Zdotbelow" unicode="&#x1e92;" horiz-adv-x="598" 
d="M548 0h-494v41l380 593h-134c-12 0 -24 -1 -36 -1h-196v61h475v-40l-380 -592h32l259 2h94v-64zM342 -200h-86v86h86v-86z" />
    <glyph glyph-name="zdotbelow" unicode="&#x1e93;" horiz-adv-x="425" 
d="M393 0h-366v40l261 346h-76c-12 0 -24 -1 -36 -1h-135v59h349v-39l-261 -345h85c12 0 24 1 36 1h143v-61zM255 -200h-86v86h86v-86z" />
    <glyph glyph-name="Zeta" unicode="&#x396;" horiz-adv-x="598" 
d="M548 0h-494v41l380 593h-134c-12 0 -24 -1 -36 -1h-196v61h475v-40l-380 -592h32l259 2h94v-64z" />
    <glyph glyph-name="acute.cap" unicode="&#xea00;" 
d="M435 617l-197 -122h-89l175 122h111z" />
    <glyph glyph-name="uni0301.cap" unicode="&#xea01;" horiz-adv-x="0" 
d="M-97 944l-146 -167h-60l130 167h76z" />
    <glyph glyph-name="breve.cap" unicode="&#xea02;" 
d="M410 673c-2 -105 -78 -178 -166 -178c-85 0 -163 71 -165 178h60c2 -72 54 -113 106 -113c48 0 103 38 105 113h60z" />
    <glyph glyph-name="space_uni0306_uni0301.cap" unicode="&#xea03;" 
d="M410 673c-2 -105 -78 -178 -166 -178c-85 0 -163 71 -165 178h60c2 -72 54 -113 106 -113c48 0 103 38 105 113h60zM388 830l-197 -122h-89l175 122h111z" />
    <glyph glyph-name="space_uni0306_uni0301" unicode="&#xea04;" 
d="M410 700c-2 -105 -78 -178 -166 -178c-85 0 -163 71 -165 178h60c2 -72 54 -113 106 -113c48 0 103 38 105 113h60zM388 857l-197 -122h-89l175 122h111z" />
    <glyph glyph-name="space_uni032E" unicode="&#xea05;" 
d="M410 -68c-2 -105 -78 -178 -166 -178c-85 0 -163 71 -165 178h60c2 -72 54 -113 106 -113c48 0 103 38 105 113h60z" />
    <glyph glyph-name="space_uni032F" unicode="&#xea06;" 
d="M410 -246h-60c-2 72 -54 113 -106 113c-48 0 -103 -38 -105 -113h-60c2 105 78 178 166 178c85 0 163 -71 165 -178z" />
    <glyph glyph-name="uni0306.cap" unicode="&#xea07;" horiz-adv-x="0" 
d="M-69 950c-2 -105 -78 -178 -166 -178c-85 0 -163 71 -165 178h60c2 -72 54 -113 106 -113c48 0 103 38 105 113h60z" />
    <glyph glyph-name="space_uni0306_uni0300.cap" unicode="&#xea08;" 
d="M410 673c-2 -105 -78 -178 -166 -178c-85 0 -163 71 -165 178h60c2 -72 54 -113 106 -113c48 0 103 38 105 113h60zM388 708l-175 122h-111l197 -122h89z" />
    <glyph glyph-name="space_uni0306_uni0300" unicode="&#xea09;" 
d="M410 700c-2 -105 -78 -178 -166 -178c-85 0 -163 71 -165 178h60c2 -72 54 -113 106 -113c48 0 103 38 105 113h60zM388 735l-175 122h-111l197 -122h89z" />
    </font>
</defs>
</svg>
