<?xml version="1.0" standalone="no"?>
<!DOCTYPE svg PUBLIC "-//W3C//DTD SVG 1.1//EN" "http://www.w3.org/Graphics/SVG/1.1/DTD/svg11.dtd" >
<svg xmlns="http://www.w3.org/2000/svg" xmlns:xlink="http://www.w3.org/1999/xlink" version="1.1">
<metadata>
Created by FontForge 20151012 at Tue Apr  5 14:21:15 2016
 By Pierre Marchand,,,
Copyright 2003, 2009 B. Jackowski and J. M. Nowacki (on behalf of TeX users groups). This work is released under the GUST Font License --  see http://tug.org/fonts/licenses/GUST-FONT-LICENSE.txt for details.
</metadata>
<defs>
<font id="LMMonoLtCond10-Oblique" horiz-adv-x="350" >
  <font-face 
    font-family="LMMonoLtCond10"
    font-weight="400"
    font-style="oblique"
    font-stretch="normal"
    units-per-em="1000"
    panose-1="0 0 5 9 0 0 0 0 0 0"
    ascent="771"
    descent="-229"
    x-height="425"
    cap-height="611"
    bbox="-333.546 -321 565.463 991"
    underline-thickness="53"
    underline-position="-206"
    slope="-9.4626"
    stemh="40"
    stemv="44"
    unicode-range="U+0020-F7A2"
  />
<missing-glyph horiz-adv-x="280" 
 />
    <glyph glyph-name=".notdef" horiz-adv-x="280" 
 />
    <glyph glyph-name="acute.dup" 
d="M348 599c-2 -9 -13 -17 -22 -23l-101 -66c-4 -3 -12 -6 -16 -6c-14 0 -20 12 -17 27c1 7 13 16 21 21l88 58c11 7 22 13 31 13c11 0 18 -10 16 -24z" />
    <glyph glyph-name="AE.dup" 
d="M344 33c-5 -28 -14 -33 -34 -33h-132c-9 0 -28 0 -25 20c4 20 24 20 31 20l25 152h-77l-45 -152c13 0 33 0 29 -20c-3 -20 -23 -20 -31 -20h-46c-9 0 -29 0 -26 20c4 20 24 20 36 20l161 531c-10 0 -29 0 -25 20c3 20 23 20 31 20h191c20 0 26 -6 21 -33l-11 -68
c-2 -11 -8 -32 -24 -32s-16 21 -14 32l10 61h-79l-39 -234h78c9 0 28 0 25 -20s-22 -20 -31 -20h-78l-43 -257h85l12 76c2 12 9 33 25 33s15 -21 13 -33zM216 232l56 339h-25l-102 -339h71z" />
    <glyph glyph-name="ae.dup" 
d="M358 103c-3 -21 -42 -109 -97 -109c-35 0 -57 38 -66 71c-23 -41 -64 -71 -101 -71c-49 0 -68 60 -59 115c10 56 54 118 160 124l8 48c12 70 0 113 -36 113c-6 0 -13 -1 -22 -2c-4 -25 -11 -52 -35 -52c-13 0 -27 10 -23 33c5 26 29 62 88 62c51 0 63 -57 66 -74
c23 38 54 74 88 74c43 0 74 -63 51 -203c-5 -27 -13 -34 -34 -34h-119c-11 -110 13 -164 42 -164c16 0 34 19 51 69c4 8 10 19 22 19c8 0 18 -7 16 -19zM341 235c17 110 4 159 -19 159c-26 0 -64 -54 -88 -159h107zM179 136l10 59c-68 -2 -108 -42 -116 -85
c-6 -37 3 -76 32 -76c21 0 38 16 47 25c17 21 22 48 27 77z" />
    <glyph glyph-name="cedilla.dup" 
d="M267 -121c-16 -93 -106 -93 -158 -93c-19 0 -38 0 -34 20c3 21 23 21 31 21h15c22 0 94 7 102 52c4 27 -9 50 -38 52c-17 2 -19 15 -17 30l6 34c3 14 9 31 27 31c20 0 21 -17 13 -59c43 -13 59 -49 53 -88z" />
    <glyph glyph-name="circumflex.dup" 
d="M363 527c-2 -14 -9 -20 -20 -20c-5 0 -12 1 -19 8l-55 57l-73 -57c-9 -7 -16 -8 -21 -8c-11 0 -16 6 -14 20c1 5 9 14 15 19l85 68c11 8 23 8 30 0l63 -68c4 -5 10 -14 9 -19z" />
    <glyph glyph-name="dieresis.dup" 
d="M245 563c-3 -19 -20 -31 -32 -31c-14 0 -27 12 -24 31c3 20 20 33 34 33c13 0 25 -13 22 -33zM350 563c-3 -19 -20 -31 -33 -31s-26 12 -23 31c3 20 20 33 33 33s26 -13 23 -33z" />
    <glyph glyph-name="Gcedilla" 
d="M375 239c-3 -20 -23 -20 -35 -20l-32 -190c-3 -16 -9 -31 -27 -31c-19 0 -21 14 -15 47c-31 -39 -64 -57 -94 -57c-80 0 -131 132 -100 318c31 183 125 317 206 317c31 0 56 -18 74 -49l14 33c4 5 10 16 22 16c15 0 16 -16 14 -29l-25 -150c-3 -17 -9 -29 -28 -29
c-7 0 -20 0 -18 24c9 104 -22 144 -56 144c-58 0 -132 -114 -159 -278c-27 -160 7 -277 66 -277c58 0 95 110 113 191h-30c-8 0 -28 0 -25 20s23 20 31 20h79c8 0 28 0 25 -20zM196 -120c-13 -79 -72 -112 -85 -112c-6 0 -15 6 -13 14l1 4c40 19 56 48 69 94
c-7 -4 -13 -5 -13 -5c-15 0 -27 13 -23 35c3 17 17 33 34 33c20 0 36 -26 30 -63z" />
    <glyph glyph-name="gcedilla" 
d="M304 650l-1 -4c-40 -19 -56 -48 -69 -94c7 4 13 5 13 5c15 0 27 -13 23 -35c-3 -17 -17 -33 -34 -33c-20 0 -36 26 -30 63c13 79 72 112 85 112c6 0 15 -6 13 -14zM411 394c-5 -26 -24 -30 -31 -30c0 0 -21 1 -20 33c-10 -1 -27 -4 -56 -23c13 -45 13 -74 9 -97
c-14 -85 -76 -154 -138 -154c-25 0 -46 13 -58 28c-6 -11 -8 -17 -12 -42c-10 -63 20 -66 30 -66h59c23 0 147 0 124 -138c-14 -84 -96 -141 -182 -141c-87 0 -151 58 -137 141c6 37 31 88 81 123c-9 21 -18 46 -12 78c2 11 10 37 32 73c-15 42 -14 78 -11 98
c14 85 77 154 138 154c20 0 43 -8 62 -32c34 34 67 39 80 39c35 0 45 -27 42 -44zM268 277c11 63 -8 116 -48 116c-36 0 -76 -51 -87 -116s11 -116 48 -116c40 0 77 53 87 116zM279 -95c16 94 -58 100 -122 100c-49 0 -56 0 -75 -15c-33 -27 -41 -68 -44 -85
c-8 -50 32 -103 104 -103s129 53 137 103z" />
    <glyph glyph-name="germandbls.dup" 
d="M363 171c-19 -109 -93 -177 -156 -177c-39 0 -65 26 -58 64c3 17 16 30 30 30c12 0 24 -10 21 -29h-1l-2 -20c4 -4 6 -5 17 -5c41 0 90 52 105 137c14 86 3 206 -79 214c-11 1 -16 8 -14 20c3 18 19 19 27 20c58 4 97 53 103 89c4 28 -20 63 -67 63
c-29 0 -45 -10 -53 -16c-28 -15 -31 -36 -35 -59l-78 -469c-5 -28 -14 -33 -34 -33h-52c-9 0 -28 0 -25 20c4 20 23 20 32 20h35l57 345h-35c-9 0 -28 0 -24 20c3 20 22 20 31 20h35l13 81c17 100 108 111 141 111c59 0 115 -35 104 -103c-4 -25 -24 -69 -91 -114
c52 -57 67 -145 53 -229z" />
    <glyph glyph-name="hyphen.dup" 
d="M367 305c-4 -23 -27 -23 -35 -23h-220c-9 0 -31 0 -27 24c4 23 27 23 35 23h220c8 0 31 0 27 -24z" />
    <glyph glyph-name="Kcedilla" 
d="M337 20c-3 -20 -22 -20 -30 -20h-51c-8 0 -27 0 -24 20c4 20 23 20 38 20l-59 280l-84 -121l-26 -159h14c8 0 28 0 24 -20c-3 -20 -23 -20 -31 -20h-67c-8 0 -28 0 -25 20c4 20 24 20 32 20h12l88 531h-12c-8 0 -28 0 -24 20c3 20 23 20 31 20h67c8 0 28 0 25 -20
c-4 -20 -24 -20 -32 -20h-14l-49 -297l207 297c-19 0 -38 0 -34 20c3 20 22 20 30 20h59c9 0 28 0 25 -20c-4 -20 -22 -20 -40 -20l-147 -210l67 -321c16 0 34 0 30 -20zM196 -120c-13 -79 -72 -112 -85 -112c-6 0 -15 6 -13 14l1 4c40 19 56 48 69 94c-7 -4 -13 -5 -13 -5
c-15 0 -27 13 -23 35c3 17 17 33 34 33c20 0 36 -26 30 -63z" />
    <glyph glyph-name="kcedilla" 
d="M346 20c-3 -20 -23 -20 -31 -20h-78c-9 0 -29 0 -26 20c4 20 23 20 53 20l-63 183l-69 -77l-17 -106h32c9 0 29 0 25 -20c-3 -20 -23 -20 -32 -20h-102c-8 0 -28 0 -25 20c4 20 24 20 32 20h30l88 531h-30c-8 0 -28 0 -24 20c3 20 23 20 31 20h43c20 0 26 -6 21 -33
l-62 -372l157 179h-37c-8 0 -28 0 -24 20c3 20 23 20 31 20h102c9 0 28 0 25 -20c-4 -20 -23 -20 -32 -20h-21l-114 -130l74 -215h19c8 0 28 0 24 -20zM196 -120c-13 -79 -72 -112 -85 -112c-6 0 -15 6 -13 14l1 4c40 19 56 48 69 94c-7 -4 -13 -5 -13 -5
c-15 0 -27 13 -23 35c3 17 17 33 34 33c20 0 36 -26 30 -63z" />
    <glyph glyph-name="Lcedilla" 
d="M336 33c-5 -28 -14 -33 -33 -33h-256c-8 0 -28 0 -25 20c4 20 24 20 32 20h24l88 531h-24c-8 0 -28 0 -24 20c3 20 23 20 31 20h105c9 0 28 0 25 -20c-4 -20 -23 -20 -32 -20h-37l-88 -531h171l13 77c2 15 8 32 27 32s19 -18 17 -32zM196 -120c-13 -79 -72 -112 -85 -112
c-6 0 -15 6 -13 14l1 4c40 19 56 48 69 94c-7 -4 -13 -5 -13 -5c-15 0 -27 13 -23 35c3 17 17 33 34 33c20 0 36 -26 30 -63z" />
    <glyph glyph-name="lcedilla" 
d="M314 20c-3 -20 -22 -20 -30 -20h-217c-8 0 -28 0 -25 20c4 20 24 20 32 20h86l88 531h-86c-8 0 -28 0 -24 20c3 20 23 20 31 20h103c20 0 26 -6 21 -33l-89 -538h87c8 0 27 0 23 -20zM196 -120c-13 -79 -72 -112 -85 -112c-6 0 -15 6 -13 14l1 4c40 19 56 48 69 94
c-7 -4 -13 -5 -13 -5c-15 0 -27 13 -23 35c3 17 17 33 34 33c20 0 36 -26 30 -63z" />
    <glyph glyph-name="macron.dup" 
d="M399 563c-3 -20 -23 -20 -31 -20h-204c-9 0 -28 0 -25 21c3 20 22 20 30 20h205c9 0 28 0 25 -21z" />
    <glyph glyph-name="Ncedilla" 
d="M433 591c-4 -20 -23 -20 -31 -20h-16l-89 -538c-6 -33 -17 -33 -35 -33c-16 0 -34 0 -36 35l-36 517l-85 -512h15c8 0 28 0 24 -20c-3 -20 -23 -20 -31 -20h-70c-9 0 -28 0 -25 20c4 20 24 20 32 20h16l88 531h-16c-8 0 -28 0 -24 20c3 20 22 20 31 20h45
c15 0 33 0 36 -35l37 -517l85 512h-16c-9 0 -29 0 -25 20c3 20 23 20 32 20h70c9 0 27 0 24 -20zM196 -120c-13 -79 -72 -112 -85 -112c-6 0 -15 6 -13 14l1 4c40 19 56 48 69 94c-7 -4 -13 -5 -13 -5c-15 0 -27 13 -23 35c3 17 17 33 34 33c20 0 36 -26 30 -63z" />
    <glyph glyph-name="ncedilla" 
d="M347 20c-3 -20 -22 -20 -30 -20h-104c-8 0 -27 0 -24 20c4 20 23 20 31 20h30l41 248c11 64 11 103 -33 103c-40 0 -94 -49 -111 -154l-33 -197h29c8 0 28 0 24 -20c-3 -20 -23 -20 -31 -20h-103c-8 0 -28 0 -25 20c4 20 24 20 32 20h29l57 345h-29c-8 0 -28 0 -24 20
c3 20 23 20 31 20h46c24 0 26 -10 19 -53c15 20 53 59 101 59c55 0 82 -42 66 -138l-42 -253h30c8 0 27 0 23 -20zM196 -120c-13 -79 -72 -112 -85 -112c-6 0 -15 6 -13 14l1 4c40 19 56 48 69 94c-7 -4 -13 -5 -13 -5c-15 0 -27 13 -23 35c3 17 17 33 34 33
c20 0 36 -26 30 -63z" />
    <glyph glyph-name="OE.dup" 
d="M346 33c-5 -28 -14 -33 -34 -33h-113c-7 0 -15 0 -28 -4c-27 -8 -31 -8 -46 -8c-75 0 -89 31 -87 94c1 63 15 145 28 224c15 91 28 159 44 217c20 66 44 100 121 100c13 0 20 0 43 -8c12 -4 20 -4 27 -4h108c20 0 26 -6 21 -33l-11 -68c-2 -11 -8 -32 -24 -32
s-16 21 -14 32l10 61h-82l-39 -234h83c8 0 28 0 25 -20s-23 -20 -31 -20h-83l-43 -257h88l12 76c2 12 9 33 25 33s15 -21 13 -33zM203 167l46 277c20 117 15 139 -21 139c-77 0 -87 -59 -122 -269c-36 -219 -47 -286 31 -286c35 0 47 26 66 139z" />
    <glyph glyph-name="oe.dup" 
d="M359 102c-3 -17 -38 -108 -92 -108c-43 0 -60 60 -66 91c-21 -45 -57 -91 -95 -91c-52 0 -84 92 -62 220c21 125 82 221 136 221c38 0 57 -46 65 -89c27 57 60 89 90 89c42 0 69 -66 46 -203c-5 -27 -13 -34 -34 -34h-108c-11 -115 12 -164 37 -164c7 0 25 6 45 65
c2 8 9 23 22 23c8 0 18 -6 16 -20zM342 235c15 95 10 159 -14 159c-25 0 -61 -63 -83 -159h97zM205 220c17 105 -1 174 -32 174c-29 0 -72 -66 -90 -174c-18 -105 -2 -186 30 -186c30 0 74 77 92 186z" />
    <glyph glyph-name="Oslash.dup" 
d="M367 305c-49 -292 -70 -317 -194 -317c-12 0 -30 0 -50 2l-17 -46c-6 -15 -13 -31 -27 -31c-11 0 -18 9 -16 19c0 3 18 46 26 70c-31 20 -36 56 -27 147c5 46 15 109 23 157c49 292 70 317 194 317c12 0 30 0 50 -2l17 46c6 15 12 31 26 31c11 0 19 -9 17 -19
c0 -3 -18 -46 -26 -70c30 -20 36 -56 27 -147c-5 -46 -15 -109 -23 -157zM312 580c-16 3 -37 3 -40 3c-54 0 -84 -8 -106 -73c-18 -54 -32 -136 -43 -205c-37 -220 -26 -237 -14 -253zM329 306c37 220 26 237 14 253l-204 -528c16 -3 38 -3 41 -3c54 0 84 8 106 73
c18 54 32 136 43 205z" />
    <glyph glyph-name="oslash.dup" 
d="M361 213c-21 -124 -108 -219 -187 -219c-28 0 -49 13 -55 17l-80 -141c-4 -7 -10 -13 -18 -13c-11 0 -18 8 -16 20c1 5 9 18 15 27l73 132c-27 43 -45 100 -32 177c20 123 107 222 187 222c13 0 40 -7 55 -18l72 130c13 22 20 22 25 22c10 0 18 -9 17 -20l-8 -13
l-80 -145c41 -68 38 -137 32 -178zM284 381c-7 3 -24 13 -43 13c-64 0 -126 -83 -142 -181c-13 -73 5 -121 16 -138zM322 213c14 84 -11 135 -14 141l-169 -306c17 -11 31 -14 42 -14c63 0 124 80 141 179z" />
    <glyph glyph-name="quoteleft.dup" 
d="M340 662c0 -4 -4 -8 -9 -12c-50 -39 -76 -96 -85 -153c-2 -10 -3 -20 -4 -32c3 2 6 3 11 3c16 0 28 -16 25 -37c-3 -20 -19 -37 -38 -37c-25 0 -46 30 -34 104c20 121 103 185 117 185c8 0 20 -8 17 -21z" />
    <glyph glyph-name="quoteright.dup" 
d="M311 507c-20 -120 -102 -185 -117 -185c-7 0 -19 8 -17 21c1 4 5 8 9 12c51 39 76 96 86 153c1 10 3 21 3 32c-2 -1 -5 -2 -10 -2c-16 0 -29 15 -25 36c3 20 19 37 38 37c24 0 45 -30 33 -104z" />
    <glyph glyph-name="Rcedilla" 
d="M367 86c-5 -34 -32 -98 -76 -98c-21 0 -37 15 -44 42c-7 32 -3 60 8 127c8 49 13 78 1 100c-18 29 -40 29 -52 29h-56l-41 -246h16c8 0 28 0 24 -20c-3 -20 -23 -20 -31 -20h-77c-8 0 -27 0 -24 20c4 20 23 20 31 20h16l88 531h-16c-8 0 -27 0 -23 20c3 20 22 20 30 20
h120c79 0 120 -80 106 -163c-9 -52 -40 -103 -93 -143c15 -20 28 -41 32 -71c3 -23 2 -29 -8 -92c-11 -64 -19 -114 0 -114c15 0 24 50 25 58c2 8 9 24 26 24c13 0 21 -7 18 -24zM323 448c9 54 -8 123 -76 123h-52l-41 -245h52c68 0 108 69 117 122zM180 -120
c-13 -79 -72 -112 -85 -112c-6 0 -15 6 -13 14l1 4c40 19 56 48 69 94c-7 -4 -13 -5 -13 -5c-15 0 -27 13 -23 35c3 17 17 33 34 33c20 0 36 -26 30 -63z" />
    <glyph glyph-name="rcedilla" 
d="M392 380c-3 -19 -18 -31 -31 -31c-5 0 -24 3 -20 42h-11c-62 0 -132 -78 -153 -206l-24 -145h74c8 0 27 0 23 -20c-3 -20 -22 -20 -30 -20h-173c-8 0 -28 0 -25 20c4 20 24 20 32 20h54l57 345h-54c-8 0 -28 0 -24 20c3 20 23 20 31 20h71c20 0 27 -5 23 -32l-9 -51
c42 58 87 89 134 89c33 0 62 -10 55 -51zM145 -120c-13 -79 -72 -112 -85 -112c-6 0 -15 6 -13 14l1 4c40 19 56 48 69 94c-7 -4 -13 -5 -13 -5c-15 0 -27 13 -23 35c3 17 17 33 34 33c20 0 36 -26 30 -63z" />
    <glyph glyph-name="tilde.dup" 
d="M393 594c-1 -4 -5 -10 -12 -18c-37 -36 -64 -63 -88 -63c-19 0 -30 12 -44 44c-4 9 -7 14 -13 14c-17 0 -55 -44 -62 -52c-4 -4 -8 -6 -13 -6c-8 0 -19 8 -17 20c1 4 6 11 13 18c37 36 64 63 88 63c18 0 30 -12 44 -44c4 -8 7 -14 12 -14c17 0 55 44 62 52c5 4 9 6 13 6
c9 0 19 -8 17 -20z" />
    <glyph glyph-name="A" unicode="A" 
d="M339 20c-3 -20 -23 -20 -32 -20h-67c-8 0 -28 0 -25 20c4 20 23 20 45 20l1 135h-114l-43 -135c22 0 41 0 37 -20c-3 -20 -23 -20 -31 -20h-68c-8 0 -28 0 -25 20c4 20 22 20 43 20l178 549c11 33 20 36 42 36c16 0 29 -3 28 -36l-4 -549c20 0 39 0 35 -20zM262 216
l7 349l-109 -349h102z" />
    <glyph glyph-name="a" unicode="a" 
d="M348 20c-3 -20 -22 -20 -36 -20c-27 0 -62 2 -70 36c-43 -37 -87 -42 -110 -42c-62 0 -100 55 -88 125c11 66 63 99 99 115c47 21 88 25 131 27c7 43 13 78 -9 107c-18 26 -42 26 -58 26c-8 0 -18 0 -26 -1c-17 -2 -18 -11 -19 -15c-7 -38 -30 -38 -34 -38
c-13 0 -27 10 -23 33c11 62 80 62 108 62c91 0 121 -76 108 -152l-39 -234c10 -7 24 -9 42 -9c8 0 28 0 24 -20zM251 126l17 99c-88 0 -169 -43 -179 -106c-8 -45 13 -85 58 -85c0 0 35 0 63 18c32 20 37 48 41 74z" />
    <glyph glyph-name="ampersand" unicode="&#x26;" 
d="M400 405c-4 -20 -24 -20 -32 -20h-19l-59 -142c-27 -61 -65 -134 -65 -134c-2 -13 16 -81 44 -81c19 0 31 35 37 66c7 29 22 29 25 29c0 0 19 0 15 -24c-8 -46 -40 -111 -83 -111c-31 0 -54 31 -69 71c-22 -32 -59 -71 -98 -71c-50 0 -71 69 -60 140c9 51 28 81 45 103
l59 78c-4 74 -1 131 7 177c15 92 60 137 95 137c45 0 51 -70 41 -129c-11 -66 -57 -127 -106 -192c5 -44 7 -66 29 -158c25 46 56 120 106 241c-13 0 -33 0 -29 20c3 20 23 20 31 20h61c8 0 28 0 25 -20zM245 494c0 0 17 89 -10 89c-19 0 -39 -34 -50 -98
c0 0 -11 -64 -10 -129c57 75 66 112 70 138zM181 99c-5 17 -23 80 -35 161c-42 -52 -59 -72 -68 -128c-5 -32 -9 -104 26 -104c24 0 51 32 77 71z" />
    <glyph glyph-name="asciicircum" unicode="^" 
d="M393 526c-2 -8 -9 -22 -20 -22c-5 0 -9 1 -17 7l-86 60l-106 -60c-10 -6 -14 -7 -19 -7c-11 0 -14 14 -12 22c1 5 7 14 15 19l116 73s19 7 28 0l92 -73c6 -5 10 -14 9 -19z" />
    <glyph glyph-name="asciitilde" unicode="~" 
d="M350 336c-1 -4 -5 -10 -12 -18c-37 -36 -64 -63 -88 -63c-19 0 -30 12 -44 44c-4 9 -7 14 -13 14c-17 0 -55 -44 -62 -52c-4 -4 -8 -6 -13 -6c-8 0 -19 8 -17 20c1 4 6 11 13 18c37 36 64 63 88 63c18 0 30 -12 44 -44c4 -8 7 -14 12 -14c17 0 55 44 62 52c5 4 9 6 13 6
c9 0 19 -8 17 -20z" />
    <glyph glyph-name="asterisk" unicode="*" 
d="M343 210c-3 -16 -18 -22 -26 -22c0 0 -4 0 -6 2l-73 78l-24 -154c-2 -14 -14 -21 -23 -21c-8 0 -20 6 -18 21l28 154l-90 -72c-5 -3 -13 -8 -17 -8c-8 0 -20 6 -17 22c1 7 5 12 11 16l113 80l-87 78c-3 4 -6 10 -5 17c3 16 17 22 25 22c4 0 10 -5 13 -8l67 -72l23 154
c3 16 15 21 24 21s19 -7 17 -18l-28 -157l91 72c5 3 13 8 16 8c8 0 21 -6 18 -22c-1 -7 -6 -12 -11 -16l-114 -80c37 -31 70 -61 85 -77c3 -4 9 -10 8 -18z" />
    <glyph glyph-name="at" unicode="@" 
d="M337 72c-4 -24 -70 -78 -133 -78c-94 0 -158 131 -128 312c30 182 140 311 231 311c118 0 83 -228 72 -296c-29 -169 -103 -211 -136 -211c-50 0 -86 79 -67 196c19 111 80 195 133 195c19 0 33 -13 47 -29c-8 94 -35 105 -56 105c-73 0 -160 -113 -186 -272
c-26 -153 20 -271 97 -271c25 0 53 11 82 45c9 10 12 10 22 10c6 0 25 0 22 -17zM337 306c14 85 -1 154 -35 154c-31 0 -72 -63 -87 -155c-14 -85 1 -154 35 -154c31 0 72 63 87 155z" />
    <glyph glyph-name="B" unicode="B" 
d="M353 163c-13 -79 -71 -163 -146 -163h-166c-8 0 -28 0 -25 20c4 20 24 20 32 20h18l88 531h-18c-8 0 -28 0 -24 20c3 20 23 20 31 20h152c74 0 105 -78 93 -150c-12 -70 -46 -102 -107 -140c72 -29 84 -89 72 -158zM344 460c6 39 4 111 -58 111h-88l-38 -232h77
c62 0 98 69 107 121zM309 165c6 37 4 133 -71 133h-85l-43 -258h89c66 0 101 71 110 125z" />
    <glyph glyph-name="b" unicode="b" 
d="M365 213c-22 -127 -104 -219 -176 -219c-40 0 -61 30 -73 58c-6 -35 -12 -52 -31 -52s-20 17 -17 33l89 538h-29c-8 0 -28 0 -24 20c3 20 23 20 31 20h46c20 0 27 -6 22 -33l-33 -203c8 11 48 56 99 56c71 0 116 -95 96 -218zM320 213c16 97 -10 178 -63 178
c-48 0 -95 -64 -106 -126l-13 -82c-9 -54 -2 -149 54 -149c52 0 110 76 128 179z" />
    <glyph glyph-name="backslash" unicode="\" 
d="M305 -61c-3 -18 -18 -25 -26 -25c-15 0 -18 18 -20 28l-110 722c-1 3 -3 4 -2 8c3 18 17 25 26 25c14 0 16 -12 19 -30l111 -720c1 -3 2 -4 2 -8z" />
    <glyph glyph-name="bar" unicode="|" 
d="M189 -49c-2 -12 -9 -37 -28 -37s-18 26 -16 37l118 709c2 12 9 37 29 37c18 0 17 -26 15 -37z" />
    <glyph glyph-name="braceleft" unicode="{" 
d="M304 -66c-3 -20 -20 -20 -31 -20c-130 0 -119 89 -113 128l29 174c6 48 -36 68 -86 69c-9 0 -20 4 -17 21c2 13 10 18 20 19c42 2 66 7 90 27c18 15 21 29 30 83l26 157c24 99 119 105 151 105c11 0 28 0 25 -20c-3 -17 -15 -21 -21 -21c-20 0 -85 -2 -103 -40
c-6 -11 -37 -197 -37 -197c-5 -31 -14 -74 -75 -114c44 -35 43 -77 39 -102l-28 -166c-6 -35 -13 -79 87 -82c9 -1 16 -8 14 -21z" />
    <glyph glyph-name="braceright" unicode="}" 
d="M366 305c-2 -13 -10 -19 -20 -19c-38 0 -61 -7 -83 -22c-25 -17 -27 -33 -37 -88l-26 -157c-23 -97 -115 -105 -152 -105c-10 0 -27 0 -24 20c3 18 14 21 19 21c21 0 88 2 106 40c5 11 12 52 16 79l20 118c5 31 15 74 75 114c-47 38 -42 85 -39 102l28 166
c6 36 13 82 -89 82c-8 1 -14 8 -12 21c3 20 20 20 30 20c131 0 120 -89 114 -128l-29 -174c-5 -44 28 -69 85 -69c9 0 21 -3 18 -21z" />
    <glyph glyph-name="bracketleft" unicode="[" 
d="M316 -66c-3 -20 -23 -20 -31 -20h-122c-20 0 -27 6 -23 33l120 717c4 28 13 33 33 33h122c8 0 28 0 25 -20c-4 -21 -24 -21 -32 -21h-105l-117 -701h105c8 0 28 0 25 -21z" />
    <glyph glyph-name="bracketright" unicode="]" 
d="M191 -53c-5 -28 -13 -33 -32 -33h-122c-9 0 -28 0 -25 20c3 21 22 21 31 21h105l117 701h-105c-9 0 -28 0 -24 21c3 20 22 20 31 20h122c20 0 26 -6 22 -33z" />
    <glyph glyph-name="C" unicode="C" 
d="M355 165c-15 -88 -90 -177 -169 -177c-86 0 -143 134 -112 318c30 180 130 317 218 317c30 0 59 -15 82 -52l16 34c3 7 10 18 21 18c16 0 17 -16 15 -29l-25 -150c-3 -17 -9 -29 -28 -29c-14 0 -19 6 -17 28c6 95 -29 140 -67 140c-66 0 -143 -116 -170 -277
s12 -278 79 -278c12 0 84 8 112 138c4 17 16 21 25 21c7 0 23 0 20 -22z" />
    <glyph glyph-name="c" unicode="c" 
d="M331 103c-2 -16 -46 -109 -136 -109c-82 0 -133 97 -112 219c14 84 79 222 195 222c29 0 101 0 90 -62c-4 -23 -20 -33 -33 -33c-4 0 -25 0 -22 38c1 7 1 11 -4 13c-6 1 -20 3 -39 3c-96 0 -134 -126 -143 -181c-17 -100 19 -179 81 -179c17 0 52 6 81 71
c4 10 10 15 22 15c5 0 23 0 20 -17z" />
    <glyph glyph-name="colon" unicode=":" 
d="M277 376c-5 -26 -27 -48 -47 -48c-19 0 -36 21 -31 48c5 29 28 49 48 49c17 0 35 -19 30 -49zM222 48c-4 -26 -27 -48 -47 -48c-19 0 -35 21 -31 48c5 29 28 49 48 49c17 0 35 -19 30 -49z" />
    <glyph glyph-name="comma" unicode="," 
d="M231 9c-18 -106 -96 -152 -114 -152c-9 0 -19 10 -17 21c0 5 3 8 6 11c50 23 71 63 86 115c-8 -3 -13 -4 -17 -4c-19 0 -36 19 -31 49c4 25 25 48 48 48c28 0 47 -38 39 -88z" />
    <glyph glyph-name="D" unicode="D" 
d="M378 300c-26 -159 -112 -300 -200 -300h-140c-8 0 -28 0 -25 20c4 20 24 20 32 20h14l88 531h-14c-8 0 -28 0 -24 20c3 20 23 20 31 20h139c91 0 126 -150 99 -311zM333 301c20 121 10 270 -74 270h-67l-88 -531h68c79 0 140 132 161 261z" />
    <glyph glyph-name="d" unicode="d" 
d="M347 20c-3 -20 -22 -20 -30 -20h-47c-24 0 -25 10 -17 58c-18 -24 -55 -64 -101 -64c-70 0 -116 95 -96 218c21 126 103 219 175 219c43 0 66 -35 75 -52l32 192h-30c-8 0 -27 0 -23 20c3 20 22 20 30 20h47c20 0 26 -6 21 -33l-89 -538h30c8 0 27 0 23 -20zM274 186
l14 81c9 57 -11 124 -59 124c-53 0 -111 -75 -129 -179c-16 -97 10 -178 63 -178c56 0 101 91 111 152z" />
    <glyph glyph-name="dollar" unicode="$" 
d="M343 166c-14 -80 -73 -155 -149 -170l-8 -49c-2 -13 -9 -33 -25 -33c-17 0 -17 21 -15 33l8 48c-86 13 -103 98 -92 165c6 38 34 38 34 38c11 0 27 -9 23 -32c-1 -6 -7 -15 -16 -24c0 -60 14 -96 58 -106l44 264c-110 32 -96 141 -94 158c13 73 71 144 147 157l8 49
c2 12 8 33 25 33c16 0 17 -20 15 -33l-8 -48c104 -16 100 -120 94 -154c-6 -37 -32 -37 -35 -37c-10 0 -26 9 -22 33c1 3 6 13 16 23c-1 62 -24 88 -60 94l-40 -238c87 -26 101 -114 92 -171zM213 349l38 226c-50 -11 -89 -60 -98 -113c-9 -54 13 -100 60 -113zM301 163
c10 60 -14 112 -58 124l-42 -250c54 13 91 71 100 126z" />
    <glyph glyph-name="E" unicode="E" 
d="M346 33c-5 -28 -14 -33 -34 -33h-269c-8 0 -28 0 -25 20c4 20 24 20 32 20h19l88 531h-19c-8 0 -28 0 -24 20c3 20 23 20 31 20h254c20 0 27 -6 22 -33l-11 -68c-3 -16 -9 -32 -28 -32s-19 17 -17 32l10 61h-173l-39 -234h94c7 41 13 56 32 56s19 -17 16 -32l-14 -87
c-3 -15 -9 -32 -28 -32s-19 15 -12 55h-94l-43 -257h188l12 76c3 16 10 33 29 33c18 0 19 -18 16 -33z" />
    <glyph glyph-name="e" unicode="e" 
d="M331 103c-4 -26 -54 -109 -141 -109c-84 0 -141 95 -120 221c20 122 105 220 183 220c85 0 118 -92 99 -208c-5 -29 -20 -29 -33 -29h-207c-7 -98 28 -164 87 -164c13 0 60 5 88 65c6 16 11 23 24 23c18 0 21 -14 20 -19zM308 235c9 70 10 159 -62 159
c-44 0 -99 -52 -128 -159h190z" />
    <glyph glyph-name="eight" unicode="8" 
d="M353 169c-16 -99 -97 -181 -180 -181s-136 83 -120 181c9 55 39 120 136 162c-67 32 -85 80 -76 137c14 82 87 155 166 155s128 -73 114 -155c-9 -55 -41 -104 -122 -137c83 -42 91 -108 82 -162zM348 467c10 60 -19 116 -76 116s-104 -56 -114 -116
c-10 -59 17 -113 76 -113c58 0 104 54 114 113zM308 170c12 72 -20 138 -82 138c-61 0 -115 -62 -128 -139c-12 -72 19 -141 82 -141c62 0 116 66 128 142z" />
    <glyph glyph-name="equal" unicode="=" 
d="M393 383c-4 -23 -26 -23 -34 -23h-248c-8 0 -30 0 -26 23c4 25 28 25 37 25h242c9 0 33 0 29 -25zM367 228c-4 -25 -28 -25 -37 -25h-242c-9 0 -33 0 -29 25c4 23 26 23 34 23h248c7 0 30 0 26 -23z" />
    <glyph glyph-name="exclam" unicode="!" 
d="M303 580l-68 -372c-4 -18 -9 -28 -30 -28c-22 0 -25 3 -21 28l56 370c8 44 33 45 39 45c5 0 30 0 24 -43zM212 37c-3 -22 -22 -37 -37 -37s-28 15 -25 37c4 22 22 36 37 36s29 -14 25 -36z" />
    <glyph glyph-name="F" unicode="F" 
d="M416 510c-3 -16 -9 -32 -28 -32c-18 0 -19 17 -17 32l10 61h-175l-41 -245h97c7 41 13 56 32 56s19 -17 16 -33l-14 -86c-3 -16 -9 -33 -28 -33s-19 15 -12 56h-97l-41 -246h34c8 0 28 0 24 -20c-3 -20 -23 -20 -31 -20h-100c-8 0 -28 0 -25 20c4 20 24 20 32 20h22
l88 531h-22c-8 0 -28 0 -24 20c3 20 23 20 31 20h258c20 0 27 -6 22 -33z" />
    <glyph glyph-name="f" unicode="f" 
d="M390 568c-4 -24 -22 -31 -32 -31c-23 0 -23 40 -23 40c-24 0 -72 -4 -87 -90l-10 -62h86c8 0 27 0 24 -20c-4 -20 -23 -20 -31 -20h-86l-57 -345h67c9 0 28 0 24 -20c-3 -20 -22 -20 -31 -20h-179c-8 0 -27 0 -24 20c4 20 23 20 31 20h68l57 345h-71c-8 0 -28 0 -24 20
c3 20 23 20 32 20h70l11 66c14 87 79 126 130 126c9 0 63 0 55 -49z" />
    <glyph glyph-name="five" unicode="5" 
d="M350 186c-19 -112 -104 -198 -186 -198c-75 0 -124 67 -110 151c6 34 29 35 34 35c10 0 27 -9 23 -32c-2 -10 -9 -17 -16 -26c6 -62 39 -88 76 -88c61 0 120 71 134 158c13 77 -5 157 -63 157c-36 0 -70 -17 -97 -53c-7 -10 -11 -15 -22 -15c-17 0 -17 18 -15 30l46 276
c4 26 13 30 32 30h183c8 0 27 0 24 -20c-4 -20 -23 -20 -31 -20h-166l-36 -218c34 24 66 30 89 30c79 0 118 -96 101 -197z" />
    <glyph glyph-name="four" unicode="4" 
d="M366 194c-3 -21 -22 -21 -30 -21h-53l-22 -133h42c8 0 28 0 24 -20c-3 -20 -23 -20 -31 -20h-123c-8 0 -28 0 -25 20c4 20 24 20 32 20h42l22 133h-172c-16 0 -28 1 -23 31c1 6 3 10 4 14l228 387c12 19 15 20 32 20h16c20 0 29 -3 24 -32l-63 -379h53c8 0 27 0 23 -20z
M251 214l62 371h-2l-219 -371h159z" />
    <glyph glyph-name="G" unicode="G" 
d="M375 239c-3 -20 -23 -20 -35 -20l-32 -190c-3 -16 -9 -31 -27 -31c-19 0 -21 14 -15 47c-31 -39 -64 -57 -94 -57c-80 0 -131 132 -100 318c31 183 125 317 206 317c31 0 56 -18 74 -49l14 33c4 5 10 16 22 16c15 0 16 -16 14 -29l-25 -150c-3 -17 -9 -29 -28 -29
c-7 0 -20 0 -18 24c9 104 -22 144 -56 144c-58 0 -132 -114 -159 -278c-27 -160 7 -277 66 -277c58 0 95 110 113 191h-30c-8 0 -28 0 -25 20s23 20 31 20h79c8 0 28 0 25 -20z" />
    <glyph glyph-name="g" unicode="g" 
d="M411 394c-5 -26 -24 -30 -31 -30c0 0 -21 1 -20 33c-10 -1 -27 -4 -56 -23c13 -45 13 -74 9 -97c-14 -85 -76 -154 -138 -154c-25 0 -46 13 -58 28c-6 -11 -8 -17 -12 -42c-10 -63 20 -66 30 -66h59c23 0 147 0 124 -138c-14 -84 -96 -141 -182 -141
c-87 0 -151 58 -137 141c6 37 31 88 81 123c-9 21 -18 46 -12 78c2 11 10 37 32 73c-15 42 -14 78 -11 98c14 85 77 154 138 154c20 0 43 -8 62 -32c34 34 67 39 80 39c35 0 45 -27 42 -44zM268 277c11 63 -8 116 -48 116c-36 0 -76 -51 -87 -116s11 -116 48 -116
c40 0 77 53 87 116zM279 -95c16 94 -58 100 -122 100c-49 0 -56 0 -75 -15c-33 -27 -41 -68 -44 -85c-8 -50 32 -103 104 -103s129 53 137 103z" />
    <glyph glyph-name="grave" unicode="`" 
d="M336 531c-3 -15 -13 -27 -27 -27c-4 0 -10 3 -14 6l-79 66c-7 6 -16 14 -14 23c2 14 13 24 24 24c9 0 18 -6 27 -13l68 -58c6 -5 16 -14 15 -21z" />
    <glyph glyph-name="greater" unicode="&#x3e;" 
d="M367 305c-2 -9 -10 -16 -17 -21l-275 -222c-2 -1 -4 -2 -7 -2l-2 -1c-8 0 -21 7 -18 24c1 8 12 17 18 22l247 201l-181 200c-4 5 -11 14 -10 22c3 17 18 24 26 24c5 0 11 -6 15 -10l194 -216c4 -4 11 -12 10 -21z" />
    <glyph glyph-name="H" unicode="H" 
d="M341 20c-3 -20 -22 -20 -31 -20h-76c-8 0 -28 0 -25 20c4 20 24 20 32 20h16l43 258h-150l-43 -258h16c8 0 28 0 24 -20c-3 -20 -23 -20 -31 -20h-77c-8 0 -27 0 -24 20c4 20 23 20 31 20h16l88 531h-16c-8 0 -27 0 -23 20c3 20 22 20 30 20h77c8 0 28 0 25 -20
c-4 -20 -24 -20 -32 -20h-16l-38 -232h150l38 232h-16c-8 0 -28 0 -24 20c3 20 23 20 31 20h76c9 0 28 0 25 -20c-4 -20 -24 -20 -32 -20h-16l-88 -531h16c8 0 28 0 24 -20z" />
    <glyph glyph-name="h" unicode="h" 
d="M347 20c-3 -20 -22 -20 -30 -20h-104c-8 0 -27 0 -24 20c4 20 23 20 31 20h30l41 248c11 64 11 103 -33 103c-40 0 -94 -49 -111 -154l-33 -197h29c8 0 28 0 24 -20c-3 -20 -23 -20 -31 -20h-103c-8 0 -28 0 -25 20c4 20 24 20 32 20h29l88 531h-29c-8 0 -28 0 -24 20
c3 20 23 20 31 20h46c20 0 27 -6 22 -33l-34 -206c15 20 53 59 101 59c55 0 82 -42 66 -138l-42 -253h30c8 0 27 0 23 -20z" />
    <glyph glyph-name="hyphen" unicode="-" 
d="M367 305c-4 -23 -27 -23 -35 -23h-220c-9 0 -31 0 -27 24c4 23 27 23 35 23h220c8 0 31 0 27 -24z" />
    <glyph glyph-name="I" unicode="I" 
d="M300 20c-3 -20 -22 -20 -30 -20h-189c-8 0 -28 0 -25 20c4 20 24 20 32 20h72l88 531h-72c-8 0 -28 0 -24 20c3 20 23 20 31 20h189c8 0 27 0 24 -20c-4 -20 -23 -20 -31 -20h-73l-88 -531h73c8 0 27 0 23 -20z" />
    <glyph glyph-name="i" unicode="i" 
d="M306 20c-3 -20 -22 -20 -30 -20h-195c-8 0 -29 0 -26 20c4 20 25 20 33 20h80l57 345h-75c-9 0 -28 0 -24 20c3 20 22 20 31 20h92c20 0 27 -5 23 -32l-59 -353h70c8 0 27 0 23 -20zM300 564c-4 -22 -22 -37 -37 -37s-29 15 -25 37s22 37 37 37s29 -15 25 -37z" />
    <glyph glyph-name="J" unicode="J" 
d="M421 591c-4 -20 -24 -20 -32 -20h-19l-74 -443c-15 -91 -81 -140 -138 -140c-62 0 -105 41 -95 104c5 25 21 35 35 35s25 -13 22 -32c-1 -5 -5 -11 -15 -24c17 -41 52 -43 61 -43c13 0 70 9 87 107l72 436h-54c-9 0 -28 0 -24 20c3 20 22 20 31 20h118c8 0 28 0 25 -20z
" />
    <glyph glyph-name="j" unicode="j" 
d="M238 -55c-13 -74 -47 -118 -56 -128c-43 -52 -71 -52 -97 -52s-96 0 -86 64c5 25 24 34 34 34c23 0 22 -31 18 -53c12 -4 28 -5 42 -5c17 0 37 0 62 36c27 39 36 91 39 109l72 435h-86c-10 0 -28 0 -24 20c3 20 23 20 31 20h103c20 0 27 -5 23 -32zM341 564
c-4 -22 -22 -37 -37 -37s-29 15 -25 37s22 37 37 37s29 -15 25 -37z" />
    <glyph glyph-name="K" unicode="K" 
d="M337 20c-3 -20 -22 -20 -30 -20h-51c-8 0 -27 0 -24 20c4 20 23 20 38 20l-59 280l-84 -121l-26 -159h14c8 0 28 0 24 -20c-3 -20 -23 -20 -31 -20h-67c-8 0 -28 0 -25 20c4 20 24 20 32 20h12l88 531h-12c-8 0 -28 0 -24 20c3 20 23 20 31 20h67c8 0 28 0 25 -20
c-4 -20 -24 -20 -32 -20h-14l-49 -297l207 297c-19 0 -38 0 -34 20c3 20 22 20 30 20h59c9 0 28 0 25 -20c-4 -20 -22 -20 -40 -20l-147 -210l67 -321c16 0 34 0 30 -20z" />
    <glyph glyph-name="k" unicode="k" 
d="M346 20c-3 -20 -23 -20 -31 -20h-78c-9 0 -29 0 -26 20c4 20 23 20 53 20l-63 183l-69 -77l-17 -106h32c9 0 29 0 25 -20c-3 -20 -23 -20 -32 -20h-102c-8 0 -28 0 -25 20c4 20 24 20 32 20h30l88 531h-30c-8 0 -28 0 -24 20c3 20 23 20 31 20h43c20 0 26 -6 21 -33
l-62 -372l157 179h-37c-8 0 -28 0 -24 20c3 20 23 20 31 20h102c9 0 28 0 25 -20c-4 -20 -23 -20 -32 -20h-21l-114 -130l74 -215h19c8 0 28 0 24 -20z" />
    <glyph glyph-name="L" unicode="L" 
d="M336 33c-5 -28 -14 -33 -33 -33h-256c-8 0 -28 0 -25 20c4 20 24 20 32 20h24l88 531h-24c-8 0 -28 0 -24 20c3 20 23 20 31 20h105c9 0 28 0 25 -20c-4 -20 -23 -20 -32 -20h-37l-88 -531h171l13 77c2 15 8 32 27 32s19 -18 17 -32z" />
    <glyph glyph-name="l" unicode="l" 
d="M314 20c-3 -20 -22 -20 -30 -20h-217c-8 0 -28 0 -25 20c4 20 24 20 32 20h86l88 531h-86c-8 0 -28 0 -24 20c3 20 23 20 31 20h103c20 0 26 -6 21 -33l-89 -538h87c8 0 27 0 23 -20z" />
    <glyph glyph-name="less" unicode="&#x3c;" 
d="M330 83c-3 -17 -18 -24 -27 -24c-4 0 -10 6 -14 10l-195 216c-4 4 -10 12 -9 21c2 9 9 16 16 21l276 222c2 1 4 2 7 2l1 1c9 0 22 -7 19 -24c-1 -8 -12 -17 -18 -22l-247 -201l183 -202c4 -5 9 -11 8 -20z" />
    <glyph glyph-name="M" unicode="M" 
d="M346 20c-3 -20 -23 -20 -32 -20h-53c-8 0 -28 0 -25 20c4 20 23 20 40 20l86 519l-119 -322c-9 -18 -25 -26 -33 -26c-20 0 -24 28 -24 36l-10 314l-87 -521c15 0 35 0 31 -20c-3 -20 -23 -20 -32 -20h-53c-8 0 -28 0 -25 20c4 20 23 20 40 20l88 531c-17 0 -36 0 -32 20
c3 20 23 20 31 20h37c12 0 32 0 36 -24l11 -307l108 292c11 27 23 39 50 39h37c9 0 29 0 26 -20c-4 -20 -24 -20 -40 -20l-88 -531c16 0 36 0 32 -20z" />
    <glyph glyph-name="m" unicode="m" 
d="M353 20c-3 -20 -23 -20 -31 -20h-51c-8 0 -26 0 -23 20c4 20 22 20 33 20l43 257c8 53 11 94 -11 94c-33 0 -63 -59 -78 -151l-33 -200c20 0 36 0 32 -20c-3 -20 -20 -20 -29 -20h-51c-8 0 -26 0 -23 20c4 20 22 20 33 20l43 257c8 53 11 94 -11 94
c-33 0 -64 -59 -79 -151l-33 -200c20 0 36 0 32 -20c-3 -20 -20 -20 -28 -20h-59c-8 0 -28 0 -25 20c4 20 22 20 42 20l57 345c-20 0 -38 0 -34 20c3 20 23 20 31 20h21c11 0 27 0 22 -33c8 10 31 39 63 39c33 0 42 -39 44 -54c25 38 48 54 73 54c58 0 43 -107 40 -128
l-44 -263c20 0 38 0 34 -20z" />
    <glyph glyph-name="N" unicode="N" 
d="M433 591c-4 -20 -23 -20 -31 -20h-16l-89 -538c-6 -33 -17 -33 -35 -33c-16 0 -34 0 -36 35l-36 517l-85 -512h15c8 0 28 0 24 -20c-3 -20 -23 -20 -31 -20h-70c-9 0 -28 0 -25 20c4 20 24 20 32 20h16l88 531h-16c-8 0 -28 0 -24 20c3 20 22 20 31 20h45
c15 0 33 0 36 -35l37 -517l85 512h-16c-9 0 -29 0 -25 20c3 20 23 20 32 20h70c9 0 27 0 24 -20z" />
    <glyph glyph-name="n" unicode="n" 
d="M347 20c-3 -20 -22 -20 -30 -20h-104c-8 0 -27 0 -24 20c4 20 23 20 31 20h30l41 248c11 64 11 103 -33 103c-40 0 -94 -49 -111 -154l-33 -197h29c8 0 28 0 24 -20c-3 -20 -23 -20 -31 -20h-103c-8 0 -28 0 -25 20c4 20 24 20 32 20h29l57 345h-29c-8 0 -28 0 -24 20
c3 20 23 20 31 20h46c24 0 26 -10 19 -53c15 20 53 59 101 59c55 0 82 -42 66 -138l-42 -253h30c8 0 27 0 23 -20z" />
    <glyph glyph-name="nine" unicode="9" 
d="M369 311c-33 -195 -137 -323 -228 -323c-71 0 -93 44 -84 93c3 20 18 34 34 34c15 0 25 -15 22 -32c-1 -6 -5 -11 -15 -26c14 -26 33 -29 50 -29c67 0 139 104 173 261c-37 -48 -80 -69 -118 -69c-71 0 -120 84 -101 202c20 119 105 201 179 201c59 0 130 -60 88 -312z
M332 392c21 121 -17 191 -58 191c-54 0 -111 -66 -127 -161c-14 -86 10 -161 68 -161s106 64 117 131z" />
    <glyph glyph-name="numbersign" unicode="#" 
d="M363 194c-4 -24 -27 -24 -35 -24h-54l-33 -131c-4 -13 -11 -39 -30 -39c0 0 -24 0 -17 28l36 142h-78l-32 -131c-5 -13 -11 -39 -30 -39c0 0 -25 0 -17 28l36 142h-31c-8 0 -31 0 -26 25c3 23 26 23 34 23h35l44 175h-49c-8 0 -31 0 -27 24s27 24 35 24h54l32 131
c5 13 12 39 30 39c9 0 23 -5 18 -28l-36 -142h77l33 131c4 13 11 39 30 39c9 0 23 -5 17 -28l-36 -142h31c8 0 31 0 26 -25c-3 -23 -26 -23 -34 -23h-35l-45 -175h50c8 0 31 0 27 -24zM287 393h-78l-44 -175h78z" />
    <glyph glyph-name="O" unicode="O" 
d="M367 305c-24 -144 -41 -223 -67 -266c-27 -44 -64 -51 -127 -51c-64 0 -98 7 -110 51c-12 43 -2 122 22 267c24 144 40 223 66 266c28 44 64 51 128 51c63 0 98 -7 109 -51c12 -43 3 -122 -21 -267zM323 314c11 66 26 151 26 202c-1 55 -22 67 -77 67
c-58 0 -81 -14 -101 -71c-16 -51 -29 -128 -41 -198c-10 -61 -26 -159 -25 -213c-1 -48 11 -73 75 -73c65 0 85 25 101 78c17 58 31 141 42 208z" />
    <glyph glyph-name="o" unicode="o" 
d="M350 213c-21 -126 -103 -219 -176 -219s-123 93 -102 219c20 125 102 222 176 222c73 0 122 -97 102 -222zM306 220c17 101 -14 174 -65 174c-52 0 -107 -73 -124 -174c-17 -102 11 -186 64 -186s108 83 125 186z" />
    <glyph glyph-name="one" unicode="1" 
d="M301 20c-3 -20 -23 -20 -31 -20h-170c-8 0 -28 0 -25 20c4 20 24 20 32 20h63l77 463c-3 -2 -55 -46 -80 -46c-13 0 -21 6 -18 20c3 18 19 20 27 20c39 5 71 59 91 104c6 13 13 22 24 22c17 0 17 -20 15 -32l-92 -551h63c8 0 28 0 24 -20z" />
    <glyph glyph-name="P" unicode="P" 
d="M397 433c-15 -89 -81 -177 -160 -177h-87l-36 -216h19c9 0 29 0 25 -20c-3 -20 -23 -20 -32 -20h-83c-8 0 -28 0 -25 20c4 20 24 20 32 20h19l88 531h-19c-8 0 -28 0 -24 20c3 20 23 20 31 20h151c78 0 117 -86 101 -178zM352 434c10 57 -4 137 -75 137h-75l-46 -275h75
c69 0 111 76 121 138z" />
    <glyph glyph-name="p" unicode="p" 
d="M365 213c-22 -127 -104 -219 -176 -219c-40 0 -61 30 -73 58l-41 -241h29c8 0 28 0 25 -20s-23 -20 -31 -20h-103c-8 0 -28 0 -25 20s23 20 31 20h29l96 574h-29c-8 0 -28 0 -24 20c3 20 23 20 31 20h46c24 0 26 -11 20 -50c8 11 48 56 99 56c71 0 116 -95 96 -218z
M320 213c16 97 -10 178 -63 178c-48 0 -95 -64 -106 -126l-13 -82c-9 -54 -2 -149 54 -149c52 0 110 76 128 179z" />
    <glyph glyph-name="parenleft" unicode="(" 
d="M282 -69c-1 -7 -8 -17 -22 -17c-19 0 -60 63 -82 129c-18 59 -32 151 -13 262c16 95 52 187 103 265c43 67 105 127 122 127c14 0 19 -9 17 -17c0 -3 -8 -11 -17 -18c-118 -103 -163 -256 -180 -357c-17 -103 -21 -255 61 -356c6 -7 12 -15 11 -18z" />
    <glyph glyph-name="parenright" unicode=")" 
d="M286 305c-15 -89 -49 -182 -102 -264c-43 -67 -105 -127 -123 -127c-12 0 -19 10 -18 17c1 4 10 12 18 18c120 105 165 262 181 357c20 120 13 262 -60 353c-7 10 -14 17 -14 21c2 7 11 17 23 17c21 0 62 -69 78 -117c33 -97 30 -197 17 -275z" />
    <glyph glyph-name="percent" unicode="%" 
d="M233 568c-12 -72 -47 -127 -80 -127c-32 0 -51 54 -39 128c12 72 48 128 81 128c31 0 50 -54 38 -129zM405 672c0 -3 -3 -5 -6 -12l-306 -716c-4 -11 -12 -30 -28 -30c-10 0 -21 10 -18 25c0 3 3 5 5 12l306 716c5 10 13 30 29 30c8 0 21 -7 18 -25zM338 42
c-12 -73 -49 -128 -81 -128s-51 55 -39 128c12 72 49 127 81 127s51 -55 39 -127zM195 569c9 52 1 86 -7 86c-9 0 -27 -31 -36 -87c-9 -52 -2 -86 7 -86c8 0 27 32 36 87zM300 42c9 54 1 86 -8 86s-27 -32 -36 -86c-9 -55 -1 -86 8 -86s27 31 36 86z" />
    <glyph glyph-name="period" unicode="." 
d="M222 48c-4 -26 -27 -48 -47 -48c-19 0 -35 21 -31 48c5 29 28 49 48 49c17 0 35 -19 30 -49z" />
    <glyph glyph-name="plus" unicode="+" 
d="M380 305c-4 -23 -28 -23 -35 -23h-101l-26 -158c-2 -12 -9 -36 -28 -36s-18 25 -16 36l26 158h-101c-8 0 -31 0 -27 24c4 23 27 23 35 23h101l26 158c2 12 9 36 29 36c18 0 17 -25 15 -36l-26 -158h101c8 0 31 0 27 -24z" />
    <glyph glyph-name="Q" unicode="Q" 
d="M367 305c-6 -37 -20 -120 -32 -168c-18 -73 -34 -113 -77 -137l15 -82l12 -52c-2 -9 -15 -9 -25 -9c-16 0 -21 0 -25 16l-21 116c-9 -1 -31 -1 -41 -1c-124 0 -137 25 -88 318c49 292 70 317 194 317s137 -25 88 -318zM322 306c10 57 23 140 25 193c2 60 -8 84 -75 84
s-86 -23 -104 -83c-15 -53 -28 -130 -39 -195c-10 -57 -23 -140 -25 -193c-1 -48 2 -84 70 -84h34l-23 115c-3 14 9 14 21 14h5c14 0 16 0 19 -14l19 -97c20 18 35 32 73 260z" />
    <glyph glyph-name="q" unicode="q" 
d="M327 -209c-3 -20 -23 -20 -32 -20h-108c-9 0 -29 0 -26 20s23 20 32 20h32l42 251c-20 -24 -55 -68 -107 -68c-74 0 -121 96 -101 218c22 128 107 219 181 219c48 0 68 -41 79 -62l5 30c2 16 8 32 27 32s19 -17 17 -32l-99 -588h32c9 0 29 0 26 -20zM288 187l8 47
c11 67 -2 157 -58 157c-57 0 -118 -78 -135 -179c-16 -97 13 -178 69 -178c59 0 106 93 116 153z" />
    <glyph glyph-name="question" unicode="?" 
d="M395 497c-6 -34 -26 -66 -58 -90c-66 -49 -98 -105 -110 -178l-3 -19c-3 -19 -9 -30 -30 -30s-22 10 -17 41c8 51 27 132 139 217c8 6 28 25 34 59c6 36 -9 80 -86 80c-47 0 -74 -23 -94 -54c5 -12 8 -20 7 -26c-4 -25 -25 -33 -34 -33c-7 0 -27 5 -22 35
c10 60 61 118 150 118c124 0 130 -84 124 -120zM201 37c-3 -22 -22 -37 -37 -37s-28 15 -25 37c4 22 22 36 37 36s29 -14 25 -36z" />
    <glyph glyph-name="quotedbl" unicode="&#x22;" 
d="M239 580l-42 -211c-4 -20 -11 -33 -26 -33s-18 13 -15 33l28 211c2 15 14 40 34 40s24 -28 21 -40zM360 580l-42 -211c-4 -20 -11 -33 -26 -33s-18 13 -15 33l28 211c2 15 14 40 34 40s24 -28 21 -40z" />
    <glyph glyph-name="quotesingle" unicode="'" 
d="M299 580l-42 -211c-4 -20 -11 -33 -26 -33s-18 13 -15 33l28 211c2 15 14 40 34 40s24 -28 21 -40z" />
    <glyph glyph-name="R" unicode="R" 
d="M367 86c-5 -34 -32 -98 -76 -98c-21 0 -37 15 -44 42c-7 32 -3 60 8 127c8 49 13 78 1 100c-18 29 -40 29 -52 29h-56l-41 -246h16c8 0 28 0 24 -20c-3 -20 -23 -20 -31 -20h-77c-8 0 -27 0 -24 20c4 20 23 20 31 20h16l88 531h-16c-8 0 -27 0 -23 20c3 20 22 20 30 20
h120c79 0 120 -80 106 -163c-9 -52 -40 -103 -93 -143c15 -20 28 -41 32 -71c3 -23 2 -29 -8 -92c-11 -64 -19 -114 0 -114c15 0 24 50 25 58c2 8 9 24 26 24c13 0 21 -7 18 -24zM323 448c9 54 -8 123 -76 123h-52l-41 -245h52c68 0 108 69 117 122z" />
    <glyph glyph-name="r" unicode="r" 
d="M392 380c-3 -19 -18 -31 -31 -31c-5 0 -24 3 -20 42h-11c-62 0 -132 -78 -153 -206l-24 -145h74c8 0 27 0 23 -20c-3 -20 -22 -20 -30 -20h-173c-8 0 -28 0 -25 20c4 20 24 20 32 20h54l57 345h-54c-8 0 -28 0 -24 20c3 20 23 20 31 20h71c20 0 27 -5 23 -32l-9 -51
c42 58 87 89 134 89c33 0 62 -10 55 -51z" />
    <glyph glyph-name="S" unicode="S" 
d="M346 159c-15 -88 -81 -171 -158 -171c-29 0 -76 7 -107 51c-16 -43 -19 -51 -33 -51c-16 0 -16 16 -14 29l24 142c2 17 8 31 27 31c20 0 19 -15 17 -29c-12 -93 32 -133 93 -133c59 0 97 68 107 127c5 33 4 62 -6 87c-12 29 -23 34 -73 51c-70 26 -81 30 -103 73
c-3 6 -21 42 -12 98c15 87 82 159 154 159c25 0 64 -7 90 -51c16 43 19 51 34 51s16 -16 14 -29l-24 -143c-3 -17 -9 -30 -28 -30s-19 13 -17 32c5 88 -24 130 -77 130c-51 0 -93 -57 -103 -115c-8 -50 7 -91 35 -108l46 -17c67 -25 79 -30 100 -72c2 -3 22 -62 14 -112z
" />
    <glyph glyph-name="s" unicode="s" 
d="M329 118c-2 -10 -25 -124 -150 -124c-22 0 -59 3 -84 42c-17 -42 -24 -42 -32 -42c-16 0 -16 16 -14 29l18 107c2 16 8 30 27 30c17 0 18 -11 18 -26c3 -74 29 -100 74 -100c69 0 96 44 103 84c10 61 -42 80 -70 87c-54 14 -75 19 -93 38c-20 17 -33 42 -27 81
c6 33 38 111 148 111c14 0 46 0 70 -25c0 0 9 25 26 25c15 0 16 -17 14 -30l-13 -78c-3 -17 -9 -30 -28 -30c-8 0 -21 2 -19 21c4 28 9 76 -58 76c-70 0 -96 -41 -101 -70c-8 -46 30 -63 92 -79c31 -7 116 -26 99 -127z" />
    <glyph glyph-name="semicolon" unicode=";" 
d="M277 376c-5 -26 -27 -48 -47 -48c-19 0 -36 21 -31 48c5 29 28 49 48 49c17 0 35 -19 30 -49zM220 11c-18 -105 -90 -154 -103 -154c-9 0 -19 10 -17 21c1 7 11 14 15 17c21 13 44 37 64 105c-32 2 -38 32 -35 49c5 26 26 48 47 48c22 0 39 -24 29 -86z" />
    <glyph glyph-name="seven" unicode="7" 
d="M424 591c0 0 -2 -3 -3 -5c-134 -160 -225 -355 -260 -562c-2 -12 -9 -36 -28 -36s-18 25 -16 36c11 66 60 308 247 547h-199c-5 -31 -12 -47 -31 -47c-18 0 -19 18 -16 33l6 37c3 16 9 32 28 32c16 0 18 -15 18 -15h229c8 0 28 0 25 -20z" />
    <glyph glyph-name="six" unicode="6" 
d="M349 189c-20 -119 -102 -201 -175 -201c-65 0 -132 69 -92 311c34 203 148 324 238 324c59 0 83 -41 74 -93c-3 -20 -18 -34 -33 -34s-26 15 -23 32c1 6 6 13 15 26c-11 26 -27 29 -41 29c-70 0 -147 -105 -181 -261c39 50 82 69 118 69c70 0 119 -85 100 -202zM305 189
c14 86 -11 161 -68 161c-61 0 -107 -67 -117 -130c-10 -58 -12 -192 61 -192c53 0 108 67 124 161z" />
    <glyph glyph-name="slash" unicode="/" 
d="M427 672c-1 -4 -4 -7 -6 -12l-350 -718c-6 -11 -13 -28 -28 -28c-9 0 -21 7 -18 25c0 4 3 7 6 12l350 718c4 10 13 28 28 28c8 0 21 -7 18 -25z" />
    <glyph glyph-name="space" unicode=" " 
 />
    <glyph glyph-name="T" unicode="T" 
d="M421 510c-3 -16 -8 -32 -27 -32s-19 17 -17 32l10 61h-95l-88 -531h35c8 0 27 0 23 -20c-3 -20 -22 -20 -30 -20h-113c-9 0 -28 0 -25 20c4 20 23 20 32 20h34l88 531h-95l-10 -61c-3 -16 -9 -32 -28 -32c-18 0 -19 17 -17 32l11 68c5 29 15 33 34 33h268
c20 0 26 -6 21 -33z" />
    <glyph glyph-name="t" unicode="t" 
d="M323 117c-17 -100 -92 -123 -128 -123c-48 0 -90 30 -75 121l45 270h-61c-8 0 -28 0 -24 20c3 20 24 20 32 20h60l16 95c2 15 9 32 28 32c18 0 19 -17 17 -32l-16 -95h114c8 0 27 0 24 -20c-4 -20 -23 -20 -31 -20h-114l-44 -265c-4 -27 -14 -86 41 -86c17 0 58 14 70 82
c3 18 10 35 28 35c19 0 20 -17 18 -34z" />
    <glyph glyph-name="three" unicode="3" 
d="M353 169c-16 -95 -93 -181 -178 -181c-83 0 -142 59 -128 146c5 27 22 35 34 35c14 0 26 -13 23 -31c-2 -10 -10 -22 -10 -22c-3 -23 14 -88 88 -88c65 0 114 70 126 142c10 58 -5 141 -82 141h-32c-10 0 -26 0 -23 20c2 11 11 20 21 20h12c106 0 132 105 137 137
c9 51 -16 95 -67 95c-12 0 -68 2 -97 -53c5 -8 10 -14 8 -25c-4 -23 -22 -32 -33 -32c-9 0 -27 6 -22 34c12 74 76 116 151 116c73 0 118 -60 106 -134c-9 -51 -34 -108 -100 -152c67 -39 75 -118 66 -168z" />
    <glyph glyph-name="two" unicode="2" 
d="M325 33c-3 -13 -8 -28 -21 -33h-245c-8 0 -28 0 -25 20c0 0 2 4 4 7l194 205c48 51 100 117 114 201c16 94 -25 150 -88 150c-40 0 -79 -36 -103 -107c4 -6 9 -13 8 -23c-4 -24 -23 -33 -34 -33c-4 0 -28 0 -22 37c14 83 84 166 163 166c85 0 140 -76 121 -190
c-17 -105 -102 -194 -113 -206l-175 -187h178c5 31 12 47 31 47c18 0 19 -18 16 -33z" />
    <glyph glyph-name="U" unicode="U" 
d="M449 591c-4 -20 -24 -20 -32 -20h-20l-62 -371c-20 -121 -95 -212 -162 -212s-112 91 -92 212l62 371h-20c-8 0 -28 0 -24 20c3 20 23 20 31 20h84c8 0 28 0 25 -20c-4 -20 -24 -20 -32 -20h-20l-61 -365c-19 -117 15 -178 54 -178c38 0 92 60 111 178l61 365h-19
c-8 0 -28 0 -24 20c3 20 23 20 31 20h84c8 0 28 0 25 -20z" />
    <glyph glyph-name="u" unicode="u" 
d="M347 20c-3 -20 -22 -20 -30 -20h-47c-10 0 -28 0 -22 38c-18 -18 -48 -44 -91 -44c-51 0 -92 24 -77 114l46 277h-29c-8 0 -28 0 -24 20c3 20 23 20 31 20h46c20 0 27 -5 23 -32l-47 -280c-6 -35 -13 -79 43 -79c33 0 84 27 99 117l39 234h-30c-8 0 -27 0 -23 20
c3 20 22 20 30 20h47c20 0 26 -5 22 -32l-59 -353h30c8 0 27 0 23 -20z" />
    <glyph glyph-name="underscore" unicode="_" 
d="M284 -189c-4 -24 -27 -24 -35 -24h-220c-9 0 -31 0 -26 25c3 23 26 23 34 23h220c8 0 31 0 27 -24z" />
    <glyph glyph-name="V" unicode="V" 
d="M441 591c-4 -20 -22 -20 -41 -20l-186 -546c-12 -34 -26 -34 -41 -34c-16 0 -30 0 -30 36l-3 544c-19 0 -37 0 -33 20c3 20 22 20 30 20h66c8 0 28 0 25 -20c-4 -20 -23 -20 -44 -20l-1 -521l173 521c-22 0 -41 0 -37 20c3 20 23 20 32 20h65c9 0 28 0 25 -20z" />
    <glyph glyph-name="v" unicode="v" 
d="M407 405c-4 -20 -25 -20 -33 -20h-18l-140 -355c-13 -35 -29 -35 -42 -35s-29 0 -31 35l-21 355h-19c-8 0 -28 0 -24 20c3 20 23 20 31 20h78c8 0 28 0 25 -20c-4 -20 -24 -20 -32 -20h-23l23 -352l138 352h-22c-8 0 -28 0 -24 20c3 20 23 20 31 20h77c8 0 29 0 26 -20z
" />
    <glyph glyph-name="W" unicode="W" 
d="M446 591c-4 -20 -25 -20 -29 -20l-141 -542c-5 -18 -11 -38 -34 -38c-7 0 -20 0 -23 20l7 295l-91 -292c-10 -23 -25 -23 -32 -23c-23 0 -21 19 -20 39l40 541c-5 0 -25 0 -21 20c3 20 23 20 31 20h52c8 0 28 0 25 -20c-4 -20 -24 -20 -32 -20h-17l-43 -517l86 284
c10 21 25 21 31 21s24 0 24 -26l-10 -279l131 517h-18c-8 0 -29 0 -25 20c3 20 24 20 32 20h52c8 0 28 0 25 -20z" />
    <glyph glyph-name="w" unicode="w" 
d="M412 405c-4 -20 -23 -20 -38 -20l-101 -353c-11 -37 -25 -37 -37 -37c-26 0 -26 9 -29 78l2 123l-41 -122c-25 -71 -29 -79 -56 -79c-16 0 -26 3 -24 38l15 352c-14 0 -34 0 -30 20c3 20 23 20 32 20h78c9 0 29 0 26 -20c-4 -20 -24 -20 -33 -20h-35l-17 -335l42 120
c23 65 28 78 51 78c22 0 23 -13 24 -79l2 -119l94 335h-36c-8 0 -28 0 -24 20c3 20 23 20 31 20h79c8 0 28 0 25 -20z" />
    <glyph glyph-name="X" unicode="X" 
d="M338 20c-3 -20 -22 -20 -31 -20h-66c-8 0 -28 0 -25 20c4 20 24 20 41 20l-42 226l-110 -226c19 0 38 0 34 -20c-3 -20 -23 -20 -31 -20h-67c-8 0 -27 0 -24 20c4 20 23 20 31 20h14l144 286l-48 245h-14c-8 0 -27 0 -23 20c3 20 22 20 30 20h67c8 0 27 0 24 -20
c-4 -20 -23 -20 -40 -20l34 -179l89 179c-17 0 -37 0 -33 20c3 20 23 20 31 20h66c8 0 28 0 25 -20c-4 -20 -24 -20 -32 -20h-13l-125 -246l56 -285h14c9 0 28 0 24 -20z" />
    <glyph glyph-name="x" unicode="x" 
d="M338 20c-3 -20 -22 -20 -31 -20h-77c-9 0 -28 0 -25 20c4 20 23 20 47 20l-47 150l-95 -150c26 0 44 0 40 -20c-3 -20 -22 -20 -31 -20h-77c-8 0 -28 0 -25 20c4 20 24 20 32 20h24l123 179l-62 166h-24c-9 0 -28 0 -24 20c3 20 22 20 31 20h78c8 0 27 0 24 -20
c-4 -20 -23 -20 -46 -20l43 -126l83 126c-24 0 -43 0 -39 20c3 20 23 20 31 20h78c8 0 27 0 24 -20c-4 -20 -23 -20 -31 -20h-25l-113 -166l66 -179h24c9 0 28 0 24 -20z" />
    <glyph glyph-name="Y" unicode="Y" 
d="M441 591c-4 -20 -25 -20 -32 -20h-13l-157 -321l-35 -210h16c9 0 28 0 24 -20c-3 -20 -22 -20 -31 -20h-76c-9 0 -28 0 -25 20c4 20 24 20 32 20h16l35 210l-52 321h-12c-8 0 -28 0 -24 20c3 20 23 20 31 20h66c8 0 28 0 25 -20c-4 -20 -24 -20 -41 -20l37 -272l127 272
c-18 0 -37 0 -33 20c3 20 23 20 31 20h66c7 0 28 0 25 -20z" />
    <glyph glyph-name="y" unicode="y" 
d="M407 405c-4 -20 -25 -20 -33 -20h-18l-190 -479c-12 -31 -59 -141 -124 -141c-32 0 -52 34 -46 70c4 20 19 32 34 32c13 0 25 -11 22 -31c0 0 -5 -10 -13 -16c0 0 -2 -17 10 -17c29 0 60 53 71 82l41 105l-37 395h-19c-8 0 -29 0 -25 20c3 20 24 20 32 20h77
c8 0 28 0 25 -20c-4 -20 -24 -20 -32 -20h-21l28 -336l130 336h-22c-8 0 -28 0 -24 20c3 20 23 20 31 20h77c8 0 29 0 26 -20z" />
    <glyph glyph-name="Z" unicode="Z" 
d="M331 33c-5 -28 -14 -33 -33 -33h-242c-11 0 -28 0 -24 24c1 7 3 10 9 19l326 528h-192l-10 -61c-3 -16 -8 -32 -27 -32s-19 17 -17 32l11 68c5 29 14 33 34 33h229c12 0 29 0 25 -24c-1 -7 -4 -10 -9 -19l-327 -528h204l13 79c3 16 8 33 27 33s19 -18 17 -33z" />
    <glyph glyph-name="z" unicode="z" 
d="M327 33c-5 -28 -14 -33 -34 -33h-247c-12 0 -29 0 -25 24c1 7 4 11 8 16l300 345h-192l-5 -34c-3 -16 -9 -32 -28 -32s-19 17 -16 32l7 42c4 28 13 32 33 32h234c11 0 28 0 24 -24c-1 -6 -4 -11 -8 -16l-300 -345h205l7 45c3 16 10 33 29 33c18 0 19 -18 16 -33z" />
    <glyph glyph-name="zero" unicode="0" 
d="M371 305c-31 -184 -124 -317 -198 -317s-123 131 -92 318c31 184 123 317 198 317c74 0 123 -131 92 -318zM328 316c26 159 -3 267 -56 267s-118 -108 -144 -267c-27 -158 -5 -288 52 -288s122 131 148 288z" />
    <glyph glyph-name="Aacute" unicode="&#xc1;" 
d="M339 20c-3 -20 -23 -20 -32 -20h-67c-8 0 -28 0 -25 20c4 20 23 20 45 20l1 135h-114l-43 -135c22 0 41 0 37 -20c-3 -20 -23 -20 -31 -20h-68c-8 0 -28 0 -25 20c4 20 22 20 43 20l178 549c11 33 20 36 42 36c16 0 29 -3 28 -36l-4 -549c20 0 39 0 35 -20zM262 216
l7 349l-109 -349h102zM376 770c-1 -9 -13 -17 -22 -23l-101 -66c-4 -3 -12 -6 -16 -6c-14 0 -20 12 -17 27c1 7 14 16 21 21l88 58c11 7 22 13 31 13c11 0 19 -10 16 -24z" />
    <glyph glyph-name="aacute" unicode="&#xe1;" 
d="M348 20c-3 -20 -22 -20 -36 -20c-27 0 -62 2 -70 36c-43 -37 -87 -42 -110 -42c-62 0 -100 55 -88 125c11 66 63 99 99 115c47 21 88 25 131 27c7 43 13 78 -9 107c-18 26 -42 26 -58 26c-8 0 -18 0 -26 -1c-17 -2 -18 -11 -19 -15c-7 -38 -30 -38 -34 -38
c-13 0 -27 10 -23 33c11 62 80 62 108 62c91 0 121 -76 108 -152l-39 -234c10 -7 24 -9 42 -9c8 0 28 0 24 -20zM251 126l17 99c-88 0 -169 -43 -179 -106c-8 -45 13 -85 58 -85c0 0 35 0 63 18c32 20 37 48 41 74zM348 599c-2 -9 -13 -17 -22 -23l-101 -66
c-4 -3 -12 -6 -16 -6c-14 0 -20 12 -17 27c1 7 13 16 21 21l88 58c11 7 22 13 31 13c11 0 18 -10 16 -24z" />
    <glyph glyph-name="Abreve" unicode="&#x102;" 
d="M339 20c-3 -20 -23 -20 -32 -20h-67c-8 0 -28 0 -25 20c4 20 23 20 45 20l1 135h-114l-43 -135c22 0 41 0 37 -20c-3 -20 -23 -20 -31 -20h-68c-8 0 -28 0 -25 20c4 20 22 20 43 20l178 549c11 33 20 36 42 36c16 0 29 -3 28 -36l-4 -549c20 0 39 0 35 -20zM262 216
l7 349l-109 -349h102zM420 749c-13 -74 -90 -74 -133 -74s-120 0 -107 74c3 19 16 22 22 22c11 0 18 -9 17 -24c-1 -18 -2 -30 75 -30c54 0 79 5 85 27c2 6 7 27 24 27c7 0 20 -4 17 -22z" />
    <glyph glyph-name="abreve" unicode="&#x103;" 
d="M348 20c-3 -20 -22 -20 -36 -20c-27 0 -62 2 -70 36c-43 -37 -87 -42 -110 -42c-62 0 -100 55 -88 125c11 66 63 99 99 115c47 21 88 25 131 27c7 43 13 78 -9 107c-18 26 -42 26 -58 26c-8 0 -18 0 -26 -1c-17 -2 -18 -11 -19 -15c-7 -38 -30 -38 -34 -38
c-13 0 -27 10 -23 33c11 62 80 62 108 62c91 0 121 -76 108 -152l-39 -234c10 -7 24 -9 42 -9c8 0 28 0 24 -20zM251 126l17 99c-88 0 -169 -43 -179 -106c-8 -45 13 -85 58 -85c0 0 35 0 63 18c32 20 37 48 41 74zM393 590c-12 -74 -89 -74 -132 -74s-120 0 -108 74
c4 19 17 22 23 22c11 0 18 -9 17 -24c-1 -18 -2 -30 75 -30c54 0 79 6 85 27c2 6 7 27 24 27c7 0 19 -4 16 -22z" />
    <glyph glyph-name="Abreveacute" unicode="&#x1eae;" 
d="M339 20c-3 -20 -23 -20 -32 -20h-67c-8 0 -28 0 -25 20c4 20 23 20 45 20l1 135h-114l-43 -135c22 0 41 0 37 -20c-3 -20 -23 -20 -31 -20h-68c-8 0 -28 0 -25 20c4 20 22 20 43 20l178 549c11 33 20 36 42 36c16 0 29 -3 28 -36l-4 -549c20 0 39 0 35 -20zM262 216
l7 349l-109 -349h102zM420 749c-13 -74 -90 -74 -133 -74s-120 0 -107 74c3 19 16 22 22 22c11 0 18 -9 17 -24c-1 -18 -2 -30 75 -30c54 0 79 5 85 27c2 6 7 27 24 27c7 0 20 -4 17 -22zM396 886c-2 -9 -13 -17 -22 -23l-101 -66c-5 -3 -12 -6 -16 -6c-14 0 -20 12 -18 27
c1 7 14 16 22 21l87 58c12 7 23 13 32 13c11 0 18 -10 16 -24z" />
    <glyph glyph-name="abreveacute" unicode="&#x1eaf;" 
d="M348 20c-3 -20 -22 -20 -36 -20c-27 0 -62 2 -70 36c-43 -37 -87 -42 -110 -42c-62 0 -100 55 -88 125c11 66 63 99 99 115c47 21 88 25 131 27c7 43 13 78 -9 107c-18 26 -42 26 -58 26c-8 0 -18 0 -26 -1c-17 -2 -18 -11 -19 -15c-7 -38 -30 -38 -34 -38
c-13 0 -27 10 -23 33c11 62 80 62 108 62c91 0 121 -76 108 -152l-39 -234c10 -7 24 -9 42 -9c8 0 28 0 24 -20zM251 126l17 99c-88 0 -169 -43 -179 -106c-8 -45 13 -85 58 -85c0 0 35 0 63 18c32 20 37 48 41 74zM393 590c-12 -74 -89 -74 -132 -74s-120 0 -108 74
c4 19 17 22 23 22c11 0 18 -9 17 -24c-1 -18 -2 -30 75 -30c54 0 79 5 85 27c2 6 7 27 24 27c7 0 19 -4 16 -22zM369 727c-1 -9 -13 -17 -22 -23l-101 -66c-4 -3 -12 -6 -16 -6c-14 0 -20 12 -17 27c1 7 14 16 21 21l88 58c11 7 22 13 31 13c11 0 19 -10 16 -24z" />
    <glyph glyph-name="Abrevedotbelow" unicode="&#x1eb6;" 
d="M339 20c-3 -20 -23 -20 -32 -20h-67c-8 0 -28 0 -25 20c4 20 23 20 45 20l1 135h-114l-43 -135c22 0 41 0 37 -20c-3 -20 -23 -20 -31 -20h-68c-8 0 -28 0 -25 20c4 20 22 20 43 20l178 549c11 33 20 36 42 36c16 0 29 -3 28 -36l-4 -549c20 0 39 0 35 -20zM262 216
l7 349l-109 -349h102zM420 749c-13 -74 -90 -74 -133 -74s-120 0 -107 74c3 19 16 22 22 22c11 0 18 -9 17 -24c-1 -18 -2 -30 75 -30c54 0 79 5 85 27c2 6 7 27 24 27c7 0 20 -4 17 -22zM178 -170c-4 -22 -22 -36 -37 -36s-29 14 -25 36c3 22 22 37 37 37s28 -15 25 -37z
" />
    <glyph glyph-name="abrevedotbelow" unicode="&#x1eb7;" 
d="M348 20c-3 -20 -22 -20 -36 -20c-27 0 -62 2 -70 36c-43 -37 -87 -42 -110 -42c-62 0 -100 55 -88 125c11 66 63 99 99 115c47 21 88 25 131 27c7 43 13 78 -9 107c-18 26 -42 26 -58 26c-8 0 -18 0 -26 -1c-17 -2 -18 -11 -19 -15c-7 -38 -30 -38 -34 -38
c-13 0 -27 10 -23 33c11 62 80 62 108 62c91 0 121 -76 108 -152l-39 -234c10 -7 24 -9 42 -9c8 0 28 0 24 -20zM251 126l17 99c-88 0 -169 -43 -179 -106c-8 -45 13 -85 58 -85c0 0 35 0 63 18c32 20 37 48 41 74zM393 590c-12 -74 -89 -74 -132 -74s-120 0 -108 74
c4 19 17 22 23 22c11 0 18 -9 17 -24c-1 -18 -2 -30 75 -30c54 0 79 6 85 27c2 6 7 27 24 27c7 0 19 -4 16 -22zM178 -170c-4 -22 -22 -36 -37 -36s-29 14 -25 36c3 22 22 37 37 37s28 -15 25 -37z" />
    <glyph glyph-name="Abrevegrave" unicode="&#x1eb0;" 
d="M339 20c-3 -20 -23 -20 -32 -20h-67c-8 0 -28 0 -25 20c4 20 23 20 45 20l1 135h-114l-43 -135c22 0 41 0 37 -20c-3 -20 -23 -20 -31 -20h-68c-8 0 -28 0 -25 20c4 20 22 20 43 20l178 549c11 33 20 36 42 36c16 0 29 -3 28 -36l-4 -549c20 0 39 0 35 -20zM262 216
l7 349l-109 -349h102zM420 749c-13 -74 -90 -74 -133 -74s-120 0 -107 74c3 19 16 22 22 22c11 0 18 -9 17 -24c-1 -18 -2 -30 75 -30c54 0 79 5 85 27c2 6 7 27 24 27c7 0 20 -4 17 -22zM384 818c1 7 -8 16 -14 21l-69 58c-8 7 -17 13 -26 13c-11 0 -22 -10 -24 -24
c-2 -9 7 -17 14 -23l79 -66c3 -3 10 -6 14 -6c14 0 24 12 26 27z" />
    <glyph glyph-name="abrevegrave" unicode="&#x1eb1;" 
d="M348 20c-3 -20 -22 -20 -36 -20c-27 0 -62 2 -70 36c-43 -37 -87 -42 -110 -42c-62 0 -100 55 -88 125c11 66 63 99 99 115c47 21 88 25 131 27c7 43 13 78 -9 107c-18 26 -42 26 -58 26c-8 0 -18 0 -26 -1c-17 -2 -18 -11 -19 -15c-7 -38 -30 -38 -34 -38
c-13 0 -27 10 -23 33c11 62 80 62 108 62c91 0 121 -76 108 -152l-39 -234c10 -7 24 -9 42 -9c8 0 28 0 24 -20zM251 126l17 99c-88 0 -169 -43 -179 -106c-8 -45 13 -85 58 -85c0 0 35 0 63 18c32 20 37 48 41 74zM393 590c-12 -74 -89 -74 -132 -74s-120 0 -108 74
c4 19 17 22 23 22c11 0 18 -9 17 -24c-1 -18 -2 -30 75 -30c54 0 79 5 85 27c2 6 7 27 24 27c7 0 19 -4 16 -22zM358 659c1 7 -8 16 -15 21l-68 58c-9 7 -18 13 -27 13c-11 0 -21 -10 -24 -24c-1 -9 7 -17 14 -23l79 -66c4 -3 10 -6 14 -6c14 0 24 12 27 27z" />
    <glyph glyph-name="Abrevehookabove" unicode="&#x1eb2;" 
d="M339 20c-3 -20 -23 -20 -32 -20h-67c-8 0 -28 0 -25 20c4 20 23 20 45 20l1 135h-114l-43 -135c22 0 41 0 37 -20c-3 -20 -23 -20 -31 -20h-68c-8 0 -28 0 -25 20c4 20 22 20 43 20l178 549c11 33 20 36 42 36c16 0 29 -3 28 -36l-4 -549c20 0 39 0 35 -20zM262 216
l7 349l-109 -349h102zM420 749c-13 -74 -90 -74 -133 -74s-120 0 -107 74c3 19 16 22 22 22c11 0 18 -9 17 -24c-1 -18 -2 -30 75 -30c54 0 79 5 85 27c2 6 7 27 24 27c7 0 20 -4 17 -22zM395 918c-4 -21 -17 -37 -30 -48c-27 -20 -40 -42 -44 -64l-3 -19
c-2 -11 -13 -16 -20 -16c-8 0 -17 5 -15 16l3 19c7 41 36 69 65 91c7 5 9 14 10 21c4 27 -6 40 -31 40c-14 0 -28 -10 -30 -24l-3 -16c-1 -8 -11 -18 -21 -18s-17 7 -15 19c8 47 44 72 74 72c39 0 68 -26 60 -73z" />
    <glyph glyph-name="abrevehookabove" unicode="&#x1eb3;" 
d="M348 20c-3 -20 -22 -20 -36 -20c-27 0 -62 2 -70 36c-43 -37 -87 -42 -110 -42c-62 0 -100 55 -88 125c11 66 63 99 99 115c47 21 88 25 131 27c7 43 13 78 -9 107c-18 26 -42 26 -58 26c-8 0 -18 0 -26 -1c-17 -2 -18 -11 -19 -15c-7 -38 -30 -38 -34 -38
c-13 0 -27 10 -23 33c11 62 80 62 108 62c91 0 121 -76 108 -152l-39 -234c10 -7 24 -9 42 -9c8 0 28 0 24 -20zM251 126l17 99c-88 0 -169 -43 -179 -106c-8 -45 13 -85 58 -85c0 0 35 0 63 18c32 20 37 48 41 74zM393 590c-12 -74 -89 -74 -132 -74s-120 0 -108 74
c4 19 17 22 23 22c11 0 18 -9 17 -24c-1 -18 -2 -30 75 -30c54 0 79 5 85 27c2 6 7 27 24 27c7 0 19 -4 16 -22zM369 759c-4 -21 -18 -37 -30 -48c-28 -20 -40 -42 -44 -64l-3 -19c-2 -11 -13 -16 -20 -16c-8 0 -17 5 -15 16l3 19c7 41 35 69 65 91c7 5 8 14 10 21
c4 27 -7 40 -32 40c-14 0 -27 -10 -30 -24l-2 -16c-2 -8 -11 -18 -21 -18s-17 7 -15 19c8 47 44 72 74 72c39 0 67 -26 60 -73z" />
    <glyph glyph-name="Abrevetilde" unicode="&#x1eb4;" 
d="M339 20c-3 -20 -23 -20 -32 -20h-67c-8 0 -28 0 -25 20c4 20 23 20 45 20l1 135h-114l-43 -135c22 0 41 0 37 -20c-3 -20 -23 -20 -31 -20h-68c-8 0 -28 0 -25 20c4 20 22 20 43 20l178 549c11 33 20 36 42 36c16 0 29 -3 28 -36l-4 -549c20 0 39 0 35 -20zM262 216
l7 349l-109 -349h102zM420 749c-13 -74 -90 -74 -133 -74s-120 0 -107 74c3 19 16 22 22 22c11 0 18 -9 17 -24c-1 -18 -2 -30 75 -30c54 0 79 5 85 27c2 6 7 27 24 27c7 0 20 -4 17 -22zM444 892c-1 -4 -5 -11 -12 -18c-37 -36 -65 -63 -89 -63c-19 0 -30 12 -44 44
c-3 8 -6 14 -12 14c-17 0 -56 -44 -63 -52c-4 -4 -8 -6 -13 -6c-8 0 -19 8 -17 20c1 4 6 10 13 18c37 36 65 63 89 63c18 0 30 -12 44 -44c3 -9 6 -14 11 -14c17 0 56 44 63 52c5 4 9 6 13 6c9 0 19 -8 17 -20z" />
    <glyph glyph-name="abrevetilde" unicode="&#x1eb5;" 
d="M348 20c-3 -20 -22 -20 -36 -20c-27 0 -62 2 -70 36c-43 -37 -87 -42 -110 -42c-62 0 -100 55 -88 125c11 66 63 99 99 115c47 21 88 25 131 27c7 43 13 78 -9 107c-18 26 -42 26 -58 26c-8 0 -18 0 -26 -1c-17 -2 -18 -11 -19 -15c-7 -38 -30 -38 -34 -38
c-13 0 -27 10 -23 33c11 62 80 62 108 62c91 0 121 -76 108 -152l-39 -234c10 -7 24 -9 42 -9c8 0 28 0 24 -20zM251 126l17 99c-88 0 -169 -43 -179 -106c-8 -45 13 -85 58 -85c0 0 35 0 63 18c32 20 37 48 41 74zM393 590c-12 -74 -89 -74 -132 -74s-120 0 -108 74
c4 19 17 22 23 22c11 0 18 -9 17 -24c-1 -18 -2 -30 75 -30c54 0 79 5 85 27c2 6 7 27 24 27c7 0 19 -4 16 -22zM417 733c0 -4 -5 -11 -12 -18c-37 -36 -64 -63 -88 -63c-19 0 -30 12 -44 44c-4 8 -7 14 -13 14c-17 0 -55 -44 -62 -52c-4 -4 -8 -6 -13 -6c-8 0 -19 8 -17 20
c1 4 6 10 13 18c37 36 65 63 89 63c18 0 30 -12 43 -44c4 -9 7 -14 12 -14c17 0 55 44 63 52c4 4 9 6 13 6c9 0 18 -8 16 -20z" />
    <glyph glyph-name="Acaron" unicode="&#x1cd;" 
d="M339 20c-3 -20 -23 -20 -32 -20h-67c-8 0 -28 0 -25 20c4 20 23 20 45 20l1 135h-114l-43 -135c22 0 41 0 37 -20c-3 -20 -23 -20 -31 -20h-68c-8 0 -28 0 -25 20c4 20 22 20 43 20l178 549c11 33 20 36 42 36c16 0 29 -3 28 -36l-4 -549c20 0 39 0 35 -20zM262 216
l7 349l-109 -349h102zM393 729c0 -5 -3 -15 -12 -19l-80 -40c-12 -6 -18 -6 -28 0l-68 40c-7 4 -6 14 -6 19c2 8 7 17 18 17c5 0 10 1 18 -3l59 -29l69 29c9 4 13 3 18 3c11 0 14 -9 12 -17z" />
    <glyph glyph-name="acaron" unicode="&#x1ce;" 
d="M348 20c-3 -20 -22 -20 -36 -20c-27 0 -62 2 -70 36c-43 -37 -87 -42 -110 -42c-62 0 -100 55 -88 125c11 66 63 99 99 115c47 21 88 25 131 27c7 43 13 78 -9 107c-18 26 -42 26 -58 26c-8 0 -18 0 -26 -1c-17 -2 -18 -11 -19 -15c-7 -38 -30 -38 -34 -38
c-13 0 -27 10 -23 33c11 62 80 62 108 62c91 0 121 -76 108 -152l-39 -234c10 -7 24 -9 42 -9c8 0 28 0 24 -20zM251 126l17 99c-88 0 -169 -43 -179 -106c-8 -45 13 -85 58 -85c0 0 35 0 63 18c32 20 37 48 41 74zM375 600c-1 -5 -9 -14 -15 -19l-85 -68
c-11 -8 -23 -8 -30 0l-63 68c-4 5 -10 14 -9 19c2 14 9 20 20 20c5 0 12 -1 19 -8l55 -57l73 57c9 7 16 8 21 8c11 0 16 -6 14 -20z" />
    <glyph glyph-name="Acircumflex" unicode="&#xc2;" 
d="M339 20c-3 -20 -23 -20 -32 -20h-67c-8 0 -28 0 -25 20c4 20 23 20 45 20l1 135h-114l-43 -135c22 0 41 0 37 -20c-3 -20 -23 -20 -31 -20h-68c-8 0 -28 0 -25 20c4 20 22 20 43 20l178 549c11 33 20 36 42 36c16 0 29 -3 28 -36l-4 -549c20 0 39 0 35 -20zM262 216
l7 349l-109 -349h102zM386 683c-2 -8 -7 -17 -18 -17c-5 0 -10 -1 -18 3l-59 29l-69 -29c-9 -4 -13 -3 -18 -3c-11 0 -14 9 -12 17c1 5 3 15 12 19l81 40c12 6 18 6 28 0l67 -40c7 -4 7 -14 6 -19z" />
    <glyph glyph-name="acircumflex" unicode="&#xe2;" 
d="M348 20c-3 -20 -22 -20 -36 -20c-27 0 -62 2 -70 36c-43 -37 -87 -42 -110 -42c-62 0 -100 55 -88 125c11 66 63 99 99 115c47 21 88 25 131 27c7 43 13 78 -9 107c-18 26 -42 26 -58 26c-8 0 -18 0 -26 -1c-17 -2 -18 -11 -19 -15c-7 -38 -30 -38 -34 -38
c-13 0 -27 10 -23 33c11 62 80 62 108 62c91 0 121 -76 108 -152l-39 -234c10 -7 24 -9 42 -9c8 0 28 0 24 -20zM251 126l17 99c-88 0 -169 -43 -179 -106c-8 -45 13 -85 58 -85c0 0 35 0 63 18c32 20 37 48 41 74zM363 527c-2 -14 -9 -20 -20 -20c-5 0 -12 1 -19 8l-55 57
l-73 -57c-9 -7 -16 -8 -21 -8c-11 0 -16 6 -14 20c1 5 9 14 15 19l85 68c11 8 23 8 30 0l63 -68c4 -5 10 -14 9 -19z" />
    <glyph glyph-name="Acircumflexacute" unicode="&#x1ea4;" 
d="M339 20c-3 -20 -23 -20 -32 -20h-67c-8 0 -28 0 -25 20c4 20 23 20 45 20l1 135h-114l-43 -135c22 0 41 0 37 -20c-3 -20 -23 -20 -31 -20h-68c-8 0 -28 0 -25 20c4 20 22 20 43 20l178 549c11 33 20 36 42 36c16 0 29 -3 28 -36l-4 -549c20 0 39 0 35 -20zM262 216
l7 349l-109 -349h102zM386 683c-2 -8 -7 -17 -18 -17c-5 0 -10 -1 -18 3l-59 29l-69 -29c-9 -4 -13 -3 -18 -3c-11 0 -14 9 -12 17c1 5 3 15 12 19l81 40c12 6 18 6 28 0l67 -40c7 -4 7 -14 6 -19zM391 861c-1 -9 -12 -17 -21 -23l-101 -66c-5 -3 -12 -6 -16 -6
c-14 0 -20 12 -18 27c1 7 14 16 22 21l87 58c11 7 22 13 31 13c11 0 19 -10 16 -24z" />
    <glyph glyph-name="acircumflexacute" unicode="&#x1ea5;" 
d="M348 20c-3 -20 -22 -20 -36 -20c-27 0 -62 2 -70 36c-43 -37 -87 -42 -110 -42c-62 0 -100 55 -88 125c11 66 63 99 99 115c47 21 88 25 131 27c7 43 13 78 -9 107c-18 26 -42 26 -58 26c-8 0 -18 0 -26 -1c-17 -2 -18 -11 -19 -15c-7 -38 -30 -38 -34 -38
c-13 0 -27 10 -23 33c11 62 80 62 108 62c91 0 121 -76 108 -152l-39 -234c10 -7 24 -9 42 -9c8 0 28 0 24 -20zM251 126l17 99c-88 0 -169 -43 -179 -106c-8 -45 13 -85 58 -85c0 0 35 0 63 18c32 20 37 48 41 74zM359 524c-1 -8 -6 -17 -17 -17c-5 0 -11 -1 -18 3l-59 29
l-69 -29c-10 -4 -13 -3 -18 -3c-11 0 -14 9 -13 17c1 5 4 15 13 19l80 40c12 6 18 6 28 0l68 -40c7 -4 6 -14 5 -19zM365 702c-1 -9 -13 -17 -22 -23l-101 -66c-4 -3 -12 -6 -16 -6c-14 0 -20 12 -17 27c1 7 13 16 21 21l88 58c11 7 22 13 31 13c11 0 18 -10 16 -24z" />
    <glyph glyph-name="Acircumflexdotbelow" unicode="&#x1eac;" 
d="M339 20c-3 -20 -23 -20 -32 -20h-67c-8 0 -28 0 -25 20c4 20 23 20 45 20l1 135h-114l-43 -135c22 0 41 0 37 -20c-3 -20 -23 -20 -31 -20h-68c-8 0 -28 0 -25 20c4 20 22 20 43 20l178 549c11 33 20 36 42 36c16 0 29 -3 28 -36l-4 -549c20 0 39 0 35 -20zM262 216
l7 349l-109 -349h102zM386 683c-2 -8 -7 -17 -18 -17c-5 0 -10 -1 -18 3l-59 29l-69 -29c-9 -4 -13 -3 -18 -3c-11 0 -14 9 -12 17c1 5 3 15 12 19l81 40c12 6 18 6 28 0l67 -40c7 -4 7 -14 6 -19zM178 -170c-4 -22 -22 -36 -37 -36s-29 14 -25 36c3 22 22 37 37 37
s28 -15 25 -37z" />
    <glyph glyph-name="acircumflexdotbelow" unicode="&#x1ead;" 
d="M348 20c-3 -20 -22 -20 -36 -20c-27 0 -62 2 -70 36c-43 -37 -87 -42 -110 -42c-62 0 -100 55 -88 125c11 66 63 99 99 115c47 21 88 25 131 27c7 43 13 78 -9 107c-18 26 -42 26 -58 26c-8 0 -18 0 -26 -1c-17 -2 -18 -11 -19 -15c-7 -38 -30 -38 -34 -38
c-13 0 -27 10 -23 33c11 62 80 62 108 62c91 0 121 -76 108 -152l-39 -234c10 -7 24 -9 42 -9c8 0 28 0 24 -20zM251 126l17 99c-88 0 -169 -43 -179 -106c-8 -45 13 -85 58 -85c0 0 35 0 63 18c32 20 37 48 41 74zM363 527c-2 -14 -9 -20 -20 -20c-5 0 -12 1 -19 8l-55 57
l-73 -57c-9 -7 -16 -8 -21 -8c-11 0 -16 6 -14 20c1 5 9 14 15 19l85 68c11 8 23 8 30 0l63 -68c4 -5 10 -14 9 -19zM178 -170c-4 -22 -22 -36 -37 -36s-29 14 -25 36c3 22 22 37 37 37s28 -15 25 -37z" />
    <glyph glyph-name="Acircumflexgrave" unicode="&#x1ea6;" 
d="M339 20c-3 -20 -23 -20 -32 -20h-67c-8 0 -28 0 -25 20c4 20 23 20 45 20l1 135h-114l-43 -135c22 0 41 0 37 -20c-3 -20 -23 -20 -31 -20h-68c-8 0 -28 0 -25 20c4 20 22 20 43 20l178 549c11 33 20 36 42 36c16 0 29 -3 28 -36l-4 -549c20 0 39 0 35 -20zM262 216
l7 349l-109 -349h102zM386 683c-2 -8 -7 -17 -18 -17c-5 0 -10 -1 -18 3l-59 29l-69 -29c-9 -4 -13 -3 -18 -3c-11 0 -14 9 -12 17c1 5 3 15 12 19l81 40c12 6 18 6 28 0l67 -40c7 -4 7 -14 6 -19zM380 793c1 7 -8 16 -14 21l-69 58c-9 7 -18 13 -27 13
c-11 0 -21 -10 -24 -24c-1 -9 8 -17 15 -23l79 -66c3 -3 10 -6 14 -6c14 0 24 12 26 27z" />
    <glyph glyph-name="acircumflexgrave" unicode="&#x1ea7;" 
d="M348 20c-3 -20 -22 -20 -36 -20c-27 0 -62 2 -70 36c-43 -37 -87 -42 -110 -42c-62 0 -100 55 -88 125c11 66 63 99 99 115c47 21 88 25 131 27c7 43 13 78 -9 107c-18 26 -42 26 -58 26c-8 0 -18 0 -26 -1c-17 -2 -18 -11 -19 -15c-7 -38 -30 -38 -34 -38
c-13 0 -27 10 -23 33c11 62 80 62 108 62c91 0 121 -76 108 -152l-39 -234c10 -7 24 -9 42 -9c8 0 28 0 24 -20zM251 126l17 99c-88 0 -169 -43 -179 -106c-8 -45 13 -85 58 -85c0 0 35 0 63 18c32 20 37 48 41 74zM359 524c-1 -8 -6 -17 -17 -17c-5 0 -11 -1 -18 3l-59 29
l-69 -29c-10 -4 -13 -3 -18 -3c-11 0 -14 9 -13 17c1 5 4 15 13 19l80 40c12 6 18 6 28 0l68 -40c7 -4 6 -14 5 -19zM354 634c1 7 -9 16 -15 21l-68 58c-9 7 -18 13 -27 13c-11 0 -22 -10 -24 -24c-1 -9 7 -17 14 -23l79 -66c4 -3 10 -6 14 -6c14 0 24 12 27 27z" />
    <glyph glyph-name="Acircumflexhookabove" unicode="&#x1ea8;" 
d="M339 20c-3 -20 -23 -20 -32 -20h-67c-8 0 -28 0 -25 20c4 20 23 20 45 20l1 135h-114l-43 -135c22 0 41 0 37 -20c-3 -20 -23 -20 -31 -20h-68c-8 0 -28 0 -25 20c4 20 22 20 43 20l178 549c11 33 20 36 42 36c16 0 29 -3 28 -36l-4 -549c20 0 39 0 35 -20zM262 216
l7 349l-109 -349h102zM386 683c-2 -8 -7 -17 -18 -17c-5 0 -10 -1 -18 3l-59 29l-69 -29c-9 -4 -13 -3 -18 -3c-11 0 -14 9 -12 17c1 5 3 15 12 19l81 40c12 6 18 6 28 0l67 -40c7 -4 7 -14 6 -19zM458 893c-4 -21 -17 -37 -30 -48c-28 -20 -40 -42 -44 -64l-3 -19
c-2 -11 -13 -16 -20 -16c-8 0 -17 5 -15 16l3 19c7 41 36 69 65 91c7 5 9 14 10 21c4 27 -7 40 -32 40c-14 0 -27 -10 -30 -24l-2 -16c-2 -8 -11 -18 -21 -18s-17 7 -15 19c8 47 44 72 74 72c39 0 68 -26 60 -73z" />
    <glyph glyph-name="acircumflexhookabove" unicode="&#x1ea9;" 
d="M348 20c-3 -20 -22 -20 -36 -20c-27 0 -62 2 -70 36c-43 -37 -87 -42 -110 -42c-62 0 -100 55 -88 125c11 66 63 99 99 115c47 21 88 25 131 27c7 43 13 78 -9 107c-18 26 -42 26 -58 26c-8 0 -18 0 -26 -1c-17 -2 -18 -11 -19 -15c-7 -38 -30 -38 -34 -38
c-13 0 -27 10 -23 33c11 62 80 62 108 62c91 0 121 -76 108 -152l-39 -234c10 -7 24 -9 42 -9c8 0 28 0 24 -20zM251 126l17 99c-88 0 -169 -43 -179 -106c-8 -45 13 -85 58 -85c0 0 35 0 63 18c32 20 37 48 41 74zM359 524c-1 -8 -6 -17 -17 -17c-5 0 -11 -1 -18 3l-59 29
l-69 -29c-10 -4 -13 -3 -18 -3c-11 0 -14 9 -13 17c1 5 4 15 13 19l80 40c12 6 18 6 28 0l68 -40c7 -4 6 -14 5 -19zM431 734c-3 -21 -17 -37 -30 -48c-27 -20 -40 -42 -43 -64l-3 -19c-2 -11 -13 -16 -20 -16c-8 0 -17 5 -15 16l3 19c7 41 35 69 65 91c7 5 8 14 9 21
c5 27 -6 40 -31 40c-14 0 -28 -10 -30 -24l-3 -16c-1 -8 -11 -18 -21 -18s-16 7 -14 19c7 47 44 72 74 72c39 0 67 -26 59 -73z" />
    <glyph glyph-name="Acircumflextilde" unicode="&#x1eaa;" 
d="M339 20c-3 -20 -23 -20 -32 -20h-67c-8 0 -28 0 -25 20c4 20 23 20 45 20l1 135h-114l-43 -135c22 0 41 0 37 -20c-3 -20 -23 -20 -31 -20h-68c-8 0 -28 0 -25 20c4 20 22 20 43 20l178 549c11 33 20 36 42 36c16 0 29 -3 28 -36l-4 -549c20 0 39 0 35 -20zM262 216
l7 349l-109 -349h102zM386 683c-2 -8 -7 -17 -18 -17c-5 0 -10 -1 -18 3l-59 29l-69 -29c-9 -4 -13 -3 -18 -3c-11 0 -14 9 -12 17c1 5 3 15 12 19l81 40c12 6 18 6 28 0l67 -40c7 -4 7 -14 6 -19zM439 867c0 -4 -4 -11 -12 -18c-37 -36 -64 -63 -88 -63
c-19 0 -30 12 -44 44c-3 8 -6 14 -12 14c-17 0 -56 -44 -63 -52c-4 -4 -8 -6 -13 -6c-8 0 -19 8 -17 20c1 4 6 10 13 18c37 36 65 63 89 63c18 0 30 -12 43 -44c4 -9 7 -14 12 -14c17 0 55 44 63 52c4 4 9 6 13 6c9 0 18 -8 16 -20z" />
    <glyph glyph-name="acircumflextilde" unicode="&#x1eab;" 
d="M348 20c-3 -20 -22 -20 -36 -20c-27 0 -62 2 -70 36c-43 -37 -87 -42 -110 -42c-62 0 -100 55 -88 125c11 66 63 99 99 115c47 21 88 25 131 27c7 43 13 78 -9 107c-18 26 -42 26 -58 26c-8 0 -18 0 -26 -1c-17 -2 -18 -11 -19 -15c-7 -38 -30 -38 -34 -38
c-13 0 -27 10 -23 33c11 62 80 62 108 62c91 0 121 -76 108 -152l-39 -234c10 -7 24 -9 42 -9c8 0 28 0 24 -20zM251 126l17 99c-88 0 -169 -43 -179 -106c-8 -45 13 -85 58 -85c0 0 35 0 63 18c32 20 37 48 41 74zM359 524c-1 -8 -6 -17 -17 -17c-5 0 -11 -1 -18 3l-59 29
l-69 -29c-10 -4 -13 -3 -18 -3c-11 0 -14 9 -13 17c1 5 4 15 13 19l80 40c12 6 18 6 28 0l68 -40c7 -4 6 -14 5 -19zM413 708c-1 -4 -5 -11 -12 -18c-37 -36 -64 -63 -88 -63c-19 0 -30 12 -44 44c-4 8 -7 14 -13 14c-17 0 -55 -44 -62 -52c-4 -4 -8 -6 -13 -6
c-8 0 -19 8 -17 20c1 4 6 10 13 18c37 36 64 63 88 63c18 0 30 -12 44 -44c4 -9 7 -14 12 -14c17 0 55 44 62 52c5 4 9 6 13 6c9 0 19 -8 17 -20z" />
    <glyph glyph-name="acute" unicode="&#xb4;" 
d="M348 599c-2 -9 -13 -17 -22 -23l-101 -66c-4 -3 -12 -6 -16 -6c-14 0 -20 12 -17 27c1 7 13 16 21 21l88 58c11 7 22 13 31 13c11 0 18 -10 16 -24z" />
    <glyph glyph-name="uni0301" unicode="&#x301;" horiz-adv-x="0" 
d="M-2 599c-2 -9 -13 -17 -22 -23l-101 -66c-4 -3 -12 -6 -16 -6c-14 0 -20 12 -17 27c1 7 13 16 21 21l88 58c11 7 22 13 31 13c11 0 18 -10 16 -24z" />
    <glyph glyph-name="Adblgrave" unicode="&#x200;" 
d="M339 20c-3 -20 -23 -20 -32 -20h-67c-8 0 -28 0 -25 20c4 20 23 20 45 20l1 135h-114l-43 -135c22 0 41 0 37 -20c-3 -20 -23 -20 -31 -20h-68c-8 0 -28 0 -25 20c4 20 22 20 43 20l178 549c11 33 20 36 42 36c16 0 29 -3 28 -36l-4 -549c20 0 39 0 35 -20zM262 216
l7 349l-109 -349h102zM256 699c-2 -15 -12 -22 -21 -23c-5 -1 -14 1 -17 7l-41 67c-5 10 -11 19 -10 25c3 16 13 22 19 22c9 0 18 1 26 -13l35 -59c6 -10 11 -19 9 -26zM389 699c-2 -15 -12 -22 -21 -23c-5 -1 -14 1 -17 7l-41 67c-5 10 -11 19 -10 25c3 16 13 22 19 22
c9 0 18 1 26 -13l35 -59c6 -10 11 -19 9 -26z" />
    <glyph glyph-name="adblgrave" unicode="&#x201;" 
d="M348 20c-3 -20 -22 -20 -36 -20c-27 0 -62 2 -70 36c-43 -37 -87 -42 -110 -42c-62 0 -100 55 -88 125c11 66 63 99 99 115c47 21 88 25 131 27c7 43 13 78 -9 107c-18 26 -42 26 -58 26c-8 0 -18 0 -26 -1c-17 -2 -18 -11 -19 -15c-7 -38 -30 -38 -34 -38
c-13 0 -27 10 -23 33c11 62 80 62 108 62c91 0 121 -76 108 -152l-39 -234c10 -7 24 -9 42 -9c8 0 28 0 24 -20zM251 126l17 99c-88 0 -169 -43 -179 -106c-8 -45 13 -85 58 -85c0 0 35 0 63 18c32 20 37 48 41 74zM247 526c-3 -15 -13 -22 -22 -23c-4 -1 -14 1 -17 7
l-41 67c-5 10 -11 19 -10 25c3 16 13 22 19 22c9 0 18 1 26 -13l35 -59c6 -10 11 -19 10 -26zM380 526c-3 -15 -13 -22 -22 -23c-4 -1 -14 1 -17 7l-41 67c-5 10 -11 19 -10 25c3 16 13 22 19 22c9 0 18 1 26 -13l35 -59c6 -10 11 -19 10 -26z" />
    <glyph glyph-name="Adieresis" unicode="&#xc4;" 
d="M339 20c-3 -20 -23 -20 -32 -20h-67c-8 0 -28 0 -25 20c4 20 23 20 45 20l1 135h-114l-43 -135c22 0 41 0 37 -20c-3 -20 -23 -20 -31 -20h-68c-8 0 -28 0 -25 20c4 20 22 20 43 20l178 549c11 33 20 36 42 36c16 0 29 -3 28 -36l-4 -549c20 0 39 0 35 -20zM262 216
l7 349l-109 -349h102zM258 697c-3 -19 -20 -32 -33 -32s-26 13 -23 32c3 20 20 32 33 32s26 -12 23 -32zM381 697c-3 -19 -20 -32 -33 -32s-26 13 -23 32c3 20 20 32 33 32s26 -12 23 -32z" />
    <glyph glyph-name="adieresis" unicode="&#xe4;" 
d="M348 20c-3 -20 -22 -20 -36 -20c-27 0 -62 2 -70 36c-43 -37 -87 -42 -110 -42c-62 0 -100 55 -88 125c11 66 63 99 99 115c47 21 88 25 131 27c7 43 13 78 -9 107c-18 26 -42 26 -58 26c-8 0 -18 0 -26 -1c-17 -2 -18 -11 -19 -15c-7 -38 -30 -38 -34 -38
c-13 0 -27 10 -23 33c11 62 80 62 108 62c91 0 121 -76 108 -152l-39 -234c10 -7 24 -9 42 -9c8 0 28 0 24 -20zM251 126l17 99c-88 0 -169 -43 -179 -106c-8 -45 13 -85 58 -85c0 0 35 0 63 18c32 20 37 48 41 74zM245 563c-3 -19 -20 -31 -32 -31c-14 0 -27 12 -24 31
c3 20 20 33 34 33c13 0 25 -13 22 -33zM350 563c-3 -19 -20 -31 -33 -31s-26 12 -23 31c3 20 20 33 33 33s26 -13 23 -33z" />
    <glyph glyph-name="Adotbelow" unicode="&#x1ea0;" 
d="M339 20c-3 -20 -23 -20 -32 -20h-67c-8 0 -28 0 -25 20c4 20 23 20 45 20l1 135h-114l-43 -135c22 0 41 0 37 -20c-3 -20 -23 -20 -31 -20h-68c-8 0 -28 0 -25 20c4 20 22 20 43 20l178 549c11 33 20 36 42 36c16 0 29 -3 28 -36l-4 -549c20 0 39 0 35 -20zM262 216
l7 349l-109 -349h102zM178 -170c-4 -22 -22 -36 -37 -36s-29 14 -25 36c3 22 22 37 37 37s28 -15 25 -37z" />
    <glyph glyph-name="adotbelow" unicode="&#x1ea1;" 
d="M348 20c-3 -20 -22 -20 -36 -20c-27 0 -62 2 -70 36c-43 -37 -87 -42 -110 -42c-62 0 -100 55 -88 125c11 66 63 99 99 115c47 21 88 25 131 27c7 43 13 78 -9 107c-18 26 -42 26 -58 26c-8 0 -18 0 -26 -1c-17 -2 -18 -11 -19 -15c-7 -38 -30 -38 -34 -38
c-13 0 -27 10 -23 33c11 62 80 62 108 62c91 0 121 -76 108 -152l-39 -234c10 -7 24 -9 42 -9c8 0 28 0 24 -20zM251 126l17 99c-88 0 -169 -43 -179 -106c-8 -45 13 -85 58 -85c0 0 35 0 63 18c32 20 37 48 41 74zM178 -170c-4 -22 -22 -36 -37 -36s-29 14 -25 36
c3 22 22 37 37 37s28 -15 25 -37z" />
    <glyph glyph-name="AE" unicode="&#xc6;" 
d="M344 33c-5 -28 -14 -33 -34 -33h-132c-9 0 -28 0 -25 20c4 20 24 20 31 20l25 152h-77l-45 -152c13 0 33 0 29 -20c-3 -20 -23 -20 -31 -20h-46c-9 0 -29 0 -26 20c4 20 24 20 36 20l161 531c-10 0 -29 0 -25 20c3 20 23 20 31 20h191c20 0 26 -6 21 -33l-11 -68
c-2 -11 -8 -32 -24 -32s-16 21 -14 32l10 61h-79l-39 -234h78c9 0 28 0 25 -20s-22 -20 -31 -20h-78l-43 -257h85l12 76c2 12 9 33 25 33s15 -21 13 -33zM216 232l56 339h-25l-102 -339h71z" />
    <glyph glyph-name="ae" unicode="&#xe6;" 
d="M358 103c-3 -21 -42 -109 -97 -109c-35 0 -57 38 -66 71c-23 -41 -64 -71 -101 -71c-49 0 -68 60 -59 115c10 56 54 118 160 124l8 48c12 70 0 113 -36 113c-6 0 -13 -1 -22 -2c-4 -25 -11 -52 -35 -52c-13 0 -27 10 -23 33c5 26 29 62 88 62c51 0 63 -57 66 -74
c23 38 54 74 88 74c43 0 74 -63 51 -203c-5 -27 -13 -34 -34 -34h-119c-11 -110 13 -164 42 -164c16 0 34 19 51 69c4 8 10 19 22 19c8 0 18 -7 16 -19zM341 235c17 110 4 159 -19 159c-26 0 -64 -54 -88 -159h107zM179 136l10 59c-68 -2 -108 -42 -116 -85
c-6 -37 3 -76 32 -76c21 0 38 16 47 25c17 21 22 48 27 77z" />
    <glyph glyph-name="AEacute" unicode="&#x1fc;" 
d="M344 33c-5 -28 -14 -33 -34 -33h-132c-9 0 -28 0 -25 20c4 20 24 20 31 20l25 152h-77l-45 -152c13 0 33 0 29 -20c-3 -20 -23 -20 -31 -20h-46c-9 0 -29 0 -26 20c4 20 24 20 36 20l161 531c-10 0 -29 0 -25 20c3 20 23 20 31 20h191c20 0 26 -6 21 -33l-11 -68
c-2 -11 -8 -32 -24 -32s-16 21 -14 32l10 61h-79l-39 -234h78c9 0 28 0 25 -20s-22 -20 -31 -20h-78l-43 -257h85l12 76c2 12 9 33 25 33s15 -21 13 -33zM216 232l56 339h-25l-102 -339h71zM376 770c-1 -9 -13 -17 -22 -23l-101 -66c-4 -3 -12 -6 -16 -6
c-14 0 -20 12 -17 27c1 7 14 16 21 21l88 58c11 7 22 13 31 13c11 0 19 -10 16 -24z" />
    <glyph glyph-name="aeacute" unicode="&#x1fd;" 
d="M358 103c-3 -21 -42 -109 -97 -109c-35 0 -57 38 -66 71c-23 -41 -64 -71 -101 -71c-49 0 -68 60 -59 115c10 56 54 118 160 124l8 48c12 70 0 113 -36 113c-6 0 -13 -1 -22 -2c-4 -25 -11 -52 -35 -52c-13 0 -27 10 -23 33c5 26 29 62 88 62c51 0 63 -57 66 -74
c23 38 54 74 88 74c43 0 74 -63 51 -203c-5 -27 -13 -34 -34 -34h-119c-11 -110 13 -164 42 -164c16 0 34 19 51 69c4 8 10 19 22 19c8 0 18 -7 16 -19zM341 235c17 110 4 159 -19 159c-26 0 -64 -54 -88 -159h107zM179 136l10 59c-68 -2 -108 -42 -116 -85
c-6 -37 3 -76 32 -76c21 0 38 16 47 25c17 21 22 48 27 77zM348 599c-2 -9 -13 -17 -22 -23l-101 -66c-4 -3 -12 -6 -16 -6c-14 0 -20 12 -17 27c1 7 13 16 21 21l88 58c11 7 22 13 31 13c11 0 18 -10 16 -24z" />
    <glyph glyph-name="Agrave" unicode="&#xc0;" 
d="M339 20c-3 -20 -23 -20 -32 -20h-67c-8 0 -28 0 -25 20c4 20 23 20 45 20l1 135h-114l-43 -135c22 0 41 0 37 -20c-3 -20 -23 -20 -31 -20h-68c-8 0 -28 0 -25 20c4 20 22 20 43 20l178 549c11 33 20 36 42 36c16 0 29 -3 28 -36l-4 -549c20 0 39 0 35 -20zM262 216
l7 349l-109 -349h102zM364 702c-3 -15 -13 -27 -27 -27c-4 0 -10 3 -14 6l-79 66c-7 6 -15 14 -14 23c3 14 13 24 24 24c9 0 18 -6 27 -13l68 -58c7 -5 16 -14 15 -21z" />
    <glyph glyph-name="agrave" unicode="&#xe0;" 
d="M348 20c-3 -20 -22 -20 -36 -20c-27 0 -62 2 -70 36c-43 -37 -87 -42 -110 -42c-62 0 -100 55 -88 125c11 66 63 99 99 115c47 21 88 25 131 27c7 43 13 78 -9 107c-18 26 -42 26 -58 26c-8 0 -18 0 -26 -1c-17 -2 -18 -11 -19 -15c-7 -38 -30 -38 -34 -38
c-13 0 -27 10 -23 33c11 62 80 62 108 62c91 0 121 -76 108 -152l-39 -234c10 -7 24 -9 42 -9c8 0 28 0 24 -20zM251 126l17 99c-88 0 -169 -43 -179 -106c-8 -45 13 -85 58 -85c0 0 35 0 63 18c32 20 37 48 41 74zM336 531c-3 -15 -13 -27 -27 -27c-4 0 -10 3 -14 6l-79 66
c-7 6 -16 14 -14 23c2 14 13 24 24 24c9 0 18 -6 27 -13l68 -58c6 -5 16 -14 15 -21z" />
    <glyph glyph-name="Ahookabove" unicode="&#x1ea2;" 
d="M339 20c-3 -20 -23 -20 -32 -20h-67c-8 0 -28 0 -25 20c4 20 23 20 45 20l1 135h-114l-43 -135c22 0 41 0 37 -20c-3 -20 -23 -20 -31 -20h-68c-8 0 -28 0 -25 20c4 20 22 20 43 20l178 549c11 33 20 36 42 36c16 0 29 -3 28 -36l-4 -549c20 0 39 0 35 -20zM262 216
l7 349l-109 -349h102zM379 824c-3 -21 -17 -37 -30 -48c-27 -20 -40 -42 -43 -64l-4 -19c-1 -11 -12 -16 -19 -16c-8 0 -17 5 -16 16l4 19c6 41 35 69 65 91c7 5 8 14 9 21c5 27 -6 40 -31 40c-14 0 -28 -10 -30 -24l-3 -16c-1 -8 -11 -18 -21 -18s-17 7 -15 19
c8 47 44 72 74 72c39 0 68 -26 60 -73z" />
    <glyph glyph-name="ahookabove" unicode="&#x1ea3;" 
d="M348 20c-3 -20 -22 -20 -36 -20c-27 0 -62 2 -70 36c-43 -37 -87 -42 -110 -42c-62 0 -100 55 -88 125c11 66 63 99 99 115c47 21 88 25 131 27c7 43 13 78 -9 107c-18 26 -42 26 -58 26c-8 0 -18 0 -26 -1c-17 -2 -18 -11 -19 -15c-7 -38 -30 -38 -34 -38
c-13 0 -27 10 -23 33c11 62 80 62 108 62c91 0 121 -76 108 -152l-39 -234c10 -7 24 -9 42 -9c8 0 28 0 24 -20zM251 126l17 99c-88 0 -169 -43 -179 -106c-8 -45 13 -85 58 -85c0 0 35 0 63 18c32 20 37 48 41 74zM342 601c-3 -21 -17 -37 -30 -48c-27 -20 -40 -42 -43 -64
l-4 -19c-1 -11 -12 -16 -19 -16c-8 0 -17 5 -16 16l4 19c6 41 35 69 65 91c7 5 8 14 9 21c5 27 -6 40 -31 40c-14 0 -28 -10 -30 -24l-3 -16c-1 -8 -11 -18 -21 -18s-17 7 -15 19c8 47 44 72 74 72c39 0 68 -26 60 -73z" />
    <glyph glyph-name="Alpha" unicode="&#x391;" 
d="M339 20c-3 -20 -23 -20 -32 -20h-67c-8 0 -28 0 -25 20c4 20 23 20 45 20l1 135h-114l-43 -135c22 0 41 0 37 -20c-3 -20 -23 -20 -31 -20h-68c-8 0 -28 0 -25 20c4 20 22 20 43 20l178 549c11 33 20 36 42 36c16 0 29 -3 28 -36l-4 -549c20 0 39 0 35 -20zM262 216
l7 349l-109 -349h102z" />
    <glyph glyph-name="Amacron" unicode="&#x100;" 
d="M339 20c-3 -20 -23 -20 -32 -20h-67c-8 0 -28 0 -25 20c4 20 23 20 45 20l1 135h-114l-43 -135c22 0 41 0 37 -20c-3 -20 -23 -20 -31 -20h-68c-8 0 -28 0 -25 20c4 20 22 20 43 20l178 549c11 33 20 36 42 36c16 0 29 -3 28 -36l-4 -549c20 0 39 0 35 -20zM262 216
l7 349l-109 -349h102zM422 705c-3 -20 -23 -20 -31 -20h-204c-9 0 -28 0 -24 21c3 20 22 20 30 20h205c9 0 28 0 24 -21z" />
    <glyph glyph-name="amacron" unicode="&#x101;" 
d="M348 20c-3 -20 -22 -20 -36 -20c-27 0 -62 2 -70 36c-43 -37 -87 -42 -110 -42c-62 0 -100 55 -88 125c11 66 63 99 99 115c47 21 88 25 131 27c7 43 13 78 -9 107c-18 26 -42 26 -58 26c-8 0 -18 0 -26 -1c-17 -2 -18 -11 -19 -15c-7 -38 -30 -38 -34 -38
c-13 0 -27 10 -23 33c11 62 80 62 108 62c91 0 121 -76 108 -152l-39 -234c10 -7 24 -9 42 -9c8 0 28 0 24 -20zM251 126l17 99c-88 0 -169 -43 -179 -106c-8 -45 13 -85 58 -85c0 0 35 0 63 18c32 20 37 48 41 74zM399 563c-3 -20 -23 -20 -31 -20h-204c-9 0 -28 0 -25 21
c3 20 22 20 30 20h205c9 0 28 0 25 -21z" />
    <glyph glyph-name="anglearc" unicode="&#x2222;" 
d="M348 111c-3 -15 -16 -23 -26 -23c-4 0 -7 1 -10 3l-46 40l-20 -31c-5 -7 -13 -12 -20 -12c-10 0 -21 8 -18 23c0 3 4 7 6 11l22 33l-155 131c-6 4 -11 10 -9 20s9 16 15 20l199 131l-10 33c-2 4 -4 8 -3 11c2 15 15 23 25 23c7 0 14 -5 16 -12l10 -31l60 40c3 2 6 3 10 3
c10 0 21 -8 19 -23c-2 -10 -10 -16 -16 -20l-65 -42c5 -54 5 -93 -2 -133s-19 -79 -42 -133l51 -42c4 -4 10 -10 9 -20zM286 306c6 36 8 73 6 106l-162 -106l126 -106c14 33 24 70 30 106z" />
    <glyph glyph-name="angleleft" unicode="&#x2329;" 
d="M293 -60c-2 -14 -16 -25 -26 -25c-12 0 -18 24 -24 41l-96 350l225 370c4 7 15 22 25 22c19 0 21 -9 18 -24c0 0 -218 -360 -219 -367z" />
    <glyph glyph-name="angleright" unicode="&#x232a;" 
d="M304 306l-212 -350c-12 -17 -26 -41 -38 -41c-10 0 -20 11 -18 25l219 367c1 7 -97 367 -97 367c3 15 7 24 26 24c10 0 17 -15 19 -22z" />
    <glyph glyph-name="Aogonek" unicode="&#x104;" 
d="M339 20c-3 -20 -23 -20 -32 -20h-10c-46 -34 -75 -76 -83 -123c-4 -29 9 -50 24 -50c14 0 34 21 44 38c5 6 21 12 27 5c4 -5 3 -14 0 -18c-23 -35 -53 -62 -80 -62c-41 0 -61 47 -54 89c7 45 31 77 81 121c-29 0 -44 0 -41 20c4 20 23 20 45 20l1 135h-114l-43 -135
c22 0 41 0 37 -20c-3 -20 -23 -20 -31 -20h-68c-8 0 -28 0 -25 20c4 20 22 20 43 20l178 549c11 33 19 36 41 36c16 0 30 0 29 -36l-4 -549c20 0 39 0 35 -20zM262 216l6 343l-108 -343h102z" />
    <glyph glyph-name="aogonek" unicode="&#x105;" 
d="M348 20c-3 -20 -27 -20 -42 -20c-46 -34 -77 -76 -85 -123c-4 -29 9 -50 24 -50c14 0 34 21 44 38c5 6 20 11 26 5c4 -5 4 -14 1 -18c-23 -35 -54 -62 -80 -62c-41 0 -61 47 -54 89c7 45 43 90 87 126c-19 13 -24 20 -27 31c-43 -37 -87 -42 -110 -42
c-62 0 -100 55 -88 125c11 66 63 99 99 115c47 21 88 25 131 27c7 43 13 78 -9 107c-18 26 -42 26 -58 26c-8 0 -18 0 -26 -1c-17 -2 -18 -11 -19 -15c-7 -38 -30 -38 -34 -38c-13 0 -27 10 -23 33c11 62 80 62 108 62c91 0 121 -76 108 -152l-39 -234c10 -7 24 -9 42 -9
c8 0 28 0 24 -20zM251 126l17 99c-88 0 -169 -43 -179 -106c-8 -45 13 -85 58 -85c0 0 35 0 63 18c32 20 37 48 41 74z" />
    <glyph glyph-name="Aring" unicode="&#xc5;" 
d="M339 20c-3 -20 -23 -20 -32 -20h-67c-8 0 -28 0 -25 20c4 20 23 20 45 20l1 135h-114l-43 -135c22 0 41 0 37 -20c-3 -20 -23 -20 -31 -20h-68c-8 0 -28 0 -25 20c4 20 22 20 43 20l178 549c11 33 20 36 42 36c16 0 29 -3 28 -36l-4 -549c20 0 39 0 35 -20zM262 216
l7 349l-109 -349h102zM317 685c3 17 -1 40 -21 40s-32 -23 -35 -40s1 -40 21 -40s32 23 35 40zM344 685c-5 -30 -36 -62 -65 -62s-50 32 -45 62s36 62 65 62s50 -32 45 -62z" />
    <glyph glyph-name="aring" unicode="&#xe5;" 
d="M348 20c-3 -20 -22 -20 -36 -20c-27 0 -62 2 -70 36c-43 -37 -87 -42 -110 -42c-62 0 -100 55 -88 125c11 66 63 99 99 115c47 21 88 25 131 27c7 43 13 78 -9 107c-18 26 -42 26 -58 26c-8 0 -18 0 -26 -1c-17 -2 -18 -11 -19 -15c-7 -38 -30 -38 -34 -38
c-13 0 -27 10 -23 33c11 62 80 62 108 62c91 0 121 -76 108 -152l-39 -234c10 -7 24 -9 42 -9c8 0 28 0 24 -20zM251 126l17 99c-88 0 -169 -43 -179 -106c-8 -45 13 -85 58 -85c0 0 35 0 63 18c32 20 37 48 41 74zM295 554c3 17 -1 40 -21 40s-32 -23 -35 -40
c-2 -17 2 -40 22 -40s32 23 34 40zM322 554c-5 -30 -36 -62 -65 -62s-50 32 -45 62s37 62 66 62s49 -32 44 -62z" />
    <glyph glyph-name="Aringacute" unicode="&#x1fa;" 
d="M339 20c-3 -20 -23 -20 -32 -20h-67c-8 0 -28 0 -25 20c4 20 23 20 45 20l1 135h-114l-43 -135c22 0 41 0 37 -20c-3 -20 -23 -20 -31 -20h-68c-8 0 -28 0 -25 20c4 20 22 20 43 20l178 549c11 33 20 36 42 36c16 0 29 -3 28 -36l-4 -549c20 0 39 0 35 -20zM262 216
l7 349l-109 -349h102zM317 685c3 17 -1 40 -21 40s-32 -23 -35 -40s1 -40 21 -40s32 23 35 40zM344 685c-5 -30 -36 -60 -65 -60s-50 30 -45 60s36 60 65 60s50 -30 45 -60zM391 860c-1 -9 -13 -17 -22 -23l-101 -66c-4 -3 -12 -6 -16 -6c-14 0 -20 12 -17 27
c1 7 14 16 21 21l88 58c11 7 22 13 31 13c11 0 19 -10 16 -24z" />
    <glyph glyph-name="aringacute" unicode="&#x1fb;" 
d="M348 20c-3 -20 -22 -20 -36 -20c-27 0 -62 2 -70 36c-43 -37 -87 -42 -110 -42c-62 0 -100 55 -88 125c11 66 63 99 99 115c47 21 88 25 131 27c7 43 13 78 -9 107c-18 26 -42 26 -58 26c-8 0 -18 0 -26 -1c-17 -2 -18 -11 -19 -15c-7 -38 -30 -38 -34 -38
c-13 0 -27 10 -23 33c11 62 80 62 108 62c91 0 121 -76 108 -152l-39 -234c10 -7 24 -9 42 -9c8 0 28 0 24 -20zM251 126l17 99c-88 0 -169 -43 -179 -106c-8 -45 13 -85 58 -85c0 0 35 0 63 18c32 20 37 48 41 74zM295 554c3 17 -1 40 -21 40s-32 -23 -35 -40
c-2 -17 2 -40 22 -40s32 23 34 40zM322 554c-5 -30 -36 -62 -65 -62s-50 32 -45 62s37 62 66 62s49 -32 44 -62zM370 729c-2 -9 -13 -17 -22 -23l-101 -66c-5 -3 -12 -6 -16 -6c-14 0 -20 12 -18 27c1 7 14 16 22 21l87 58c12 7 23 13 32 13c11 0 18 -10 16 -24z" />
    <glyph glyph-name="uni2193" unicode="&#x2193;" 
d="M344 171c-2 -8 -8 -14 -14 -18c-27 -14 -84 -44 -130 -128c-7 -14 -13 -25 -24 -25c-12 0 -14 10 -18 26c-11 50 -34 97 -78 122c-8 4 -17 11 -15 23c2 14 15 20 22 20s29 -15 47 -33c11 -11 21 -23 37 -51l78 467c2 11 9 37 29 37c18 0 17 -26 15 -37l-78 -467
c26 28 40 40 53 51c24 17 53 33 60 33s18 -6 16 -20z" />
    <glyph glyph-name="uni2190" unicode="&#x2190;" 
d="M385 307c-2 -16 -16 -23 -27 -23h-232c15 -50 18 -90 15 -127c-4 -16 -16 -20 -26 -20c-12 0 -15 16 -17 32c0 51 -16 111 -32 138c25 27 59 79 75 129c6 19 12 40 31 40c10 0 20 -5 18 -20c-9 -37 -25 -76 -57 -126h233c11 0 22 -8 19 -23z" />
    <glyph glyph-name="uni2192" unicode="&#x2192;" 
d="M385 307c-24 -27 -60 -87 -78 -138c-6 -16 -15 -32 -27 -32c-10 0 -20 4 -20 20c9 37 26 77 57 127h-232c-11 0 -21 7 -19 23c3 15 16 23 27 23h233c-16 50 -18 89 -15 126c4 15 14 20 24 20c19 0 19 -21 19 -40c-2 -50 16 -102 31 -129z" />
    <glyph glyph-name="uni2191" unicode="&#x2191;" 
d="M388 440c-2 -14 -15 -20 -22 -20s-30 15 -48 33c-11 11 -21 23 -37 51l-78 -467c-2 -11 -9 -37 -27 -37c-20 0 -19 26 -17 37l78 467c-26 -28 -40 -40 -53 -51c-24 -17 -52 -33 -59 -33c-8 0 -18 6 -16 20c2 9 8 15 16 19c26 13 78 41 127 127c7 14 14 25 26 25
c10 0 12 -10 16 -26c9 -44 32 -95 78 -122c8 -4 18 -11 16 -23z" />
    <glyph glyph-name="asterisk.math" unicode="&#x2217;" 
d="M343 210c-3 -16 -18 -22 -26 -22c0 0 -4 0 -6 2l-73 78l-24 -154c-2 -14 -14 -21 -23 -21c-8 0 -20 6 -18 21l28 154l-90 -72c-5 -3 -13 -8 -17 -8c-8 0 -20 6 -17 22c1 7 5 12 11 16l113 80l-87 78c-3 4 -6 10 -5 17c3 16 17 22 25 22c4 0 10 -5 13 -8l67 -72l23 154
c3 16 15 21 24 21s19 -7 17 -18l-28 -157l91 72c5 3 13 8 16 8c8 0 21 -6 18 -22c-1 -7 -6 -12 -11 -16l-114 -80c37 -31 70 -61 85 -77c3 -4 9 -10 8 -18z" />
    <glyph glyph-name="Atilde" unicode="&#xc3;" 
d="M339 20c-3 -20 -23 -20 -32 -20h-67c-8 0 -28 0 -25 20c4 20 23 20 45 20l1 135h-114l-43 -135c22 0 41 0 37 -20c-3 -20 -23 -20 -31 -20h-68c-8 0 -28 0 -25 20c4 20 22 20 43 20l178 549c11 33 20 36 42 36c16 0 29 -3 28 -36l-4 -549c20 0 39 0 35 -20zM262 216
l7 349l-109 -349h102zM418 746c0 -4 -5 -11 -12 -18c-37 -36 -64 -63 -88 -63c-19 0 -30 12 -44 44c-4 8 -7 14 -13 14c-17 0 -55 -44 -62 -52c-4 -4 -8 -6 -13 -6c-8 0 -19 8 -17 20c1 4 6 10 13 18c37 36 65 63 89 63c18 0 30 -12 43 -44c4 -9 7 -14 12 -14
c17 0 55 44 63 52c4 4 9 6 13 6c9 0 18 -8 16 -20z" />
    <glyph glyph-name="atilde" unicode="&#xe3;" 
d="M348 20c-3 -20 -22 -20 -36 -20c-27 0 -62 2 -70 36c-43 -37 -87 -42 -110 -42c-62 0 -100 55 -88 125c11 66 63 99 99 115c47 21 88 25 131 27c7 43 13 78 -9 107c-18 26 -42 26 -58 26c-8 0 -18 0 -26 -1c-17 -2 -18 -11 -19 -15c-7 -38 -30 -38 -34 -38
c-13 0 -27 10 -23 33c11 62 80 62 108 62c91 0 121 -76 108 -152l-39 -234c10 -7 24 -9 42 -9c8 0 28 0 24 -20zM251 126l17 99c-88 0 -169 -43 -179 -106c-8 -45 13 -85 58 -85c0 0 35 0 63 18c32 20 37 48 41 74zM393 594c-1 -4 -5 -10 -12 -18c-37 -36 -64 -63 -88 -63
c-19 0 -30 12 -44 44c-4 9 -7 14 -13 14c-17 0 -55 -44 -62 -52c-4 -4 -8 -6 -13 -6c-8 0 -19 8 -17 20c1 4 6 11 13 18c37 36 64 63 88 63c18 0 30 -12 44 -44c4 -8 7 -14 12 -14c17 0 55 44 62 52c5 4 9 6 13 6c9 0 19 -8 17 -20z" />
    <glyph glyph-name="baht" unicode="&#xe3f;" 
d="M353 163c-13 -79 -71 -163 -146 -163h-18l-12 -70c-2 -13 -14 -20 -23 -20s-19 7 -17 20l12 70h-108c-8 0 -28 0 -25 20c4 20 24 20 32 20h18l88 531h-18c-8 0 -28 0 -24 20c3 20 23 20 31 20h108l12 70c2 13 14 20 23 20s19 -7 17 -20l-12 -70h4c74 0 105 -78 93 -150
c-12 -70 -50 -115 -103 -142c63 -25 80 -87 68 -156zM344 460c6 39 4 111 -58 111h-2l-38 -232c57 7 90 73 98 121zM206 339l38 232h-46l-38 -232h46zM309 165c6 37 12 133 -63 133h-7l-43 -258h3c66 0 101 71 110 125zM156 40l43 258h-46l-43 -258h46z" />
    <glyph glyph-name="Beta" unicode="&#x392;" 
d="M353 163c-13 -79 -71 -163 -146 -163h-166c-8 0 -28 0 -25 20c4 20 24 20 32 20h18l88 531h-18c-8 0 -28 0 -24 20c3 20 23 20 31 20h152c74 0 105 -78 93 -150c-12 -70 -46 -102 -107 -140c72 -29 84 -89 72 -158zM344 460c6 39 4 111 -58 111h-88l-38 -232h77
c62 0 98 69 107 121zM309 165c6 37 4 133 -71 133h-85l-43 -258h89c66 0 101 71 110 125z" />
    <glyph glyph-name="blanksymbol" unicode="&#x2422;" 
d="M365 213c-22 -127 -104 -219 -176 -219c-40 0 -61 30 -73 58c-6 -35 -12 -52 -31 -52s-20 17 -17 33l61 371l-28 -30c-4 -5 -10 -8 -15 -8c-8 0 -19 8 -16 21l4 6l66 72l17 106h-29c-8 0 -28 0 -24 20c3 20 23 20 31 20h46c20 0 27 -6 22 -33l-9 -54l64 67c3 5 9 8 14 8
c9 0 19 -8 16 -21c0 -3 -5 -9 -9 -12l-95 -103l-14 -88c8 11 48 56 99 56c71 0 116 -95 96 -218zM320 213c16 97 -10 178 -63 178c-48 0 -95 -64 -106 -126l-13 -82c-9 -54 -2 -149 54 -149c52 0 110 76 128 179z" />
    <glyph glyph-name="breve" unicode="&#x2d8;" 
d="M393 590c-12 -74 -89 -74 -132 -74s-120 0 -108 74c4 19 17 22 23 22c11 0 18 -9 17 -24c-1 -18 -2 -30 75 -30c54 0 79 6 85 27c2 6 7 27 24 27c7 0 19 -4 16 -22z" />
    <glyph glyph-name="uni032E" unicode="&#x32e;" horiz-adv-x="0" 
d="M-79 -143c-12 -74 -89 -74 -132 -74s-120 0 -108 74c3 19 17 22 23 22c11 0 17 -9 17 -24c-1 -18 -2 -30 75 -30c54 0 79 5 84 27c2 6 8 27 25 27c7 0 19 -4 16 -22z" />
    <glyph glyph-name="uni032F" unicode="&#x32f;" horiz-adv-x="0" 
d="M-88 -195c-3 -19 -16 -22 -22 -22c-11 0 -18 9 -17 24c1 18 2 30 -75 30c-54 0 -79 -5 -85 -27c-2 -6 -7 -27 -24 -27c-7 0 -20 4 -17 22c13 74 90 74 133 74s120 0 107 -74z" />
    <glyph glyph-name="uni0306" unicode="&#x306;" horiz-adv-x="0" 
d="M43 590c-12 -74 -89 -74 -132 -74s-120 0 -108 74c4 19 17 22 23 22c11 0 18 -9 17 -24c-1 -18 -2 -30 75 -30c54 0 79 6 85 27c2 6 7 27 24 27c7 0 19 -4 16 -22z" />
    <glyph glyph-name="uni0311" unicode="&#x311;" horiz-adv-x="0" 
d="M35 538c-3 -19 -17 -22 -23 -22c-11 0 -17 9 -17 24c1 18 2 30 -75 30c-54 0 -79 -6 -84 -27c-2 -6 -8 -27 -25 -27c-7 0 -19 4 -16 22c12 74 89 74 132 74s120 0 108 -74z" />
    <glyph glyph-name="brokenbar" unicode="&#xa6;" 
d="M260 376c-2 -13 -16 -20 -25 -20c-11 0 -21 7 -19 20l47 284c2 12 9 37 29 37c18 0 17 -26 15 -37zM189 -49c-2 -12 -9 -37 -28 -37s-18 26 -16 37l47 284c2 13 16 20 27 20c9 0 19 -7 17 -20z" />
    <glyph glyph-name="bullet" unicode="&#x2022;" 
d="M305 241c-11 -65 -61 -122 -111 -122c-46 0 -80 54 -69 122c12 71 63 124 112 124c43 0 80 -51 68 -124z" />
    <glyph glyph-name="Cacute" unicode="&#x106;" 
d="M355 165c-15 -88 -90 -177 -169 -177c-86 0 -143 134 -112 318c30 180 130 317 218 317c30 0 59 -15 82 -52l16 34c3 7 10 18 21 18c16 0 17 -16 15 -29l-25 -150c-3 -17 -9 -29 -28 -29c-14 0 -19 6 -17 28c6 95 -29 140 -67 140c-66 0 -143 -116 -170 -277
s12 -278 79 -278c12 0 84 8 112 138c4 17 16 21 25 21c7 0 23 0 20 -22zM386 770c-1 -9 -13 -17 -22 -23l-101 -66c-4 -3 -12 -6 -16 -6c-14 0 -20 12 -17 27c1 7 14 16 21 21l88 58c11 7 22 13 31 13c11 0 19 -10 16 -24z" />
    <glyph glyph-name="cacute" unicode="&#x107;" 
d="M331 103c-2 -16 -46 -109 -136 -109c-82 0 -133 97 -112 219c14 84 79 222 195 222c29 0 101 0 90 -62c-4 -23 -20 -33 -33 -33c-4 0 -25 0 -22 38c1 7 1 11 -4 13c-6 1 -20 3 -39 3c-96 0 -134 -126 -143 -181c-17 -100 19 -179 81 -179c17 0 52 6 81 71
c4 10 10 15 22 15c5 0 23 0 20 -17zM358 599c-2 -9 -13 -17 -22 -23l-101 -66c-4 -3 -12 -6 -16 -6c-14 0 -20 12 -17 27c1 7 13 16 21 21l88 58c11 7 22 13 31 13c11 0 18 -10 16 -24z" />
    <glyph glyph-name="caron" unicode="&#x2c7;" 
d="M375 600c-1 -5 -9 -14 -15 -19l-85 -68c-11 -8 -23 -8 -30 0l-63 68c-4 5 -10 14 -9 19c2 14 9 20 20 20c5 0 12 -1 19 -8l55 -57l73 57c9 7 16 8 21 8c11 0 16 -6 14 -20z" />
    <glyph glyph-name="uni030C" unicode="&#x30c;" horiz-adv-x="0" 
d="M25 600c-1 -5 -9 -14 -15 -19l-85 -68c-11 -8 -23 -8 -30 0l-63 68c-4 5 -10 14 -9 19c2 14 9 20 20 20c5 0 12 -1 19 -8l55 -57l73 57c9 7 16 8 21 8c11 0 16 -6 14 -20z" />
    <glyph glyph-name="Ccaron" unicode="&#x10c;" 
d="M355 165c-15 -88 -90 -177 -169 -177c-86 0 -143 134 -112 318c30 180 130 317 218 317c30 0 59 -15 82 -52l16 34c3 7 10 18 21 18c16 0 17 -16 15 -29l-25 -150c-3 -17 -9 -29 -28 -29c-14 0 -19 6 -17 28c6 95 -29 140 -67 140c-66 0 -143 -116 -170 -277
s12 -278 79 -278c12 0 84 8 112 138c4 17 16 21 25 21c7 0 23 0 20 -22zM403 729c0 -5 -3 -15 -12 -19l-80 -40c-12 -6 -18 -6 -28 0l-68 40c-7 4 -6 14 -6 19c2 8 7 17 18 17c5 0 10 1 18 -3l59 -29l69 29c9 4 13 3 18 3c11 0 14 -9 12 -17z" />
    <glyph glyph-name="ccaron" unicode="&#x10d;" 
d="M331 103c-2 -16 -46 -109 -136 -109c-82 0 -133 97 -112 219c14 84 79 222 195 222c29 0 101 0 90 -62c-4 -23 -20 -33 -33 -33c-4 0 -25 0 -22 38c1 7 1 11 -4 13c-6 1 -20 3 -39 3c-96 0 -134 -126 -143 -181c-17 -100 19 -179 81 -179c17 0 52 6 81 71
c4 10 10 15 22 15c5 0 23 0 20 -17zM385 600c-1 -5 -9 -14 -15 -19l-85 -68c-11 -8 -23 -8 -30 0l-63 68c-4 5 -10 14 -9 19c2 14 9 20 20 20c5 0 12 -1 19 -8l55 -57l73 57c9 7 16 8 21 8c11 0 16 -6 14 -20z" />
    <glyph glyph-name="Ccedilla" unicode="&#xc7;" 
d="M355 165c-12 -71 -65 -144 -126 -169l-5 -29c42 -13 58 -49 52 -88c-16 -93 -106 -93 -158 -93c-19 0 -38 0 -34 20c3 21 23 21 32 21h14c22 0 94 7 102 52c4 27 -9 50 -38 52c-17 2 -19 15 -17 30l5 27c-84 4 -138 137 -108 318c30 180 130 317 218 317
c30 0 59 -15 82 -52l16 34c3 7 10 18 21 18c16 0 17 -16 15 -29l-25 -150c-3 -17 -9 -29 -28 -29c-14 0 -19 6 -17 28c6 95 -29 140 -67 140c-66 0 -143 -116 -170 -277s12 -278 79 -278c12 0 84 8 112 138c4 17 16 21 25 21c7 0 23 0 20 -22z" />
    <glyph glyph-name="ccedilla" unicode="&#xe7;" 
d="M331 103c-2 -14 -36 -85 -102 -104l-6 -32c43 -13 59 -49 53 -88c-16 -93 -106 -93 -158 -93c-19 0 -38 0 -34 20c3 21 23 21 32 21h14c22 0 94 7 102 52c4 27 -9 50 -38 52c-17 2 -19 15 -17 30l6 34c-74 9 -120 102 -100 218c14 84 79 222 195 222c29 0 101 0 90 -62
c-4 -23 -20 -33 -33 -33c-4 0 -25 0 -22 38c1 7 1 11 -4 13c-6 1 -20 3 -39 3c-96 0 -134 -126 -143 -181c-17 -100 19 -179 81 -179c17 0 52 6 81 71c4 10 10 15 22 15c5 0 23 0 20 -17z" />
    <glyph glyph-name="Ccircumflex" unicode="&#x108;" 
d="M355 165c-15 -88 -90 -177 -169 -177c-86 0 -143 134 -112 318c30 180 130 317 218 317c30 0 59 -15 82 -52l16 34c3 7 10 18 21 18c16 0 17 -16 15 -29l-25 -150c-3 -17 -9 -29 -28 -29c-14 0 -19 6 -17 28c6 95 -29 140 -67 140c-66 0 -143 -116 -170 -277
s12 -278 79 -278c12 0 84 8 112 138c4 17 16 21 25 21c7 0 23 0 20 -22zM396 683c-2 -8 -7 -17 -18 -17c-5 0 -10 -1 -18 3l-59 29l-69 -29c-9 -4 -13 -3 -18 -3c-11 0 -14 9 -12 17c1 5 3 15 12 19l81 40c12 6 18 6 28 0l67 -40c7 -4 7 -14 6 -19z" />
    <glyph glyph-name="ccircumflex" unicode="&#x109;" 
d="M331 103c-2 -16 -46 -109 -136 -109c-82 0 -133 97 -112 219c14 84 79 222 195 222c29 0 101 0 90 -62c-4 -23 -20 -33 -33 -33c-4 0 -25 0 -22 38c1 7 1 11 -4 13c-6 1 -20 3 -39 3c-96 0 -134 -126 -143 -181c-17 -100 19 -179 81 -179c17 0 52 6 81 71
c4 10 10 15 22 15c5 0 23 0 20 -17zM373 527c-2 -14 -9 -20 -20 -20c-5 0 -12 1 -19 8l-55 57l-73 -57c-9 -7 -16 -8 -21 -8c-11 0 -16 6 -14 20c1 5 9 14 15 19l85 68c11 8 23 8 30 0l63 -68c4 -5 10 -14 9 -19z" />
    <glyph glyph-name="Cdotaccent" unicode="&#x10a;" 
d="M355 165c-15 -88 -90 -177 -169 -177c-86 0 -143 134 -112 318c30 180 130 317 218 317c30 0 59 -15 82 -52l16 34c3 7 10 18 21 18c16 0 17 -16 15 -29l-25 -150c-3 -17 -9 -29 -28 -29c-14 0 -19 6 -17 28c6 95 -29 140 -67 140c-66 0 -143 -116 -170 -277
s12 -278 79 -278c12 0 84 8 112 138c4 17 16 21 25 21c7 0 23 0 20 -22zM335 714c-4 -22 -22 -37 -37 -37s-29 15 -25 37s22 37 37 37s29 -15 25 -37z" />
    <glyph glyph-name="cdotaccent" unicode="&#x10b;" 
d="M331 103c-2 -16 -46 -109 -136 -109c-82 0 -133 97 -112 219c14 84 79 222 195 222c29 0 101 0 90 -62c-4 -23 -20 -33 -33 -33c-4 0 -25 0 -22 38c1 7 1 11 -4 13c-6 1 -20 3 -39 3c-96 0 -134 -126 -143 -181c-17 -100 19 -179 81 -179c17 0 52 6 81 71
c4 10 10 15 22 15c5 0 23 0 20 -17zM310 564c-4 -22 -22 -37 -37 -37s-29 15 -25 37s22 37 37 37s29 -15 25 -37z" />
    <glyph glyph-name="cedilla" unicode="&#xb8;" 
d="M267 -121c-16 -93 -106 -93 -158 -93c-19 0 -38 0 -34 20c3 21 23 21 31 21h15c22 0 94 7 102 52c4 27 -9 50 -38 52c-17 2 -19 15 -17 30l6 34c3 14 9 31 27 31c20 0 21 -17 13 -59c43 -13 59 -49 53 -88z" />
    <glyph glyph-name="cent" unicode="&#xa2;" 
d="M331 103c-2 -15 -41 -96 -119 -108l-11 -65c-2 -13 -14 -20 -23 -20s-19 7 -17 20l11 67c-68 16 -108 105 -89 216c12 76 66 195 162 218l11 64c2 13 14 20 23 20s19 -7 17 -20l-10 -60c32 0 93 0 82 -62c-4 -23 -20 -33 -33 -33c-4 0 -25 0 -22 38c1 7 1 11 -4 13
c-5 1 -15 2 -30 3l-60 -359c19 3 46 16 70 70c4 10 10 15 22 15c5 0 23 0 20 -17zM180 40l58 349c-73 -25 -103 -127 -111 -176c-14 -83 8 -152 53 -173z" />
    <glyph glyph-name="centigrade" unicode="&#x2103;" 
d="M407 440c-2 -15 -12 -25 -26 -25c-12 0 -21 6 -19 16c14 92 1 153 -35 153c-58 0 -112 -173 -131 -283c-17 -102 -22 -272 40 -272c59 0 80 139 80 139c3 20 17 21 26 21c10 0 23 0 19 -20c-14 -85 -72 -180 -136 -180c-12 0 -22 4 -33 11c-62 46 -57 202 -40 305
c16 94 77 319 183 319c22 0 39 -18 53 -38c7 18 15 38 30 38c11 0 18 -8 15 -25l-23 -139c-1 -6 -2 -14 -3 -20zM194 554c-5 -32 -28 -63 -58 -63c-33 0 -48 25 -42 62c6 32 29 64 59 64c32 0 48 -26 41 -63zM169 553c4 20 -4 37 -20 37c-15 0 -27 -20 -30 -36
c-3 -20 5 -35 21 -35c15 0 27 18 29 34z" />
    <glyph glyph-name="Chi" unicode="&#x3a7;" 
d="M338 20c-3 -20 -22 -20 -31 -20h-66c-8 0 -28 0 -25 20c4 20 24 20 41 20l-42 226l-110 -226c19 0 38 0 34 -20c-3 -20 -23 -20 -31 -20h-67c-8 0 -27 0 -24 20c4 20 23 20 31 20h14l144 286l-48 245h-14c-8 0 -27 0 -23 20c3 20 22 20 30 20h67c8 0 27 0 24 -20
c-4 -20 -23 -20 -40 -20l34 -179l89 179c-17 0 -37 0 -33 20c3 20 23 20 31 20h66c8 0 28 0 25 -20c-4 -20 -24 -20 -32 -20h-13l-125 -246l56 -285h14c9 0 28 0 24 -20z" />
    <glyph glyph-name="circumflex" unicode="&#x2c6;" 
d="M363 527c-2 -14 -9 -20 -20 -20c-5 0 -12 1 -19 8l-55 57l-73 -57c-9 -7 -16 -8 -21 -8c-11 0 -16 6 -14 20c1 5 9 14 15 19l85 68c11 8 23 8 30 0l63 -68c4 -5 10 -14 9 -19z" />
    <glyph glyph-name="uni0302" unicode="&#x302;" horiz-adv-x="0" 
d="M13 527c-2 -14 -9 -20 -20 -20c-5 0 -12 1 -19 8l-55 57l-73 -57c-9 -7 -16 -8 -21 -8c-11 0 -16 6 -14 20c1 5 9 14 15 19l85 68c11 8 23 8 30 0l63 -68c4 -5 10 -14 9 -19z" />
    <glyph glyph-name="colonmonetary" unicode="&#x20a1;" 
d="M355 165c-14 -79 -75 -157 -144 -174l-10 -61c-2 -13 -14 -20 -23 -20s-19 7 -17 20l10 59c-77 15 -126 144 -97 317c28 170 118 301 203 316l10 59c2 13 14 20 23 20s19 -7 17 -20l-11 -62c21 -6 42 -21 58 -48l16 34c3 7 10 18 21 18c16 0 17 -16 15 -29l-25 -150
c-3 -17 -9 -29 -28 -29c-14 0 -19 6 -17 28c5 78 -17 122 -46 136l-92 -547c28 9 71 39 92 134c4 17 16 21 25 21c7 0 23 0 20 -22zM178 32l92 548c-62 -21 -127 -130 -151 -274s4 -254 59 -274z" />
    <glyph glyph-name="uni0326" unicode="&#x326;" horiz-adv-x="0" 
d="M-154 -120c-13 -79 -72 -112 -85 -112c-6 0 -15 6 -13 14l1 4c40 19 56 48 69 94c-7 -4 -13 -5 -13 -5c-15 0 -27 13 -23 35c3 17 17 33 34 33c20 0 36 -26 30 -63z" />
    <glyph glyph-name="copyright" unicode="&#xa9;" 
d="M398 255c-24 -142 -127 -259 -224 -259s-160 117 -136 259c23 143 126 261 223 261s160 -118 137 -261zM373 255c21 130 -28 238 -116 238s-173 -108 -194 -238c-22 -128 27 -236 115 -236s173 108 195 236zM274 179c-8 -49 -49 -98 -93 -98c-47 0 -79 74 -62 175
c16 99 72 175 120 175c17 0 32 -9 45 -29l9 19c2 4 6 10 12 10c8 0 9 -9 8 -16l-14 -83c-1 -9 -5 -16 -15 -16c-8 0 -11 4 -10 16c3 52 -16 77 -37 77c-36 0 -78 -64 -93 -153c-15 -88 6 -153 43 -153c7 0 47 5 62 76c2 10 9 12 14 12c4 0 13 0 11 -12z" />
    <glyph glyph-name="currency" unicode="&#xa4;" 
d="M310 155c-19 -22 -31 0 -37 9l-14 28c-17 -14 -37 -22 -56 -22s-35 8 -48 22l-24 -28c-8 -10 -28 -33 -40 -9c-7 14 7 31 13 37l30 35c-8 31 -11 55 -7 79s15 48 33 79l-18 35c-4 7 -11 22 -1 36c20 25 33 1 38 -8l14 -28c17 13 37 22 56 22s35 -9 48 -22l24 27
c8 10 27 33 39 9c8 -14 -7 -31 -12 -37l-29 -34c8 -31 9 -55 5 -79s-13 -48 -32 -78l18 -36c4 -7 12 -23 0 -37zM280 306c8 48 -6 89 -39 89c-32 0 -62 -41 -70 -89s8 -89 40 -89c33 0 61 41 69 89z" />
    <glyph glyph-name="dagger" unicode="&#x2020;" 
d="M380 434c0 -4 -9 -24 -33 -24c-17 0 -39 8 -53 14c-15 5 -32 4 -42 6c-4 -47 -5 -64 -5 -88c0 -68 -1 -75 -10 -127l-86 -420c-3 -13 -5 -18 -14 -18c-8 0 -8 5 -7 18c8 97 28 267 54 420c8 51 10 59 32 128c9 27 12 43 23 87c-19 -3 -38 -5 -40 -6
c-18 -6 -44 -14 -61 -14c-21 0 -26 14 -24 25c0 4 9 24 33 24c17 0 39 -8 53 -14c15 -5 31 -7 40 -9c6 46 10 78 15 189c1 18 3 36 6 51c1 7 9 32 32 32c22 0 22 -26 21 -32c-3 -18 -17 -71 -26 -106c-15 -49 -26 -95 -35 -134c19 3 40 8 42 9c18 6 44 14 61 14
c21 0 26 -14 24 -25z" />
    <glyph glyph-name="daggerdbl" unicode="&#x2021;" 
d="M389 483c-1 -5 -10 -25 -34 -25c-17 0 -39 9 -53 15c-15 5 -31 6 -41 7c-5 -44 -7 -71 -7 -114c0 -32 -2 -59 -5 -78c-2 -12 -11 -30 -32 -30c-7 0 -26 0 -21 30c4 25 17 64 26 95c5 16 17 53 25 97c-17 -2 -38 -6 -40 -7c-18 -6 -44 -15 -61 -15c-21 0 -26 14 -24 26
c0 4 9 24 33 24c17 0 39 -8 53 -15c15 -5 31 -7 40 -8c6 42 8 71 8 115c0 32 2 59 5 78c5 30 24 30 31 30c23 0 23 -24 22 -30c-4 -25 -17 -64 -26 -95c-4 -15 -17 -54 -26 -98c18 2 39 7 41 8c18 7 44 15 61 15c21 0 26 -14 25 -25zM310 13c-2 -13 -15 -24 -30 -24
c-5 0 -19 0 -44 9c-30 11 -34 8 -54 11c-5 -50 -6 -78 -6 -90c0 -32 -2 -78 -5 -100c-2 -12 -11 -31 -32 -31c-7 0 -26 1 -21 31c0 4 4 26 21 77c14 45 19 66 30 113c-16 -3 -20 0 -53 -10c-10 -4 -31 -10 -51 -10c-16 0 -24 11 -22 24c2 11 14 24 30 24c6 0 20 0 45 -9
c30 -11 33 -11 53 -13c5 49 6 80 6 92c0 32 2 78 6 100c2 12 11 30 32 30c7 0 26 0 21 -30c-1 -5 -6 -26 -21 -78c-15 -43 -21 -67 -32 -114c20 2 26 3 48 11c27 8 41 11 57 11c14 0 25 -10 22 -24z" />
    <glyph glyph-name="dblbracketleft" unicode="&#x27e6;" 
d="M324 -61c-3 -14 -11 -24 -25 -24h-192c-14 0 -25 5 -22 27l122 730c4 26 19 26 30 26h189c12 0 24 -2 21 -22c-4 -21 -17 -26 -29 -26h-58l-114 -687h59c15 0 21 -9 19 -24zM202 -37l114 687h-68l-114 -687h68z" />
    <glyph glyph-name="dblbracketright" unicode="&#x27e7;" 
d="M244 -59c-4 -22 -16 -26 -30 -26h-191c-14 0 -21 10 -18 24c2 14 12 24 27 24h59l114 687h-59c-15 0 -21 10 -19 24c3 14 12 24 26 24h195c16 0 20 -13 18 -28zM203 -37l114 687h-68l-114 -687h68z" />
    <glyph glyph-name="uni030F" unicode="&#x30f;" horiz-adv-x="0" 
d="M-103 526c-3 -15 -13 -22 -22 -23c-4 -1 -14 1 -17 7l-41 67c-5 10 -11 19 -10 25c3 16 13 22 19 22c9 0 18 1 26 -13l35 -59c6 -10 11 -19 10 -26zM30 526c-3 -15 -13 -22 -22 -23c-4 -1 -14 1 -17 7l-41 67c-5 10 -11 19 -10 25c3 16 13 22 19 22c9 0 18 1 26 -13
l35 -59c6 -10 11 -19 10 -26z" />
    <glyph glyph-name="dblverticalbar" unicode="&#x2016;" 
d="M122 -49c-2 -12 -9 -37 -29 -37c-18 0 -18 26 -16 37l118 709c2 12 10 37 29 37s18 -26 16 -37zM257 -49c-2 -12 -10 -37 -29 -37c-18 0 -18 26 -16 37l118 709c2 12 10 37 29 37c18 0 18 -26 16 -37z" />
    <glyph glyph-name="Dcaron" unicode="&#x10e;" 
d="M378 300c-26 -159 -112 -300 -200 -300h-140c-8 0 -28 0 -25 20c4 20 24 20 32 20h14l88 531h-14c-8 0 -28 0 -24 20c3 20 23 20 31 20h139c91 0 126 -150 99 -311zM333 301c20 121 10 270 -74 270h-67l-88 -531h68c79 0 140 132 161 261zM349 729c0 -5 -3 -15 -12 -19
l-80 -40c-12 -6 -18 -6 -28 0l-68 40c-7 4 -6 14 -6 19c2 8 7 17 18 17c5 0 10 1 18 -3l59 -29l69 29c9 4 13 3 18 3c11 0 14 -9 12 -17z" />
    <glyph glyph-name="dcaron" unicode="&#x10f;" 
d="M347 20c-3 -20 -22 -20 -30 -20h-47c-24 0 -25 10 -17 58c-18 -24 -55 -64 -101 -64c-70 0 -116 95 -96 218c21 126 103 219 175 219c43 0 66 -35 75 -52l32 192h-30c-8 0 -27 0 -23 20c3 20 22 20 30 20h47c20 0 26 -6 21 -33l-89 -538h30c8 0 27 0 23 -20zM274 186
l14 81c9 57 -11 124 -59 124c-53 0 -111 -75 -129 -179c-16 -97 10 -178 63 -178c56 0 101 91 111 152zM486 548c-13 -79 -71 -112 -84 -112c-6 0 -15 6 -14 14l2 4c40 19 56 48 68 94c-6 -4 -12 -5 -12 -5c-15 0 -27 13 -24 35c3 17 18 33 35 33c20 0 36 -26 29 -63z" />
    <glyph glyph-name="Dcroat" unicode="&#x110;" 
d="M378 300c-26 -159 -112 -300 -200 -300h-140c-8 0 -28 0 -25 20c4 20 24 20 32 20h14l41 246h-20c-8 0 -19 7 -17 20s15 20 23 20h20l41 245h-14c-8 0 -28 0 -24 20c3 20 23 20 31 20h139c91 0 126 -150 99 -311zM333 301c20 121 10 270 -74 270h-67l-41 -245h42
c9 0 19 -7 17 -20s-14 -20 -23 -20h-42l-41 -246h68c79 0 140 132 161 261z" />
    <glyph glyph-name="dcroat" unicode="&#x111;" 
d="M347 20c-3 -20 -22 -20 -30 -20h-47c-24 0 -25 10 -17 58c-18 -24 -55 -64 -101 -64c-70 0 -116 95 -96 218c21 126 103 219 175 219c43 0 66 -35 75 -52l17 99h-104c-9 0 -19 7 -17 20s14 20 23 20h104l9 53h-30c-8 0 -27 0 -23 20c3 20 22 20 30 20h47
c20 0 26 -6 21 -33l-10 -60h35c9 0 19 -7 17 -20s-14 -20 -23 -20h-35l-73 -438h30c8 0 27 0 23 -20zM274 186l14 81c9 57 -11 124 -59 124c-53 0 -111 -75 -129 -179c-16 -97 10 -178 63 -178c56 0 101 91 111 152z" />
    <glyph glyph-name="Ddotbelow" unicode="&#x1e0c;" 
d="M378 300c-26 -159 -112 -300 -200 -300h-140c-8 0 -28 0 -25 20c4 20 24 20 32 20h14l88 531h-14c-8 0 -28 0 -24 20c3 20 23 20 31 20h139c91 0 126 -150 99 -311zM333 301c20 121 10 270 -74 270h-67l-88 -531h68c79 0 140 132 161 261zM134 -170
c-4 -22 -22 -36 -37 -36s-29 14 -25 36c3 22 22 37 37 37s28 -15 25 -37z" />
    <glyph glyph-name="ddotbelow" unicode="&#x1e0d;" 
d="M347 20c-3 -20 -22 -20 -30 -20h-47c-24 0 -25 10 -17 58c-18 -24 -55 -64 -101 -64c-70 0 -116 95 -96 218c21 126 103 219 175 219c43 0 66 -35 75 -52l32 192h-30c-8 0 -27 0 -23 20c3 20 22 20 30 20h47c20 0 26 -6 21 -33l-89 -538h30c8 0 27 0 23 -20zM274 186
l14 81c9 57 -11 124 -59 124c-53 0 -111 -75 -129 -179c-16 -97 10 -178 63 -178c56 0 101 91 111 152zM178 -170c-4 -22 -22 -36 -37 -36s-29 14 -25 36c3 22 22 37 37 37s28 -15 25 -37z" />
    <glyph glyph-name="degree" unicode="&#xb0;" 
d="M314 554c-5 -32 -28 -63 -58 -63c-33 0 -48 25 -42 62c6 32 29 64 59 64c32 0 48 -26 41 -63zM289 553c4 20 -4 37 -20 37c-15 0 -27 -20 -30 -36c-3 -20 5 -35 21 -35c15 0 27 18 29 34z" />
    <glyph glyph-name="Delta" unicode="&#x394;" 
d="M332 12c-6 -12 -16 -12 -25 -12h-265c-6 0 -20 0 -21 9c0 3 2 8 2 8l213 572c13 33 23 36 43 36s29 -3 30 -36zM288 46l-19 518l-191 -518h210z" />
    <glyph glyph-name="diameter" unicode="&#x2300;" 
d="M412 500c0 -4 -5 -10 -8 -14l-44 -52c15 -43 19 -84 12 -128c-19 -115 -102 -206 -180 -206c-32 0 -60 16 -80 41l-37 -44c-5 -5 -11 -9 -17 -9c-10 0 -21 8 -18 23c0 4 5 10 8 14l44 51c-15 45 -19 86 -12 130c19 115 102 206 180 206c32 0 60 -16 80 -41l37 43
c5 5 10 9 17 9c10 0 21 -8 18 -23zM328 306c5 32 6 64 -1 89l-184 -218c19 -22 37 -30 57 -30c59 0 114 73 128 159zM311 435c-22 22 -38 30 -58 30c-59 0 -116 -73 -130 -159c-5 -33 -6 -64 2 -90z" />
    <glyph glyph-name="dieresis" unicode="&#xa8;" 
d="M245 563c-3 -19 -20 -31 -32 -31c-14 0 -27 12 -24 31c3 20 20 33 34 33c13 0 25 -13 22 -33zM350 563c-3 -19 -20 -31 -33 -31s-26 12 -23 31c3 20 20 33 33 33s26 -13 23 -33z" />
    <glyph glyph-name="uni0308" unicode="&#x308;" horiz-adv-x="0" 
d="M-105 563c-3 -19 -20 -31 -32 -31c-14 0 -27 12 -24 31c3 20 20 33 34 33c13 0 25 -13 22 -33zM0 563c-3 -19 -20 -31 -33 -31s-26 12 -23 31c3 20 20 33 33 33s26 -13 23 -33z" />
    <glyph glyph-name="discount" unicode="&#x2052;" 
d="M426 673l-49 -93l-294 -556c-7 -13 -14 -23 -25 -23h-1c-12 0 -18 9 -16 24c2 13 11 24 17 36l320 604c6 12 19 33 32 33c10 0 19 -10 16 -25zM252 627c4 29 1 63 -25 63c-25 0 -42 -29 -47 -61c-5 -29 0 -63 24 -63c22 0 42 26 48 61zM286 71c5 29 0 63 -25 63
c-27 0 -41 -28 -47 -61c-5 -30 1 -64 24 -64c22 0 42 27 48 62z" />
    <glyph glyph-name="divide" unicode="&#xf7;" 
d="M380 306c-4 -23 -26 -23 -34 -23h-248c-8 0 -30 0 -26 23c4 24 28 24 37 24h242c9 0 33 0 29 -24zM298 502c-5 -26 -27 -48 -48 -48c-18 0 -36 21 -31 48c5 29 28 49 48 49c18 0 36 -19 31 -49zM232 110c-4 -27 -27 -48 -48 -48c-18 0 -35 21 -31 48c5 29 29 49 49 49
c18 0 35 -19 30 -49z" />
    <glyph glyph-name="divorced" unicode="&#x26ae;" 
d="M158 307c-17 -104 -86 -214 -164 -214c-75 0 -107 112 -90 213c17 102 92 213 161 213c84 0 110 -109 93 -212zM190 -40c-2 -15 -9 -27 -28 -27c-11 0 -20 6 -17 26l116 693c3 21 14 29 28 29c11 0 21 -5 17 -26zM115 310c12 75 -3 165 -56 165s-99 -90 -112 -168
c-12 -76 0 -169 56 -169c55 0 99 94 112 172zM548 307c-17 -104 -86 -214 -164 -214c-75 0 -107 112 -90 213c17 102 92 213 161 213c84 0 110 -109 93 -212zM505 310c12 75 -3 165 -56 165s-99 -90 -112 -168c-12 -76 0 -169 56 -169c55 0 99 94 112 172z" />
    <glyph glyph-name="Dlinebelow" unicode="&#x1e0e;" 
d="M378 300c-26 -159 -112 -300 -200 -300h-140c-8 0 -28 0 -25 20c4 20 24 20 32 20h14l88 531h-14c-8 0 -28 0 -24 20c3 20 23 20 31 20h139c91 0 126 -150 99 -311zM333 301c20 121 10 270 -74 270h-67l-88 -531h68c79 0 140 132 161 261zM233 -169
c-4 -20 -24 -20 -32 -20h-204c-9 0 -28 0 -24 21c3 20 22 20 30 20h205c9 0 28 0 25 -21z" />
    <glyph glyph-name="dlinebelow" unicode="&#x1e0f;" 
d="M347 20c-3 -20 -22 -20 -30 -20h-47c-24 0 -25 10 -17 58c-18 -24 -55 -64 -101 -64c-70 0 -116 95 -96 218c21 126 103 219 175 219c43 0 66 -35 75 -52l32 192h-30c-8 0 -27 0 -23 20c3 20 22 20 30 20h47c20 0 26 -6 21 -33l-89 -538h30c8 0 27 0 23 -20zM274 186
l14 81c9 57 -11 124 -59 124c-53 0 -111 -75 -129 -179c-16 -97 10 -178 63 -178c56 0 101 91 111 152zM277 -169c-4 -20 -24 -20 -32 -20h-204c-9 0 -28 0 -24 21c3 20 22 20 30 20h205c9 0 28 0 25 -21z" />
    <glyph glyph-name="dong" unicode="&#x20ab;" 
d="M335 50c-3 -18 -22 -18 -30 -18h-44c-23 0 -24 9 -16 55c-17 -23 -53 -61 -96 -61c-66 0 -111 90 -91 207c20 119 99 208 167 208c41 0 62 -34 70 -51l16 95h-98c-9 0 -18 7 -16 19s13 19 22 19h98l9 51h-28c-7 0 -26 0 -23 18c3 19 22 19 29 19h44c19 0 26 -5 22 -30
l-10 -58h33c8 0 18 -7 16 -19s-14 -19 -22 -19h-33l-69 -416h27c8 0 27 0 23 -19zM320 -40c-2 -13 -14 -20 -23 -20h-268c-8 0 -19 7 -17 20s16 20 24 20h268c9 0 18 -7 16 -20zM265 208l12 76c10 55 -9 120 -55 120c-50 0 -105 -73 -121 -171c-16 -93 9 -170 59 -170
c53 0 95 87 105 145z" />
    <glyph glyph-name="dotaccent" unicode="&#x2d9;" 
d="M300 564c-4 -22 -22 -37 -37 -37s-29 15 -25 37s22 37 37 37s29 -15 25 -37z" />
    <glyph glyph-name="uni0307" unicode="&#x307;" horiz-adv-x="0" 
d="M-50 564c-4 -22 -22 -37 -37 -37s-29 15 -25 37s22 37 37 37s29 -15 25 -37z" />
    <glyph glyph-name="uni0323" unicode="&#x323;" horiz-adv-x="0" 
d="M-172 -170c-4 -22 -22 -36 -37 -36s-29 14 -25 36c3 22 22 37 37 37s28 -15 25 -37z" />
    <glyph glyph-name="dotlessi" unicode="&#x131;" 
d="M306 20c-3 -20 -22 -20 -30 -20h-195c-8 0 -29 0 -26 20c4 20 25 20 33 20h80l57 345h-75c-9 0 -28 0 -24 20c3 20 22 20 31 20h92c20 0 27 -5 23 -32l-59 -353h70c8 0 27 0 23 -20z" />
    <glyph glyph-name="uni0237" unicode="&#x237;" 
d="M238 -55c-13 -74 -47 -118 -56 -128c-43 -52 -71 -52 -97 -52s-96 0 -86 64c5 25 24 34 34 34c23 0 22 -31 18 -53c12 -4 28 -5 42 -5c17 0 37 0 62 36c27 39 36 91 39 109l72 435h-86c-10 0 -28 0 -24 20c3 20 23 20 31 20h103c20 0 27 -5 23 -32z" />
    <glyph glyph-name="Eacute" unicode="&#xc9;" 
d="M346 33c-5 -28 -14 -33 -34 -33h-269c-8 0 -28 0 -25 20c4 20 24 20 32 20h19l88 531h-19c-8 0 -28 0 -24 20c3 20 23 20 31 20h254c20 0 27 -6 22 -33l-11 -68c-3 -16 -9 -32 -28 -32s-19 17 -17 32l10 61h-173l-39 -234h94c7 41 13 56 32 56s19 -17 16 -32l-14 -87
c-3 -15 -9 -32 -28 -32s-19 15 -12 55h-94l-43 -257h188l12 76c3 16 10 33 29 33c18 0 19 -18 16 -33zM376 770c-1 -9 -13 -17 -22 -23l-101 -66c-4 -3 -12 -6 -16 -6c-14 0 -20 12 -17 27c1 7 14 16 21 21l88 58c11 7 22 13 31 13c11 0 19 -10 16 -24z" />
    <glyph glyph-name="eacute" unicode="&#xe9;" 
d="M331 103c-4 -26 -54 -109 -141 -109c-84 0 -141 95 -120 221c20 122 105 220 183 220c85 0 118 -92 99 -208c-5 -29 -20 -29 -33 -29h-207c-7 -98 28 -164 87 -164c13 0 60 5 88 65c6 16 11 23 24 23c18 0 21 -14 20 -19zM308 235c9 70 10 159 -62 159
c-44 0 -99 -52 -128 -159h190zM348 599c-2 -9 -13 -17 -22 -23l-101 -66c-4 -3 -12 -6 -16 -6c-14 0 -20 12 -17 27c1 7 13 16 21 21l88 58c11 7 22 13 31 13c11 0 18 -10 16 -24z" />
    <glyph glyph-name="Ebreve" unicode="&#x114;" 
d="M346 33c-5 -28 -14 -33 -34 -33h-269c-8 0 -28 0 -25 20c4 20 24 20 32 20h19l88 531h-19c-8 0 -28 0 -24 20c3 20 23 20 31 20h254c20 0 27 -6 22 -33l-11 -68c-3 -16 -9 -32 -28 -32s-19 17 -17 32l10 61h-173l-39 -234h94c7 41 13 56 32 56s19 -17 16 -32l-14 -87
c-3 -15 -9 -32 -28 -32s-19 15 -12 55h-94l-43 -257h188l12 76c3 16 10 33 29 33c18 0 19 -18 16 -33zM420 749c-13 -74 -90 -74 -133 -74s-120 0 -107 74c3 19 16 22 22 22c11 0 18 -9 17 -24c-1 -18 -2 -30 75 -30c54 0 79 5 85 27c2 6 7 27 24 27c7 0 20 -4 17 -22z" />
    <glyph glyph-name="ebreve" unicode="&#x115;" 
d="M331 103c-4 -26 -54 -109 -141 -109c-84 0 -141 95 -120 221c20 122 105 220 183 220c85 0 118 -92 99 -208c-5 -29 -20 -29 -33 -29h-207c-7 -98 28 -164 87 -164c13 0 60 5 88 65c6 16 11 23 24 23c18 0 21 -14 20 -19zM308 235c9 70 10 159 -62 159
c-44 0 -99 -52 -128 -159h190zM393 590c-12 -74 -89 -74 -132 -74s-120 0 -108 74c4 19 17 22 23 22c11 0 18 -9 17 -24c-1 -18 -2 -30 75 -30c54 0 79 6 85 27c2 6 7 27 24 27c7 0 19 -4 16 -22z" />
    <glyph glyph-name="Ecaron" unicode="&#x11a;" 
d="M346 33c-5 -28 -14 -33 -34 -33h-269c-8 0 -28 0 -25 20c4 20 24 20 32 20h19l88 531h-19c-8 0 -28 0 -24 20c3 20 23 20 31 20h254c20 0 27 -6 22 -33l-11 -68c-3 -16 -9 -32 -28 -32s-19 17 -17 32l10 61h-173l-39 -234h94c7 41 13 56 32 56s19 -17 16 -32l-14 -87
c-3 -15 -9 -32 -28 -32s-19 15 -12 55h-94l-43 -257h188l12 76c3 16 10 33 29 33c18 0 19 -18 16 -33zM393 729c0 -5 -3 -15 -12 -19l-80 -40c-12 -6 -18 -6 -28 0l-68 40c-7 4 -6 14 -6 19c2 8 7 17 18 17c5 0 10 1 18 -3l59 -29l69 29c9 4 13 3 18 3c11 0 14 -9 12 -17z
" />
    <glyph glyph-name="ecaron" unicode="&#x11b;" 
d="M331 103c-4 -26 -54 -109 -141 -109c-84 0 -141 95 -120 221c20 122 105 220 183 220c85 0 118 -92 99 -208c-5 -29 -20 -29 -33 -29h-207c-7 -98 28 -164 87 -164c13 0 60 5 88 65c6 16 11 23 24 23c18 0 21 -14 20 -19zM308 235c9 70 10 159 -62 159
c-44 0 -99 -52 -128 -159h190zM375 600c-1 -5 -9 -14 -15 -19l-85 -68c-11 -8 -23 -8 -30 0l-63 68c-4 5 -10 14 -9 19c2 14 9 20 20 20c5 0 12 -1 19 -8l55 -57l73 57c9 7 16 8 21 8c11 0 16 -6 14 -20z" />
    <glyph glyph-name="Ecircumflex" unicode="&#xca;" 
d="M346 33c-5 -28 -14 -33 -34 -33h-269c-8 0 -28 0 -25 20c4 20 24 20 32 20h19l88 531h-19c-8 0 -28 0 -24 20c3 20 23 20 31 20h254c20 0 27 -6 22 -33l-11 -68c-3 -16 -9 -32 -28 -32s-19 17 -17 32l10 61h-173l-39 -234h94c7 41 13 56 32 56s19 -17 16 -32l-14 -87
c-3 -15 -9 -32 -28 -32s-19 15 -12 55h-94l-43 -257h188l12 76c3 16 10 33 29 33c18 0 19 -18 16 -33zM386 683c-2 -8 -7 -17 -18 -17c-5 0 -10 -1 -18 3l-59 29l-69 -29c-9 -4 -13 -3 -18 -3c-11 0 -14 9 -12 17c1 5 3 15 12 19l81 40c12 6 18 6 28 0l67 -40
c7 -4 7 -14 6 -19z" />
    <glyph glyph-name="ecircumflex" unicode="&#xea;" 
d="M331 103c-4 -26 -54 -109 -141 -109c-84 0 -141 95 -120 221c20 122 105 220 183 220c85 0 118 -92 99 -208c-5 -29 -20 -29 -33 -29h-207c-7 -98 28 -164 87 -164c13 0 60 5 88 65c6 16 11 23 24 23c18 0 21 -14 20 -19zM308 235c9 70 10 159 -62 159
c-44 0 -99 -52 -128 -159h190zM363 527c-2 -14 -9 -20 -20 -20c-5 0 -12 1 -19 8l-55 57l-73 -57c-9 -7 -16 -8 -21 -8c-11 0 -16 6 -14 20c1 5 9 14 15 19l85 68c11 8 23 8 30 0l63 -68c4 -5 10 -14 9 -19z" />
    <glyph glyph-name="Ecircumflexacute" unicode="&#x1ebe;" 
d="M346 33c-5 -28 -14 -33 -34 -33h-269c-8 0 -28 0 -25 20c4 20 24 20 32 20h19l88 531h-19c-8 0 -28 0 -24 20c3 20 23 20 31 20h254c20 0 27 -6 22 -33l-11 -68c-3 -16 -9 -32 -28 -32s-19 17 -17 32l10 61h-173l-39 -234h94c7 41 13 56 32 56s19 -17 16 -32l-14 -87
c-3 -15 -9 -32 -28 -32s-19 15 -12 55h-94l-43 -257h188l12 76c3 16 10 33 29 33c18 0 19 -18 16 -33zM386 683c-2 -8 -7 -17 -18 -17c-5 0 -10 -1 -18 3l-59 29l-69 -29c-9 -4 -13 -3 -18 -3c-11 0 -14 9 -12 17c1 5 3 15 12 19l81 40c12 6 18 6 28 0l67 -40
c7 -4 7 -14 6 -19zM391 861c-1 -9 -12 -17 -21 -23l-101 -66c-5 -3 -12 -6 -16 -6c-14 0 -20 12 -18 27c1 7 14 16 22 21l87 58c11 7 22 13 31 13c11 0 19 -10 16 -24z" />
    <glyph glyph-name="ecircumflexacute" unicode="&#x1ebf;" 
d="M331 103c-4 -26 -54 -109 -141 -109c-84 0 -141 95 -120 221c20 122 105 220 183 220c85 0 118 -92 99 -208c-5 -29 -20 -29 -33 -29h-207c-7 -98 28 -164 87 -164c13 0 60 5 88 65c6 16 11 23 24 23c18 0 21 -14 20 -19zM308 235c9 70 10 159 -62 159
c-44 0 -99 -52 -128 -159h190zM359 524c-1 -8 -6 -17 -17 -17c-5 0 -11 -1 -18 3l-59 29l-69 -29c-10 -4 -13 -3 -18 -3c-11 0 -14 9 -13 17c1 5 4 15 13 19l80 40c12 6 18 6 28 0l68 -40c7 -4 6 -14 5 -19zM365 702c-1 -9 -13 -17 -22 -23l-101 -66c-4 -3 -12 -6 -16 -6
c-14 0 -20 12 -17 27c1 7 13 16 21 21l88 58c11 7 22 13 31 13c11 0 18 -10 16 -24z" />
    <glyph glyph-name="Ecircumflexdotbelow" unicode="&#x1ec6;" 
d="M346 33c-5 -28 -14 -33 -34 -33h-269c-8 0 -28 0 -25 20c4 20 24 20 32 20h19l88 531h-19c-8 0 -28 0 -24 20c3 20 23 20 31 20h254c20 0 27 -6 22 -33l-11 -68c-3 -16 -9 -32 -28 -32s-19 17 -17 32l10 61h-173l-39 -234h94c7 41 13 56 32 56s19 -17 16 -32l-14 -87
c-3 -15 -9 -32 -28 -32s-19 15 -12 55h-94l-43 -257h188l12 76c3 16 10 33 29 33c18 0 19 -18 16 -33zM386 683c-2 -8 -7 -17 -18 -17c-5 0 -10 -1 -18 3l-59 29l-69 -29c-9 -4 -13 -3 -18 -3c-11 0 -14 9 -12 17c1 5 3 15 12 19l81 40c12 6 18 6 28 0l67 -40
c7 -4 7 -14 6 -19zM178 -170c-4 -22 -22 -36 -37 -36s-29 14 -25 36c3 22 22 37 37 37s28 -15 25 -37z" />
    <glyph glyph-name="ecircumflexdotbelow" unicode="&#x1ec7;" 
d="M331 103c-4 -26 -54 -109 -141 -109c-84 0 -141 95 -120 221c20 122 105 220 183 220c85 0 118 -92 99 -208c-5 -29 -20 -29 -33 -29h-207c-7 -98 28 -164 87 -164c13 0 60 5 88 65c6 16 11 23 24 23c18 0 21 -14 20 -19zM308 235c9 70 10 159 -62 159
c-44 0 -99 -52 -128 -159h190zM363 527c-2 -14 -9 -20 -20 -20c-5 0 -12 1 -19 8l-55 57l-73 -57c-9 -7 -16 -8 -21 -8c-11 0 -16 6 -14 20c1 5 9 14 15 19l85 68c11 8 23 8 30 0l63 -68c4 -5 10 -14 9 -19zM178 -170c-4 -22 -22 -36 -37 -36s-29 14 -25 36
c3 22 22 37 37 37s28 -15 25 -37z" />
    <glyph glyph-name="Ecircumflexgrave" unicode="&#x1ec0;" 
d="M346 33c-5 -28 -14 -33 -34 -33h-269c-8 0 -28 0 -25 20c4 20 24 20 32 20h19l88 531h-19c-8 0 -28 0 -24 20c3 20 23 20 31 20h254c20 0 27 -6 22 -33l-11 -68c-3 -16 -9 -32 -28 -32s-19 17 -17 32l10 61h-173l-39 -234h94c7 41 13 56 32 56s19 -17 16 -32l-14 -87
c-3 -15 -9 -32 -28 -32s-19 15 -12 55h-94l-43 -257h188l12 76c3 16 10 33 29 33c18 0 19 -18 16 -33zM386 683c-2 -8 -7 -17 -18 -17c-5 0 -10 -1 -18 3l-59 29l-69 -29c-9 -4 -13 -3 -18 -3c-11 0 -14 9 -12 17c1 5 3 15 12 19l81 40c12 6 18 6 28 0l67 -40
c7 -4 7 -14 6 -19zM380 793c1 7 -8 16 -14 21l-69 58c-9 7 -18 13 -27 13c-11 0 -21 -10 -24 -24c-1 -9 8 -17 15 -23l79 -66c3 -3 10 -6 14 -6c14 0 24 12 26 27z" />
    <glyph glyph-name="ecircumflexgrave" unicode="&#x1ec1;" 
d="M331 103c-4 -26 -54 -109 -141 -109c-84 0 -141 95 -120 221c20 122 105 220 183 220c85 0 118 -92 99 -208c-5 -29 -20 -29 -33 -29h-207c-7 -98 28 -164 87 -164c13 0 60 5 88 65c6 16 11 23 24 23c18 0 21 -14 20 -19zM308 235c9 70 10 159 -62 159
c-44 0 -99 -52 -128 -159h190zM359 524c-1 -8 -6 -17 -17 -17c-5 0 -11 -1 -18 3l-59 29l-69 -29c-10 -4 -13 -3 -18 -3c-11 0 -14 9 -13 17c1 5 4 15 13 19l80 40c12 6 18 6 28 0l68 -40c7 -4 6 -14 5 -19zM354 634c1 7 -9 16 -15 21l-68 58c-9 7 -18 13 -27 13
c-11 0 -22 -10 -24 -24c-1 -9 7 -17 14 -23l79 -66c4 -3 10 -6 14 -6c14 0 24 12 27 27z" />
    <glyph glyph-name="Ecircumflexhookabove" unicode="&#x1ec2;" 
d="M346 33c-5 -28 -14 -33 -34 -33h-269c-8 0 -28 0 -25 20c4 20 24 20 32 20h19l88 531h-19c-8 0 -28 0 -24 20c3 20 23 20 31 20h254c20 0 27 -6 22 -33l-11 -68c-3 -16 -9 -32 -28 -32s-19 17 -17 32l10 61h-173l-39 -234h94c7 41 13 56 32 56s19 -17 16 -32l-14 -87
c-3 -15 -9 -32 -28 -32s-19 15 -12 55h-94l-43 -257h188l12 76c3 16 10 33 29 33c18 0 19 -18 16 -33zM386 683c-2 -8 -7 -17 -18 -17c-5 0 -10 -1 -18 3l-59 29l-69 -29c-9 -4 -13 -3 -18 -3c-11 0 -14 9 -12 17c1 5 3 15 12 19l81 40c12 6 18 6 28 0l67 -40
c7 -4 7 -14 6 -19zM458 893c-4 -21 -17 -37 -30 -48c-28 -20 -40 -42 -44 -64l-3 -19c-2 -11 -13 -16 -20 -16c-8 0 -17 5 -15 16l3 19c7 41 36 69 65 91c7 5 9 14 10 21c4 27 -7 40 -32 40c-14 0 -27 -10 -30 -24l-2 -16c-2 -8 -11 -18 -21 -18s-17 7 -15 19
c8 47 44 72 74 72c39 0 68 -26 60 -73z" />
    <glyph glyph-name="ecircumflexhookabove" unicode="&#x1ec3;" 
d="M331 103c-4 -26 -54 -109 -141 -109c-84 0 -141 95 -120 221c20 122 105 220 183 220c85 0 118 -92 99 -208c-5 -29 -20 -29 -33 -29h-207c-7 -98 28 -164 87 -164c13 0 60 5 88 65c6 16 11 23 24 23c18 0 21 -14 20 -19zM308 235c9 70 10 159 -62 159
c-44 0 -99 -52 -128 -159h190zM359 524c-1 -8 -6 -17 -17 -17c-5 0 -11 -1 -18 3l-59 29l-69 -29c-10 -4 -13 -3 -18 -3c-11 0 -14 9 -13 17c1 5 4 15 13 19l80 40c12 6 18 6 28 0l68 -40c7 -4 6 -14 5 -19zM431 734c-3 -21 -17 -37 -30 -48c-27 -20 -40 -42 -43 -64l-3 -19
c-2 -11 -13 -16 -20 -16c-8 0 -17 5 -15 16l3 19c7 41 35 69 65 91c7 5 8 14 9 21c5 27 -6 40 -31 40c-14 0 -28 -10 -30 -24l-3 -16c-1 -8 -11 -18 -21 -18s-16 7 -14 19c7 47 44 72 74 72c39 0 67 -26 59 -73z" />
    <glyph glyph-name="Ecircumflextilde" unicode="&#x1ec4;" 
d="M346 33c-5 -28 -14 -33 -34 -33h-269c-8 0 -28 0 -25 20c4 20 24 20 32 20h19l88 531h-19c-8 0 -28 0 -24 20c3 20 23 20 31 20h254c20 0 27 -6 22 -33l-11 -68c-3 -16 -9 -32 -28 -32s-19 17 -17 32l10 61h-173l-39 -234h94c7 41 13 56 32 56s19 -17 16 -32l-14 -87
c-3 -15 -9 -32 -28 -32s-19 15 -12 55h-94l-43 -257h188l12 76c3 16 10 33 29 33c18 0 19 -18 16 -33zM386 683c-2 -8 -7 -17 -18 -17c-5 0 -10 -1 -18 3l-59 29l-69 -29c-9 -4 -13 -3 -18 -3c-11 0 -14 9 -12 17c1 5 3 15 12 19l81 40c12 6 18 6 28 0l67 -40
c7 -4 7 -14 6 -19zM439 867c0 -4 -4 -11 -12 -18c-37 -36 -64 -63 -88 -63c-19 0 -30 12 -44 44c-3 8 -6 14 -12 14c-17 0 -56 -44 -63 -52c-4 -4 -8 -6 -13 -6c-8 0 -19 8 -17 20c1 4 6 10 13 18c37 36 65 63 89 63c18 0 30 -12 43 -44c4 -9 7 -14 12 -14c17 0 55 44 63 52
c4 4 9 6 13 6c9 0 18 -8 16 -20z" />
    <glyph glyph-name="ecircumflextilde" unicode="&#x1ec5;" 
d="M331 103c-4 -26 -54 -109 -141 -109c-84 0 -141 95 -120 221c20 122 105 220 183 220c85 0 118 -92 99 -208c-5 -29 -20 -29 -33 -29h-207c-7 -98 28 -164 87 -164c13 0 60 5 88 65c6 16 11 23 24 23c18 0 21 -14 20 -19zM308 235c9 70 10 159 -62 159
c-44 0 -99 -52 -128 -159h190zM359 524c-1 -8 -6 -17 -17 -17c-5 0 -11 -1 -18 3l-59 29l-69 -29c-10 -4 -13 -3 -18 -3c-11 0 -14 9 -13 17c1 5 4 15 13 19l80 40c12 6 18 6 28 0l68 -40c7 -4 6 -14 5 -19zM413 708c-1 -4 -5 -11 -12 -18c-37 -36 -64 -63 -88 -63
c-19 0 -30 12 -44 44c-4 8 -7 14 -13 14c-17 0 -55 -44 -62 -52c-4 -4 -8 -6 -13 -6c-8 0 -19 8 -17 20c1 4 6 10 13 18c37 36 64 63 88 63c18 0 30 -12 44 -44c4 -9 7 -14 12 -14c17 0 55 44 62 52c5 4 9 6 13 6c9 0 19 -8 17 -20z" />
    <glyph glyph-name="Edblgrave" unicode="&#x204;" 
d="M346 33c-5 -28 -14 -33 -34 -33h-269c-8 0 -28 0 -25 20c4 20 24 20 32 20h19l88 531h-19c-8 0 -28 0 -24 20c3 20 23 20 31 20h254c20 0 27 -6 22 -33l-11 -68c-3 -16 -9 -32 -28 -32s-19 17 -17 32l10 61h-173l-39 -234h94c7 41 13 56 32 56s19 -17 16 -32l-14 -87
c-3 -15 -9 -32 -28 -32s-19 15 -12 55h-94l-43 -257h188l12 76c3 16 10 33 29 33c18 0 19 -18 16 -33zM275 699c-2 -15 -12 -22 -21 -23c-5 -1 -14 1 -17 7l-41 67c-5 10 -11 19 -10 25c3 16 13 22 19 22c9 0 18 1 26 -13l35 -59c6 -10 11 -19 9 -26zM408 699
c-2 -15 -12 -22 -21 -23c-5 -1 -14 1 -17 7l-41 67c-5 10 -11 19 -10 25c3 16 13 22 19 22c9 0 18 1 26 -13l35 -59c6 -10 11 -19 9 -26z" />
    <glyph glyph-name="edblgrave" unicode="&#x205;" 
d="M331 103c-4 -26 -54 -109 -141 -109c-84 0 -141 95 -120 221c20 122 105 220 183 220c85 0 118 -92 99 -208c-5 -29 -20 -29 -33 -29h-207c-7 -98 28 -164 87 -164c13 0 60 5 88 65c6 16 11 23 24 23c18 0 21 -14 20 -19zM308 235c9 70 10 159 -62 159
c-44 0 -99 -52 -128 -159h190zM247 526c-3 -15 -13 -22 -22 -23c-4 -1 -14 1 -17 7l-41 67c-5 10 -11 19 -10 25c3 16 13 22 19 22c9 0 18 1 26 -13l35 -59c6 -10 11 -19 10 -26zM380 526c-3 -15 -13 -22 -22 -23c-4 -1 -14 1 -17 7l-41 67c-5 10 -11 19 -10 25
c3 16 13 22 19 22c9 0 18 1 26 -13l35 -59c6 -10 11 -19 10 -26z" />
    <glyph glyph-name="Edieresis" unicode="&#xcb;" 
d="M346 33c-5 -28 -14 -33 -34 -33h-269c-8 0 -28 0 -25 20c4 20 24 20 32 20h19l88 531h-19c-8 0 -28 0 -24 20c3 20 23 20 31 20h254c20 0 27 -6 22 -33l-11 -68c-3 -16 -9 -32 -28 -32s-19 17 -17 32l10 61h-173l-39 -234h94c7 41 13 56 32 56s19 -17 16 -32l-14 -87
c-3 -15 -9 -32 -28 -32s-19 15 -12 55h-94l-43 -257h188l12 76c3 16 10 33 29 33c18 0 19 -18 16 -33zM258 697c-3 -19 -20 -32 -33 -32s-26 13 -23 32c3 20 20 32 33 32s26 -12 23 -32zM381 697c-3 -19 -20 -32 -33 -32s-26 13 -23 32c3 20 20 32 33 32s26 -12 23 -32z" />
    <glyph glyph-name="edieresis" unicode="&#xeb;" 
d="M331 103c-4 -26 -54 -109 -141 -109c-84 0 -141 95 -120 221c20 122 105 220 183 220c85 0 118 -92 99 -208c-5 -29 -20 -29 -33 -29h-207c-7 -98 28 -164 87 -164c13 0 60 5 88 65c6 16 11 23 24 23c18 0 21 -14 20 -19zM308 235c9 70 10 159 -62 159
c-44 0 -99 -52 -128 -159h190zM245 563c-3 -19 -20 -31 -32 -31c-14 0 -27 12 -24 31c3 20 20 33 34 33c13 0 25 -13 22 -33zM350 563c-3 -19 -20 -31 -33 -31s-26 12 -23 31c3 20 20 33 33 33s26 -13 23 -33z" />
    <glyph glyph-name="Edotaccent" unicode="&#x116;" 
d="M346 33c-5 -28 -14 -33 -34 -33h-269c-8 0 -28 0 -25 20c4 20 24 20 32 20h19l88 531h-19c-8 0 -28 0 -24 20c3 20 23 20 31 20h254c20 0 27 -6 22 -33l-11 -68c-3 -16 -9 -32 -28 -32s-19 17 -17 32l10 61h-173l-39 -234h94c7 41 13 56 32 56s19 -17 16 -32l-14 -87
c-3 -15 -9 -32 -28 -32s-19 15 -12 55h-94l-43 -257h188l12 76c3 16 10 33 29 33c18 0 19 -18 16 -33zM325 714c-4 -22 -22 -37 -37 -37s-29 15 -25 37s22 37 37 37s29 -15 25 -37z" />
    <glyph glyph-name="edotaccent" unicode="&#x117;" 
d="M331 103c-4 -26 -54 -109 -141 -109c-84 0 -141 95 -120 221c20 122 105 220 183 220c85 0 118 -92 99 -208c-5 -29 -20 -29 -33 -29h-207c-7 -98 28 -164 87 -164c13 0 60 5 88 65c6 16 11 23 24 23c18 0 21 -14 20 -19zM308 235c9 70 10 159 -62 159
c-44 0 -99 -52 -128 -159h190zM300 564c-4 -22 -22 -37 -37 -37s-29 15 -25 37s22 37 37 37s29 -15 25 -37z" />
    <glyph glyph-name="Edotbelow" unicode="&#x1eb8;" 
d="M346 33c-5 -28 -14 -33 -34 -33h-269c-8 0 -28 0 -25 20c4 20 24 20 32 20h19l88 531h-19c-8 0 -28 0 -24 20c3 20 23 20 31 20h254c20 0 27 -6 22 -33l-11 -68c-3 -16 -9 -32 -28 -32s-19 17 -17 32l10 61h-173l-39 -234h94c7 41 13 56 32 56s19 -17 16 -32l-14 -87
c-3 -15 -9 -32 -28 -32s-19 15 -12 55h-94l-43 -257h188l12 76c3 16 10 33 29 33c18 0 19 -18 16 -33zM178 -170c-4 -22 -22 -36 -37 -36s-29 14 -25 36c3 22 22 37 37 37s28 -15 25 -37z" />
    <glyph glyph-name="edotbelow" unicode="&#x1eb9;" 
d="M331 103c-4 -26 -54 -109 -141 -109c-84 0 -141 95 -120 221c20 122 105 220 183 220c85 0 118 -92 99 -208c-5 -29 -20 -29 -33 -29h-207c-7 -98 28 -164 87 -164c13 0 60 5 88 65c6 16 11 23 24 23c18 0 21 -14 20 -19zM308 235c9 70 10 159 -62 159
c-44 0 -99 -52 -128 -159h190zM178 -170c-4 -22 -22 -36 -37 -36s-29 14 -25 36c3 22 22 37 37 37s28 -15 25 -37z" />
    <glyph glyph-name="Egrave" unicode="&#xc8;" 
d="M346 33c-5 -28 -14 -33 -34 -33h-269c-8 0 -28 0 -25 20c4 20 24 20 32 20h19l88 531h-19c-8 0 -28 0 -24 20c3 20 23 20 31 20h254c20 0 27 -6 22 -33l-11 -68c-3 -16 -9 -32 -28 -32s-19 17 -17 32l10 61h-173l-39 -234h94c7 41 13 56 32 56s19 -17 16 -32l-14 -87
c-3 -15 -9 -32 -28 -32s-19 15 -12 55h-94l-43 -257h188l12 76c3 16 10 33 29 33c18 0 19 -18 16 -33zM364 702c-3 -15 -13 -27 -27 -27c-4 0 -10 3 -14 6l-79 66c-7 6 -15 14 -14 23c3 14 13 24 24 24c9 0 18 -6 27 -13l68 -58c7 -5 16 -14 15 -21z" />
    <glyph glyph-name="egrave" unicode="&#xe8;" 
d="M331 103c-4 -26 -54 -109 -141 -109c-84 0 -141 95 -120 221c20 122 105 220 183 220c85 0 118 -92 99 -208c-5 -29 -20 -29 -33 -29h-207c-7 -98 28 -164 87 -164c13 0 60 5 88 65c6 16 11 23 24 23c18 0 21 -14 20 -19zM308 235c9 70 10 159 -62 159
c-44 0 -99 -52 -128 -159h190zM336 531c-3 -15 -13 -27 -27 -27c-4 0 -10 3 -14 6l-79 66c-7 6 -16 14 -14 23c2 14 13 24 24 24c9 0 18 -6 27 -13l68 -58c6 -5 16 -14 15 -21z" />
    <glyph glyph-name="Ehookabove" unicode="&#x1eba;" 
d="M346 33c-5 -28 -14 -33 -34 -33h-269c-8 0 -28 0 -25 20c4 20 24 20 32 20h19l88 531h-19c-8 0 -28 0 -24 20c3 20 23 20 31 20h254c20 0 27 -6 22 -33l-11 -68c-3 -16 -9 -32 -28 -32s-19 17 -17 32l10 61h-173l-39 -234h94c7 41 13 56 32 56s19 -17 16 -32l-14 -87
c-3 -15 -9 -32 -28 -32s-19 15 -12 55h-94l-43 -257h188l12 76c3 16 10 33 29 33c18 0 19 -18 16 -33zM379 824c-3 -21 -17 -37 -30 -48c-27 -20 -40 -42 -43 -64l-4 -19c-1 -11 -12 -16 -19 -16c-8 0 -17 5 -16 16l4 19c6 41 35 69 65 91c7 5 8 14 9 21c5 27 -6 40 -31 40
c-14 0 -28 -10 -30 -24l-3 -16c-1 -8 -11 -18 -21 -18s-17 7 -15 19c8 47 44 72 74 72c39 0 68 -26 60 -73z" />
    <glyph glyph-name="ehookabove" unicode="&#x1ebb;" 
d="M331 103c-4 -26 -54 -109 -141 -109c-84 0 -141 95 -120 221c20 122 105 220 183 220c85 0 118 -92 99 -208c-5 -29 -20 -29 -33 -29h-207c-7 -98 28 -164 87 -164c13 0 60 5 88 65c6 16 11 23 24 23c18 0 21 -14 20 -19zM308 235c9 70 10 159 -62 159
c-44 0 -99 -52 -128 -159h190zM342 601c-3 -21 -17 -37 -30 -48c-27 -20 -40 -42 -43 -64l-4 -19c-1 -11 -12 -16 -19 -16c-8 0 -17 5 -16 16l4 19c6 41 35 69 65 91c7 5 8 14 9 21c5 27 -6 40 -31 40c-14 0 -28 -10 -30 -24l-3 -16c-1 -8 -11 -18 -21 -18s-17 7 -15 19
c8 47 44 72 74 72c39 0 68 -26 60 -73z" />
    <glyph glyph-name="ellipsis" unicode="&#x2026;" 
d="M102 48c-4 -26 -27 -48 -48 -48c-19 0 -35 21 -31 48c5 29 28 49 48 49c18 0 36 -19 31 -49zM222 48c-4 -26 -27 -48 -47 -48c-19 0 -35 21 -31 48c5 29 28 49 48 49c17 0 35 -19 30 -49zM342 48c-4 -26 -27 -48 -47 -48c-19 0 -35 21 -31 48c5 29 28 49 48 49
c18 0 35 -19 30 -49z" />
    <glyph glyph-name="Emacron" unicode="&#x112;" 
d="M346 33c-5 -28 -14 -33 -34 -33h-269c-8 0 -28 0 -25 20c4 20 24 20 32 20h19l88 531h-19c-8 0 -28 0 -24 20c3 20 23 20 31 20h254c20 0 27 -6 22 -33l-11 -68c-3 -16 -9 -32 -28 -32s-19 17 -17 32l10 61h-173l-39 -234h94c7 41 13 56 32 56s19 -17 16 -32l-14 -87
c-3 -15 -9 -32 -28 -32s-19 15 -12 55h-94l-43 -257h188l12 76c3 16 10 33 29 33c18 0 19 -18 16 -33zM422 705c-3 -20 -23 -20 -31 -20h-204c-9 0 -28 0 -24 21c3 20 22 20 30 20h205c9 0 28 0 24 -21z" />
    <glyph glyph-name="emacron" unicode="&#x113;" 
d="M331 103c-4 -26 -54 -109 -141 -109c-84 0 -141 95 -120 221c20 122 105 220 183 220c85 0 118 -92 99 -208c-5 -29 -20 -29 -33 -29h-207c-7 -98 28 -164 87 -164c13 0 60 5 88 65c6 16 11 23 24 23c18 0 21 -14 20 -19zM308 235c9 70 10 159 -62 159
c-44 0 -99 -52 -128 -159h190zM399 563c-3 -20 -23 -20 -31 -20h-204c-9 0 -28 0 -25 21c3 20 22 20 30 20h205c9 0 28 0 25 -21z" />
    <glyph glyph-name="emdash" unicode="&#x2014;" 
d="M367 305c-4 -23 -27 -23 -35 -23h-220c-9 0 -31 0 -27 24c4 23 27 23 35 23h220c8 0 31 0 27 -24z" />
    <glyph glyph-name="endash" unicode="&#x2013;" 
d="M367 305c-4 -23 -27 -23 -35 -23h-220c-9 0 -31 0 -27 24c4 23 27 23 35 23h220c8 0 31 0 27 -24z" />
    <glyph glyph-name="Eng" unicode="&#x14a;" 
d="M384 306c-25 -150 -63 -318 -151 -318c-13 0 -26 12 -23 32c4 20 21 33 34 33c8 0 13 -4 17 -11c40 32 61 158 79 264c22 130 26 271 -51 271c-46 0 -88 -58 -108 -132l-67 -405h29c8 0 28 0 24 -20c-3 -20 -23 -20 -31 -20h-103c-8 0 -28 0 -25 20c4 20 24 20 32 20h29
l88 531h-29c-8 0 -28 0 -24 20c3 20 23 20 31 20h46c20 0 27 -6 21 -43c29 35 61 55 95 55c108 0 115 -149 87 -317z" />
    <glyph glyph-name="eng" unicode="&#x14b;" 
d="M318 50c-11 -68 -26 -140 -48 -195c-23 -57 -53 -97 -94 -97c-11 0 -21 9 -18 24c2 14 14 23 25 23c49 0 72 134 90 245l40 238c11 64 12 103 -32 103c-40 0 -95 -49 -112 -154l-33 -197h30c8 0 27 0 23 -20c-3 -20 -22 -20 -30 -20h-104c-8 0 -27 0 -24 20
c4 20 23 20 31 20h30l57 345h-30c-8 0 -27 0 -23 20c3 20 22 20 30 20h47c24 0 25 -10 18 -53c16 20 54 59 101 59c55 0 83 -42 67 -138z" />
    <glyph glyph-name="Eogonek" unicode="&#x118;" 
d="M346 33c-5 -28 -14 -33 -34 -33h-14c-45 -34 -74 -76 -82 -123c-4 -29 8 -50 23 -50c14 0 34 21 44 38c5 6 21 12 27 5c4 -5 4 -14 1 -18c-23 -35 -54 -62 -81 -62c-41 0 -61 47 -54 89c7 45 29 78 82 121h-215c-8 0 -28 0 -25 20c4 20 24 20 32 20h19l88 531h-19
c-8 0 -28 0 -24 20c3 20 23 20 31 20h254c20 0 27 -6 22 -33l-11 -68c-3 -16 -9 -32 -28 -32s-19 17 -17 32l10 61h-173l-39 -234h94c7 41 13 56 32 56s19 -17 16 -32l-14 -87c-3 -15 -9 -32 -28 -32s-19 15 -12 55h-94l-43 -257h188l12 76c3 16 10 33 29 33
c18 0 19 -18 16 -33z" />
    <glyph glyph-name="eogonek" unicode="&#x119;" 
d="M331 103c-2 -11 -16 -31 -27 -50c-21 -36 -69 -60 -99 -87c-33 -31 -47 -64 -52 -89c-4 -29 8 -50 23 -50c14 0 34 21 44 38c5 6 21 12 27 5c4 -5 4 -14 0 -18c-23 -35 -53 -62 -80 -62c-41 0 -61 47 -54 89c7 44 27 73 77 113c-91 16 -140 106 -120 223
c20 122 105 220 183 220c85 0 118 -92 99 -208c-5 -29 -20 -29 -33 -29h-207c-7 -98 28 -164 87 -164c13 0 60 5 88 65c6 16 11 23 24 23c18 0 21 -14 20 -19zM308 235c9 70 10 159 -62 159c-44 0 -99 -52 -128 -159h190z" />
    <glyph glyph-name="Epsilon" unicode="&#x395;" 
d="M346 33c-5 -28 -14 -33 -34 -33h-269c-8 0 -28 0 -25 20c4 20 24 20 32 20h19l88 531h-19c-8 0 -28 0 -24 20c3 20 23 20 31 20h254c20 0 27 -6 22 -33l-11 -68c-3 -16 -9 -32 -28 -32s-19 17 -17 32l10 61h-173l-39 -234h94c7 41 13 56 32 56s19 -17 16 -32l-14 -87
c-3 -15 -9 -32 -28 -32s-19 15 -12 55h-94l-43 -257h188l12 76c3 16 10 33 29 33c18 0 19 -18 16 -33z" />
    <glyph glyph-name="Ereversed" unicode="&#x18e;" 
d="M343 20c-3 -20 -23 -20 -31 -20h-269c-20 0 -27 5 -22 33l13 83c3 15 10 33 28 33c19 0 20 -17 17 -33l-12 -76h188l43 257h-94c-7 -40 -13 -55 -32 -55s-19 17 -16 32l14 87c3 15 9 32 28 32s19 -15 12 -56h94l39 234h-173l-10 -61c-2 -15 -8 -32 -27 -32s-21 16 -18 32
l11 68c5 27 14 33 34 33h254c8 0 28 0 25 -20c-4 -20 -24 -20 -32 -20h-19l-88 -531h19c8 0 28 0 24 -20z" />
    <glyph glyph-name="ereversed" unicode="&#x258;" 
d="M350 215c-21 -126 -110 -221 -194 -221c-87 0 -109 83 -105 109c1 5 8 19 26 19c13 0 16 -7 18 -23c8 -60 53 -65 66 -65c59 0 116 66 141 164h-207c-13 0 -28 0 -23 29c19 116 84 208 169 208c78 0 129 -98 109 -220zM308 235c7 107 -30 159 -74 159
c-72 0 -101 -89 -116 -159h190z" />
    <glyph glyph-name="estimated" unicode="&#x212e;" 
d="M381 328c-4 -23 -17 -27 -31 -27h-241l-3 -44c-8 -90 12 -222 92 -222c29 0 61 11 86 43c16 19 36 44 39 44c9 0 22 0 20 -17l-1 -2c-39 -83 -104 -108 -156 -108c-114 0 -142 174 -118 315c20 120 103 312 214 312c40 0 73 -26 91 -72c24 -58 21 -142 9 -215zM338 339
c18 110 14 242 -63 242c-72 0 -132 -131 -157 -242h220z" />
    <glyph glyph-name="Eta" unicode="&#x397;" 
d="M341 20c-3 -20 -22 -20 -31 -20h-76c-8 0 -28 0 -25 20c4 20 24 20 32 20h16l43 258h-150l-43 -258h16c8 0 28 0 24 -20c-3 -20 -23 -20 -31 -20h-77c-8 0 -27 0 -24 20c4 20 23 20 31 20h16l88 531h-16c-8 0 -27 0 -23 20c3 20 22 20 30 20h77c8 0 28 0 25 -20
c-4 -20 -24 -20 -32 -20h-16l-38 -232h150l38 232h-16c-8 0 -28 0 -24 20c3 20 23 20 31 20h76c9 0 28 0 25 -20c-4 -20 -24 -20 -32 -20h-16l-88 -531h16c8 0 28 0 24 -20z" />
    <glyph glyph-name="Eth" unicode="&#xd0;" 
d="M378 300c-26 -159 -112 -300 -200 -300h-140c-8 0 -28 0 -25 20c4 20 24 20 32 20h14l41 246h-20c-8 0 -19 7 -17 20s15 20 23 20h20l41 245h-14c-8 0 -28 0 -24 20c3 20 23 20 31 20h139c91 0 126 -150 99 -311zM333 301c20 121 10 270 -74 270h-67l-41 -245h42
c9 0 19 -7 17 -20s-14 -20 -23 -20h-42l-41 -246h68c79 0 140 132 161 261z" />
    <glyph glyph-name="eth" unicode="&#xf0;" 
d="M350 213c-10 -56 -34 -111 -67 -153c-33 -41 -71 -66 -109 -66c-73 0 -123 93 -102 219c20 125 102 222 176 222c21 0 39 -8 55 -23c-13 43 -36 81 -68 112l-70 -37c-4 -2 -8 -3 -13 -3c-11 0 -19 8 -17 19c1 9 8 16 15 20l54 28c-14 11 -31 20 -47 28
c-8 3 -12 11 -10 19c2 12 13 21 26 21c3 0 7 -1 10 -2c24 -11 47 -25 66 -42l72 38c4 2 9 3 13 3c12 0 19 -8 18 -19c-2 -9 -8 -16 -16 -20l-57 -30c67 -72 97 -174 79 -284zM306 220c17 101 -14 174 -65 174c-52 0 -107 -73 -124 -174c-17 -102 11 -186 64 -186
s108 83 125 186z" />
    <glyph glyph-name="Etilde" unicode="&#x1ebc;" 
d="M346 33c-5 -28 -14 -33 -34 -33h-269c-8 0 -28 0 -25 20c4 20 24 20 32 20h19l88 531h-19c-8 0 -28 0 -24 20c3 20 23 20 31 20h254c20 0 27 -6 22 -33l-11 -68c-3 -16 -9 -32 -28 -32s-19 17 -17 32l10 61h-173l-39 -234h94c7 41 13 56 32 56s19 -17 16 -32l-14 -87
c-3 -15 -9 -32 -28 -32s-19 15 -12 55h-94l-43 -257h188l12 76c3 16 10 33 29 33c18 0 19 -18 16 -33zM418 746c0 -4 -5 -11 -12 -18c-37 -36 -64 -63 -88 -63c-19 0 -30 12 -44 44c-4 8 -7 14 -13 14c-17 0 -55 -44 -62 -52c-4 -4 -8 -6 -13 -6c-8 0 -19 8 -17 20
c1 4 6 10 13 18c37 36 65 63 89 63c18 0 30 -12 43 -44c4 -9 7 -14 12 -14c17 0 55 44 63 52c4 4 9 6 13 6c9 0 18 -8 16 -20z" />
    <glyph glyph-name="etilde" unicode="&#x1ebd;" 
d="M331 103c-4 -26 -54 -109 -141 -109c-84 0 -141 95 -120 221c20 122 105 220 183 220c85 0 118 -92 99 -208c-5 -29 -20 -29 -33 -29h-207c-7 -98 28 -164 87 -164c13 0 60 5 88 65c6 16 11 23 24 23c18 0 21 -14 20 -19zM308 235c9 70 10 159 -62 159
c-44 0 -99 -52 -128 -159h190zM393 594c-1 -4 -5 -10 -12 -18c-37 -36 -64 -63 -88 -63c-19 0 -30 12 -44 44c-4 9 -7 14 -13 14c-17 0 -55 -44 -62 -52c-4 -4 -8 -6 -13 -6c-8 0 -19 8 -17 20c1 4 6 11 13 18c37 36 64 63 88 63c18 0 30 -12 44 -44c4 -8 7 -14 12 -14
c17 0 55 44 62 52c5 4 9 6 13 6c9 0 19 -8 17 -20z" />
    <glyph glyph-name="eturned" unicode="&#x1dd;" 
d="M350 214c-21 -122 -105 -220 -183 -220c-85 0 -119 92 -99 208c5 29 20 29 33 29h207c7 98 -28 164 -87 164c-13 0 -60 -5 -88 -65c-7 -16 -12 -23 -25 -23c-18 0 -20 14 -20 19c5 26 55 109 142 109c84 0 141 -95 120 -221zM301 194h-190c-8 -70 -9 -159 63 -159
c44 0 99 52 127 159z" />
    <glyph glyph-name="Euro" unicode="&#x20ac;" 
d="M316 4c-2 -11 -13 -16 -20 -16h-3c-6 0 -10 4 -13 11l-5 17c-19 -18 -43 -28 -65 -28c-43 0 -70 45 -83 101c-9 41 -12 85 -10 133h-29c-6 0 -16 1 -13 9l4 14c3 9 11 17 18 17h24c2 26 4 35 5 44c2 9 3 18 9 44h-26c-6 0 -15 1 -13 9l4 14c4 9 11 17 18 17h27
c14 47 31 91 54 132c31 56 74 101 117 101c22 0 42 -10 56 -26l10 16c5 6 11 10 17 10h3c7 0 16 -5 14 -16l-18 -107c-1 -11 -12 -16 -19 -16h-10c-9 0 -15 10 -14 21c3 43 -12 78 -40 78c-30 0 -58 -35 -79 -73c-18 -31 -32 -66 -48 -120h132c5 0 16 -2 13 -10l-5 -14
c-2 -9 -10 -16 -17 -16h-133c-3 -16 -6 -30 -8 -44s-5 -28 -6 -44h114c6 0 15 -2 13 -10l-5 -14c-3 -9 -10 -16 -17 -16h-109c-2 -55 0 -90 8 -121c9 -38 25 -73 55 -73c28 0 55 35 66 78c3 11 11 21 20 21h10c7 0 16 -5 15 -16z" />
    <glyph glyph-name="exclamdown" unicode="&#xa1;" 
d="M264 345c-4 -22 -22 -36 -37 -36s-29 14 -25 36c3 22 22 37 37 37s28 -15 25 -37zM173 -197c-7 -43 -32 -45 -38 -45s-31 1 -24 44l68 372c4 18 9 28 30 28c22 0 24 -7 15 -60z" />
    <glyph glyph-name="florin" unicode="&#x192;" 
d="M390 568c-4 -24 -22 -31 -32 -31c-23 0 -23 40 -23 40c-24 0 -72 -4 -87 -90l-10 -62h86c8 0 27 0 24 -20c-4 -20 -23 -20 -31 -20h-86l-57 -345h67c9 0 28 0 24 -20c-3 -20 -22 -20 -31 -20h-179c-8 0 -27 0 -24 20c4 20 23 20 31 20h68l57 345h-71c-8 0 -28 0 -24 20
c3 20 23 20 32 20h70l11 66c14 87 79 126 130 126c9 0 63 0 55 -49z" />
    <glyph glyph-name="fraction" unicode="&#x2044;" 
d="M397 594l-315 -591c-6 -9 -12 -15 -20 -15c-12 0 -14 14 -5 30l314 588c7 10 13 17 22 17c11 0 12 -14 4 -29z" />
    <glyph glyph-name="fraction.alt" unicode="&#x2215;" horiz-adv-x="0" 
d="M221 594l-315 -591c-6 -9 -12 -15 -20 -15c-12 0 -14 14 -5 30l314 588c7 10 13 17 22 17c11 0 12 -14 4 -29z" />
    <glyph glyph-name="Gacute" unicode="&#x1f4;" 
d="M375 239c-3 -20 -23 -20 -35 -20l-32 -190c-3 -16 -9 -31 -27 -31c-19 0 -21 14 -15 47c-31 -39 -64 -57 -94 -57c-80 0 -131 132 -100 318c31 183 125 317 206 317c31 0 56 -18 74 -49l14 33c4 5 10 16 22 16c15 0 16 -16 14 -29l-25 -150c-3 -17 -9 -29 -28 -29
c-7 0 -20 0 -18 24c9 104 -22 144 -56 144c-58 0 -132 -114 -159 -278c-27 -160 7 -277 66 -277c58 0 95 110 113 191h-30c-8 0 -28 0 -25 20s23 20 31 20h79c8 0 28 0 25 -20zM376 770c-1 -9 -13 -17 -22 -23l-101 -66c-4 -3 -12 -6 -16 -6c-14 0 -20 12 -17 27
c1 7 14 16 21 21l88 58c11 7 22 13 31 13c11 0 19 -10 16 -24z" />
    <glyph glyph-name="gacute" unicode="&#x1f5;" 
d="M411 394c-5 -26 -24 -30 -31 -30c0 0 -21 1 -20 33c-10 -1 -27 -4 -56 -23c13 -45 13 -74 9 -97c-14 -85 -76 -154 -138 -154c-25 0 -46 13 -58 28c-6 -11 -8 -17 -12 -42c-10 -63 20 -66 30 -66h59c23 0 147 0 124 -138c-14 -84 -96 -141 -182 -141
c-87 0 -151 58 -137 141c6 37 31 88 81 123c-9 21 -18 46 -12 78c2 11 10 37 32 73c-15 42 -14 78 -11 98c14 85 77 154 138 154c20 0 43 -8 62 -32c34 34 67 39 80 39c35 0 45 -27 42 -44zM268 277c11 63 -8 116 -48 116c-36 0 -76 -51 -87 -116s11 -116 48 -116
c40 0 77 53 87 116zM279 -95c16 94 -58 100 -122 100c-49 0 -56 0 -75 -15c-33 -27 -41 -68 -44 -85c-8 -50 32 -103 104 -103s129 53 137 103zM328 599c-2 -9 -13 -17 -22 -23l-101 -66c-4 -3 -12 -6 -16 -6c-14 0 -20 12 -17 27c1 7 13 16 21 21l88 58c11 7 22 13 31 13
c11 0 18 -10 16 -24z" />
    <glyph glyph-name="Gamma" unicode="&#x393;" 
d="M415 510c-3 -16 -8 -32 -28 -32c-18 0 -18 17 -16 32l10 61h-171l-88 -531h37c9 0 28 0 24 -20c-3 -20 -22 -20 -31 -20h-105c-8 0 -28 0 -25 20c4 20 24 20 32 20h24l88 531h-24c-8 0 -28 0 -24 20c3 20 23 20 31 20h256c20 0 26 -6 21 -33z" />
    <glyph glyph-name="Gbreve" unicode="&#x11e;" 
d="M375 239c-3 -20 -23 -20 -35 -20l-32 -190c-3 -16 -9 -31 -27 -31c-19 0 -21 14 -15 47c-31 -39 -64 -57 -94 -57c-80 0 -131 132 -100 318c31 183 125 317 206 317c31 0 56 -18 74 -49l14 33c4 5 10 16 22 16c15 0 16 -16 14 -29l-25 -150c-3 -17 -9 -29 -28 -29
c-7 0 -20 0 -18 24c9 104 -22 144 -56 144c-58 0 -132 -114 -159 -278c-27 -160 7 -277 66 -277c58 0 95 110 113 191h-30c-8 0 -28 0 -25 20s23 20 31 20h79c8 0 28 0 25 -20zM420 749c-13 -74 -90 -74 -133 -74s-120 0 -107 74c3 19 16 22 22 22c11 0 18 -9 17 -24
c-1 -18 -2 -30 75 -30c54 0 79 5 85 27c2 6 7 27 24 27c7 0 20 -4 17 -22z" />
    <glyph glyph-name="gbreve" unicode="&#x11f;" 
d="M411 394c-5 -26 -24 -30 -31 -30c0 0 -21 1 -20 33c-10 -1 -27 -4 -56 -23c13 -45 13 -74 9 -97c-14 -85 -76 -154 -138 -154c-25 0 -46 13 -58 28c-6 -11 -8 -17 -12 -42c-10 -63 20 -66 30 -66h59c23 0 147 0 124 -138c-14 -84 -96 -141 -182 -141
c-87 0 -151 58 -137 141c6 37 31 88 81 123c-9 21 -18 46 -12 78c2 11 10 37 32 73c-15 42 -14 78 -11 98c14 85 77 154 138 154c20 0 43 -8 62 -32c34 34 67 39 80 39c35 0 45 -27 42 -44zM268 277c11 63 -8 116 -48 116c-36 0 -76 -51 -87 -116s11 -116 48 -116
c40 0 77 53 87 116zM279 -95c16 94 -58 100 -122 100c-49 0 -56 0 -75 -15c-33 -27 -41 -68 -44 -85c-8 -50 32 -103 104 -103s129 53 137 103zM373 590c-12 -74 -89 -74 -132 -74s-120 0 -108 74c4 19 17 22 23 22c11 0 18 -9 17 -24c-1 -18 -2 -30 75 -30c54 0 79 6 85 27
c2 6 7 27 24 27c7 0 19 -4 16 -22z" />
    <glyph glyph-name="Gcaron" unicode="&#x1e6;" 
d="M375 239c-3 -20 -23 -20 -35 -20l-32 -190c-3 -16 -9 -31 -27 -31c-19 0 -21 14 -15 47c-31 -39 -64 -57 -94 -57c-80 0 -131 132 -100 318c31 183 125 317 206 317c31 0 56 -18 74 -49l14 33c4 5 10 16 22 16c15 0 16 -16 14 -29l-25 -150c-3 -17 -9 -29 -28 -29
c-7 0 -20 0 -18 24c9 104 -22 144 -56 144c-58 0 -132 -114 -159 -278c-27 -160 7 -277 66 -277c58 0 95 110 113 191h-30c-8 0 -28 0 -25 20s23 20 31 20h79c8 0 28 0 25 -20zM393 729c0 -5 -3 -15 -12 -19l-80 -40c-12 -6 -18 -6 -28 0l-68 40c-7 4 -6 14 -6 19
c2 8 7 17 18 17c5 0 10 1 18 -3l59 -29l69 29c9 4 13 3 18 3c11 0 14 -9 12 -17z" />
    <glyph glyph-name="gcaron" unicode="&#x1e7;" 
d="M411 394c-5 -26 -24 -30 -31 -30c0 0 -21 1 -20 33c-10 -1 -27 -4 -56 -23c13 -45 13 -74 9 -97c-14 -85 -76 -154 -138 -154c-25 0 -46 13 -58 28c-6 -11 -8 -17 -12 -42c-10 -63 20 -66 30 -66h59c23 0 147 0 124 -138c-14 -84 -96 -141 -182 -141
c-87 0 -151 58 -137 141c6 37 31 88 81 123c-9 21 -18 46 -12 78c2 11 10 37 32 73c-15 42 -14 78 -11 98c14 85 77 154 138 154c20 0 43 -8 62 -32c34 34 67 39 80 39c35 0 45 -27 42 -44zM268 277c11 63 -8 116 -48 116c-36 0 -76 -51 -87 -116s11 -116 48 -116
c40 0 77 53 87 116zM279 -95c16 94 -58 100 -122 100c-49 0 -56 0 -75 -15c-33 -27 -41 -68 -44 -85c-8 -50 32 -103 104 -103s129 53 137 103zM355 600c-1 -5 -9 -14 -15 -19l-85 -68c-11 -8 -23 -8 -30 0l-63 68c-4 5 -10 14 -9 19c2 14 9 20 20 20c5 0 12 -1 19 -8
l55 -57l73 57c9 7 16 8 21 8c11 0 16 -6 14 -20z" />
    <glyph glyph-name="Gcircumflex" unicode="&#x11c;" 
d="M375 239c-3 -20 -23 -20 -35 -20l-32 -190c-3 -16 -9 -31 -27 -31c-19 0 -21 14 -15 47c-31 -39 -64 -57 -94 -57c-80 0 -131 132 -100 318c31 183 125 317 206 317c31 0 56 -18 74 -49l14 33c4 5 10 16 22 16c15 0 16 -16 14 -29l-25 -150c-3 -17 -9 -29 -28 -29
c-7 0 -20 0 -18 24c9 104 -22 144 -56 144c-58 0 -132 -114 -159 -278c-27 -160 7 -277 66 -277c58 0 95 110 113 191h-30c-8 0 -28 0 -25 20s23 20 31 20h79c8 0 28 0 25 -20zM386 683c-2 -8 -7 -17 -18 -17c-5 0 -10 -1 -18 3l-59 29l-69 -29c-9 -4 -13 -3 -18 -3
c-11 0 -14 9 -12 17c1 5 3 15 12 19l81 40c12 6 18 6 28 0l67 -40c7 -4 7 -14 6 -19z" />
    <glyph glyph-name="gcircumflex" unicode="&#x11d;" 
d="M411 394c-5 -26 -24 -30 -31 -30c0 0 -21 1 -20 33c-10 -1 -27 -4 -56 -23c13 -45 13 -74 9 -97c-14 -85 -76 -154 -138 -154c-25 0 -46 13 -58 28c-6 -11 -8 -17 -12 -42c-10 -63 20 -66 30 -66h59c23 0 147 0 124 -138c-14 -84 -96 -141 -182 -141
c-87 0 -151 58 -137 141c6 37 31 88 81 123c-9 21 -18 46 -12 78c2 11 10 37 32 73c-15 42 -14 78 -11 98c14 85 77 154 138 154c20 0 43 -8 62 -32c34 34 67 39 80 39c35 0 45 -27 42 -44zM268 277c11 63 -8 116 -48 116c-36 0 -76 -51 -87 -116s11 -116 48 -116
c40 0 77 53 87 116zM279 -95c16 94 -58 100 -122 100c-49 0 -56 0 -75 -15c-33 -27 -41 -68 -44 -85c-8 -50 32 -103 104 -103s129 53 137 103zM343 527c-2 -14 -9 -20 -20 -20c-5 0 -12 1 -19 8l-55 57l-73 -57c-9 -7 -16 -8 -21 -8c-11 0 -16 6 -14 20c1 5 9 14 15 19
l85 68c11 8 23 8 30 0l63 -68c4 -5 10 -14 9 -19z" />
    <glyph glyph-name="Gcommaaccent" unicode="&#x122;" 
d="M375 239c-3 -20 -23 -20 -35 -20l-32 -190c-3 -16 -9 -31 -27 -31c-19 0 -21 14 -15 47c-31 -39 -64 -57 -94 -57c-80 0 -131 132 -100 318c31 183 125 317 206 317c31 0 56 -18 74 -49l14 33c4 5 10 16 22 16c15 0 16 -16 14 -29l-25 -150c-3 -17 -9 -29 -28 -29
c-7 0 -20 0 -18 24c9 104 -22 144 -56 144c-58 0 -132 -114 -159 -278c-27 -160 7 -277 66 -277c58 0 95 110 113 191h-30c-8 0 -28 0 -25 20s23 20 31 20h79c8 0 28 0 25 -20zM196 -120c-13 -79 -72 -112 -85 -112c-6 0 -15 6 -13 14l1 4c40 19 56 48 69 94
c-7 -4 -13 -5 -13 -5c-15 0 -27 13 -23 35c3 17 17 33 34 33c20 0 36 -26 30 -63z" />
    <glyph glyph-name="gcommaaccent" unicode="&#x123;" 
d="M304 650l-1 -4c-40 -19 -56 -48 -69 -94c7 4 13 5 13 5c15 0 27 -13 23 -35c-3 -17 -17 -33 -34 -33c-20 0 -36 26 -30 63c13 79 72 112 85 112c6 0 15 -6 13 -14zM411 394c-5 -26 -24 -30 -31 -30c0 0 -21 1 -20 33c-10 -1 -27 -4 -56 -23c13 -45 13 -74 9 -97
c-14 -85 -76 -154 -138 -154c-25 0 -46 13 -58 28c-6 -11 -8 -17 -12 -42c-10 -63 20 -66 30 -66h59c23 0 147 0 124 -138c-14 -84 -96 -141 -182 -141c-87 0 -151 58 -137 141c6 37 31 88 81 123c-9 21 -18 46 -12 78c2 11 10 37 32 73c-15 42 -14 78 -11 98
c14 85 77 154 138 154c20 0 43 -8 62 -32c34 34 67 39 80 39c35 0 45 -27 42 -44zM268 277c11 63 -8 116 -48 116c-36 0 -76 -51 -87 -116s11 -116 48 -116c40 0 77 53 87 116zM279 -95c16 94 -58 100 -122 100c-49 0 -56 0 -75 -15c-33 -27 -41 -68 -44 -85
c-8 -50 32 -103 104 -103s129 53 137 103z" />
    <glyph glyph-name="Gdotaccent" unicode="&#x120;" 
d="M375 239c-3 -20 -23 -20 -35 -20l-32 -190c-3 -16 -9 -31 -27 -31c-19 0 -21 14 -15 47c-31 -39 -64 -57 -94 -57c-80 0 -131 132 -100 318c31 183 125 317 206 317c31 0 56 -18 74 -49l14 33c4 5 10 16 22 16c15 0 16 -16 14 -29l-25 -150c-3 -17 -9 -29 -28 -29
c-7 0 -20 0 -18 24c9 104 -22 144 -56 144c-58 0 -132 -114 -159 -278c-27 -160 7 -277 66 -277c58 0 95 110 113 191h-30c-8 0 -28 0 -25 20s23 20 31 20h79c8 0 28 0 25 -20zM325 714c-4 -22 -22 -37 -37 -37s-29 15 -25 37s22 37 37 37s29 -15 25 -37z" />
    <glyph glyph-name="gdotaccent" unicode="&#x121;" 
d="M411 394c-5 -26 -24 -30 -31 -30c0 0 -21 1 -20 33c-10 -1 -27 -4 -56 -23c13 -45 13 -74 9 -97c-14 -85 -76 -154 -138 -154c-25 0 -46 13 -58 28c-6 -11 -8 -17 -12 -42c-10 -63 20 -66 30 -66h59c23 0 147 0 124 -138c-14 -84 -96 -141 -182 -141
c-87 0 -151 58 -137 141c6 37 31 88 81 123c-9 21 -18 46 -12 78c2 11 10 37 32 73c-15 42 -14 78 -11 98c14 85 77 154 138 154c20 0 43 -8 62 -32c34 34 67 39 80 39c35 0 45 -27 42 -44zM268 277c11 63 -8 116 -48 116c-36 0 -76 -51 -87 -116s11 -116 48 -116
c40 0 77 53 87 116zM279 -95c16 94 -58 100 -122 100c-49 0 -56 0 -75 -15c-33 -27 -41 -68 -44 -85c-8 -50 32 -103 104 -103s129 53 137 103zM280 564c-4 -22 -22 -37 -37 -37s-29 15 -25 37s22 37 37 37s29 -15 25 -37z" />
    <glyph glyph-name="germandbls" unicode="&#xdf;" 
d="M363 171c-19 -109 -93 -177 -156 -177c-39 0 -65 26 -58 64c3 17 16 30 30 30c12 0 24 -10 21 -29h-1l-2 -20c4 -4 6 -5 17 -5c41 0 90 52 105 137c14 86 3 206 -79 214c-11 1 -16 8 -14 20c3 18 19 19 27 20c58 4 97 53 103 89c4 28 -20 63 -67 63
c-29 0 -45 -10 -53 -16c-28 -15 -31 -36 -35 -59l-78 -469c-5 -28 -14 -33 -34 -33h-52c-9 0 -28 0 -25 20c4 20 23 20 32 20h35l57 345h-35c-9 0 -28 0 -24 20c3 20 22 20 31 20h35l13 81c17 100 108 111 141 111c59 0 115 -35 104 -103c-4 -25 -24 -69 -91 -114
c52 -57 67 -145 53 -229z" />
    <glyph glyph-name="uni0300" unicode="&#x300;" horiz-adv-x="0" 
d="M-14 531c-3 -15 -13 -27 -27 -27c-4 0 -10 3 -14 6l-79 66c-7 6 -16 14 -14 23c2 14 13 24 24 24c9 0 18 -6 27 -13l68 -58c6 -5 16 -14 15 -21z" />
    <glyph glyph-name="guillemotleft" unicode="&#xab;" 
d="M347 107c-3 -17 -13 -23 -19 -23c-4 0 -5 1 -10 9l-121 194c-2 4 -5 11 -4 19c1 7 9 17 13 21l183 192c8 8 9 9 13 9c6 0 14 -6 11 -23c-1 -8 -9 -17 -13 -21l-169 -178l109 -178c4 -4 8 -13 7 -21zM234 107c-3 -17 -13 -23 -19 -23c-4 0 -6 1 -11 9l-121 194
c-2 4 -5 11 -4 19c1 7 9 17 13 21l183 192c8 8 10 9 14 9c6 0 14 -6 11 -23c-1 -8 -10 -17 -13 -21l-170 -178l110 -178c3 -4 8 -13 7 -21z" />
    <glyph glyph-name="guillemotright" unicode="&#xbb;" 
d="M380 306c-1 -8 -7 -15 -11 -19l-185 -194c-9 -8 -11 -9 -14 -9c-6 0 -14 6 -11 23c1 8 9 17 13 21l170 178l-110 178c-4 4 -8 13 -7 21c3 17 13 23 19 23c3 0 5 -1 11 -9l119 -192c2 -4 7 -14 6 -21zM266 306c-1 -8 -6 -15 -10 -19l-185 -194c-9 -8 -11 -9 -15 -9
c-6 0 -14 6 -11 23c1 8 10 17 13 21l170 178l-110 178c-3 4 -8 13 -7 21c3 17 13 23 19 23c4 0 6 -1 12 -9l119 -192c2 -4 6 -14 5 -21z" />
    <glyph glyph-name="guilsinglleft" unicode="&#x2039;" 
d="M287 107c-3 -17 -13 -23 -19 -23c-4 0 -5 1 -10 9l-122 194c-1 4 -5 11 -4 19c1 7 10 17 14 21l183 192c8 8 9 9 13 9c6 0 14 -6 11 -23c-1 -8 -9 -17 -13 -21l-170 -178l110 -178c4 -4 8 -13 7 -21z" />
    <glyph glyph-name="guilsinglright" unicode="&#x203a;" 
d="M320 306c-1 -8 -6 -15 -10 -19l-185 -194c-9 -8 -11 -9 -15 -9c-6 0 -14 6 -11 23c1 8 10 17 13 21l170 178l-110 178c-3 4 -8 13 -7 21c3 17 13 23 19 23c4 0 6 -1 12 -9l119 -192c2 -4 6 -14 5 -21z" />
    <glyph glyph-name="Hbar" unicode="&#x126;" 
d="M341 20c-3 -20 -22 -20 -31 -20h-76c-8 0 -28 0 -25 20c4 20 24 20 32 20h16l43 258h-150l-43 -258h16c8 0 28 0 24 -20c-3 -20 -23 -20 -31 -20h-77c-8 0 -27 0 -24 20c4 20 23 20 31 20h16l67 403h-21c-9 0 -19 7 -17 20s15 20 24 20h21l14 88h-16c-8 0 -27 0 -23 20
c3 20 22 20 30 20h77c8 0 28 0 25 -20c-4 -20 -24 -20 -32 -20h-16l-14 -88h150l14 88h-16c-8 0 -28 0 -24 20c3 20 23 20 31 20h76c9 0 28 0 25 -20c-4 -20 -24 -20 -32 -20h-16l-14 -88h22c9 0 18 -7 16 -20s-14 -20 -23 -20h-22l-67 -403h16c8 0 28 0 24 -20zM307 339
l17 104h-150l-17 -104h150z" />
    <glyph glyph-name="hbar" unicode="&#x127;" 
d="M347 20c-3 -20 -22 -20 -30 -20h-104c-8 0 -27 0 -24 20c4 20 23 20 31 20h30l41 248c11 64 11 103 -33 103c-40 0 -94 -49 -111 -154l-33 -197h29c8 0 28 0 24 -20c-3 -20 -23 -20 -31 -20h-103c-8 0 -28 0 -25 20c4 20 24 20 32 20h29l73 438h-35c-8 0 -18 7 -16 20
s14 20 22 20h35l9 53h-29c-8 0 -28 0 -24 20c3 20 23 20 31 20h46c20 0 27 -6 22 -33l-10 -60h68c9 0 19 -7 17 -20s-14 -20 -23 -20h-68l-18 -106c15 20 53 59 101 59c55 0 82 -42 66 -138l-42 -253h30c8 0 27 0 23 -20z" />
    <glyph glyph-name="Hbrevebelow" unicode="&#x1e2a;" 
d="M341 20c-3 -20 -22 -20 -31 -20h-76c-8 0 -28 0 -25 20c4 20 24 20 32 20h16l43 258h-150l-43 -258h16c8 0 28 0 24 -20c-3 -20 -23 -20 -31 -20h-77c-8 0 -27 0 -24 20c4 20 23 20 31 20h16l88 531h-16c-8 0 -27 0 -23 20c3 20 22 20 30 20h77c8 0 28 0 25 -20
c-4 -20 -24 -20 -32 -20h-16l-38 -232h150l38 232h-16c-8 0 -28 0 -24 20c3 20 23 20 31 20h76c9 0 28 0 25 -20c-4 -20 -24 -20 -32 -20h-16l-88 -531h16c8 0 28 0 24 -20zM271 -143c-12 -74 -89 -74 -132 -74s-120 0 -108 74c3 19 17 22 23 22c11 0 17 -9 17 -24
c-1 -18 -2 -30 75 -30c54 0 79 5 84 27c2 6 8 27 25 27c7 0 19 -4 16 -22z" />
    <glyph glyph-name="hbrevebelow" unicode="&#x1e2b;" 
d="M347 20c-3 -20 -22 -20 -30 -20h-104c-8 0 -27 0 -24 20c4 20 23 20 31 20h30l41 248c11 64 11 103 -33 103c-40 0 -94 -49 -111 -154l-33 -197h29c8 0 28 0 24 -20c-3 -20 -23 -20 -31 -20h-103c-8 0 -28 0 -25 20c4 20 24 20 32 20h29l88 531h-29c-8 0 -28 0 -24 20
c3 20 23 20 31 20h46c20 0 27 -6 22 -33l-34 -206c15 20 53 59 101 59c55 0 82 -42 66 -138l-42 -253h30c8 0 27 0 23 -20zM271 -143c-12 -74 -89 -74 -132 -74s-120 0 -108 74c3 19 17 22 23 22c11 0 17 -9 17 -24c-1 -18 -2 -30 75 -30c54 0 79 5 84 27c2 6 8 27 25 27
c7 0 19 -4 16 -22z" />
    <glyph glyph-name="Hcircumflex" unicode="&#x124;" 
d="M341 20c-3 -20 -22 -20 -31 -20h-76c-8 0 -28 0 -25 20c4 20 24 20 32 20h16l43 258h-150l-43 -258h16c8 0 28 0 24 -20c-3 -20 -23 -20 -31 -20h-77c-8 0 -27 0 -24 20c4 20 23 20 31 20h16l88 531h-16c-8 0 -27 0 -23 20c3 20 22 20 30 20h77c8 0 28 0 25 -20
c-4 -20 -24 -20 -32 -20h-16l-38 -232h150l38 232h-16c-8 0 -28 0 -24 20c3 20 23 20 31 20h76c9 0 28 0 25 -20c-4 -20 -24 -20 -32 -20h-16l-88 -531h16c8 0 28 0 24 -20zM386 683c-2 -8 -7 -17 -18 -17c-5 0 -10 -1 -18 3l-59 29l-69 -29c-9 -4 -13 -3 -18 -3
c-11 0 -14 9 -12 17c1 5 3 15 12 19l81 40c12 6 18 6 28 0l67 -40c7 -4 7 -14 6 -19z" />
    <glyph glyph-name="hcircumflex" unicode="&#x125;" 
d="M347 20c-3 -20 -22 -20 -30 -20h-104c-8 0 -27 0 -24 20c4 20 23 20 31 20h30l41 248c11 64 11 103 -33 103c-40 0 -94 -49 -111 -154l-33 -197h29c8 0 28 0 24 -20c-3 -20 -23 -20 -31 -20h-103c-8 0 -28 0 -25 20c4 20 24 20 32 20h29l88 531h-29c-8 0 -28 0 -24 20
c3 20 23 20 31 20h46c20 0 27 -6 22 -33l-34 -206c15 20 53 59 101 59c55 0 82 -42 66 -138l-42 -253h30c8 0 27 0 23 -20zM386 683c-2 -8 -7 -17 -18 -17c-5 0 -10 -1 -18 3l-59 29l-69 -29c-9 -4 -13 -3 -18 -3c-11 0 -14 9 -12 17c1 5 3 15 12 19l81 40c12 6 18 6 28 0
l67 -40c7 -4 7 -14 6 -19z" />
    <glyph glyph-name="Hdieresis" unicode="&#x1e26;" 
d="M341 20c-3 -20 -22 -20 -31 -20h-76c-8 0 -28 0 -25 20c4 20 24 20 32 20h16l43 258h-150l-43 -258h16c8 0 28 0 24 -20c-3 -20 -23 -20 -31 -20h-77c-8 0 -27 0 -24 20c4 20 23 20 31 20h16l88 531h-16c-8 0 -27 0 -23 20c3 20 22 20 30 20h77c8 0 28 0 25 -20
c-4 -20 -24 -20 -32 -20h-16l-38 -232h150l38 232h-16c-8 0 -28 0 -24 20c3 20 23 20 31 20h76c9 0 28 0 25 -20c-4 -20 -24 -20 -32 -20h-16l-88 -531h16c8 0 28 0 24 -20zM258 697c-3 -19 -20 -32 -33 -32s-26 13 -23 32c3 20 20 32 33 32s26 -12 23 -32zM381 697
c-3 -19 -20 -32 -33 -32s-26 13 -23 32c3 20 20 32 33 32s26 -12 23 -32z" />
    <glyph glyph-name="hdieresis" unicode="&#x1e27;" 
d="M347 20c-3 -20 -22 -20 -30 -20h-104c-8 0 -27 0 -24 20c4 20 23 20 31 20h30l41 248c11 64 11 103 -33 103c-40 0 -94 -49 -111 -154l-33 -197h29c8 0 28 0 24 -20c-3 -20 -23 -20 -31 -20h-103c-8 0 -28 0 -25 20c4 20 24 20 32 20h29l88 531h-29c-8 0 -28 0 -24 20
c3 20 23 20 31 20h46c20 0 27 -6 22 -33l-34 -206c15 20 53 59 101 59c55 0 82 -42 66 -138l-42 -253h30c8 0 27 0 23 -20zM258 697c-3 -19 -20 -32 -33 -32s-26 13 -23 32c3 20 20 32 33 32s26 -12 23 -32zM381 697c-3 -19 -20 -32 -33 -32s-26 13 -23 32c3 20 20 32 33 32
s26 -12 23 -32z" />
    <glyph glyph-name="Hdotbelow" unicode="&#x1e24;" 
d="M341 20c-3 -20 -22 -20 -31 -20h-76c-8 0 -28 0 -25 20c4 20 24 20 32 20h16l43 258h-150l-43 -258h16c8 0 28 0 24 -20c-3 -20 -23 -20 -31 -20h-77c-8 0 -27 0 -24 20c4 20 23 20 31 20h16l88 531h-16c-8 0 -27 0 -23 20c3 20 22 20 30 20h77c8 0 28 0 25 -20
c-4 -20 -24 -20 -32 -20h-16l-38 -232h150l38 232h-16c-8 0 -28 0 -24 20c3 20 23 20 31 20h76c9 0 28 0 25 -20c-4 -20 -24 -20 -32 -20h-16l-88 -531h16c8 0 28 0 24 -20zM178 -170c-4 -22 -22 -36 -37 -36s-29 14 -25 36c3 22 22 37 37 37s28 -15 25 -37z" />
    <glyph glyph-name="hdotbelow" unicode="&#x1e25;" 
d="M347 20c-3 -20 -22 -20 -30 -20h-104c-8 0 -27 0 -24 20c4 20 23 20 31 20h30l41 248c11 64 11 103 -33 103c-40 0 -94 -49 -111 -154l-33 -197h29c8 0 28 0 24 -20c-3 -20 -23 -20 -31 -20h-103c-8 0 -28 0 -25 20c4 20 24 20 32 20h29l88 531h-29c-8 0 -28 0 -24 20
c3 20 23 20 31 20h46c20 0 27 -6 22 -33l-34 -206c15 20 53 59 101 59c55 0 82 -42 66 -138l-42 -253h30c8 0 27 0 23 -20zM178 -170c-4 -22 -22 -36 -37 -36s-29 14 -25 36c3 22 22 37 37 37s28 -15 25 -37z" />
    <glyph glyph-name="uni0309" unicode="&#x309;" horiz-adv-x="0" 
d="M-8 601c-3 -21 -17 -37 -30 -48c-27 -20 -40 -42 -43 -64l-4 -19c-1 -11 -12 -16 -19 -16c-8 0 -17 5 -16 16l4 19c6 41 35 69 65 91c7 5 8 14 9 21c5 27 -6 40 -31 40c-14 0 -28 -10 -30 -24l-3 -16c-1 -8 -11 -18 -21 -18s-17 7 -15 19c8 47 44 72 74 72
c39 0 68 -26 60 -73z" />
    <glyph glyph-name="hungarumlaut" unicode="&#x2dd;" 
d="M393 602c-1 -6 -9 -15 -18 -25l-63 -67c-5 -6 -15 -8 -19 -7c-9 1 -17 8 -14 23c1 7 8 16 18 26l55 59c12 14 21 13 30 13c6 0 14 -6 11 -22zM260 602c-1 -6 -9 -15 -18 -25l-63 -67c-5 -6 -15 -8 -19 -7c-9 1 -17 8 -14 23c1 7 8 16 18 26l55 59c12 14 21 13 30 13
c6 0 14 -6 11 -22z" />
    <glyph glyph-name="uni030B" unicode="&#x30b;" horiz-adv-x="0" 
d="M43 602c-1 -6 -9 -15 -18 -25l-63 -67c-5 -6 -15 -8 -19 -7c-9 1 -17 8 -14 23c1 7 8 16 18 26l55 59c12 14 21 13 30 13c6 0 14 -6 11 -22zM-90 602c-1 -6 -9 -15 -18 -25l-63 -67c-5 -6 -15 -8 -19 -7c-9 1 -17 8 -14 23c1 7 8 16 18 26l55 59c12 14 21 13 30 13
c6 0 14 -6 11 -22z" />
    <glyph glyph-name="Iacute" unicode="&#xcd;" 
d="M300 20c-3 -20 -22 -20 -30 -20h-189c-8 0 -28 0 -25 20c4 20 24 20 32 20h72l88 531h-72c-8 0 -28 0 -24 20c3 20 23 20 31 20h189c8 0 27 0 24 -20c-4 -20 -23 -20 -31 -20h-73l-88 -531h73c8 0 27 0 23 -20zM376 770c-1 -9 -13 -17 -22 -23l-101 -66
c-4 -3 -12 -6 -16 -6c-14 0 -20 12 -17 27c1 7 14 16 21 21l88 58c11 7 22 13 31 13c11 0 19 -10 16 -24z" />
    <glyph glyph-name="iacute" unicode="&#xed;" 
d="M306 20c-3 -20 -22 -20 -30 -20h-195c-8 0 -29 0 -26 20c4 20 25 20 33 20h80l57 345h-75c-9 0 -28 0 -24 20c3 20 22 20 31 20h92c20 0 27 -5 23 -32l-59 -353h70c8 0 27 0 23 -20zM348 599c-2 -9 -13 -17 -22 -23l-101 -66c-4 -3 -12 -6 -16 -6c-14 0 -20 12 -17 27
c1 7 13 16 21 21l88 58c11 7 22 13 31 13c11 0 18 -10 16 -24z" />
    <glyph glyph-name="Ibreve" unicode="&#x12c;" 
d="M300 20c-3 -20 -22 -20 -30 -20h-189c-8 0 -28 0 -25 20c4 20 24 20 32 20h72l88 531h-72c-8 0 -28 0 -24 20c3 20 23 20 31 20h189c8 0 27 0 24 -20c-4 -20 -23 -20 -31 -20h-73l-88 -531h73c8 0 27 0 23 -20zM420 749c-13 -74 -90 -74 -133 -74s-120 0 -107 74
c3 19 16 22 22 22c11 0 18 -9 17 -24c-1 -18 -2 -30 75 -30c54 0 79 5 85 27c2 6 7 27 24 27c7 0 20 -4 17 -22z" />
    <glyph glyph-name="ibreve" unicode="&#x12d;" 
d="M306 20c-3 -20 -22 -20 -30 -20h-195c-8 0 -29 0 -26 20c4 20 25 20 33 20h80l57 345h-75c-9 0 -28 0 -24 20c3 20 22 20 31 20h92c20 0 27 -5 23 -32l-59 -353h70c8 0 27 0 23 -20zM393 590c-12 -74 -89 -74 -132 -74s-120 0 -108 74c4 19 17 22 23 22
c11 0 18 -9 17 -24c-1 -18 -2 -30 75 -30c54 0 79 6 85 27c2 6 7 27 24 27c7 0 19 -4 16 -22z" />
    <glyph glyph-name="Icaron" unicode="&#x1cf;" 
d="M300 20c-3 -20 -22 -20 -30 -20h-189c-8 0 -28 0 -25 20c4 20 24 20 32 20h72l88 531h-72c-8 0 -28 0 -24 20c3 20 23 20 31 20h189c8 0 27 0 24 -20c-4 -20 -23 -20 -31 -20h-73l-88 -531h73c8 0 27 0 23 -20zM393 729c0 -5 -3 -15 -12 -19l-80 -40c-12 -6 -18 -6 -28 0
l-68 40c-7 4 -6 14 -6 19c2 8 7 17 18 17c5 0 10 1 18 -3l59 -29l69 29c9 4 13 3 18 3c11 0 14 -9 12 -17z" />
    <glyph glyph-name="icaron" unicode="&#x1d0;" 
d="M306 20c-3 -20 -22 -20 -30 -20h-195c-8 0 -29 0 -26 20c4 20 25 20 33 20h80l57 345h-75c-9 0 -28 0 -24 20c3 20 22 20 31 20h92c20 0 27 -5 23 -32l-59 -353h70c8 0 27 0 23 -20zM375 600c-1 -5 -9 -14 -15 -19l-85 -68c-11 -8 -23 -8 -30 0l-63 68c-4 5 -10 14 -9 19
c2 14 9 20 20 20c5 0 12 -1 19 -8l55 -57l73 57c9 7 16 8 21 8c11 0 16 -6 14 -20z" />
    <glyph glyph-name="Icircumflex" unicode="&#xce;" 
d="M300 20c-3 -20 -22 -20 -30 -20h-189c-8 0 -28 0 -25 20c4 20 24 20 32 20h72l88 531h-72c-8 0 -28 0 -24 20c3 20 23 20 31 20h189c8 0 27 0 24 -20c-4 -20 -23 -20 -31 -20h-73l-88 -531h73c8 0 27 0 23 -20zM386 683c-2 -8 -7 -17 -18 -17c-5 0 -10 -1 -18 3l-59 29
l-69 -29c-9 -4 -13 -3 -18 -3c-11 0 -14 9 -12 17c1 5 3 15 12 19l81 40c12 6 18 6 28 0l67 -40c7 -4 7 -14 6 -19z" />
    <glyph glyph-name="icircumflex" unicode="&#xee;" 
d="M306 20c-3 -20 -22 -20 -30 -20h-195c-8 0 -29 0 -26 20c4 20 25 20 33 20h80l57 345h-75c-9 0 -28 0 -24 20c3 20 22 20 31 20h92c20 0 27 -5 23 -32l-59 -353h70c8 0 27 0 23 -20zM363 527c-2 -14 -9 -20 -20 -20c-5 0 -12 1 -19 8l-55 57l-73 -57c-9 -7 -16 -8 -21 -8
c-11 0 -16 6 -14 20c1 5 9 14 15 19l85 68c11 8 23 8 30 0l63 -68c4 -5 10 -14 9 -19z" />
    <glyph glyph-name="Idblgrave" unicode="&#x208;" 
d="M300 20c-3 -20 -22 -20 -30 -20h-189c-8 0 -28 0 -25 20c4 20 24 20 32 20h72l88 531h-72c-8 0 -28 0 -24 20c3 20 23 20 31 20h189c8 0 27 0 24 -20c-4 -20 -23 -20 -31 -20h-73l-88 -531h73c8 0 27 0 23 -20zM275 699c-2 -15 -12 -22 -21 -23c-5 -1 -14 1 -17 7l-41 67
c-5 10 -11 19 -10 25c3 16 13 22 19 22c9 0 18 1 26 -13l35 -59c6 -10 11 -19 9 -26zM408 699c-2 -15 -12 -22 -21 -23c-5 -1 -14 1 -17 7l-41 67c-5 10 -11 19 -10 25c3 16 13 22 19 22c9 0 18 1 26 -13l35 -59c6 -10 11 -19 9 -26z" />
    <glyph glyph-name="idblgrave" unicode="&#x209;" 
d="M306 20c-3 -20 -22 -20 -30 -20h-195c-8 0 -29 0 -26 20c4 20 25 20 33 20h80l57 345h-75c-9 0 -28 0 -24 20c3 20 22 20 31 20h92c20 0 27 -5 23 -32l-59 -353h70c8 0 27 0 23 -20zM247 526c-3 -15 -13 -22 -22 -23c-4 -1 -14 1 -17 7l-41 67c-5 10 -11 19 -10 25
c3 16 13 22 19 22c9 0 18 1 26 -13l35 -59c6 -10 11 -19 10 -26zM380 526c-3 -15 -13 -22 -22 -23c-4 -1 -14 1 -17 7l-41 67c-5 10 -11 19 -10 25c3 16 13 22 19 22c9 0 18 1 26 -13l35 -59c6 -10 11 -19 10 -26z" />
    <glyph glyph-name="Idieresis" unicode="&#xcf;" 
d="M300 20c-3 -20 -22 -20 -30 -20h-189c-8 0 -28 0 -25 20c4 20 24 20 32 20h72l88 531h-72c-8 0 -28 0 -24 20c3 20 23 20 31 20h189c8 0 27 0 24 -20c-4 -20 -23 -20 -31 -20h-73l-88 -531h73c8 0 27 0 23 -20zM258 697c-3 -19 -20 -32 -33 -32s-26 13 -23 32
c3 20 20 32 33 32s26 -12 23 -32zM381 697c-3 -19 -20 -32 -33 -32s-26 13 -23 32c3 20 20 32 33 32s26 -12 23 -32z" />
    <glyph glyph-name="idieresis" unicode="&#xef;" 
d="M306 20c-3 -20 -22 -20 -30 -20h-195c-8 0 -29 0 -26 20c4 20 25 20 33 20h80l57 345h-75c-9 0 -28 0 -24 20c3 20 22 20 31 20h92c20 0 27 -5 23 -32l-59 -353h70c8 0 27 0 23 -20zM245 563c-3 -19 -20 -31 -32 -31c-14 0 -27 12 -24 31c3 20 20 33 34 33
c13 0 25 -13 22 -33zM350 563c-3 -19 -20 -31 -33 -31s-26 12 -23 31c3 20 20 33 33 33s26 -13 23 -33z" />
    <glyph glyph-name="Idieresisacute" unicode="&#x1e2e;" 
d="M300 20c-3 -20 -22 -20 -30 -20h-189c-8 0 -28 0 -25 20c4 20 24 20 32 20h72l88 531h-72c-8 0 -28 0 -24 20c3 20 23 20 31 20h189c8 0 27 0 24 -20c-4 -20 -23 -20 -31 -20h-73l-88 -531h73c8 0 27 0 23 -20zM258 697c-3 -19 -20 -32 -33 -32s-26 13 -23 32
c3 20 20 32 33 32s26 -12 23 -32zM381 697c-3 -19 -20 -32 -33 -32s-26 13 -23 32c3 20 20 32 33 32s26 -12 23 -32zM396 887c-1 -9 -13 -17 -22 -23l-101 -66c-4 -3 -12 -6 -16 -6c-14 0 -20 12 -17 27c1 7 14 16 21 21l88 58c11 7 22 13 31 13c11 0 19 -10 16 -24z" />
    <glyph glyph-name="idieresisacute" unicode="&#x1e2f;" 
d="M306 20c-3 -20 -22 -20 -30 -20h-195c-8 0 -29 0 -26 20c4 20 25 20 33 20h80l57 345h-75c-9 0 -28 0 -24 20c3 20 22 20 31 20h92c20 0 27 -5 23 -32l-59 -353h70c8 0 27 0 23 -20zM245 563c-3 -19 -20 -31 -32 -31c-14 0 -27 12 -24 31c3 20 20 33 34 33
c13 0 25 -13 22 -33zM350 563c-3 -19 -20 -31 -33 -31s-26 12 -23 31c3 20 20 33 33 33s26 -13 23 -33zM374 754c-1 -9 -13 -17 -22 -23l-101 -66c-4 -3 -12 -6 -16 -6c-14 0 -20 12 -17 27c1 7 14 16 21 21l88 58c11 7 22 13 31 13c11 0 19 -10 16 -24z" />
    <glyph glyph-name="Idotaccent" unicode="&#x130;" 
d="M300 20c-3 -20 -22 -20 -30 -20h-189c-8 0 -28 0 -25 20c4 20 24 20 32 20h72l88 531h-72c-8 0 -28 0 -24 20c3 20 23 20 31 20h189c8 0 27 0 24 -20c-4 -20 -23 -20 -31 -20h-73l-88 -531h73c8 0 27 0 23 -20zM325 714c-4 -22 -22 -37 -37 -37s-29 15 -25 37
s22 37 37 37s29 -15 25 -37z" />
    <glyph glyph-name="Idotbelow" unicode="&#x1eca;" 
d="M300 20c-3 -20 -22 -20 -30 -20h-189c-8 0 -28 0 -25 20c4 20 24 20 32 20h72l88 531h-72c-8 0 -28 0 -24 20c3 20 23 20 31 20h189c8 0 27 0 24 -20c-4 -20 -23 -20 -31 -20h-73l-88 -531h73c8 0 27 0 23 -20zM178 -170c-4 -22 -22 -36 -37 -36s-29 14 -25 36
c3 22 22 37 37 37s28 -15 25 -37z" />
    <glyph glyph-name="idotbelow" unicode="&#x1ecb;" 
d="M306 20c-3 -20 -22 -20 -30 -20h-195c-8 0 -29 0 -26 20c4 20 25 20 33 20h80l57 345h-75c-9 0 -28 0 -24 20c3 20 22 20 31 20h92c20 0 27 -5 23 -32l-59 -353h70c8 0 27 0 23 -20zM300 564c-4 -22 -22 -37 -37 -37s-29 15 -25 37s22 37 37 37s29 -15 25 -37zM178 -170
c-4 -22 -22 -36 -37 -36s-29 14 -25 36c3 22 22 37 37 37s28 -15 25 -37z" />
    <glyph glyph-name="Igrave" unicode="&#xcc;" 
d="M300 20c-3 -20 -22 -20 -30 -20h-189c-8 0 -28 0 -25 20c4 20 24 20 32 20h72l88 531h-72c-8 0 -28 0 -24 20c3 20 23 20 31 20h189c8 0 27 0 24 -20c-4 -20 -23 -20 -31 -20h-73l-88 -531h73c8 0 27 0 23 -20zM364 702c-3 -15 -13 -27 -27 -27c-4 0 -10 3 -14 6l-79 66
c-7 6 -15 14 -14 23c3 14 13 24 24 24c9 0 18 -6 27 -13l68 -58c7 -5 16 -14 15 -21z" />
    <glyph glyph-name="igrave" unicode="&#xec;" 
d="M306 20c-3 -20 -22 -20 -30 -20h-195c-8 0 -29 0 -26 20c4 20 25 20 33 20h80l57 345h-75c-9 0 -28 0 -24 20c3 20 22 20 31 20h92c20 0 27 -5 23 -32l-59 -353h70c8 0 27 0 23 -20zM336 531c-3 -15 -13 -27 -27 -27c-4 0 -10 3 -14 6l-79 66c-7 6 -16 14 -14 23
c2 14 13 24 24 24c9 0 18 -6 27 -13l68 -58c6 -5 16 -14 15 -21z" />
    <glyph glyph-name="Ihookabove" unicode="&#x1ec8;" 
d="M300 20c-3 -20 -22 -20 -30 -20h-189c-8 0 -28 0 -25 20c4 20 24 20 32 20h72l88 531h-72c-8 0 -28 0 -24 20c3 20 23 20 31 20h189c8 0 27 0 24 -20c-4 -20 -23 -20 -31 -20h-73l-88 -531h73c8 0 27 0 23 -20zM379 824c-3 -21 -17 -37 -30 -48c-27 -20 -40 -42 -43 -64
l-4 -19c-1 -11 -12 -16 -19 -16c-8 0 -17 5 -16 16l4 19c6 41 35 69 65 91c7 5 8 14 9 21c5 27 -6 40 -31 40c-14 0 -28 -10 -30 -24l-3 -16c-1 -8 -11 -18 -21 -18s-17 7 -15 19c8 47 44 72 74 72c39 0 68 -26 60 -73z" />
    <glyph glyph-name="ihookabove" unicode="&#x1ec9;" 
d="M306 20c-3 -20 -22 -20 -30 -20h-195c-8 0 -29 0 -26 20c4 20 25 20 33 20h80l57 345h-75c-9 0 -28 0 -24 20c3 20 22 20 31 20h92c20 0 27 -5 23 -32l-59 -353h70c8 0 27 0 23 -20zM342 601c-3 -21 -17 -37 -30 -48c-27 -20 -40 -42 -43 -64l-4 -19
c-1 -11 -12 -16 -19 -16c-8 0 -17 5 -16 16l4 19c6 41 35 69 65 91c7 5 8 14 9 21c5 27 -6 40 -31 40c-14 0 -28 -10 -30 -24l-3 -16c-1 -8 -11 -18 -21 -18s-17 7 -15 19c8 47 44 72 74 72c39 0 68 -26 60 -73z" />
    <glyph glyph-name="Imacron" unicode="&#x12a;" 
d="M300 20c-3 -20 -22 -20 -30 -20h-189c-8 0 -28 0 -25 20c4 20 24 20 32 20h72l88 531h-72c-8 0 -28 0 -24 20c3 20 23 20 31 20h189c8 0 27 0 24 -20c-4 -20 -23 -20 -31 -20h-73l-88 -531h73c8 0 27 0 23 -20zM422 705c-3 -20 -23 -20 -31 -20h-204c-9 0 -28 0 -24 21
c3 20 22 20 30 20h205c9 0 28 0 24 -21z" />
    <glyph glyph-name="imacron" unicode="&#x12b;" 
d="M306 20c-3 -20 -22 -20 -30 -20h-195c-8 0 -29 0 -26 20c4 20 25 20 33 20h80l57 345h-75c-9 0 -28 0 -24 20c3 20 22 20 31 20h92c20 0 27 -5 23 -32l-59 -353h70c8 0 27 0 23 -20zM399 563c-3 -20 -23 -20 -31 -20h-204c-9 0 -28 0 -25 21c3 20 22 20 30 20h205
c9 0 28 0 25 -21z" />
    <glyph glyph-name="infinity" unicode="&#x221e;" 
d="M208 287c9 51 13 107 -32 107c-44 0 -61 -100 -74 -178c-13 -79 -30 -179 8 -179c56 0 72 98 85 179zM320 216c13 78 30 179 -8 179c-56 0 -72 -99 -86 -179l-12 -72c-9 -51 -13 -107 31 -107c45 0 62 100 75 179zM360 216c-17 -102 -37 -221 -115 -221
c-35 0 -53 23 -60 56c-17 -33 -40 -55 -75 -55c-85 0 -65 118 -48 220c17 101 37 220 114 220c36 0 54 -23 61 -56c17 33 40 56 75 56c85 0 65 -119 48 -220z" />
    <glyph glyph-name="interrobang" unicode="&#x203d;" 
d="M212 37c-3 -22 -22 -37 -37 -37s-28 15 -25 37c4 22 22 36 37 36s29 -14 25 -36zM384 497c-7 -44 -31 -71 -53 -90c-58 -51 -82 -112 -93 -177l-3 -20c-3 -19 -9 -30 -30 -30c-22 0 -23 10 -18 42c2 14 6 34 15 60l6 37l39 257c-26 -3 -60 -14 -88 -52c5 -13 8 -21 7 -27
c-4 -25 -25 -33 -34 -33c-7 0 -27 5 -22 35c10 60 57 109 144 117l6 44c8 41 27 43 32 43c4 0 25 -1 18 -45l-7 -43c89 -13 85 -94 81 -118zM340 497c9 53 -19 72 -45 78l-20 -107l-14 -82c14 18 29 33 48 50c8 7 25 25 31 61z" />
    <glyph glyph-name="Iogonek" unicode="&#x12e;" 
d="M300 20c-3 -20 -22 -20 -30 -20h-61c-33 -26 -70 -72 -79 -123c-4 -29 9 -50 24 -50c14 0 34 21 43 38c6 6 22 10 27 5c3 -4 4 -14 1 -18c-23 -35 -54 -62 -80 -62c-42 0 -61 47 -54 89c6 38 30 76 75 121h-85c-8 0 -28 0 -25 20c4 20 24 20 32 20h72l88 531h-72
c-8 0 -28 0 -24 20c3 20 23 20 31 20h189c8 0 27 0 24 -20c-4 -20 -23 -20 -31 -20h-73l-88 -531h73c8 0 27 0 23 -20z" />
    <glyph glyph-name="iogonek" unicode="&#x12f;" 
d="M302 575c-4 -22 -22 -36 -37 -36s-29 14 -25 36s22 37 37 37s29 -15 25 -37zM306 20c-3 -20 -22 -20 -30 -20h-76c-33 -26 -67 -72 -76 -123c-4 -29 8 -50 23 -50c14 0 34 21 44 38c5 6 22 10 27 5c3 -4 4 -14 1 -18c-23 -35 -54 -62 -81 -62c-41 0 -61 47 -54 89
c6 38 30 76 76 121h-79c-8 0 -29 0 -26 20c4 20 25 20 33 20h80l57 345h-75c-9 0 -28 0 -24 20c3 20 22 20 31 20h92c20 0 27 -5 23 -32l-59 -353h70c8 0 27 0 23 -20z" />
    <glyph glyph-name="Iota" unicode="&#x399;" 
d="M300 20c-3 -20 -22 -20 -30 -20h-189c-8 0 -28 0 -25 20c4 20 24 20 32 20h72l88 531h-72c-8 0 -28 0 -24 20c3 20 23 20 31 20h189c8 0 27 0 24 -20c-4 -20 -23 -20 -31 -20h-73l-88 -531h73c8 0 27 0 23 -20z" />
    <glyph glyph-name="Itilde" unicode="&#x128;" 
d="M300 20c-3 -20 -22 -20 -30 -20h-189c-8 0 -28 0 -25 20c4 20 24 20 32 20h72l88 531h-72c-8 0 -28 0 -24 20c3 20 23 20 31 20h189c8 0 27 0 24 -20c-4 -20 -23 -20 -31 -20h-73l-88 -531h73c8 0 27 0 23 -20zM418 746c0 -4 -5 -11 -12 -18c-37 -36 -64 -63 -88 -63
c-19 0 -30 12 -44 44c-4 8 -7 14 -13 14c-17 0 -55 -44 -62 -52c-4 -4 -8 -6 -13 -6c-8 0 -19 8 -17 20c1 4 6 10 13 18c37 36 65 63 89 63c18 0 30 -12 43 -44c4 -9 7 -14 12 -14c17 0 55 44 63 52c4 4 9 6 13 6c9 0 18 -8 16 -20z" />
    <glyph glyph-name="itilde" unicode="&#x129;" 
d="M306 20c-3 -20 -22 -20 -30 -20h-195c-8 0 -29 0 -26 20c4 20 25 20 33 20h80l57 345h-75c-9 0 -28 0 -24 20c3 20 22 20 31 20h92c20 0 27 -5 23 -32l-59 -353h70c8 0 27 0 23 -20zM393 594c-1 -4 -5 -10 -12 -18c-37 -36 -64 -63 -88 -63c-19 0 -30 12 -44 44
c-4 9 -7 14 -13 14c-17 0 -55 -44 -62 -52c-4 -4 -8 -6 -13 -6c-8 0 -19 8 -17 20c1 4 6 11 13 18c37 36 64 63 88 63c18 0 30 -12 44 -44c4 -8 7 -14 12 -14c17 0 55 44 62 52c5 4 9 6 13 6c9 0 19 -8 17 -20z" />
    <glyph glyph-name="jcaron" unicode="&#x1f0;" 
d="M238 -55c-13 -74 -47 -118 -56 -128c-43 -52 -71 -52 -97 -52s-96 0 -86 64c5 25 24 34 34 34c23 0 22 -31 18 -53c12 -4 28 -5 42 -5c17 0 37 0 62 36c27 39 36 91 39 109l72 435h-86c-10 0 -28 0 -24 20c3 20 23 20 31 20h103c20 0 27 -5 23 -32zM416 600
c-1 -5 -9 -14 -15 -19l-85 -68c-11 -8 -23 -8 -30 0l-63 68c-4 5 -10 14 -9 19c2 14 9 20 20 20c5 0 12 -1 19 -8l55 -57l73 57c9 7 16 8 21 8c11 0 16 -6 14 -20z" />
    <glyph glyph-name="Jcircumflex" unicode="&#x134;" 
d="M421 591c-4 -20 -24 -20 -32 -20h-19l-74 -443c-15 -91 -81 -140 -138 -140c-62 0 -105 41 -95 104c5 25 21 35 35 35s25 -13 22 -32c-1 -5 -5 -11 -15 -24c17 -41 52 -43 61 -43c13 0 70 9 87 107l72 436h-54c-9 0 -28 0 -24 20c3 20 22 20 31 20h118c8 0 28 0 25 -20z
M446 683c-2 -8 -7 -17 -18 -17c-5 0 -10 -1 -18 3l-59 29l-69 -29c-9 -4 -13 -3 -18 -3c-11 0 -14 9 -12 17c1 5 3 15 12 19l81 40c12 6 18 6 28 0l67 -40c7 -4 7 -14 6 -19z" />
    <glyph glyph-name="jcircumflex" unicode="&#x135;" 
d="M238 -55c-13 -74 -47 -118 -56 -128c-43 -52 -71 -52 -97 -52s-96 0 -86 64c5 25 24 34 34 34c23 0 22 -31 18 -53c12 -4 28 -5 42 -5c17 0 37 0 62 36c27 39 36 91 39 109l72 435h-86c-10 0 -28 0 -24 20c3 20 23 20 31 20h103c20 0 27 -5 23 -32zM404 527
c-2 -14 -9 -20 -20 -20c-5 0 -12 1 -19 8l-55 57l-73 -57c-9 -7 -16 -8 -21 -8c-11 0 -16 6 -14 20c1 5 9 14 15 19l85 68c11 8 23 8 30 0l63 -68c4 -5 10 -14 9 -19z" />
    <glyph glyph-name="Kappa" unicode="&#x39a;" 
d="M337 20c-3 -20 -22 -20 -30 -20h-51c-8 0 -27 0 -24 20c4 20 23 20 38 20l-59 280l-84 -121l-26 -159h14c8 0 28 0 24 -20c-3 -20 -23 -20 -31 -20h-67c-8 0 -28 0 -25 20c4 20 24 20 32 20h12l88 531h-12c-8 0 -28 0 -24 20c3 20 23 20 31 20h67c8 0 28 0 25 -20
c-4 -20 -24 -20 -32 -20h-14l-49 -297l207 297c-19 0 -38 0 -34 20c3 20 22 20 30 20h59c9 0 28 0 25 -20c-4 -20 -22 -20 -40 -20l-147 -210l67 -321c16 0 34 0 30 -20z" />
    <glyph glyph-name="Kcommaaccent" unicode="&#x136;" 
d="M337 20c-3 -20 -22 -20 -30 -20h-51c-8 0 -27 0 -24 20c4 20 23 20 38 20l-59 280l-84 -121l-26 -159h14c8 0 28 0 24 -20c-3 -20 -23 -20 -31 -20h-67c-8 0 -28 0 -25 20c4 20 24 20 32 20h12l88 531h-12c-8 0 -28 0 -24 20c3 20 23 20 31 20h67c8 0 28 0 25 -20
c-4 -20 -24 -20 -32 -20h-14l-49 -297l207 297c-19 0 -38 0 -34 20c3 20 22 20 30 20h59c9 0 28 0 25 -20c-4 -20 -22 -20 -40 -20l-147 -210l67 -321c16 0 34 0 30 -20zM196 -120c-13 -79 -72 -112 -85 -112c-6 0 -15 6 -13 14l1 4c40 19 56 48 69 94c-7 -4 -13 -5 -13 -5
c-15 0 -27 13 -23 35c3 17 17 33 34 33c20 0 36 -26 30 -63z" />
    <glyph glyph-name="kcommaaccent" unicode="&#x137;" 
d="M346 20c-3 -20 -23 -20 -31 -20h-78c-9 0 -29 0 -26 20c4 20 23 20 53 20l-63 183l-69 -77l-17 -106h32c9 0 29 0 25 -20c-3 -20 -23 -20 -32 -20h-102c-8 0 -28 0 -25 20c4 20 24 20 32 20h30l88 531h-30c-8 0 -28 0 -24 20c3 20 23 20 31 20h43c20 0 26 -6 21 -33
l-62 -372l157 179h-37c-8 0 -28 0 -24 20c3 20 23 20 31 20h102c9 0 28 0 25 -20c-4 -20 -23 -20 -32 -20h-21l-114 -130l74 -215h19c8 0 28 0 24 -20zM196 -120c-13 -79 -72 -112 -85 -112c-6 0 -15 6 -13 14l1 4c40 19 56 48 69 94c-7 -4 -13 -5 -13 -5
c-15 0 -27 13 -23 35c3 17 17 33 34 33c20 0 36 -26 30 -63z" />
    <glyph glyph-name="Lacute" unicode="&#x139;" 
d="M336 33c-5 -28 -14 -33 -33 -33h-256c-8 0 -28 0 -25 20c4 20 24 20 32 20h24l88 531h-24c-8 0 -28 0 -24 20c3 20 23 20 31 20h105c9 0 28 0 25 -20c-4 -20 -23 -20 -32 -20h-37l-88 -531h171l13 77c2 15 8 32 27 32s19 -18 17 -32zM303 770c-1 -9 -13 -17 -22 -23
l-101 -66c-4 -3 -12 -6 -16 -6c-14 0 -20 12 -17 27c1 7 14 16 21 21l88 58c11 7 22 13 31 13c11 0 19 -10 16 -24z" />
    <glyph glyph-name="lacute" unicode="&#x13a;" 
d="M314 20c-3 -20 -22 -20 -30 -20h-217c-8 0 -28 0 -25 20c4 20 24 20 32 20h86l88 531h-86c-8 0 -28 0 -24 20c3 20 23 20 31 20h103c20 0 26 -6 21 -33l-89 -538h87c8 0 27 0 23 -20zM376 770c-1 -9 -13 -17 -22 -23l-101 -66c-4 -3 -12 -6 -16 -6c-14 0 -20 12 -17 27
c1 7 14 16 21 21l88 58c11 7 22 13 31 13c11 0 19 -10 16 -24z" />
    <glyph glyph-name="Lambda" unicode="&#x39b;" 
d="M337 20c-3 -20 -22 -20 -30 -20h-70c-9 0 -28 0 -25 20c4 20 23 20 32 20h17l8 519h-1l-165 -519h17c8 0 28 0 24 -20c-3 -20 -23 -20 -31 -20h-70c-8 0 -28 0 -25 20c4 20 22 20 41 20l178 548c10 29 16 37 42 37c17 0 30 0 30 -37l-4 -548c18 0 36 0 32 -20z" />
    <glyph glyph-name="Lcaron" unicode="&#x13d;" 
d="M336 33c-5 -28 -14 -33 -33 -33h-256c-8 0 -28 0 -25 20c4 20 24 20 32 20h24l88 531h-24c-8 0 -28 0 -24 20c3 20 23 20 31 20h105c9 0 28 0 25 -20c-4 -20 -23 -20 -32 -20h-37l-88 -531h171l13 77c2 15 8 32 27 32s19 -18 17 -32zM392 548c-13 -79 -71 -112 -84 -112
c-6 0 -15 6 -14 14l2 4c40 19 56 48 68 94c-6 -4 -12 -5 -12 -5c-15 0 -27 13 -24 35c3 17 18 33 35 33c20 0 36 -26 29 -63z" />
    <glyph glyph-name="lcaron" unicode="&#x13e;" 
d="M314 20c-3 -20 -22 -20 -30 -20h-217c-8 0 -28 0 -25 20c4 20 24 20 32 20h86l88 531h-86c-8 0 -28 0 -24 20c3 20 23 20 31 20h103c20 0 26 -6 21 -33l-89 -538h87c8 0 27 0 23 -20zM396 548c-13 -79 -71 -112 -84 -112c-6 0 -15 6 -14 14l2 4c40 19 56 48 68 94
c-6 -4 -12 -5 -12 -5c-15 0 -27 13 -24 35c3 17 18 33 35 33c20 0 36 -26 29 -63z" />
    <glyph glyph-name="Lcommaaccent" unicode="&#x13b;" 
d="M336 33c-5 -28 -14 -33 -33 -33h-256c-8 0 -28 0 -25 20c4 20 24 20 32 20h24l88 531h-24c-8 0 -28 0 -24 20c3 20 23 20 31 20h105c9 0 28 0 25 -20c-4 -20 -23 -20 -32 -20h-37l-88 -531h171l13 77c2 15 8 32 27 32s19 -18 17 -32zM196 -120c-13 -79 -72 -112 -85 -112
c-6 0 -15 6 -13 14l1 4c40 19 56 48 69 94c-7 -4 -13 -5 -13 -5c-15 0 -27 13 -23 35c3 17 17 33 34 33c20 0 36 -26 30 -63z" />
    <glyph glyph-name="lcommaaccent" unicode="&#x13c;" 
d="M314 20c-3 -20 -22 -20 -30 -20h-217c-8 0 -28 0 -25 20c4 20 24 20 32 20h86l88 531h-86c-8 0 -28 0 -24 20c3 20 23 20 31 20h103c20 0 26 -6 21 -33l-89 -538h87c8 0 27 0 23 -20zM196 -120c-13 -79 -72 -112 -85 -112c-6 0 -15 6 -13 14l1 4c40 19 56 48 69 94
c-7 -4 -13 -5 -13 -5c-15 0 -27 13 -23 35c3 17 17 33 34 33c20 0 36 -26 30 -63z" />
    <glyph glyph-name="Ldot" unicode="&#x13f;" 
d="M336 33c-5 -28 -14 -33 -33 -33h-256c-8 0 -28 0 -25 20c4 20 24 20 32 20h24l88 531h-24c-8 0 -28 0 -24 20c3 20 23 20 31 20h105c9 0 28 0 25 -20c-4 -20 -23 -20 -32 -20h-37l-88 -531h171l13 77c2 15 8 32 27 32s19 -18 17 -32zM352 318c-4 -22 -22 -37 -37 -37
s-29 15 -25 37s22 37 37 37s29 -15 25 -37z" />
    <glyph glyph-name="ldot" unicode="&#x140;" 
d="M314 20c-3 -20 -22 -20 -30 -20h-217c-8 0 -28 0 -25 20c4 20 24 20 32 20h86l88 531h-86c-8 0 -28 0 -24 20c3 20 23 20 31 20h103c20 0 26 -6 21 -33l-89 -538h87c8 0 27 0 23 -20zM434 318c-4 -22 -22 -37 -37 -37s-29 15 -25 37s22 37 37 37s29 -15 25 -37z" />
    <glyph glyph-name="Ldotbelow" unicode="&#x1e36;" 
d="M336 33c-5 -28 -14 -33 -33 -33h-256c-8 0 -28 0 -25 20c4 20 24 20 32 20h24l88 531h-24c-8 0 -28 0 -24 20c3 20 23 20 31 20h105c9 0 28 0 25 -20c-4 -20 -23 -20 -32 -20h-37l-88 -531h171l13 77c2 15 8 32 27 32s19 -18 17 -32zM178 -170c-4 -22 -22 -36 -37 -36
s-29 14 -25 36c3 22 22 37 37 37s28 -15 25 -37z" />
    <glyph glyph-name="ldotbelow" unicode="&#x1e37;" 
d="M314 20c-3 -20 -22 -20 -30 -20h-217c-8 0 -28 0 -25 20c4 20 24 20 32 20h86l88 531h-86c-8 0 -28 0 -24 20c3 20 23 20 31 20h103c20 0 26 -6 21 -33l-89 -538h87c8 0 27 0 23 -20zM178 -170c-4 -22 -22 -36 -37 -36s-29 14 -25 36c3 22 22 37 37 37s28 -15 25 -37z
" />
    <glyph glyph-name="Ldotbelowmacron" unicode="&#x1e38;" 
d="M336 33c-5 -28 -14 -33 -33 -33h-256c-8 0 -28 0 -25 20c4 20 24 20 32 20h24l88 531h-24c-8 0 -28 0 -24 20c3 20 23 20 31 20h105c9 0 28 0 25 -20c-4 -20 -23 -20 -32 -20h-37l-88 -531h171l13 77c2 15 8 32 27 32s19 -18 17 -32zM178 -170c-4 -22 -22 -36 -37 -36
s-29 14 -25 36c3 22 22 37 37 37s28 -15 25 -37zM347 705c-3 -20 -23 -20 -31 -20h-204c-9 0 -28 0 -24 21c3 20 22 20 30 20h205c9 0 28 0 24 -21z" />
    <glyph glyph-name="ldotbelowmacron" unicode="&#x1e39;" 
d="M314 20c-3 -20 -22 -20 -30 -20h-217c-8 0 -28 0 -25 20c4 20 24 20 32 20h86l88 531h-86c-8 0 -28 0 -24 20c3 20 23 20 31 20h103c20 0 26 -6 21 -33l-89 -538h87c8 0 27 0 23 -20zM178 -170c-4 -22 -22 -36 -37 -36s-29 14 -25 36c3 22 22 37 37 37s28 -15 25 -37z
M391 705c-3 -20 -23 -20 -31 -20h-204c-9 0 -28 0 -24 21c3 20 22 20 30 20h205c9 0 28 0 24 -21z" />
    <glyph glyph-name="uni0332" unicode="&#x332;" horiz-adv-x="0" 
d="M-73 -169c-4 -20 -24 -20 -32 -20h-204c-9 0 -28 0 -24 21c3 20 22 20 30 20h205c9 0 28 0 25 -21z" />
    <glyph glyph-name="lira" unicode="&#x20a4;" 
d="M364 139c-13 -78 -53 -151 -101 -151c-33 0 -58 39 -82 74c-24 -47 -69 -74 -111 -74c-33 0 -58 37 -49 87c9 56 58 87 100 87c13 0 24 -5 37 -15c0 39 -2 57 -3 75h-67c-9 0 -21 8 -18 23c2 14 17 23 26 23h53c-6 37 -9 56 -11 76h-30c-9 0 -20 8 -18 23
c3 14 17 23 26 23h19c3 26 4 37 6 45c16 96 83 176 148 176c61 0 109 -62 94 -149c-3 -20 -21 -33 -34 -33s-26 13 -23 33c1 8 7 15 16 25c-5 53 -30 78 -61 78c-46 0 -85 -62 -96 -130c-3 -15 -4 -29 -6 -45h78c9 0 21 -9 18 -23c-2 -15 -17 -23 -26 -23h-71
c4 -39 7 -58 9 -76h50c9 0 20 -9 18 -23c-3 -15 -17 -23 -26 -23h-34c4 -52 6 -84 0 -124c22 -32 43 -64 76 -64c29 0 41 55 49 105c3 14 16 23 26 23c11 0 21 -9 18 -23zM152 98c-13 11 -25 18 -39 18c-22 0 -44 -13 -48 -41c-4 -21 0 -41 13 -41c29 0 59 15 74 64z" />
    <glyph glyph-name="logicalnot" unicode="&#xac;" 
d="M367 227c-3 -15 -16 -24 -26 -24s-21 9 -18 24l22 134h-242c-10 0 -20 9 -18 23c3 15 16 24 26 24h264c10 0 21 -9 18 -24z" />
    <glyph glyph-name="longs" unicode="&#x17f;" 
d="M390 568c-4 -24 -22 -31 -32 -31c-29 0 -23 40 -23 40c-24 0 -72 -4 -87 -90l-74 -447h67c9 0 28 0 24 -20c-3 -20 -22 -20 -31 -20h-179s-27 0 -24 20c4 20 31 20 31 20h68l57 345h-71s-28 0 -24 20c3 20 23 20 32 20h70l11 66c14 87 79 126 130 126c9 0 63 0 55 -49z
" />
    <glyph glyph-name="Lslash" unicode="&#x141;" 
d="M336 33c-5 -28 -14 -33 -33 -33h-256c-8 0 -28 0 -25 20c4 20 24 20 32 20h24l39 234l-31 -28c-13 -12 -30 -3 -28 12c1 8 4 13 10 18l58 52l40 243h-24c-8 0 -28 0 -24 20c3 20 23 20 31 20h105c9 0 28 0 25 -20c-4 -20 -23 -20 -32 -20h-37l-33 -201l142 121
c12 10 34 6 31 -14c-2 -8 -6 -12 -13 -18l-169 -142l-46 -277h171l13 77c2 15 8 32 27 32s19 -18 17 -32z" />
    <glyph glyph-name="lslash" unicode="&#x142;" 
d="M314 20c-3 -20 -22 -20 -30 -20h-217c-8 0 -28 0 -25 20c4 20 24 20 32 20h86l46 280l-86 -74c-12 -11 -23 -7 -27 7c-2 8 3 17 9 23l113 98l33 197h-86c-8 0 -28 0 -24 20c3 20 23 20 31 20h103c20 0 26 -6 21 -33l-27 -162l87 75c12 10 21 0 25 -5c5 -6 0 -21 -7 -27
l-114 -97l-53 -322h87c8 0 27 0 23 -20z" />
    <glyph glyph-name="macron" unicode="&#xaf;" 
d="M399 563c-3 -20 -23 -20 -31 -20h-204c-9 0 -28 0 -25 21c3 20 22 20 30 20h205c9 0 28 0 25 -21z" />
    <glyph glyph-name="uni0331" unicode="&#x331;" horiz-adv-x="0" 
d="M-73 -169c-4 -20 -24 -20 -32 -20h-204c-9 0 -28 0 -24 21c3 20 22 20 30 20h205c9 0 28 0 25 -21z" />
    <glyph glyph-name="uni0304" unicode="&#x304;" horiz-adv-x="0" 
d="M49 563c-3 -20 -23 -20 -31 -20h-204c-9 0 -28 0 -25 21c3 20 22 20 30 20h205c9 0 28 0 25 -21z" />
    <glyph glyph-name="married" unicode="&#x26ad;" 
d="M467 305c-21 -127 -110 -211 -186 -211c-32 0 -66 16 -83 46h-1c-27 -32 -67 -46 -97 -46c-79 0 -136 91 -116 213c19 115 106 213 186 213c33 0 64 -18 84 -47c27 32 68 46 98 46c79 0 135 -91 115 -214zM424 306c15 88 -17 169 -78 169c-23 0 -43 -14 -74 -34
c15 -49 19 -92 12 -135s-25 -85 -57 -134c26 -20 44 -34 63 -34c61 0 120 82 134 168zM180 173c-17 48 -20 90 -13 133s24 86 58 135c-27 20 -45 34 -65 34c-60 0 -118 -82 -133 -168c-14 -88 17 -169 78 -169c23 0 43 14 75 35zM240 307c5 29 3 57 1 87h-1
c-12 -30 -24 -58 -29 -87c-5 -30 -6 -61 1 -88c11 29 23 56 28 88z" />
    <glyph glyph-name="Mdotbelow" unicode="&#x1e42;" 
d="M346 20c-3 -20 -23 -20 -32 -20h-53c-8 0 -28 0 -25 20c4 20 23 20 40 20l86 519l-119 -322c-9 -18 -25 -26 -33 -26c-20 0 -24 28 -24 36l-10 314l-87 -521c15 0 35 0 31 -20c-3 -20 -23 -20 -32 -20h-53c-8 0 -28 0 -25 20c4 20 23 20 40 20l88 531c-17 0 -36 0 -32 20
c3 20 23 20 31 20h37c12 0 32 0 36 -24l11 -307l108 292c11 27 23 39 50 39h37c9 0 29 0 26 -20c-4 -20 -24 -20 -40 -20l-88 -531c16 0 36 0 32 -20zM178 -170c-4 -22 -22 -36 -37 -36s-29 14 -25 36c3 22 22 37 37 37s28 -15 25 -37z" />
    <glyph glyph-name="mdotbelow" unicode="&#x1e43;" 
d="M353 20c-3 -20 -23 -20 -31 -20h-51c-8 0 -26 0 -23 20c4 20 22 20 33 20l43 257c8 53 11 94 -11 94c-33 0 -63 -59 -78 -151l-33 -200c20 0 36 0 32 -20c-3 -20 -20 -20 -29 -20h-51c-8 0 -26 0 -23 20c4 20 22 20 33 20l43 257c8 53 11 94 -11 94
c-33 0 -64 -59 -79 -151l-33 -200c20 0 36 0 32 -20c-3 -20 -20 -20 -28 -20h-59c-8 0 -28 0 -25 20c4 20 22 20 42 20l57 345c-20 0 -38 0 -34 20c3 20 23 20 31 20h21c11 0 27 0 22 -33c8 10 31 39 63 39c33 0 42 -39 44 -54c25 38 48 54 73 54c58 0 43 -107 40 -128
l-44 -263c20 0 38 0 34 -20zM178 -170c-4 -22 -22 -36 -37 -36s-29 14 -25 36c3 22 22 37 37 37s28 -15 25 -37z" />
    <glyph glyph-name="uni2127" unicode="&#x2127;" 
d="M426 558c-2 -12 -9 -33 -25 -33s-16 21 -12 47h-45c-6 -68 1 -120 9 -170c9 -63 18 -136 8 -199c-21 -124 -109 -214 -188 -214s-137 89 -116 214c10 58 34 114 71 191c32 65 53 113 69 178h-46c-4 -26 -10 -47 -26 -47s-16 21 -14 33l4 21c4 28 13 33 32 33h68
c12 0 29 0 25 -26c-11 -64 -45 -135 -77 -204c-24 -55 -51 -118 -61 -179c-17 -99 19 -174 78 -174c60 0 119 75 136 174c10 61 5 125 -1 179c-10 70 -19 142 -8 204c4 26 20 26 31 26h68c20 0 28 -4 24 -33z" />
    <glyph glyph-name="minus" unicode="&#x2212;" 
d="M380 306c-4 -23 -26 -23 -34 -23h-248c-8 0 -30 0 -26 23c4 24 28 24 37 24h242c9 0 33 0 29 -24z" />
    <glyph glyph-name="Mu" unicode="&#x39c;" 
d="M346 20c-3 -20 -23 -20 -32 -20h-53c-8 0 -28 0 -25 20c4 20 23 20 40 20l86 519l-119 -322c-9 -18 -25 -26 -33 -26c-20 0 -24 28 -24 36l-10 314l-87 -521c15 0 35 0 31 -20c-3 -20 -23 -20 -32 -20h-53c-8 0 -28 0 -25 20c4 20 23 20 40 20l88 531c-17 0 -36 0 -32 20
c3 20 23 20 31 20h37c12 0 32 0 36 -24l11 -307l108 292c11 27 23 39 50 39h37c9 0 29 0 26 -20c-4 -20 -24 -20 -40 -20l-88 -531c16 0 36 0 32 -20z" />
    <glyph glyph-name="uni00B5" unicode="&#xb5;" 
d="M347 20c-3 -20 -22 -20 -30 -20h-47c-10 0 -28 0 -22 38c-18 -18 -48 -44 -91 -44c-18 0 -36 3 -49 11l-33 -194h29c8 0 28 0 25 -20s-23 -20 -31 -20h-103c-8 0 -28 0 -25 20s23 20 31 20h29l96 574h-29c-8 0 -28 0 -24 20c3 20 23 20 31 20h46c20 0 27 -5 23 -32
l-47 -280c-6 -35 -13 -79 43 -79c33 0 84 27 99 117l39 234h-30c-8 0 -27 0 -23 20c3 20 22 20 30 20h47c20 0 26 -5 22 -32l-59 -353h30c8 0 27 0 23 -20z" />
    <glyph glyph-name="multiply" unicode="&#xd7;" 
d="M310 155c-19 -22 -31 0 -37 9l-53 104l-89 -104c-8 -10 -28 -33 -40 -9c-7 14 7 31 13 37l96 114l-58 114c-4 7 -11 22 -1 36c20 25 33 1 38 -8l53 -104l89 103c8 10 27 33 39 9c8 -14 -7 -31 -12 -37l-97 -113l59 -114c4 -7 12 -23 0 -37z" />
    <glyph glyph-name="uni266A" unicode="&#x266a;" horiz-adv-x="428" 
d="M430 137c-2 -12 -14 -21 -25 -22c-22 0 -19 25 -15 45c10 60 -24 181 -43 243l-50 -304c-15 -90 -100 -138 -153 -138c-56 0 -120 48 -105 142c16 92 95 133 150 133c31 0 58 -11 81 -31l64 383c2 12 11 24 26 24c11 0 20 -12 18 -24l-3 -18c-9 -133 46 -216 56 -336
c4 -32 3 -74 -1 -97z" />
    <glyph glyph-name="Nacute" unicode="&#x143;" 
d="M433 591c-4 -20 -23 -20 -31 -20h-16l-89 -538c-6 -33 -17 -33 -35 -33c-16 0 -34 0 -36 35l-36 517l-85 -512h15c8 0 28 0 24 -20c-3 -20 -23 -20 -31 -20h-70c-9 0 -28 0 -25 20c4 20 24 20 32 20h16l88 531h-16c-8 0 -28 0 -24 20c3 20 22 20 31 20h45
c15 0 33 0 36 -35l37 -517l85 512h-16c-9 0 -29 0 -25 20c3 20 23 20 32 20h70c9 0 27 0 24 -20zM376 770c-1 -9 -13 -17 -22 -23l-101 -66c-4 -3 -12 -6 -16 -6c-14 0 -20 12 -17 27c1 7 14 16 21 21l88 58c11 7 22 13 31 13c11 0 19 -10 16 -24z" />
    <glyph glyph-name="nacute" unicode="&#x144;" 
d="M347 20c-3 -20 -22 -20 -30 -20h-104c-8 0 -27 0 -24 20c4 20 23 20 31 20h30l41 248c11 64 11 103 -33 103c-40 0 -94 -49 -111 -154l-33 -197h29c8 0 28 0 24 -20c-3 -20 -23 -20 -31 -20h-103c-8 0 -28 0 -25 20c4 20 24 20 32 20h29l57 345h-29c-8 0 -28 0 -24 20
c3 20 23 20 31 20h46c24 0 26 -10 19 -53c15 20 53 59 101 59c55 0 82 -42 66 -138l-42 -253h30c8 0 27 0 23 -20zM348 599c-2 -9 -13 -17 -22 -23l-101 -66c-4 -3 -12 -6 -16 -6c-14 0 -20 12 -17 27c1 7 13 16 21 21l88 58c11 7 22 13 31 13c11 0 18 -10 16 -24z" />
    <glyph glyph-name="naira" unicode="&#x20a6;" 
d="M433 591c-4 -20 -23 -20 -31 -20h-16l-27 -165h16c9 0 18 -8 16 -21c-2 -12 -14 -20 -23 -20h-16l-20 -119h16c9 0 19 -8 17 -20c-2 -13 -15 -21 -24 -21h-16l-28 -172c-6 -33 -17 -33 -35 -33c-16 0 -33 0 -35 35l-13 170h-83l-27 -165h16c8 0 28 0 24 -20
c-3 -20 -23 -20 -31 -20h-70c-9 0 -28 0 -25 20c4 20 24 20 32 20h16l27 165h-17c-9 0 -18 8 -16 21c2 12 14 20 23 20h17l20 119h-17c-9 0 -19 8 -17 20c2 13 15 21 24 21h17l27 165h-16c-8 0 -28 0 -24 20c3 20 22 20 31 20h45c15 0 32 0 35 -35l13 -170h83l27 165h-16
c-9 0 -29 0 -25 20c3 20 23 20 32 20h70c9 0 27 0 24 -20zM200 406l-11 148l-24 -148h35zM211 246l-8 119h-45l-20 -119h73zM294 246l20 119h-74l9 -119h45zM262 54l25 151h-35z" />
    <glyph glyph-name="uni00A0" unicode="&#xa0;" 
 />
    <glyph glyph-name="Ncaron" unicode="&#x147;" 
d="M433 591c-4 -20 -23 -20 -31 -20h-16l-89 -538c-6 -33 -17 -33 -35 -33c-16 0 -34 0 -36 35l-36 517l-85 -512h15c8 0 28 0 24 -20c-3 -20 -23 -20 -31 -20h-70c-9 0 -28 0 -25 20c4 20 24 20 32 20h16l88 531h-16c-8 0 -28 0 -24 20c3 20 22 20 31 20h45
c15 0 33 0 36 -35l37 -517l85 512h-16c-9 0 -29 0 -25 20c3 20 23 20 32 20h70c9 0 27 0 24 -20zM393 729c0 -5 -3 -15 -12 -19l-80 -40c-12 -6 -18 -6 -28 0l-68 40c-7 4 -6 14 -6 19c2 8 7 17 18 17c5 0 10 1 18 -3l59 -29l69 29c9 4 13 3 18 3c11 0 14 -9 12 -17z" />
    <glyph glyph-name="ncaron" unicode="&#x148;" 
d="M347 20c-3 -20 -22 -20 -30 -20h-104c-8 0 -27 0 -24 20c4 20 23 20 31 20h30l41 248c11 64 11 103 -33 103c-40 0 -94 -49 -111 -154l-33 -197h29c8 0 28 0 24 -20c-3 -20 -23 -20 -31 -20h-103c-8 0 -28 0 -25 20c4 20 24 20 32 20h29l57 345h-29c-8 0 -28 0 -24 20
c3 20 23 20 31 20h46c24 0 26 -10 19 -53c15 20 53 59 101 59c55 0 82 -42 66 -138l-42 -253h30c8 0 27 0 23 -20zM375 600c-1 -5 -9 -14 -15 -19l-85 -68c-11 -8 -23 -8 -30 0l-63 68c-4 5 -10 14 -9 19c2 14 9 20 20 20c5 0 12 -1 19 -8l55 -57l73 57c9 7 16 8 21 8
c11 0 16 -6 14 -20z" />
    <glyph glyph-name="Ncommaaccent" unicode="&#x145;" 
d="M433 591c-4 -20 -23 -20 -31 -20h-16l-89 -538c-6 -33 -17 -33 -35 -33c-16 0 -34 0 -36 35l-36 517l-85 -512h15c8 0 28 0 24 -20c-3 -20 -23 -20 -31 -20h-70c-9 0 -28 0 -25 20c4 20 24 20 32 20h16l88 531h-16c-8 0 -28 0 -24 20c3 20 22 20 31 20h45
c15 0 33 0 36 -35l37 -517l85 512h-16c-9 0 -29 0 -25 20c3 20 23 20 32 20h70c9 0 27 0 24 -20zM196 -120c-13 -79 -72 -112 -85 -112c-6 0 -15 6 -13 14l1 4c40 19 56 48 69 94c-7 -4 -13 -5 -13 -5c-15 0 -27 13 -23 35c3 17 17 33 34 33c20 0 36 -26 30 -63z" />
    <glyph glyph-name="ncommaaccent" unicode="&#x146;" 
d="M347 20c-3 -20 -22 -20 -30 -20h-104c-8 0 -27 0 -24 20c4 20 23 20 31 20h30l41 248c11 64 11 103 -33 103c-40 0 -94 -49 -111 -154l-33 -197h29c8 0 28 0 24 -20c-3 -20 -23 -20 -31 -20h-103c-8 0 -28 0 -25 20c4 20 24 20 32 20h29l57 345h-29c-8 0 -28 0 -24 20
c3 20 23 20 31 20h46c24 0 26 -10 19 -53c15 20 53 59 101 59c55 0 82 -42 66 -138l-42 -253h30c8 0 27 0 23 -20zM196 -120c-13 -79 -72 -112 -85 -112c-6 0 -15 6 -13 14l1 4c40 19 56 48 69 94c-7 -4 -13 -5 -13 -5c-15 0 -27 13 -23 35c3 17 17 33 34 33
c20 0 36 -26 30 -63z" />
    <glyph glyph-name="Ndotaccent" unicode="&#x1e44;" 
d="M433 591c-4 -20 -23 -20 -31 -20h-16l-89 -538c-6 -33 -17 -33 -35 -33c-16 0 -34 0 -36 35l-36 517l-85 -512h15c8 0 28 0 24 -20c-3 -20 -23 -20 -31 -20h-70c-9 0 -28 0 -25 20c4 20 24 20 32 20h16l88 531h-16c-8 0 -28 0 -24 20c3 20 22 20 31 20h45
c15 0 33 0 36 -35l37 -517l85 512h-16c-9 0 -29 0 -25 20c3 20 23 20 32 20h70c9 0 27 0 24 -20zM323 702c-4 -22 -22 -37 -37 -37s-29 15 -25 37s22 37 37 37s29 -15 25 -37z" />
    <glyph glyph-name="ndotaccent" unicode="&#x1e45;" 
d="M347 20c-3 -20 -22 -20 -30 -20h-104c-8 0 -27 0 -24 20c4 20 23 20 31 20h30l41 248c11 64 11 103 -33 103c-40 0 -94 -49 -111 -154l-33 -197h29c8 0 28 0 24 -20c-3 -20 -23 -20 -31 -20h-103c-8 0 -28 0 -25 20c4 20 24 20 32 20h29l57 345h-29c-8 0 -28 0 -24 20
c3 20 23 20 31 20h46c24 0 26 -10 19 -53c15 20 53 59 101 59c55 0 82 -42 66 -138l-42 -253h30c8 0 27 0 23 -20zM300 564c-4 -22 -22 -37 -37 -37s-29 15 -25 37s22 37 37 37s29 -15 25 -37z" />
    <glyph glyph-name="Ndotbelow" unicode="&#x1e46;" 
d="M433 591c-4 -20 -23 -20 -31 -20h-16l-89 -538c-6 -33 -17 -33 -35 -33c-16 0 -34 0 -36 35l-36 517l-85 -512h15c8 0 28 0 24 -20c-3 -20 -23 -20 -31 -20h-70c-9 0 -28 0 -25 20c4 20 24 20 32 20h16l88 531h-16c-8 0 -28 0 -24 20c3 20 22 20 31 20h45
c15 0 33 0 36 -35l37 -517l85 512h-16c-9 0 -29 0 -25 20c3 20 23 20 32 20h70c9 0 27 0 24 -20zM178 -170c-4 -22 -22 -36 -37 -36s-29 14 -25 36c3 22 22 37 37 37s28 -15 25 -37z" />
    <glyph glyph-name="ndotbelow" unicode="&#x1e47;" 
d="M347 20c-3 -20 -22 -20 -30 -20h-104c-8 0 -27 0 -24 20c4 20 23 20 31 20h30l41 248c11 64 11 103 -33 103c-40 0 -94 -49 -111 -154l-33 -197h29c8 0 28 0 24 -20c-3 -20 -23 -20 -31 -20h-103c-8 0 -28 0 -25 20c4 20 24 20 32 20h29l57 345h-29c-8 0 -28 0 -24 20
c3 20 23 20 31 20h46c24 0 26 -10 19 -53c15 20 53 59 101 59c55 0 82 -42 66 -138l-42 -253h30c8 0 27 0 23 -20zM178 -170c-4 -22 -22 -36 -37 -36s-29 14 -25 36c3 22 22 37 37 37s28 -15 25 -37z" />
    <glyph glyph-name="Ntilde" unicode="&#xd1;" 
d="M433 591c-4 -20 -23 -20 -31 -20h-16l-89 -538c-6 -33 -17 -33 -35 -33c-16 0 -34 0 -36 35l-36 517l-85 -512h15c8 0 28 0 24 -20c-3 -20 -23 -20 -31 -20h-70c-9 0 -28 0 -25 20c4 20 24 20 32 20h16l88 531h-16c-8 0 -28 0 -24 20c3 20 22 20 31 20h45
c15 0 33 0 36 -35l37 -517l85 512h-16c-9 0 -29 0 -25 20c3 20 23 20 32 20h70c9 0 27 0 24 -20zM418 746c0 -4 -5 -11 -12 -18c-37 -36 -64 -63 -88 -63c-19 0 -30 12 -44 44c-4 8 -7 14 -13 14c-17 0 -55 -44 -62 -52c-4 -4 -8 -6 -13 -6c-8 0 -19 8 -17 20
c1 4 6 10 13 18c37 36 65 63 89 63c18 0 30 -12 43 -44c4 -9 7 -14 12 -14c17 0 55 44 63 52c4 4 9 6 13 6c9 0 18 -8 16 -20z" />
    <glyph glyph-name="ntilde" unicode="&#xf1;" 
d="M347 20c-3 -20 -22 -20 -30 -20h-104c-8 0 -27 0 -24 20c4 20 23 20 31 20h30l41 248c11 64 11 103 -33 103c-40 0 -94 -49 -111 -154l-33 -197h29c8 0 28 0 24 -20c-3 -20 -23 -20 -31 -20h-103c-8 0 -28 0 -25 20c4 20 24 20 32 20h29l57 345h-29c-8 0 -28 0 -24 20
c3 20 23 20 31 20h46c24 0 26 -10 19 -53c15 20 53 59 101 59c55 0 82 -42 66 -138l-42 -253h30c8 0 27 0 23 -20zM393 594c-1 -4 -5 -10 -12 -18c-37 -36 -64 -63 -88 -63c-19 0 -30 12 -44 44c-4 9 -7 14 -13 14c-17 0 -55 -44 -62 -52c-4 -4 -8 -6 -13 -6
c-8 0 -19 8 -17 20c1 4 6 11 13 18c37 36 64 63 88 63c18 0 30 -12 44 -44c4 -8 7 -14 12 -14c17 0 55 44 62 52c5 4 9 6 13 6c9 0 19 -8 17 -20z" />
    <glyph glyph-name="Nu" unicode="&#x39d;" 
d="M433 591c-4 -20 -23 -20 -31 -20h-16l-89 -538c-6 -33 -17 -33 -35 -33c-16 0 -34 0 -36 35l-36 517l-85 -512h15c8 0 28 0 24 -20c-3 -20 -23 -20 -31 -20h-70c-9 0 -28 0 -25 20c4 20 24 20 32 20h16l88 531h-16c-8 0 -28 0 -24 20c3 20 22 20 31 20h45
c15 0 33 0 36 -35l37 -517l85 512h-16c-9 0 -29 0 -25 20c3 20 23 20 32 20h70c9 0 27 0 24 -20z" />
    <glyph glyph-name="numero" unicode="&#x2116;" 
d="M396 388c-7 -39 -32 -91 -62 -91s-36 56 -30 92c6 38 33 91 61 91c30 0 37 -54 31 -92zM387 205c-3 -22 -14 -20 -22 -20h-94c-13 0 -23 4 -21 19c3 20 16 21 28 21h93c10 0 18 -7 16 -20zM388 560c-3 -19 -20 -33 -33 -33s-26 12 -23 28l4 26c-3 1 -6 2 -10 1
c-21 -5 -39 -92 -47 -137l-68 -409c-4 -26 -18 -35 -32 -35c-29 0 -26 39 -23 69l39 397h-3l-48 -290c-11 -65 -39 -182 -93 -182c-22 0 -62 8 -54 56c4 24 20 35 33 35c12 0 21 -13 22 -30c0 0 -7 -26 0 -26c3 0 8 2 11 5c26 30 36 93 44 138l66 399h-13
c-12 0 -23 2 -20 20c3 19 18 20 29 20h43c22 0 20 -22 19 -42l-47 -471h2l60 361c10 61 40 158 91 158c26 0 58 -17 51 -58zM360 388c1 7 8 50 -3 50c-10 0 -15 -28 -18 -51c-3 -16 -8 -47 3 -47c10 0 15 34 18 48z" />
    <glyph glyph-name="Oacute" unicode="&#xd3;" 
d="M367 305c-24 -144 -41 -223 -67 -266c-27 -44 -64 -51 -127 -51c-64 0 -98 7 -110 51c-12 43 -2 122 22 267c24 144 40 223 66 266c28 44 64 51 128 51c63 0 98 -7 109 -51c12 -43 3 -122 -21 -267zM323 314c11 66 26 151 26 202c-1 55 -22 67 -77 67
c-58 0 -81 -14 -101 -71c-16 -51 -29 -128 -41 -198c-10 -61 -26 -159 -25 -213c-1 -48 11 -73 75 -73c65 0 85 25 101 78c17 58 31 141 42 208zM376 770c-1 -9 -13 -17 -22 -23l-101 -66c-4 -3 -12 -6 -16 -6c-14 0 -20 12 -17 27c1 7 14 16 21 21l88 58c11 7 22 13 31 13
c11 0 19 -10 16 -24z" />
    <glyph glyph-name="oacute" unicode="&#xf3;" 
d="M350 213c-21 -126 -103 -219 -176 -219s-123 93 -102 219c20 125 102 222 176 222c73 0 122 -97 102 -222zM306 220c17 101 -14 174 -65 174c-52 0 -107 -73 -124 -174c-17 -102 11 -186 64 -186s108 83 125 186zM348 599c-2 -9 -13 -17 -22 -23l-101 -66
c-4 -3 -12 -6 -16 -6c-14 0 -20 12 -17 27c1 7 13 16 21 21l88 58c11 7 22 13 31 13c11 0 18 -10 16 -24z" />
    <glyph glyph-name="Obreve" unicode="&#x14e;" 
d="M367 305c-24 -144 -41 -223 -67 -266c-27 -44 -64 -51 -127 -51c-64 0 -98 7 -110 51c-12 43 -2 122 22 267c24 144 40 223 66 266c28 44 64 51 128 51c63 0 98 -7 109 -51c12 -43 3 -122 -21 -267zM323 314c11 66 26 151 26 202c-1 55 -22 67 -77 67
c-58 0 -81 -14 -101 -71c-16 -51 -29 -128 -41 -198c-10 -61 -26 -159 -25 -213c-1 -48 11 -73 75 -73c65 0 85 25 101 78c17 58 31 141 42 208zM420 749c-13 -74 -90 -74 -133 -74s-120 0 -107 74c3 19 16 22 22 22c11 0 18 -9 17 -24c-1 -18 -2 -30 75 -30
c54 0 79 5 85 27c2 6 7 27 24 27c7 0 20 -4 17 -22z" />
    <glyph glyph-name="obreve" unicode="&#x14f;" 
d="M350 213c-21 -126 -103 -219 -176 -219s-123 93 -102 219c20 125 102 222 176 222c73 0 122 -97 102 -222zM306 220c17 101 -14 174 -65 174c-52 0 -107 -73 -124 -174c-17 -102 11 -186 64 -186s108 83 125 186zM393 590c-12 -74 -89 -74 -132 -74s-120 0 -108 74
c4 19 17 22 23 22c11 0 18 -9 17 -24c-1 -18 -2 -30 75 -30c54 0 79 6 85 27c2 6 7 27 24 27c7 0 19 -4 16 -22z" />
    <glyph glyph-name="Ocaron" unicode="&#x1d1;" 
d="M367 305c-24 -144 -41 -223 -67 -266c-27 -44 -64 -51 -127 -51c-64 0 -98 7 -110 51c-12 43 -2 122 22 267c24 144 40 223 66 266c28 44 64 51 128 51c63 0 98 -7 109 -51c12 -43 3 -122 -21 -267zM323 314c11 66 26 151 26 202c-1 55 -22 67 -77 67
c-58 0 -81 -14 -101 -71c-16 -51 -29 -128 -41 -198c-10 -61 -26 -159 -25 -213c-1 -48 11 -73 75 -73c65 0 85 25 101 78c17 58 31 141 42 208zM393 729c0 -5 -3 -15 -12 -19l-80 -40c-12 -6 -18 -6 -28 0l-68 40c-7 4 -6 14 -6 19c2 8 7 17 18 17c5 0 10 1 18 -3l59 -29
l69 29c9 4 13 3 18 3c11 0 14 -9 12 -17z" />
    <glyph glyph-name="ocaron" unicode="&#x1d2;" 
d="M350 213c-21 -126 -103 -219 -176 -219s-123 93 -102 219c20 125 102 222 176 222c73 0 122 -97 102 -222zM306 220c17 101 -14 174 -65 174c-52 0 -107 -73 -124 -174c-17 -102 11 -186 64 -186s108 83 125 186zM375 600c-1 -5 -9 -14 -15 -19l-85 -68
c-11 -8 -23 -8 -30 0l-63 68c-4 5 -10 14 -9 19c2 14 9 20 20 20c5 0 12 -1 19 -8l55 -57l73 57c9 7 16 8 21 8c11 0 16 -6 14 -20z" />
    <glyph glyph-name="Ocircumflex" unicode="&#xd4;" 
d="M367 305c-24 -144 -41 -223 -67 -266c-27 -44 -64 -51 -127 -51c-64 0 -98 7 -110 51c-12 43 -2 122 22 267c24 144 40 223 66 266c28 44 64 51 128 51c63 0 98 -7 109 -51c12 -43 3 -122 -21 -267zM323 314c11 66 26 151 26 202c-1 55 -22 67 -77 67
c-58 0 -81 -14 -101 -71c-16 -51 -29 -128 -41 -198c-10 -61 -26 -159 -25 -213c-1 -48 11 -73 75 -73c65 0 85 25 101 78c17 58 31 141 42 208zM386 683c-2 -8 -7 -17 -18 -17c-5 0 -10 -1 -18 3l-59 29l-69 -29c-9 -4 -13 -3 -18 -3c-11 0 -14 9 -12 17c1 5 3 15 12 19
l81 40c12 6 18 6 28 0l67 -40c7 -4 7 -14 6 -19z" />
    <glyph glyph-name="ocircumflex" unicode="&#xf4;" 
d="M350 213c-21 -126 -103 -219 -176 -219s-123 93 -102 219c20 125 102 222 176 222c73 0 122 -97 102 -222zM306 220c17 101 -14 174 -65 174c-52 0 -107 -73 -124 -174c-17 -102 11 -186 64 -186s108 83 125 186zM363 527c-2 -14 -9 -20 -20 -20c-5 0 -12 1 -19 8l-55 57
l-73 -57c-9 -7 -16 -8 -21 -8c-11 0 -16 6 -14 20c1 5 9 14 15 19l85 68c11 8 23 8 30 0l63 -68c4 -5 10 -14 9 -19z" />
    <glyph glyph-name="Ocircumflexacute" unicode="&#x1ed0;" 
d="M367 305c-24 -144 -41 -223 -67 -266c-27 -44 -64 -51 -127 -51c-64 0 -98 7 -110 51c-12 43 -2 122 22 267c24 144 40 223 66 266c28 44 64 51 128 51c63 0 98 -7 109 -51c12 -43 3 -122 -21 -267zM323 314c11 66 26 151 26 202c-1 55 -22 67 -77 67
c-58 0 -81 -14 -101 -71c-16 -51 -29 -128 -41 -198c-10 -61 -26 -159 -25 -213c-1 -48 11 -73 75 -73c65 0 85 25 101 78c17 58 31 141 42 208zM386 683c-2 -8 -7 -17 -18 -17c-5 0 -10 -1 -18 3l-59 29l-69 -29c-9 -4 -13 -3 -18 -3c-11 0 -14 9 -12 17c1 5 3 15 12 19
l81 40c12 6 18 6 28 0l67 -40c7 -4 7 -14 6 -19zM391 861c-1 -9 -12 -17 -21 -23l-101 -66c-5 -3 -12 -6 -16 -6c-14 0 -20 12 -18 27c1 7 14 16 22 21l87 58c11 7 22 13 31 13c11 0 19 -10 16 -24z" />
    <glyph glyph-name="ocircumflexacute" unicode="&#x1ed1;" 
d="M350 213c-21 -126 -103 -219 -176 -219s-123 93 -102 219c20 125 102 222 176 222c73 0 122 -97 102 -222zM306 220c17 101 -14 174 -65 174c-52 0 -107 -73 -124 -174c-17 -102 11 -186 64 -186s108 83 125 186zM359 524c-1 -8 -6 -17 -17 -17c-5 0 -11 -1 -18 3l-59 29
l-69 -29c-10 -4 -13 -3 -18 -3c-11 0 -14 9 -13 17c1 5 4 15 13 19l80 40c12 6 18 6 28 0l68 -40c7 -4 6 -14 5 -19zM365 702c-1 -9 -13 -17 -22 -23l-101 -66c-4 -3 -12 -6 -16 -6c-14 0 -20 12 -17 27c1 7 13 16 21 21l88 58c11 7 22 13 31 13c11 0 18 -10 16 -24z" />
    <glyph glyph-name="Ocircumflexdotbelow" unicode="&#x1ed8;" 
d="M367 305c-24 -144 -41 -223 -67 -266c-27 -44 -64 -51 -127 -51c-64 0 -98 7 -110 51c-12 43 -2 122 22 267c24 144 40 223 66 266c28 44 64 51 128 51c63 0 98 -7 109 -51c12 -43 3 -122 -21 -267zM323 314c11 66 26 151 26 202c-1 55 -22 67 -77 67
c-58 0 -81 -14 -101 -71c-16 -51 -29 -128 -41 -198c-10 -61 -26 -159 -25 -213c-1 -48 11 -73 75 -73c65 0 85 25 101 78c17 58 31 141 42 208zM386 683c-2 -8 -7 -17 -18 -17c-5 0 -10 -1 -18 3l-59 29l-69 -29c-9 -4 -13 -3 -18 -3c-11 0 -14 9 -12 17c1 5 3 15 12 19
l81 40c12 6 18 6 28 0l67 -40c7 -4 7 -14 6 -19zM178 -170c-4 -22 -22 -36 -37 -36s-29 14 -25 36c3 22 22 37 37 37s28 -15 25 -37z" />
    <glyph glyph-name="ocircumflexdotbelow" unicode="&#x1ed9;" 
d="M350 213c-21 -126 -103 -219 -176 -219s-123 93 -102 219c20 125 102 222 176 222c73 0 122 -97 102 -222zM306 220c17 101 -14 174 -65 174c-52 0 -107 -73 -124 -174c-17 -102 11 -186 64 -186s108 83 125 186zM363 527c-2 -14 -9 -20 -20 -20c-5 0 -12 1 -19 8l-55 57
l-73 -57c-9 -7 -16 -8 -21 -8c-11 0 -16 6 -14 20c1 5 9 14 15 19l85 68c11 8 23 8 30 0l63 -68c4 -5 10 -14 9 -19zM178 -170c-4 -22 -22 -36 -37 -36s-29 14 -25 36c3 22 22 37 37 37s28 -15 25 -37z" />
    <glyph glyph-name="Ocircumflexgrave" unicode="&#x1ed2;" 
d="M367 305c-24 -144 -41 -223 -67 -266c-27 -44 -64 -51 -127 -51c-64 0 -98 7 -110 51c-12 43 -2 122 22 267c24 144 40 223 66 266c28 44 64 51 128 51c63 0 98 -7 109 -51c12 -43 3 -122 -21 -267zM323 314c11 66 26 151 26 202c-1 55 -22 67 -77 67
c-58 0 -81 -14 -101 -71c-16 -51 -29 -128 -41 -198c-10 -61 -26 -159 -25 -213c-1 -48 11 -73 75 -73c65 0 85 25 101 78c17 58 31 141 42 208zM386 683c-2 -8 -7 -17 -18 -17c-5 0 -10 -1 -18 3l-59 29l-69 -29c-9 -4 -13 -3 -18 -3c-11 0 -14 9 -12 17c1 5 3 15 12 19
l81 40c12 6 18 6 28 0l67 -40c7 -4 7 -14 6 -19zM380 793c1 7 -8 16 -14 21l-69 58c-9 7 -18 13 -27 13c-11 0 -21 -10 -24 -24c-1 -9 8 -17 15 -23l79 -66c3 -3 10 -6 14 -6c14 0 24 12 26 27z" />
    <glyph glyph-name="ocircumflexgrave" unicode="&#x1ed3;" 
d="M350 213c-21 -126 -103 -219 -176 -219s-123 93 -102 219c20 125 102 222 176 222c73 0 122 -97 102 -222zM306 220c17 101 -14 174 -65 174c-52 0 -107 -73 -124 -174c-17 -102 11 -186 64 -186s108 83 125 186zM359 524c-1 -8 -6 -17 -17 -17c-5 0 -11 -1 -18 3l-59 29
l-69 -29c-10 -4 -13 -3 -18 -3c-11 0 -14 9 -13 17c1 5 4 15 13 19l80 40c12 6 18 6 28 0l68 -40c7 -4 6 -14 5 -19zM354 634c1 7 -9 16 -15 21l-68 58c-9 7 -18 13 -27 13c-11 0 -22 -10 -24 -24c-1 -9 7 -17 14 -23l79 -66c4 -3 10 -6 14 -6c14 0 24 12 27 27z" />
    <glyph glyph-name="Ocircumflexhookabove" unicode="&#x1ed4;" 
d="M367 305c-24 -144 -41 -223 -67 -266c-27 -44 -64 -51 -127 -51c-64 0 -98 7 -110 51c-12 43 -2 122 22 267c24 144 40 223 66 266c28 44 64 51 128 51c63 0 98 -7 109 -51c12 -43 3 -122 -21 -267zM323 314c11 66 26 151 26 202c-1 55 -22 67 -77 67
c-58 0 -81 -14 -101 -71c-16 -51 -29 -128 -41 -198c-10 -61 -26 -159 -25 -213c-1 -48 11 -73 75 -73c65 0 85 25 101 78c17 58 31 141 42 208zM386 683c-2 -8 -7 -17 -18 -17c-5 0 -10 -1 -18 3l-59 29l-69 -29c-9 -4 -13 -3 -18 -3c-11 0 -14 9 -12 17c1 5 3 15 12 19
l81 40c12 6 18 6 28 0l67 -40c7 -4 7 -14 6 -19zM458 893c-4 -21 -17 -37 -30 -48c-28 -20 -40 -42 -44 -64l-3 -19c-2 -11 -13 -16 -20 -16c-8 0 -17 5 -15 16l3 19c7 41 36 69 65 91c7 5 9 14 10 21c4 27 -7 40 -32 40c-14 0 -27 -10 -30 -24l-2 -16
c-2 -8 -11 -18 -21 -18s-17 7 -15 19c8 47 44 72 74 72c39 0 68 -26 60 -73z" />
    <glyph glyph-name="ocircumflexhookabove" unicode="&#x1ed5;" 
d="M350 213c-21 -126 -103 -219 -176 -219s-123 93 -102 219c20 125 102 222 176 222c73 0 122 -97 102 -222zM306 220c17 101 -14 174 -65 174c-52 0 -107 -73 -124 -174c-17 -102 11 -186 64 -186s108 83 125 186zM359 524c-1 -8 -6 -17 -17 -17c-5 0 -11 -1 -18 3l-59 29
l-69 -29c-10 -4 -13 -3 -18 -3c-11 0 -14 9 -13 17c1 5 4 15 13 19l80 40c12 6 18 6 28 0l68 -40c7 -4 6 -14 5 -19zM431 734c-3 -21 -17 -37 -30 -48c-27 -20 -40 -42 -43 -64l-3 -19c-2 -11 -13 -16 -20 -16c-8 0 -17 5 -15 16l3 19c7 41 35 69 65 91c7 5 8 14 9 21
c5 27 -6 40 -31 40c-14 0 -28 -10 -30 -24l-3 -16c-1 -8 -11 -18 -21 -18s-16 7 -14 19c7 47 44 72 74 72c39 0 67 -26 59 -73z" />
    <glyph glyph-name="Ocircumflextilde" unicode="&#x1ed6;" 
d="M367 305c-24 -144 -41 -223 -67 -266c-27 -44 -64 -51 -127 -51c-64 0 -98 7 -110 51c-12 43 -2 122 22 267c24 144 40 223 66 266c28 44 64 51 128 51c63 0 98 -7 109 -51c12 -43 3 -122 -21 -267zM323 314c11 66 26 151 26 202c-1 55 -22 67 -77 67
c-58 0 -81 -14 -101 -71c-16 -51 -29 -128 -41 -198c-10 -61 -26 -159 -25 -213c-1 -48 11 -73 75 -73c65 0 85 25 101 78c17 58 31 141 42 208zM386 683c-2 -8 -7 -17 -18 -17c-5 0 -10 -1 -18 3l-59 29l-69 -29c-9 -4 -13 -3 -18 -3c-11 0 -14 9 -12 17c1 5 3 15 12 19
l81 40c12 6 18 6 28 0l67 -40c7 -4 7 -14 6 -19zM439 867c0 -4 -4 -11 -12 -18c-37 -36 -64 -63 -88 -63c-19 0 -30 12 -44 44c-3 8 -6 14 -12 14c-17 0 -56 -44 -63 -52c-4 -4 -8 -6 -13 -6c-8 0 -19 8 -17 20c1 4 6 10 13 18c37 36 65 63 89 63c18 0 30 -12 43 -44
c4 -9 7 -14 12 -14c17 0 55 44 63 52c4 4 9 6 13 6c9 0 18 -8 16 -20z" />
    <glyph glyph-name="ocircumflextilde" unicode="&#x1ed7;" 
d="M350 213c-21 -126 -103 -219 -176 -219s-123 93 -102 219c20 125 102 222 176 222c73 0 122 -97 102 -222zM306 220c17 101 -14 174 -65 174c-52 0 -107 -73 -124 -174c-17 -102 11 -186 64 -186s108 83 125 186zM359 524c-1 -8 -6 -17 -17 -17c-5 0 -11 -1 -18 3l-59 29
l-69 -29c-10 -4 -13 -3 -18 -3c-11 0 -14 9 -13 17c1 5 4 15 13 19l80 40c12 6 18 6 28 0l68 -40c7 -4 6 -14 5 -19zM413 708c-1 -4 -5 -11 -12 -18c-37 -36 -64 -63 -88 -63c-19 0 -30 12 -44 44c-4 8 -7 14 -13 14c-17 0 -55 -44 -62 -52c-4 -4 -8 -6 -13 -6
c-8 0 -19 8 -17 20c1 4 6 10 13 18c37 36 64 63 88 63c18 0 30 -12 44 -44c4 -9 7 -14 12 -14c17 0 55 44 62 52c5 4 9 6 13 6c9 0 19 -8 17 -20z" />
    <glyph glyph-name="Odblgrave" unicode="&#x20c;" 
d="M367 305c-24 -144 -41 -223 -67 -266c-27 -44 -64 -51 -127 -51c-64 0 -98 7 -110 51c-12 43 -2 122 22 267c24 144 40 223 66 266c28 44 64 51 128 51c63 0 98 -7 109 -51c12 -43 3 -122 -21 -267zM323 314c11 66 26 151 26 202c-1 55 -22 67 -77 67
c-58 0 -81 -14 -101 -71c-16 -51 -29 -128 -41 -198c-10 -61 -26 -159 -25 -213c-1 -48 11 -73 75 -73c65 0 85 25 101 78c17 58 31 141 42 208zM275 699c-2 -15 -12 -22 -21 -23c-5 -1 -14 1 -17 7l-41 67c-5 10 -11 19 -10 25c3 16 13 22 19 22c9 0 18 1 26 -13l35 -59
c6 -10 11 -19 9 -26zM408 699c-2 -15 -12 -22 -21 -23c-5 -1 -14 1 -17 7l-41 67c-5 10 -11 19 -10 25c3 16 13 22 19 22c9 0 18 1 26 -13l35 -59c6 -10 11 -19 9 -26z" />
    <glyph glyph-name="odblgrave" unicode="&#x20d;" 
d="M350 213c-21 -126 -103 -219 -176 -219s-123 93 -102 219c20 125 102 222 176 222c73 0 122 -97 102 -222zM306 220c17 101 -14 174 -65 174c-52 0 -107 -73 -124 -174c-17 -102 11 -186 64 -186s108 83 125 186zM247 526c-3 -15 -13 -22 -22 -23c-4 -1 -14 1 -17 7
l-41 67c-5 10 -11 19 -10 25c3 16 13 22 19 22c9 0 18 1 26 -13l35 -59c6 -10 11 -19 10 -26zM380 526c-3 -15 -13 -22 -22 -23c-4 -1 -14 1 -17 7l-41 67c-5 10 -11 19 -10 25c3 16 13 22 19 22c9 0 18 1 26 -13l35 -59c6 -10 11 -19 10 -26z" />
    <glyph glyph-name="Odieresis" unicode="&#xd6;" 
d="M367 305c-24 -144 -41 -223 -67 -266c-27 -44 -64 -51 -127 -51c-64 0 -98 7 -110 51c-12 43 -2 122 22 267c24 144 40 223 66 266c28 44 64 51 128 51c63 0 98 -7 109 -51c12 -43 3 -122 -21 -267zM323 314c11 66 26 151 26 202c-1 55 -22 67 -77 67
c-58 0 -81 -14 -101 -71c-16 -51 -29 -128 -41 -198c-10 -61 -26 -159 -25 -213c-1 -48 11 -73 75 -73c65 0 85 25 101 78c17 58 31 141 42 208zM258 697c-3 -19 -20 -32 -33 -32s-26 13 -23 32c3 20 20 32 33 32s26 -12 23 -32zM381 697c-3 -19 -20 -32 -33 -32
s-26 13 -23 32c3 20 20 32 33 32s26 -12 23 -32z" />
    <glyph glyph-name="odieresis" unicode="&#xf6;" 
d="M350 213c-21 -126 -103 -219 -176 -219s-123 93 -102 219c20 125 102 222 176 222c73 0 122 -97 102 -222zM306 220c17 101 -14 174 -65 174c-52 0 -107 -73 -124 -174c-17 -102 11 -186 64 -186s108 83 125 186zM245 563c-3 -19 -20 -31 -32 -31c-14 0 -27 12 -24 31
c3 20 20 33 34 33c13 0 25 -13 22 -33zM350 563c-3 -19 -20 -31 -33 -31s-26 12 -23 31c3 20 20 33 33 33s26 -13 23 -33z" />
    <glyph glyph-name="Odotbelow" unicode="&#x1ecc;" 
d="M367 305c-24 -144 -41 -223 -67 -266c-27 -44 -64 -51 -127 -51c-64 0 -98 7 -110 51c-12 43 -2 122 22 267c24 144 40 223 66 266c28 44 64 51 128 51c63 0 98 -7 109 -51c12 -43 3 -122 -21 -267zM323 314c11 66 26 151 26 202c-1 55 -22 67 -77 67
c-58 0 -81 -14 -101 -71c-16 -51 -29 -128 -41 -198c-10 -61 -26 -159 -25 -213c-1 -48 11 -73 75 -73c65 0 85 25 101 78c17 58 31 141 42 208zM178 -170c-4 -22 -22 -36 -37 -36s-29 14 -25 36c3 22 22 37 37 37s28 -15 25 -37z" />
    <glyph glyph-name="odotbelow" unicode="&#x1ecd;" 
d="M350 213c-21 -126 -103 -219 -176 -219s-123 93 -102 219c20 125 102 222 176 222c73 0 122 -97 102 -222zM306 220c17 101 -14 174 -65 174c-52 0 -107 -73 -124 -174c-17 -102 11 -186 64 -186s108 83 125 186zM178 -170c-4 -22 -22 -36 -37 -36s-29 14 -25 36
c3 22 22 37 37 37s28 -15 25 -37z" />
    </font>
</defs>
</svg>
