<?xml version="1.0" standalone="no"?>
<!DOCTYPE svg PUBLIC "-//W3C//DTD SVG 1.1//EN" "http://www.w3.org/Graphics/SVG/1.1/DTD/svg11.dtd" >
<svg xmlns="http://www.w3.org/2000/svg" xmlns:xlink="http://www.w3.org/1999/xlink" version="1.1">
<metadata>
Created by FontForge 20161003 at Thu Apr  4 13:53:58 2019
 By www-data
(c) COPYRIGHT H. BERTHOLD AG 1992 Alle Rechte vorbehalten.
</metadata>
<defs>
<font id="FuturaBQDemiBold" horiz-adv-x="583" >
  <font-face 
    font-family="FuturaBQDemiBold"
    font-weight="500"
    font-stretch="normal"
    units-per-em="1000"
    panose-1="0 0 0 0 0 0 0 0 0 0"
    ascent="800"
    descent="-200"
    x-height="434"
    cap-height="706"
    bbox="-157 -262 1019 934"
    underline-thickness="50"
    underline-position="-150"
    unicode-range="U+0020-FB02"
  />
<missing-glyph horiz-adv-x="271" 
 />
    <glyph glyph-name=".notdef" horiz-adv-x="271" 
 />
    <glyph glyph-name=".null" horiz-adv-x="0" 
 />
    <glyph glyph-name="nonmarkingreturn" horiz-adv-x="333" 
 />
    <glyph glyph-name="space" unicode=" " horiz-adv-x="271" 
 />
    <glyph glyph-name="exclam" unicode="!" horiz-adv-x="292" 
d="M105 14q-25 28 -25 61q1 36 26.5 61t60.5 25t60 -25.5t25 -61.5q0 -35 -25.5 -60t-60.5 -25q-36 0 -61 25zM101 706h130v-479h-130v479z" />
    <glyph glyph-name="quotedbl" unicode="&#x22;" horiz-adv-x="396" 
d="M319 408h-31l-55 250q-3 27 -1 37q4 26 25.5 40t48.5 14q30 0 46 -15t20 -33q2 -11 0 -31zM111 408h-32l-54 250q-4 23 -1 37q4 26 25.5 40t48.5 14q24 0 42.5 -12.5t23.5 -35.5q1 -10 0 -31z" />
    <glyph glyph-name="numbersign" unicode="#" horiz-adv-x="667" 
d="M459 0h-126l27 186h-99l-26 -186h-124l25 186h-94v124h112l13 95h-100v124h117l25 177h124l-25 -177h100l24 177h125l-24 -177h91v-124h-109l-12 -95h98v-124h-116zM377 310l14 95h-100l-13 -95h99z" />
    <glyph glyph-name="dollar" unicode="$" horiz-adv-x="521" 
d="M227 802h66v-86l20 -3q28 -4 45 -9q58 -16 113 -69l-81 -104q-33 30 -52.5 41t-44.5 15v-176q106 -47 141 -83q48 -51 48 -130q0 -76 -50 -132q-29 -32 -68 -52q-24 -12 -71 -24v-109h-67v107q-28 2 -40 4q-79 15 -138 70q-10 8 -28 26l79 99q46 -40 69 -54t58 -25v177
q-42 18 -62 29q-124 66 -124 178q0 24 6 48q4 20 13 42t34 53t61 51q20 12 73 27v89zM230 437v144q-8 0 -24 -12q-31 -23 -29 -60q0 -45 53 -72zM290 261v-155q14 6 20 11q11 6 23 23.5t12 40.5q-1 44 -55 80z" />
    <glyph glyph-name="percent" unicode="%" horiz-adv-x="875" 
d="M575 735l68 -34l-362 -734l-68 35zM190 716q27 0 47 -8q45 -16 74 -60q37 -59 37 -161q0 -149 -80 -206q-37 -26 -85 -26q-32 0 -57.5 10.5t-41.5 28.5t-24 31.5t-14 27.5q-12 27 -18 74q-4 52 -4 60q0 137 70 196q42 33 96 33zM187 621q-32 -1 -48.5 -39t-16.5 -100
q0 -131 65 -131q24 0 39 21q25 35 25 115q0 134 -64 134zM690 449q26 0 47 -7q45 -16 73 -60q37 -58 37 -162q0 -149 -79 -206q-36 -25 -85 -25q-97 0 -137 97q-12 27 -18 75q-4 24 -4 59q0 139 70 196q40 33 96 33zM686 354q-32 0 -48 -38t-16 -101q0 -131 64 -131
q25 0 40 22q25 35 25 114q-1 63 -16.5 99t-48.5 35z" />
    <glyph glyph-name="ampersand" unicode="&#x26;" horiz-adv-x="646" 
d="M370 356l74 -96l91 70l80 -105l-88 -69l116 -156h-157l-60 79q-55 -40 -100.5 -62.5t-96.5 -22.5q-37 0 -68 13q-42 17 -76.5 59t-34.5 115q0 66 38 118q29 37 102 90q-29 42 -42.5 73.5t-13.5 70.5q0 30 10 56q14 41 54.5 76.5t111.5 35.5q38 -1 62 -10q53 -18 84 -61.5
t31 -99.5q0 -26 -5 -46q-13 -55 -84 -107q-18 -14 -28 -21zM300 440q22 24 33 37q29 35 29 57q0 15 -12 31.5t-40 16.5q-21 0 -35 -13t-13 -34q0 -18 9.5 -41.5t18 -37.5t10.5 -16zM346 185l-81 108l-15 -12t-18 -14.5t-15 -12.5q-37 -32 -37 -63q0 -12 4 -21
q3 -8 8.5 -16.5t19.5 -17t32 -8.5q22 0 43 12.5t59 44.5z" />
    <glyph glyph-name="quotesingle" unicode="'" horiz-adv-x="208" 
d="M121 408h-32l-54 250q-4 20 -1 37q5 26 26 40t48 14q25 0 44 -13t23 -37q1 -11 -1 -29z" />
    <glyph glyph-name="parenleft" unicode="(" horiz-adv-x="250" 
d="M173 718l57 -38q-26 -52 -37 -78q-74 -178 -74 -369q0 -194 67 -346q12 -28 42 -79l-58 -41q-33 60 -44 83q-75 165 -75 378q0 198 64 367q17 46 58 123z" />
    <glyph glyph-name="parenright" unicode=")" horiz-adv-x="250" 
d="M78 -233l-57 38q26 52 37 79q74 178 74 369q0 193 -67 345q-13 32 -42 79l58 41q35 -63 44 -83q75 -164 75 -377q0 -211 -71 -385q-15 -36 -51 -106z" />
    <glyph glyph-name="asterisk" unicode="*" horiz-adv-x="354" 
d="M132 706h81v-38q1 -32 -13 -73q26 32 58 53l31 19l44 -71l-32 -21q-33 -20 -74 -28q45 -7 75 -26l32 -20l-44 -72l-31 19q-21 13 -31.5 23t-29.5 33q17 -41 17 -83v-34h-84v34q1 40 19 84q-18 -26 -27 -35.5t-32 -23.5l-29 -18l-45 71l34 20q34 21 74 28q-31 5 -44.5 10
t-36.5 20l-28 16l43 74l35 -22q30 -19 53 -49q-14 37 -15 72v38z" />
    <glyph glyph-name="plus" unicode="+" horiz-adv-x="667" 
d="M398 0h-128v228h-228v127h228v227h128v-227h227v-127h-227v-228z" />
    <glyph glyph-name="comma" unicode="," horiz-adv-x="250" 
d="M90 167h148l-123 -308h-85z" />
    <glyph glyph-name="hyphen" unicode="-" horiz-adv-x="375" 
d="M40 310h295v-119h-295v119z" />
    <glyph glyph-name="period" unicode="." horiz-adv-x="250" 
d="M64 6q-25 28 -25 61q0 36 25.5 61t60.5 25q36 0 61 -25.5t25 -60.5q0 -36 -25.5 -61t-60.5 -25q-36 0 -61 25z" />
    <glyph glyph-name="slash" unicode="/" horiz-adv-x="479" 
d="M401 706h79l-403 -706h-77z" />
    <glyph glyph-name="zero" unicode="0" 
d="M293 722q66 0 115 -29q113 -65 138 -262q5 -45 5 -83q0 -127 -43 -217q-16 -36 -44 -67q-28 -35 -66 -54q-22 -11 -52 -18q-35 -7 -60 -7q-133 0 -201 121q-53 94 -53 243q0 216 100 310q67 62 161 63zM292 582q-31 0 -53 -19q-60 -48 -60 -215q0 -139 44 -191
q27 -32 70 -32q49 0 77 43q36 55 36 184q0 107 -28.5 169t-85.5 61z" />
    <glyph glyph-name="one" unicode="1" 
d="M88 706h284v-706h-153v569h-131v137z" />
    <glyph glyph-name="two" unicode="2" 
d="M396 133h130v-133h-471v39l194 241q9 12 27.5 35.5t27.5 35.5q63 89 63 147q0 40 -26 64t-66 24q-32 0 -53 -14q-19 -13 -28.5 -36.5t-11 -40.5t-1.5 -46h-146q2 95 31 154q46 89 147 111q42 7 67 7q94 0 156 -51q81 -69 81 -171q-1 -57 -26 -109.5t-91 -138.5
q-18 -23 -54 -67q-18 -21 -47 -54q48 3 97 3z" />
    <glyph glyph-name="three" unicode="3" 
d="M39 226h143q0 -36 3 -47q13 -68 98 -68q29 0 49.5 10t29.5 26t12.5 29.5t3.5 27.5q0 53 -39 76q-5 3 -10 5t-12.5 3.5t-11.5 2.5t-14.5 1.5t-15 1t-19.5 1t-21 0.5v129q58 0 80 8q51 19 51 78q0 38 -23.5 62t-61.5 23q-55 0 -75 -53q-3 -8 -5 -18.5t-3 -19.5t-1 -10
l-145 1v11q1 12 1.5 16t2 16.5t3.5 19.5t5.5 19.5t8.5 22t11.5 21t15 22t19.5 20.5q66 61 169 61q46 0 87 -15q64 -22 102.5 -74.5t38.5 -118.5q0 -77 -52 -129q-6 -6 -34 -26q23 -11 39 -21q24 -17 45.5 -51t21.5 -82q0 -85 -64 -148q-73 -73 -185 -73q-126 1 -195 86
q-33 39 -44 82q-8 28 -9 72z" />
    <glyph glyph-name="four" unicode="4" 
d="M467 706v-433h88v-128h-88v-145h-136v145h-298v135l304 426h130zM263 403l-90 -132h160q0 103 1 155q2 49 5 73q1 17 7 46q-19 -39 -39 -71q-5 -9 -44 -71z" />
    <glyph glyph-name="five" unicode="5" 
d="M148 706h339v-135h-225l-17 -101q8 -1 28 1.5t61 -6t73 -26.5q52 -28 79.5 -81t27.5 -115q0 -115 -79 -189q-31 -28 -61 -42q-22 -11 -53 -18q-37 -8 -71 -8q-39 0 -75 9q-44 10 -72.5 26.5t-66.5 47.5l23 132l30 -21q79 -54 150 -54q25 0 47 6q38 11 61 37t23 64
q0 37 -24 67q-22 27 -61 41t-78 13q-52 0 -124 -19z" />
    <glyph glyph-name="six" unicode="6" 
d="M298 706h185q-36 -42 -54 -64q-30 -38 -88 -116q-20 -27 -88 -116q47 30 90 30q85 0 143 -61q54 -63 54 -149q-1 -63 -25 -111q-13 -25 -36 -52q-73 -81 -188 -81q-89 0 -154 51q-88 72 -88 191q0 42 13 85q5 16 12.5 34t13.5 31.5t17.5 34t18 31t21 33.5t19 30
t21.5 31.5t19 28.5q16 23 47.5 69.5t46.5 69.5zM219 148q31 -31 75 -31t75 31.5t31 75.5t-31 75t-75 31t-75.5 -31.5t-31.5 -75.5q4 -47 32 -75z" />
    <glyph glyph-name="seven" unicode="7" 
d="M39 706h500v-42l-297 -664h-167l264 573h-300v133z" />
    <glyph glyph-name="eight" unicode="8" 
d="M409 384q36 -14 56 -30q67 -51 67 -147q0 -72 -44 -128q-71 -91 -197 -91q-60 0 -106 20q-19 8 -38 21t-42.5 36.5t-38 60.5t-14.5 81q0 57 24 96t52 58q15 10 48 24q-20 7 -27 12q-28 16 -51.5 50.5t-23.5 87.5q0 86 67 141q41 32 95 42q28 7 60 7q48 0 96 -17
q18 -8 33 -18q85 -58 85 -155q0 -84 -60 -129q-14 -10 -41 -22zM233 460q24 -24 59 -24q34 0 59 25t25 59q-1 34 -25.5 58.5t-59.5 24.5q-34 0 -58.5 -24.5t-24.5 -59.5q0 -34 25 -59zM223 145q26 -28 68 -28q40 0 67.5 28t27.5 68t-28 68t-68 28t-68 -28t-28 -68t29 -68z
" />
    <glyph glyph-name="nine" unicode="9" 
d="M290 0h-186q53 64 56 68q15 18 72 94q33 44 99 134q-42 -32 -90 -32q-44 0 -86 20t-76.5 66t-34.5 122q0 47 15 89q27 75 89 119t140 44q38 0 74 -11q57 -18 99.5 -59t61.5 -97q12 -32 12 -80q0 -47 -13 -92q-13 -42 -37.5 -85.5t-78.5 -124.5zM215 405q31 -31 75 -31
t75 31.5t31 75.5t-31.5 75t-75.5 31t-75 -31.5t-31 -75.5q0 -43 32 -75z" />
    <glyph glyph-name="colon" unicode=":" horiz-adv-x="292" 
d="M109 292q-25 25 -25 60q0 36 25 61t61 25t61 -25.5t25 -60.5q0 -36 -25.5 -61t-60.5 -25t-61 26zM109 8q-25 25 -25 61t25 60.5t61 24.5t61 -25t25 -61t-25.5 -61t-60.5 -25t-61 26z" />
    <glyph glyph-name="semicolon" unicode=";" horiz-adv-x="292" 
d="M131 292q-25 25 -25 60q0 36 25 61t61 25q35 0 60.5 -25.5t25.5 -60.5q-1 -36 -26.5 -61t-60.5 -25q-34 0 -60 26zM132 168h148l-115 -306h-87z" />
    <glyph glyph-name="less" unicode="&#x3c;" horiz-adv-x="667" 
d="M667 -3l-667 292v124l667 296v-139l-490 -219l490 -216v-138z" />
    <glyph glyph-name="equal" unicode="=" horiz-adv-x="667" 
d="M667 123h-667v128h667v-128zM667 333h-667v126h667v-126z" />
    <glyph glyph-name="greater" unicode="&#x3e;" horiz-adv-x="667" 
d="M0 -3v138l489 216l-489 219v139l667 -296v-124z" />
    <glyph glyph-name="question" unicode="?" horiz-adv-x="562" 
d="M363 290v-67h-144v175q76 1 104 15t40 42q8 19 8 44q0 15 -7 39q-22 49 -78 49q-26 0 -48 -13q-33 -20 -37 -82h-126q0 58 9 89q7 22 20 44t36 45t62 37t88 14q86 0 146 -44q24 -17 43 -42q44 -63 43 -141q0 -60 -24 -102t-52 -63q-26 -20 -83 -39zM233 16q-25 22 -25 61
q0 36 25 60.5t61 24.5q35 0 60 -25t25 -61t-25.5 -61t-60.5 -25q-34 0 -60 26z" />
    <glyph glyph-name="at" unicode="@" horiz-adv-x="896" 
d="M556 463l10 40h90l-33 -159q-28 -135 -28 -162q0 -31 20 -31q11 0 27 12q22 16 44 51q57 91 57 204q0 74 -33 125q-59 90 -191 90q-78 0 -153 -38q-99 -51 -157.5 -149t-58.5 -209q0 -128 81 -203q85 -79 223 -79q141 0 266 94q34 26 60 52l46 -62q-78 -70 -135 -102
q-110 -61 -234 -61q-73 0 -145.5 23.5t-126.5 67.5q-116 97 -116 271q0 195 133.5 335t327.5 140q116 0 196 -64q101 -81 101 -228q0 -25 -3 -49q-18 -156 -109 -246q-59 -59 -126 -59q-53 0 -77 34q-7 9 -14 34q-26 -29 -44 -42q-38 -26 -81 -26q-32 0 -65 15
q-74 42 -74 154q0 92 46 173q67 114 171 114q50 0 81 -30q16 -13 24 -30zM523 350q0 19 -6 37q-16 47 -61 47q-30 0 -50 -20q-32 -26 -50.5 -76t-18.5 -95q0 -55 31 -77q17 -10 33 -10q42 0 80 53q19 27 31 67.5t11 73.5z" />
    <glyph glyph-name="A" unicode="A" horiz-adv-x="729" 
d="M275 706h163l290 -706h-166l-55 143h-293l-52 -143h-164zM262 276h194q-10 28 -28.5 78.5t-23.5 64.5q-38 109 -46 163q-4 -31 -7 -43q-8 -35 -40 -125q-32 -92 -49 -138z" />
    <glyph glyph-name="B" unicode="B" horiz-adv-x="625" 
d="M61 706h220q50 0 80 -3t68.5 -20t62.5 -49q33 -43 33 -106q0 -79 -46 -124q-5 -5 -10 -8.5t-9 -6.5t-6 -4q38 -11 55 -21q76 -45 76 -149q0 -61 -28.5 -113t-82.5 -78q-49 -23 -164 -24h-249v706zM211 583v-151h74q59 0 81 34q14 22 14 47q0 34 -25 54q-22 16 -72 16h-72
zM209 308v-184h99q26 0 42.5 2t36.5 11t32 27q16 25 16 58q0 32 -15 52q-27 36 -103 34h-108z" />
    <glyph glyph-name="C" unicode="C" horiz-adv-x="625" 
d="M593 675v-174q-91 80 -189 80q-57 0 -100 -24q-42 -24 -75 -75.5t-33 -132.5q0 -46 14 -88q7 -22 19.5 -42t34.5 -43.5t59 -37.5t84 -14q28 0 53 5q54 12 98 42q11 8 35 26l-1 -165q-1 0 -13.5 -5.5t-18 -7.5t-20 -7.5t-25 -8t-27 -6.5t-30.5 -6.5t-32 -4t-36 -1.5
q-134 0 -222 75q-48 41 -87.5 114t-39.5 179q0 108 43 193q20 38 50 70q52 58 117 83q62 24 134 24q78 0 152 -25q25 -9 56 -23z" />
    <glyph glyph-name="D" unicode="D" horiz-adv-x="667" 
d="M60 706h143q163 0 246 -38q80 -38 126 -116q52 -86 52 -191q0 -107 -39.5 -181.5t-87.5 -112.5q-38 -30 -88 -45.5t-88 -18.5t-99 -3h-165v706zM214 583v-459q38 -1 61 0t55.5 9t56.5 24q90 61 90 200q0 124 -76 184q-55 44 -187 42z" />
    <glyph glyph-name="E" unicode="E" horiz-adv-x="500" 
d="M58 706h401v-137h-248v-140h242v-137h-242v-151h247v-141h-400v706z" />
    <glyph glyph-name="F" unicode="F" horiz-adv-x="479" 
d="M59 706h410v-134h-256v-138h256v-138h-256v-296h-154v706z" />
    <glyph glyph-name="G" unicode="G" horiz-adv-x="792" 
d="M712 564l-125 -73q-14 20 -26 31q-65 62 -161 62q-77 0 -135 -48q-75 -64 -75 -178q0 -86 39 -144q62 -92 175 -92q102 0 156 70q10 13 30 53h-188v132l354 -1q0 -156 -69 -251q-33 -45 -76 -75.5t-85.5 -43t-71.5 -17t-56 -4.5q-39 0 -86 9q-134 29 -210 140
q-63 91 -63 220q0 59 10 97q20 91 81 160q31 31 52 47q91 67 220 67q123 0 213 -61q35 -23 64 -55q16 -18 33 -45z" />
    <glyph glyph-name="H" unicode="H" horiz-adv-x="688" 
d="M58 706h154v-278h262v278h154v-706h-154v291h-262v-291h-154v706z" />
    <glyph glyph-name="I" unicode="I" horiz-adv-x="271" 
d="M211 706v-706h-154v706h154z" />
    <glyph glyph-name="J" unicode="J" horiz-adv-x="458" 
d="M399 706v-454q0 -64 -4 -96q-11 -88 -68 -132q-49 -37 -120 -37q-125 0 -190 103q-11 18 -18 37l120 92q7 -31 9 -35q19 -56 67 -56q20 0 33 13q12 12 15.5 33t4.5 66v466h151z" />
    <glyph glyph-name="K" unicode="K" horiz-adv-x="625" 
d="M214 706v-318l237 318h183l-266 -336l277 -370h-193l-238 329v-329h-155v706h155z" />
    <glyph glyph-name="L" unicode="L" horiz-adv-x="479" 
d="M59 706h154v-567h241v-139h-395v706z" />
    <glyph glyph-name="M" unicode="M" horiz-adv-x="917" 
d="M294 706l105 -301q5 -14 13.5 -39.5l15.5 -46.5t13 -40q6 -20 16 -60q5 17 15 50.5t15 50.5q6 18 18.5 54t18.5 54l98 278h157l100 -706h-149l-42 340l-9 99q-1 24 -1 72q-24 -84 -56 -179l-117 -332h-96l-128 354q-19 49 -29 88q-3 9 -18 64q0 -26 -2 -80
q-3 -34 -11 -102l-37 -324h-147l99 706h158z" />
    <glyph glyph-name="N" unicode="N" horiz-adv-x="729" 
d="M60 706h139l237 -337q64 -93 104 -176q-8 86 -9 129l-3 96l-3 288h144v-706h-137l-246 351q-39 55 -64 95q-5 9 -16 27.5t-17 27.5q1 -10 2.5 -27.5t2.5 -32t1 -26.5q1 -13 2 -38.5t1 -38.5l7 -338h-145v706z" />
    <glyph glyph-name="O" unicode="O" horiz-adv-x="833" 
d="M412 724q48 0 92 -10q125 -29 202 -120q85 -102 85 -246q0 -81 -30 -153q-44 -106 -135 -159.5t-210 -53.5q-140 0 -236 71q-23 17 -44 39t-44.5 57t-38 85.5t-14.5 108.5q0 85 30 159q42 105 135 163.5t208 58.5zM417 577q-81 0 -139 -47q-87 -68 -86 -179q0 -49 18 -91
q26 -65 84 -99.5t130 -34.5q79 0 132 44q81 66 81 181q0 87 -53 150q-23 28 -65.5 52.5t-101.5 23.5z" />
    <glyph glyph-name="P" unicode="P" horiz-adv-x="521" 
d="M60 706h190q39 0 59 -1q132 -7 189 -87q39 -54 39 -132q0 -99 -65 -162q-27 -26 -65.5 -39t-65.5 -15t-77 -2h-51v-268h-153v706zM214 578v-180h61q34 0 51 5q61 17 61 84q0 70 -61 87q-22 4 -48 4h-64z" />
    <glyph glyph-name="Q" unicode="Q" horiz-adv-x="833" 
d="M674 87l105 -122l-138 -27l-62 82q-88 -34 -165 -34q-30 0 -65 5q-100 15 -171 71q-22 17 -42.5 39.5t-44 58.5t-37.5 86.5t-14 108.5q0 150 90 252q46 51 108.5 80.5t100.5 35.5t74 6q124 0 220 -64q77 -50 117.5 -130t40.5 -173q0 -141 -78 -237q-12 -15 -39 -38z
M484 140l-90 100l138 28l51 -67q16 18 25 32q33 53 33 120q0 91 -56 156q-64 73 -170 73q-48 0 -89 -18q-64 -28 -99 -85t-35 -128q0 -92 66 -156q65 -64 160 -64q30 0 66 9z" />
    <glyph glyph-name="R" unicode="R" horiz-adv-x="562" 
d="M58 706h189q37 0 56 -1q141 -6 195 -90q33 -50 33 -118q0 -51 -20.5 -97t-60.5 -72q-24 -16 -78 -28l204 -300h-182l-187 298v-298h-149v706zM208 583v-186h55q26 1 41.5 3t34 12t29.5 29q13 23 13 50q0 35 -20 58q-28 32 -101 34h-52z" />
    <glyph glyph-name="S" unicode="S" horiz-adv-x="521" 
d="M476 630l-98 -110q-49 67 -104 67q-30 0 -51.5 -18t-21.5 -47q0 -10 3.5 -19.5t7.5 -16.5t13 -14.5t14 -12t17 -11t16 -8.5t16.5 -8t13.5 -6q78 -34 115 -64q68 -58 68 -150q0 -98 -68 -161q-23 -23 -50 -37q-56 -30 -129 -30q-66 0 -119 20t-113 80l102 112
q23 -26 37 -39.5t40.5 -28t53.5 -14.5q35 0 60.5 23.5t25.5 58.5q0 22 -12 40q-18 27 -92 60q-66 33 -102 61q-78 62 -78 158q0 62 36 116q65 94 195 94q61 0 116 -25q42 -20 88 -70z" />
    <glyph glyph-name="T" unicode="T" horiz-adv-x="479" 
d="M11 706h455v-136h-151v-570h-153v568h-151v138z" />
    <glyph glyph-name="U" unicode="U" horiz-adv-x="688" 
d="M59 706h150v-436q0 -70 25 -102q39 -49 114 -49q58 0 87 27t37 61q5 16 6 58v441h150v-393q-1 -50 -3 -79.5t-13.5 -70.5t-33.5 -73q-75 -109 -236 -109q-88 0 -161.5 39t-102.5 116q-17 43 -19 129v441z" />
    <glyph glyph-name="V" unicode="V" horiz-adv-x="688" 
d="M1 706h168l137 -406q15 -46 27 -93q5 -18 11 -54q19 73 34 121l8.5 25.5l10 30l8.5 25.5l118 351h166l-276 -706h-148z" />
    <glyph glyph-name="W" unicode="W" horiz-adv-x="958" 
d="M-3 706h158l96 -374q20 -88 21 -94q3 -15 7.5 -45.5t4.5 -33.5q7 50 13 79q7 40 23 118l76 350h163l91 -405q3 -12 8 -35t7 -35q8 -45 11 -74l5.5 33t6.5 38.5t6 33.5q16 72 22 97l86 347h155l-206 -706h-159l-78 344q-6 28 -22 106q-6 31 -16 93q-11 -80 -12 -83
q-11 -58 -19 -94l-80 -366h-163z" />
    <glyph glyph-name="X" unicode="X" horiz-adv-x="667" 
d="M20 706h188l133 -212l138 212h182l-241 -333l251 -373h-180l-158 249l-159 -249h-180l263 370z" />
    <glyph glyph-name="Y" unicode="Y" horiz-adv-x="625" 
d="M3 706h178l133 -270l140 270h172l-235 -384v-322h-154v316z" />
    <glyph glyph-name="Z" unicode="Z" horiz-adv-x="604" 
d="M35 705h546l-333 -568h328v-137h-577l332 569h-296v136z" />
    <glyph glyph-name="bracketleft" unicode="[" horiz-adv-x="375" 
d="M85 706h257v-107h-127v-708h128v-110h-258v925z" />
    <glyph glyph-name="backslash" unicode="\" horiz-adv-x="354" 
d="M230 -18l-228 724h128l228 -724h-128z" />
    <glyph glyph-name="bracketright" unicode="]" horiz-adv-x="375" 
d="M32 706h257v-924h-258v109h129v709h-128v106z" />
    <glyph glyph-name="asciicircum" unicode="^" horiz-adv-x="729" 
d="M615 311h-138l-110 231l-116 -231h-137l203 395h104z" />
    <glyph glyph-name="underscore" unicode="_" horiz-adv-x="500" 
d="M510 -240h-520v127h520v-127z" />
    <glyph glyph-name="grave" unicode="`" horiz-adv-x="271" 
d="M33 706l141 -163l-81 -55l-172 135z" />
    <glyph glyph-name="a" unicode="a" 
d="M387 376v60h141v-436h-140v43l-30 -24q-52 -35 -120 -35q-47 0 -84 18q-59 27 -89.5 86t-30.5 128q0 111 68 178q54 53 138 53q68 0 113 -36q13 -10 34 -35zM287 328q-47 0 -78 -35q-26 -30 -26 -77q0 -71 50 -102q23 -17 59 -17q47 0 75.5 33.5t28.5 80.5q0 49 -30.5 83
t-78.5 34z" />
    <glyph glyph-name="b" unicode="b" 
d="M52 746h141v-367l27 27q50 42 122 42q81 0 137 -52q71 -63 71 -173q0 -95 -54 -160q-62 -75 -166 -75q-64 0 -107 33q-11 8 -27 26v-47h-144v746zM366 298q-28 30 -73 30q-30 0 -49 -11q-57 -29 -57 -102q0 -25 8 -45q12 -32 38 -50t61 -18q46 0 74 33t28 81q0 54 -30 82
z" />
    <glyph glyph-name="c" unicode="c" horiz-adv-x="437" 
d="M396 426v-128q-58 27 -101 27q-50 0 -82.5 -28.5t-32.5 -78.5q0 -21 8 -42q9 -26 35 -49t71 -23q46 0 103 38l-1 -128q-77 -28 -133 -28q-94 0 -154 52q-77 66 -77 177q0 81 47 144q66 91 194 91q53 0 123 -24z" />
    <glyph glyph-name="d" unicode="d" 
d="M387 745h142v-745h-141v56q-26 -26 -40 -35q-48 -32 -114 -32q-121 0 -175 108q-25 50 -25 120q0 98 54 160q60 69 157 69q75 0 142 -58v357zM288 330q-47 0 -76 -33.5t-29 -80.5q0 -63 46 -94q27 -16 55 -16q27 0 49 12q58 30 58 104q0 41 -23 70q-29 38 -80 38z" />
    <glyph glyph-name="e" unicode="e" horiz-adv-x="521" 
d="M490 188h-316q6 -30 14 -44q27 -50 86 -50q55 0 89 56l115 -55q-24 -32 -29 -37q-69 -72 -178 -72q-74 0 -123 30.5t-74 67.5q-36 54 -36 134q0 61 25 112q27 59 86 93q54 30 117 30q32 0 68 -9q114 -32 148 -145q10 -39 8 -111zM174 271h179q-9 53 -49 74q-18 10 -42 10
q-52 0 -77 -49q-5 -13 -11 -35z" />
    <glyph glyph-name="f" unicode="f" horiz-adv-x="292" 
d="M303 749v-118q-21 3 -41 3q-30 0 -43 -10q-14 -12 -17.5 -33t-3.5 -66v-90h99v-105h-100v-330h-140v330h-59v105h59v59q0 78 1 93q1 18 2 27.5t5.5 30.5t10.5 33.5t18.5 29t29 26t42 16t57.5 6.5q38 0 80 -7z" />
    <glyph glyph-name="g" unicode="g" 
d="M386 374v60h142v-393q0 -88 -16 -128q-25 -67 -89 -97t-143 -30q-97 0 -154 40q-20 11 -36 36q-23 34 -29 88h144l1 -4q2 -4 4.5 -8.5t4.5 -8.5q23 -36 78 -36q54 0 77 34q15 21 16 91v43q-16 -16 -25 -24q-52 -43 -128 -43q-60 0 -106 30q-14 8 -38 32q-56 64 -56 163
q0 96 55 159q61 69 156 69q40 0 71 -14t43.5 -26.5t27.5 -32.5zM278 321q-44 0 -71 -30t-27 -75q0 -23 6 -41q11 -31 37.5 -48.5t60.5 -17.5q46 0 71.5 31t25.5 77q0 27 -9 46q-9 20 -32.5 39t-61.5 19z" />
    <glyph glyph-name="h" unicode="h" horiz-adv-x="542" 
d="M53 746h142v-369q1 1 10 13q51 60 133 60q47 0 86.5 -21.5t54.5 -63.5q11 -30 11 -79v-286h-144v230v22t-1.5 19.5t-5 21t-11 15t-18.5 13.5q-16 7 -33 7q-27 0 -48 -16q-15 -11 -23 -28t-9.5 -29.5t-2.5 -36.5v-218h-141v746z" />
    <glyph glyph-name="i" unicode="i" horiz-adv-x="250" 
d="M66 541q-25 23 -25 60q0 35 25 60t60 25q35 -1 60 -26t25 -60t-25 -59.5t-60 -24.5t-60 25zM54 435h143v-435h-143v435z" />
    <glyph glyph-name="j" unicode="j" horiz-adv-x="250" 
d="M52 435h143v-633h-143v633zM64 541q-24 24 -24 60q0 35 25 60t60 25q34 -1 59 -26t25 -60t-25 -59.5t-60 -24.5q-34 0 -60 25z" />
    <glyph glyph-name="k" unicode="k" horiz-adv-x="500" 
d="M53 746h142v-489l138 180h173l-169 -202l182 -235h-185l-139 204v-204h-142v746z" />
    <glyph glyph-name="l" unicode="l" horiz-adv-x="250" 
d="M54 746h143v-746h-143v746z" />
    <glyph glyph-name="m" unicode="m" horiz-adv-x="833" 
d="M782 276v-276h-142v242v13t-1.5 16t-5.5 20t-11 16t-20 14t-30 4q-45 0 -68 -32q-15 -21 -15 -66v-227h-143v236q0 20 -1 31t-7.5 26t-20.5 24q-20 10 -38 10q-24 0 -45 -13q-38 -24 -38 -89v-225h-142v437h144v-65q13 20 25 33.5t42.5 27.5t69.5 14q73 0 115 -48
q9 -10 23 -34q2 3 6 7.5t7.5 8.5t7.5 8q52 57 130 57q64 0 100.5 -28t47.5 -63q9 -25 10 -79z" />
    <glyph glyph-name="n" unicode="n" horiz-adv-x="542" 
d="M490 0h-142v239q0 53 -23 74q-18 15 -45 15q-30 0 -51 -17q-35 -26 -35 -94v-217h-140v435h142v-57q14 14 21.5 20.5t28 21t45 21.5t52.5 7q46 0 76.5 -17.5t45.5 -38.5q25 -38 25 -113v-279z" />
    <glyph glyph-name="o" unicode="o" horiz-adv-x="562" 
d="M275 452q135 1 207 -95q45 -59 45 -139q0 -52 -21 -97q-29 -65 -89 -101t-134 -36q-70 0 -131 32q-30 19 -44 32q-73 65 -73 171q0 125 98 190q62 42 142 43zM280 328q-27 -3 -47 -13q-55 -30 -55 -99q0 -25 9 -46q12 -28 37.5 -45t56.5 -17q44 0 72.5 32.5t28.5 77.5
t-28.5 78t-73.5 32z" />
    <glyph glyph-name="p" unicode="p" 
d="M192 51v-251h-140v637h140l1 -58q20 19 32 29t46.5 24.5t73.5 14.5q45 0 81 -18q40 -18 66.5 -48.5t37 -65t14 -56t3.5 -41.5q0 -95 -56 -161q-59 -69 -154 -69q-38 0 -70 12.5t-44.5 22.5t-30.5 28zM290 331q-26 -1 -41 -9q-63 -29 -63 -107q0 -25 9 -49q27 -64 97 -64
q28 0 48 11q55 33 55 106q0 19 -6 41q-3 10 -9 20.5t-17.5 23t-30 20t-42.5 7.5z" />
    <glyph glyph-name="q" unicode="q" 
d="M391 378v59h140v-637h-140v250q-19 -18 -31 -28t-44 -22.5t-70 -12.5q-57 0 -101 25q-41 22 -75 74t-34 132q0 18 3 38.5t12 52t31.5 61t56.5 49.5q44 27 99 27q60 0 107 -30q20 -12 46 -38zM293 330q-27 0 -48 -10q-57 -28 -57 -103q0 -20 7 -43q4 -14 12.5 -28.5
t31 -29.5t52.5 -15q21 0 36 6q27 9 48.5 35t21.5 73q0 60 -41 93q-29 21 -63 22z" />
    <glyph glyph-name="r" unicode="r" horiz-adv-x="333" 
d="M327 444l-1 -144q-29 19 -57 19q-25 0 -43 -17q-21 -19 -27 -50.5t-6 -96.5v-155h-142v435h140v-71l5 6q4 6 10.5 15t10.5 14q38 45 110 45z" />
    <glyph glyph-name="s" unicode="s" horiz-adv-x="417" 
d="M383 347l-112 -43q-2 2 -4.5 6.5t-3.5 7.5q-24 33 -52 33q-14 -1 -25 -10t-11 -23q0 -15 14 -27q7 -5 20.5 -10.5t37 -13.5t39.5 -15q38 -15 60.5 -32.5t32.5 -48.5q7 -21 7 -43q0 -37 -20 -69q-45 -72 -161 -72q-74 0 -121 29q-21 14 -35 31q-11 14 -26 47l123 43
q23 -51 63 -51q22 0 34 11t11 23q0 6 -2 10.5t-6.5 8.5t-8 7t-11 6t-11 4.5t-12 4.5t-11.5 4l-57 21q-54 25 -75 55q-18 28 -18 65q0 33 17 65q23 40 68 60t94 20q91 0 135 -53q13 -17 27 -51z" />
    <glyph glyph-name="t" unicode="t" horiz-adv-x="292" 
d="M223 592v-157h79v-105h-80v-330h-142v330h-60v105h60v157h143z" />
    <glyph glyph-name="u" unicode="u" horiz-adv-x="542" 
d="M50 437h142v-225q0 -70 34 -94q20 -14 48 -14q26 2 44 13q33 23 33 91v229h141v-229q0 -34 -1.5 -53.5t-9.5 -47t-24 -48.5q-60 -76 -182 -76q-70 0 -130 29.5t-82 89.5q-13 35 -13 120v215z" />
    <glyph glyph-name="v" unicode="v" horiz-adv-x="542" 
d="M0 436h159l68 -173q34 -86 46 -151q13 50 27 95q6 19 32 89l52 140h156l-193 -436l-155 1z" />
    <glyph glyph-name="w" unicode="w" horiz-adv-x="854" 
d="M3 434h147l72 -174q9 -23 19 -50q12 -34 20 -61q8 29 31 104l63 181h146l64 -196q10 -28 14 -42q8 -30 11 -45q29 79 37 100l78 183h144l-197 -434h-133l-64 178q-12 36 -17 54q-8 26 -12 51q-8 -42 -35 -117l-57 -166h-140z" />
    <glyph glyph-name="x" unicode="x" horiz-adv-x="542" 
d="M15 436h169q16 -23 46 -67q9 -13 23.5 -37t18.5 -30q15 25 47 77q6 9 19 28t19 29h171l-167 -209l179 -227h-169q-63 94 -98 151q-5 -7 -13 -20.5t-15 -24.5t-14 -21q-17 -25 -62 -85h-169l182 223z" />
    <glyph glyph-name="y" unicode="y" horiz-adv-x="542" 
d="M156 435l78 -195q7 -16 19 -50q12 -40 17 -60q24 65 54 136l70 170h148l-278 -639h-151l86 194l-202 444h159z" />
    <glyph glyph-name="z" unicode="z" horiz-adv-x="479" 
d="M41 434h418l-211 -319l-6 -8h204v-107h-430l214 327h-189v107z" />
    <glyph glyph-name="braceleft" unicode="{" horiz-adv-x="354" 
d="M112 414v177q3 106 77 139q8 4 16 6.5t14.5 4.5t18 3t17 1.5t21 1t22 1t27 0.5h29.5v-8q-16 -3 -35 -9q-52 -15 -67 -69q-5 -18 -7 -90v-95v-32.5t-0.5 -29.5t-1 -24t-1.5 -23.5t-2.5 -18.5t-4 -19t-6.5 -15.5t-9 -16.5q-23 -33 -80 -49q49 -13 73 -41q16 -18 23.5 -44.5
t8.5 -49t1 -82.5v-107v-16.5v-18.5t0.5 -16t2 -18t3.5 -15.5t5.5 -17.5t8.5 -15t9.5 -13t11.5 -10.5t10.5 -7.5t13.5 -6.5t12.5 -4.5t15.5 -4.5t15 -4.5v-7h-46q-34 1 -52.5 2.5t-46.5 9.5t-48 23q-7 6 -13.5 13t-11 13t-8.5 16t-6 15.5t-4 17.5t-3 16.5t-1.5 18.5t-1 17.5
t-0.5 18.5v17v126v23v24.5t-1 21.5t-3.5 23.5t-7.5 20t-12 21.5q-11 17 -29 27q-12 8 -25 11v7q19 5 32 13q23 15 33.5 45t11.5 47t1 56z" />
    <glyph glyph-name="bar" unicode="|" horiz-adv-x="229" 
d="M178 -250h-127v998h127v-998z" />
    <glyph glyph-name="braceright" unicode="}" horiz-adv-x="354" 
d="M242 83v-175q-4 -109 -80 -142q-19 -8 -44 -11.5t-43.5 -4t-74.5 -0.5v7q65 14 88 47q4 5 6.5 9.5t5 11t3.5 10t2.5 11.5t2 11.5t0.5 14.5t0.5 15t0.5 18.5v20.5v95q0 109 8 139q6 22 19 40q24 34 78 48q-48 13 -72 41q-17 19 -24.5 45t-8.5 49t-1 82v108v15v16.5
t-0.5 15t-1.5 16.5t-2.5 15t-4 16t-6 13.5t-8.5 14.5q-10 14 -26 23.5t-25 12t-34 9.5v8q7 0 22.5 -0.5t23.5 -0.5q101 0 147 -34q7 -6 13.5 -13t11 -13.5t8.5 -16.5t6 -15.5t4 -17.5t3 -16.5t1.5 -18.5t1 -17t0.5 -18v-17v-127v-22.5v-24.5t1 -21.5t3.5 -24t7.5 -20
t12 -21.5q10 -15 29 -27q10 -6 25 -10v-8q-18 -3 -32 -13q-22 -14 -33 -44t-12 -48.5t-1 -55.5z" />
    <glyph glyph-name="asciitilde" unicode="~" horiz-adv-x="729" 
d="M366 230l-31 15q-50 23 -73 23q-22 -2 -37 -8q-10 -5 -21.5 -15t-18 -17t-27.5 -31l-55 104q38 52 74 72q39 22 82 22q41 0 103 -31l36 -16q44 -22 76 -22q47 0 100 61l52 -105q-20 -22 -45 -41q-59 -42 -111 -42q-40 0 -104 31z" />
    <glyph glyph-name="exclamdown" unicode="&#xa1;" horiz-adv-x="292" 
d="M187 693q25 -25 25 -60q0 -36 -25 -61t-61 -25t-61 25.5t-25 60.5q1 36 26.5 61t60.5 25q34 0 60 -26zM190 0h-131v481h131v-481z" />
    <glyph glyph-name="sterling" unicode="&#xa3;" 
d="M543 583l-139 -62q-23 66 -68 82q-21 6 -40 6q-47 0 -71 -28q-14 -17 -14 -39q0 -15 7 -30q4 -11 11 -24t18 -30t14 -22q7 -12 17 -36h117v-76h-98q4 -38 -5 -66q-3 -12 -8.5 -23t-12.5 -20t-13 -16t-14.5 -14t-13 -10.5t-12.5 -8.5l-7 -5q59 -5 90 -15q10 -3 27.5 -9.5
t27.5 -10t26 -6.5t31 -3q42 0 99 39l69 -116q-94 -56 -173 -56q-56 0 -122 22q-91 33 -124 33q-45 0 -123 -43l-2 119q37 21 55 35q58 46 58 107q0 22 -15 67h-86v77h57q-18 28 -20 32q-32 53 -32 105q2 60 35 104q10 12 38 36q66 50 169 50q70 0 124 -25q27 -12 52 -32
q23 -19 37 -36q12 -14 34 -52z" />
    <glyph glyph-name="currency" unicode="&#xa4;" horiz-adv-x="667" 
d="M579 187l81 -82l-96 -95l-81 82q-73 -42 -150 -42q-82 0 -151 44l-81 -82l-95 95l82 82q-14 21 -18 29q-25 51 -25 120q0 84 42 152l-80 80l95 95l80 -80q9 6 27 16q57 27 125 27q80 0 150 -43l81 81l96 -96l-81 -80q2 -3 4 -6.5t3.5 -6.5l3.5 -7t4 -7q27 -56 27 -125
q0 -78 -43 -151zM497 340q0 38 -15 70q-19 43 -60 69t-89 26q-26 0 -54 -10q-51 -18 -80 -59.5t-29 -96.5q0 -37 12 -65q19 -46 61.5 -73t91.5 -27q35 0 70 16q43 21 67.5 61t24.5 89z" />
    <glyph glyph-name="brokenbar" unicode="&#xa6;" horiz-adv-x="229" 
d="M51 190h127v-381h-127v381zM51 308v381h127v-381h-127z" />
    <glyph glyph-name="section" unicode="&#xa7;" horiz-adv-x="542" 
d="M498 548l-139 1q0 33 -5.5 53t-26.5 36q-22 17 -50 17q-11 0 -26 -5q-21 -7 -34.5 -25.5t-13.5 -40.5q0 -20 10 -36q6 -8 13.5 -14.5t20 -12t19 -7.5t22.5 -6.5t18 -5.5q35 -6 77 -26q106 -53 106 -173q0 -67 -35 -117q-10 -16 -29 -34q-7 -7 -19 -17q80 -59 80 -135
q0 -74 -57 -121q-61 -51 -158 -51q-40 0 -75 8q-14 4 -29.5 10.5t-38.5 19.5t-43 36.5t-32 52.5q-13 32 -17 89h144q2 -32 8 -46q19 -54 82 -54q17 0 33 6q44 19 44 62q0 42 -41 62q-10 5 -20.5 8.5t-33 8.5t-36.5 9q-69 18 -105 51q-14 13 -25 29q-37 53 -37 121
q0 90 56 143q7 7 28 21q-4 4 -12.5 11.5t-12.5 11.5q-42 46 -42 109q0 43 22 81q56 88 188 88q65 0 115 -23q68 -29 93 -92q15 -37 14 -103zM211 240q22 -25 59 -25q34 0 59 25t25 60q0 34 -25 59t-59 25q-35 0 -59.5 -25t-24.5 -60t25 -59z" />
    <glyph glyph-name="dieresis" unicode="&#xa8;" horiz-adv-x="271" 
d="M-109 546q-23 23 -23 56t23 56t56 23t56 -23.5t23 -55.5q0 -33 -23.5 -56t-56.5 -23q-32 0 -55 23zM104 546q-23 23 -23 56t23 56t56 23t56 -23.5t23 -55.5q0 -33 -23 -56t-56 -23t-56 23z" />
    <glyph glyph-name="copyright" unicode="&#xa9;" horiz-adv-x="833" 
d="M773 351q0 -129 -85 -229q-43 -51 -102 -81.5t-96.5 -37t-72.5 -6.5q-122 0 -218 73q-138 108 -138 284q0 130 81 228q109 127 276 127q85 0 160 -37t126 -106q71 -95 69 -215zM741 352q0 109 -63 195q-15 20 -34.5 39t-51.5 41.5t-77.5 36t-96.5 13.5q-108 0 -192 -62
q-20 -15 -39.5 -34.5t-42.5 -52t-37 -78t-14 -97.5q0 -65 24 -123q37 -91 119.5 -146t181.5 -55q54 0 109 19q97 34 155 117.5t59 186.5zM620 519l-87 -84q-50 50 -110 49q-34 0 -60 -12q-32 -16 -48.5 -48t-16.5 -70q1 -59 35.5 -94t92.5 -35q62 1 107 46l87 -81
q-78 -84 -195 -84q-61 0 -109 20q-68 28 -104.5 90t-36.5 138q0 61 21 108q10 23 25.5 44t42.5 45t68.5 38.5t92.5 14.5q115 0 195 -85z" />
    <glyph glyph-name="guillemotleft" unicode="&#xab;" horiz-adv-x="458" 
d="M184 452l69 -56l-116 -169l118 -155l-78 -55l-151 205zM362 451l74 -54l-115 -167l116 -156l-76 -53l-152 206z" />
    <glyph glyph-name="logicalnot" unicode="&#xac;" horiz-adv-x="667" 
d="M539 227h-539v127h667v-354h-128v227z" />
    <glyph glyph-name="registered" unicode="&#xae;" horiz-adv-x="833" 
d="M612 128l-126 1q-6 14 -11 30.5t-6.5 27t-5 31.5t-4.5 30q-9 49 -21 59q-13 11 -59 13h-19v-192h-110v458h164q27 0 40 -1q52 -2 78.5 -13.5t44.5 -34.5q25 -32 25 -74q0 -13 -3 -25.5t-6.5 -21t-10.5 -17t-11.5 -13.5t-13.5 -11t-12.5 -8t-12.5 -7l-9 -4q10 -6 15 -10
q28 -21 34 -71q0 -1 3.5 -20l7 -38t11.5 -44.5t18 -44.5zM360 407h49q38 0 53 3.5t24 20.5q7 11 7 26q0 12 -6 23q-13 22 -58 22h-69v-95zM773 351q0 -129 -85 -229q-43 -51 -102 -81.5t-96.5 -37t-72.5 -6.5q-122 0 -218 73q-138 108 -138 284q0 130 81 228
q109 127 276 127q85 0 160 -37t126 -106q71 -95 69 -215zM741 352q0 109 -63 195q-15 20 -34.5 39t-51.5 41.5t-77.5 36t-96.5 13.5q-108 0 -192 -62q-20 -15 -39.5 -34.5t-42.5 -52t-37 -78t-14 -97.5q0 -65 24 -123q37 -91 119.5 -146t181.5 -55q54 0 109 19
q97 34 155 117.5t59 186.5z" />
    <glyph glyph-name="degree" unicode="&#xb0;" horiz-adv-x="354" 
d="M177 745q39 0 71 -15q47 -20 74 -63t27 -94q0 -41 -15 -71q-20 -46 -63 -74t-94 -28q-63 0 -112 42q-60 51 -60 131q0 72 50 122t122 50zM177 630q-23 0 -39 -16t-16 -39t16.5 -39.5t39.5 -16.5t39 16.5t16 39.5t-16.5 39t-39.5 16z" />
    <glyph glyph-name="plusminus" unicode="&#xb1;" horiz-adv-x="667" 
d="M398 162h-128v209h-228v127h228v208h128v-208h227v-127h-227v-209zM625 0h-583v127h583v-127z" />
    <glyph glyph-name="acute" unicode="&#xb4;" horiz-adv-x="271" 
d="M68 706l111 -83l-170 -135l-82 55z" />
    <glyph glyph-name="mu" unicode="&#xb5;" horiz-adv-x="562" 
d="M501 144l35 2q15 -42 15 -73q0 -53 -34 -73q-17 -11 -38 -11q-15 0 -33 7q-42 16 -55 68q-55 -79 -149 -79q-65 0 -107 49q-6 -82 25 -146q10 -20 24.5 -41.5t21 -34.5t6.5 -27q0 -10 -4 -20q-15 -27 -46 -27q-28 0 -50 22q-42 48 -42 193q0 102 12 174q-23 115 -23 248
q0 56 25 80q15 15 35 15q34 0 51 -46q3 -21 3 -32q0 -48 -31 -271q32 -75 90 -75q29 0 55 23q34 29 48 82t14 148q0 2 -0.5 31.5t0 45t3.5 38t10 33.5q14 23 43 23q19 0 36 -13q26 -21 26 -91q0 -40 -5 -88q-10 -103 -45 -170q11 -48 46 -48q39 0 39 61q0 15 -1 23z" />
    <glyph glyph-name="paragraph" unicode="&#xb6;" horiz-adv-x="667" 
d="M558 706v-78h-36v-795h-84v795h-117v-795h-85v459q-41 11 -66 26q-88 57 -88 173q0 47 14 84.5t36 60.5t42.5 36.5t41.5 20.5q37 13 92 13h250z" />
    <glyph glyph-name="periodcentered" unicode="&#xb7;" horiz-adv-x="187" 
d="M91 201q-36 1 -61.5 26.5t-24.5 61.5q0 18 7 34q8 20 28.5 38t55.5 18q38 0 62.5 -25.5t24.5 -63.5q0 -21 -9 -39q-8 -17 -29.5 -34t-53.5 -16z" />
    <glyph glyph-name="cedilla" unicode="&#xb8;" horiz-adv-x="271" 
d="M70 -37l110 -51l-136 -148l-80 62z" />
    <glyph glyph-name="guillemotright" unicode="&#xbb;" horiz-adv-x="458" 
d="M94 453l152 -206l-151 -226l-77 56l118 170l-116 154zM276 456l154 -209l-156 -227l-72 57l116 170l-118 156z" />
    <glyph glyph-name="questiondown" unicode="&#xbf;" horiz-adv-x="562" 
d="M199 417v67h144v-175q-76 -1 -104 -15t-40 -42q-8 -19 -8 -44q0 -23 7 -39q22 -49 77 -49q27 0 49 13q33 20 37 82h126q0 -58 -9 -89q-7 -22 -20 -44t-36 -45t-62 -37t-88 -14q-86 0 -146 44q-24 17 -43 42q-44 60 -43 141q0 60 24 102t52 63q8 7 18 12.5t18 9.5
t16.5 7.5t14 5t10.5 3t6 1.5zM330 692q25 -25 25 -60q0 -36 -25 -61t-61 -25q-35 0 -60.5 25.5t-25.5 60.5q1 36 26.5 61t60.5 25q34 0 60 -26z" />
    <glyph glyph-name="Agrave" unicode="&#xc0;" horiz-adv-x="729" 
d="M275 706h163l290 -706h-166l-55 143h-293l-52 -143h-164zM262 276h194q-10 28 -28.5 78.5t-23.5 64.5q-38 109 -46 163q-4 -31 -7 -43q-8 -35 -40 -125q-32 -92 -49 -138zM347 927l130 -131l-72 -54l-183 110z" />
    <glyph glyph-name="Aacute" unicode="&#xc1;" horiz-adv-x="729" 
d="M275 706h163l290 -706h-166l-55 143h-293l-52 -143h-164zM262 276h194q-10 28 -28.5 78.5t-23.5 64.5q-38 109 -46 163q-4 -31 -7 -43q-8 -35 -40 -125q-32 -92 -49 -138zM379 924l126 -75l-183 -110l-72 55z" />
    <glyph glyph-name="Acircumflex" unicode="&#xc2;" horiz-adv-x="729" 
d="M275 706h163l290 -706h-166l-55 143h-293l-52 -143h-164zM262 276h194q-10 28 -28.5 78.5t-23.5 64.5q-38 109 -46 163q-4 -31 -7 -43q-8 -35 -40 -125q-32 -92 -49 -138zM365 899l188 -71l-42 -89l-145 55l-148 -55l-41 85z" />
    <glyph glyph-name="Atilde" unicode="&#xc3;" horiz-adv-x="729" 
d="M275 706h163l290 -706h-166l-55 143h-293l-52 -143h-164zM262 276h194q-10 28 -28.5 78.5t-23.5 64.5q-38 109 -46 163q-4 -31 -7 -43q-8 -35 -40 -125q-32 -92 -49 -138zM465 890l103 -1q-6 -78 -46 -117q-18 -16 -33 -21q-17 -6 -33 -6q-30 0 -110 32q-41 16 -51 16
q-14 0 -23 -10t-11 -18.5t-2 -13.5l-104 1q9 82 48 119q25 24 61 24q29 0 117 -35q31 -11 45 -11q31 0 39 41z" />
    <glyph glyph-name="Adieresis" unicode="&#xc4;" horiz-adv-x="729" 
d="M48 578q-23 23 -23 56t23.5 56t55.5 23q34 0 57 -23.5t23 -56.5q-1 -33 -24 -56t-56 -23q-35 0 -56 24zM554 578q-23 23 -23 56t23.5 56t56.5 23t56 -23.5t23 -56.5t-23.5 -56t-56.5 -23q-32 0 -56 24zM275 706h163l290 -706h-166l-55 143h-293l-52 -143h-164zM262 276
h194q-10 28 -28.5 78.5t-23.5 64.5q-38 109 -46 163q-4 -31 -7 -43q-8 -35 -40 -125q-32 -92 -49 -138z" />
    <glyph glyph-name="Aring" unicode="&#xc5;" horiz-adv-x="729" 
d="M285 752q-31 31 -31 76q0 44 31 75t75 31q44 -1 75 -32t31 -75q0 -45 -31 -75.5t-75 -30.5t-75 31zM330 796q14 -12 30 -12q18 1 30 13.5t12 29.5q0 18 -12.5 30t-30.5 12q-17 0 -29.5 -12.5t-12.5 -30.5q0 -13 13 -30zM275 706h163l290 -706h-166l-55 143h-293l-52 -143
h-164zM262 276h194q-10 28 -28.5 78.5t-23.5 64.5q-38 109 -46 163q-4 -31 -7 -43q-8 -35 -40 -125q-32 -92 -49 -138z" />
    <glyph glyph-name="AE" unicode="&#xc6;" horiz-adv-x="917" 
d="M287 706h428l44 -136h-245l44 -134h217l45 -136h-217l52 -163h225l45 -137h-385l-44 138h-277l-51 -138h-168zM325 427l-56 -157h187l-56 184q-2 5 -11 36t-13 47q-2 8 -5 24t-5 24q-10 -67 -41 -158z" />
    <glyph glyph-name="Ccedilla" unicode="&#xc7;" horiz-adv-x="625" 
d="M593 675v-174q-91 80 -189 80q-57 0 -100 -24q-42 -24 -75 -75.5t-33 -132.5q0 -46 14 -88q7 -22 19.5 -42t34.5 -43.5t59 -37.5t84 -14q28 0 53 5q54 12 98 42q11 8 35 26l-1 -165q-1 0 -13.5 -5.5t-18 -7.5t-20 -7.5t-25 -8t-27 -6.5t-30.5 -6.5t-32 -4t-36 -1.5
q-134 0 -222 75q-48 41 -87.5 114t-39.5 179q0 108 43 193q20 38 50 70q52 58 117 83q62 24 134 24q78 0 152 -25q25 -9 56 -23zM330 -37l110 -51l-135 -148l-80 62z" />
    <glyph glyph-name="Egrave" unicode="&#xc8;" horiz-adv-x="500" 
d="M58 706h401v-137h-248v-140h242v-137h-242v-151h247v-141h-400v706zM232 927l130 -131l-71 -54l-184 110z" />
    <glyph glyph-name="Eacute" unicode="&#xc9;" horiz-adv-x="500" 
d="M58 706h401v-137h-248v-140h242v-137h-242v-151h247v-141h-400v706zM264 924l126 -75l-183 -110l-72 55z" />
    <glyph glyph-name="Ecircumflex" unicode="&#xca;" horiz-adv-x="500" 
d="M58 706h401v-137h-248v-140h242v-137h-242v-151h247v-141h-400v706zM250 899l189 -71l-42 -89l-145 55l-148 -55l-41 85z" />
    <glyph glyph-name="Edieresis" unicode="&#xcb;" horiz-adv-x="500" 
d="M58 706h401v-137h-248v-140h242v-137h-242v-151h247v-141h-400v706zM110 773q-21 21 -21 51t21.5 51.5t51.5 21.5q31 0 52 -21.5t21 -51.5q0 -31 -21.5 -52t-51.5 -21q-31 0 -52 22zM290 773q-21 18 -21 51q0 31 21.5 52t51.5 21q31 0 52 -21.5t21 -51.5q-1 -31 -22 -52
t-52 -21q-30 0 -51 22z" />
    <glyph glyph-name="Igrave" unicode="&#xcc;" horiz-adv-x="271" 
d="M211 706v-706h-154v706h154zM117 927l131 -131l-72 -54l-183 110z" />
    <glyph glyph-name="Iacute" unicode="&#xcd;" horiz-adv-x="271" 
d="M211 706v-706h-154v706h154zM150 924l126 -75l-184 -110l-71 55z" />
    <glyph glyph-name="Icircumflex" unicode="&#xce;" horiz-adv-x="271" 
d="M211 706v-706h-154v706h154zM135 899l189 -71l-42 -89l-145 55l-148 -55l-41 85z" />
    <glyph glyph-name="Idieresis" unicode="&#xcf;" horiz-adv-x="271" 
d="M211 706v-706h-154v706h154zM-4 773q-22 19 -22 51q1 31 22.5 52t51.5 21t51 -21.5t21 -51.5q0 -31 -21 -52t-52 -21q-30 0 -51 22zM175 773q-21 21 -21 51t21.5 51.5t51.5 21.5q31 0 52 -21.5t21 -51.5q0 -31 -21.5 -52t-51.5 -21q-31 0 -52 22z" />
    <glyph glyph-name="Ntilde" unicode="&#xd1;" horiz-adv-x="729" 
d="M60 706h139l237 -337q64 -93 104 -176q-8 86 -9 129l-3 96l-3 288h144v-706h-137l-246 351q-39 55 -64 95q-5 9 -16 27.5t-17 27.5q1 -10 2.5 -27.5t2.5 -32t1 -26.5q1 -13 2 -38.5t1 -38.5l7 -338h-145v706zM465 890l103 -1q-6 -78 -46 -117q-18 -16 -33 -21
q-17 -6 -33 -6q-30 0 -110 32q-41 16 -51 16q-14 0 -23 -10t-11 -18.5t-2 -13.5l-104 1q9 82 48 119q25 24 61 24q29 0 117 -35q31 -11 45 -11q31 0 39 41z" />
    <glyph glyph-name="Ograve" unicode="&#xd2;" horiz-adv-x="833" 
d="M412 724q48 0 92 -10q125 -29 202 -120q85 -102 85 -246q0 -81 -30 -153q-44 -106 -135 -159.5t-210 -53.5q-140 0 -236 71q-23 17 -44 39t-44.5 57t-38 85.5t-14.5 108.5q0 85 30 159q42 105 135 163.5t208 58.5zM417 577q-81 0 -139 -47q-87 -68 -86 -179q0 -49 18 -91
q26 -65 84 -99.5t130 -34.5q79 0 132 44q81 66 81 181q0 87 -53 150q-23 28 -65.5 52.5t-101.5 23.5zM399 927l130 -131l-72 -54l-183 110z" />
    <glyph glyph-name="Oacute" unicode="&#xd3;" horiz-adv-x="833" 
d="M412 724q48 0 92 -10q125 -29 202 -120q85 -102 85 -246q0 -81 -30 -153q-44 -106 -135 -159.5t-210 -53.5q-140 0 -236 71q-23 17 -44 39t-44.5 57t-38 85.5t-14.5 108.5q0 85 30 159q42 105 135 163.5t208 58.5zM417 577q-81 0 -139 -47q-87 -68 -86 -179q0 -49 18 -91
q26 -65 84 -99.5t130 -34.5q79 0 132 44q81 66 81 181q0 87 -53 150q-23 28 -65.5 52.5t-101.5 23.5zM431 924l126 -75l-183 -110l-72 55z" />
    <glyph glyph-name="Ocircumflex" unicode="&#xd4;" horiz-adv-x="833" 
d="M412 724q48 0 92 -10q125 -29 202 -120q85 -102 85 -246q0 -81 -30 -153q-44 -106 -135 -159.5t-210 -53.5q-140 0 -236 71q-23 17 -44 39t-44.5 57t-38 85.5t-14.5 108.5q0 85 30 159q42 105 135 163.5t208 58.5zM417 577q-81 0 -139 -47q-87 -68 -86 -179q0 -49 18 -91
q26 -65 84 -99.5t130 -34.5q79 0 132 44q81 66 81 181q0 87 -53 150q-23 28 -65.5 52.5t-101.5 23.5zM417 899l188 -71l-42 -89l-145 55l-148 -55l-41 85z" />
    <glyph glyph-name="Otilde" unicode="&#xd5;" horiz-adv-x="833" 
d="M412 724q48 0 92 -10q125 -29 202 -120q85 -102 85 -246q0 -81 -30 -153q-44 -106 -135 -159.5t-210 -53.5q-140 0 -236 71q-23 17 -44 39t-44.5 57t-38 85.5t-14.5 108.5q0 85 30 159q42 105 135 163.5t208 58.5zM417 577q-81 0 -139 -47q-87 -68 -86 -179q0 -49 18 -91
q26 -65 84 -99.5t130 -34.5q79 0 132 44q81 66 81 181q0 87 -53 150q-23 28 -65.5 52.5t-101.5 23.5zM517 890l103 -1q-6 -78 -46 -117q-16 -16 -33 -21q-17 -6 -33 -6q-30 0 -110 32q-41 16 -51 16q-14 0 -23 -10t-11 -18.5t-2 -13.5l-104 1q9 82 48 119q25 24 61 24
q29 0 117 -35q31 -11 45 -11q31 0 39 41z" />
    <glyph glyph-name="Odieresis" unicode="&#xd6;" horiz-adv-x="833" 
d="M30 659q-23 23 -23 56q0 34 23.5 57t56.5 23t56.5 -23.5t23.5 -56.5t-23.5 -56.5t-56.5 -23.5q-35 0 -57 24zM687 659q-23 23 -23 56q0 34 23.5 57t56.5 23t56.5 -23.5t23.5 -56.5t-24 -56.5t-57 -23.5t-56 24zM412 724q48 0 92 -10q125 -29 202 -120q85 -102 85 -246
q0 -81 -30 -153q-44 -106 -135 -159.5t-210 -53.5q-140 0 -236 71q-23 17 -44 39t-44.5 57t-38 85.5t-14.5 108.5q0 85 30 159q42 105 135 163.5t208 58.5zM417 577q-81 0 -139 -47q-87 -68 -86 -179q0 -49 18 -91q26 -65 84 -99.5t130 -34.5q79 0 132 44q81 66 81 181
q0 87 -53 150q-23 28 -65.5 52.5t-101.5 23.5z" />
    <glyph glyph-name="multiply" unicode="&#xd7;" horiz-adv-x="667" 
d="M516 19l-183 182l-182 -182l-90 91l182 181l-182 183l90 88l182 -181l183 181l89 -88l-181 -183l181 -181z" />
    <glyph glyph-name="Oslash" unicode="&#xd8;" horiz-adv-x="833" 
d="M727 732l51 -51l-77 -80q1 -1 5.5 -6.5t9 -11.5t11 -14.5t10.5 -15.5q56 -88 56 -200q0 -45 -12 -95q-20 -84 -82 -152q-75 -81 -179 -107q-56 -14 -107 -14q-105 0 -187 46q-25 15 -54 37l-96 -95l-53 50l96 97q-39 52 -56 96q-24 65 -24 129q0 66 16 120
q24 81 80 141.5t135 90.5q34 13 70 19q42 7 76 7t74 -7q47 -8 77.5 -21.5t78.5 -43.5zM222 223l322 326q-68 34 -128 34q-56 0 -102 -21q-62 -27 -96 -84t-34 -126q0 -62 38 -129zM599 500l-326 -330q26 -16 35 -21q49 -25 110 -25q107 0 178 79q31 34 46 85q7 26 7 60
q0 77 -50 152z" />
    <glyph glyph-name="Ugrave" unicode="&#xd9;" horiz-adv-x="688" 
d="M59 706h150v-436q0 -70 25 -102q39 -49 114 -49q58 0 87 27t37 61q5 16 6 58v441h150v-393q-1 -50 -3 -79.5t-13.5 -70.5t-33.5 -73q-75 -109 -236 -109q-88 0 -161.5 39t-102.5 116q-17 43 -19 129v441zM326 927l130 -131l-72 -54l-183 110z" />
    <glyph glyph-name="Uacute" unicode="&#xda;" horiz-adv-x="688" 
d="M59 706h150v-436q0 -70 25 -102q39 -49 114 -49q58 0 87 27t37 61q5 16 6 58v441h150v-393q-1 -50 -3 -79.5t-13.5 -70.5t-33.5 -73q-75 -109 -236 -109q-88 0 -161.5 39t-102.5 116q-17 43 -19 129v441zM358 924l126 -75l-183 -110l-72 55z" />
    <glyph glyph-name="Ucircumflex" unicode="&#xdb;" horiz-adv-x="688" 
d="M59 706h150v-436q0 -70 25 -102q39 -49 114 -49q58 0 87 27t37 61q5 16 6 58v441h150v-393q-1 -50 -3 -79.5t-13.5 -70.5t-33.5 -73q-75 -109 -236 -109q-88 0 -161.5 39t-102.5 116q-17 43 -19 129v441zM344 899l188 -71l-42 -89l-144 55l-149 -55l-40 85z" />
    <glyph glyph-name="Udieresis" unicode="&#xdc;" horiz-adv-x="688" 
d="M82 760q-23 23 -23 56q0 34 23.5 57t56.5 23t56.5 -23.5t23.5 -56.5t-24 -56.5t-57 -23.5q-32 0 -56 24zM504 760q-23 23 -23 56q0 34 23.5 57t56.5 23q34 0 57 -23.5t23 -56.5t-24 -56.5t-56 -23.5q-33 0 -57 24zM59 706h150v-436q0 -70 25 -102q39 -49 114 -49
q58 0 87 27t37 61q5 16 6 58v441h150v-393q-1 -50 -3 -79.5t-13.5 -70.5t-33.5 -73q-75 -109 -236 -109q-88 0 -161.5 39t-102.5 116q-17 43 -19 129v441z" />
    <glyph glyph-name="germandbls" unicode="&#xdf;" horiz-adv-x="562" 
d="M249 0l1 122q20 2 28 4q64 7 92 56q17 27 17 61q0 32 -17 58q-14 20 -36 31.5t-38 14.5t-47 6v107q24 2 39 6t30.5 15t24.5 30q13 30 13 55q0 35 -21.5 58t-57.5 24q-27 -1 -45 -14q-17 -11 -26 -31t-10 -34t-1 -40v-529h-142v497q0 43 2 64q4 60 24 99.5t68 64.5
q58 31 135 31q46 0 87 -13q60 -20 94 -67.5t34 -110.5q0 -80 -55 -125q-16 -13 -41 -26q1 0 10 -3t13.5 -5t14.5 -6.5t17.5 -9.5t16.5 -13t16 -18q42 -50 42 -130q0 -110 -85 -175q-36 -27 -78 -40q-46 -14 -119 -14z" />
    <glyph glyph-name="agrave" unicode="&#xe0;" 
d="M387 376v60h141v-436h-140v43l-30 -24q-52 -35 -120 -35q-47 0 -84 18q-59 27 -89.5 86t-30.5 128q0 111 68 178q54 53 138 53q68 0 113 -36q13 -10 34 -35zM287 328q-47 0 -78 -35q-26 -30 -26 -77q0 -71 50 -102q23 -17 59 -17q47 0 75.5 33.5t28.5 80.5q0 49 -30.5 83
t-78.5 34zM272 706l141 -163l-81 -55l-171 135z" />
    <glyph glyph-name="aacute" unicode="&#xe1;" 
d="M387 376v60h141v-436h-140v43l-30 -24q-52 -35 -120 -35q-47 0 -84 18q-59 27 -89.5 86t-30.5 128q0 111 68 178q54 53 138 53q68 0 113 -36q13 -10 34 -35zM287 328q-47 0 -78 -35q-26 -30 -26 -77q0 -71 50 -102q23 -17 59 -17q47 0 75.5 33.5t28.5 80.5q0 49 -30.5 83
t-78.5 34zM308 706l111 -83l-171 -135l-81 55z" />
    <glyph glyph-name="acircumflex" unicode="&#xe2;" 
d="M387 376v60h141v-436h-140v43l-30 -24q-52 -35 -120 -35q-47 0 -84 18q-59 27 -89.5 86t-30.5 128q0 111 68 178q54 53 138 53q68 0 113 -36q13 -10 34 -35zM287 328q-47 0 -78 -35q-26 -30 -26 -77q0 -71 50 -102q23 -17 59 -17q47 0 75.5 33.5t28.5 80.5q0 49 -30.5 83
t-78.5 34zM290 713l181 -133l-62 -83l-125 85l-122 -86l-66 82z" />
    <glyph glyph-name="atilde" unicode="&#xe3;" 
d="M387 376v60h141v-436h-140v43l-30 -24q-52 -35 -120 -35q-47 0 -84 18q-59 27 -89.5 86t-30.5 128q0 111 68 178q54 53 138 53q68 0 113 -36q13 -10 34 -35zM287 328q-47 0 -78 -35q-26 -30 -26 -77q0 -71 50 -102q23 -17 59 -17q47 0 75.5 33.5t28.5 80.5q0 49 -30.5 83
t-78.5 34zM392 657h103q-6 -79 -46 -117q-13 -14 -33 -22q-14 -5 -33 -5q-30 0 -110 32q-41 16 -51 16q-14 0 -23 -10.5t-11 -18.5t-2 -13h-104q9 83 48 120q26 23 61 23q8 0 17.5 -1.5t16.5 -3t19.5 -6t19 -6.5t22 -8t22.5 -9q28 -12 45 -12q31 0 39 41z" />
    <glyph glyph-name="adieresis" unicode="&#xe4;" 
d="M139 542q-23 23 -23 56t23.5 56t55.5 23q33 0 56 -23.5t23 -56.5t-23 -55.5t-56 -22.5t-56 23zM352 542q-23 23 -23 56t23.5 56t55.5 23q33 0 56 -23.5t23 -56.5t-23 -55.5t-56 -22.5t-56 23zM387 376v60h141v-436h-140v43l-30 -24q-52 -35 -120 -35q-47 0 -84 18
q-59 27 -89.5 86t-30.5 128q0 111 68 178q54 53 138 53q68 0 113 -36q13 -10 34 -35zM287 328q-47 0 -78 -35q-26 -30 -26 -77q0 -71 50 -102q23 -17 59 -17q47 0 75.5 33.5t28.5 80.5q0 49 -30.5 83t-78.5 34z" />
    <glyph glyph-name="aring" unicode="&#xe5;" 
d="M225 527q-30 32 -30 76t31 75t75 31t75 -31.5t31 -75.5t-31 -75t-75 -31t-76 31zM271 572q12 -12 30 -12t30 12.5t12 29.5q0 18 -12.5 30t-30.5 12q-17 0 -29.5 -12.5t-12.5 -29.5q0 -20 13 -30zM387 376v60h141v-436h-140v43l-30 -24q-52 -35 -120 -35q-47 0 -84 18
q-59 27 -89.5 86t-30.5 128q0 111 68 178q54 53 138 53q68 0 113 -36q13 -10 34 -35zM287 328q-47 0 -78 -35q-26 -30 -26 -77q0 -71 50 -102q23 -17 59 -17q47 0 75.5 33.5t28.5 80.5q0 49 -30.5 83t-78.5 34z" />
    <glyph glyph-name="ae" unicode="&#xe6;" horiz-adv-x="812" 
d="M776 190h-344q7 -29 18 -46q15 -25 42.5 -38.5t57.5 -13.5q53 1 90 50l113 -53q-70 -103 -203 -103q-45 0 -80.5 10.5t-51.5 21t-39 29.5q-14 -14 -35 -28q-56 -35 -141 -35q-76 0 -120 29q-59 37 -59 110q0 61 45 103t145 42q41 0 112 -13q-18 41 -41 59q-34 26 -83 26
q-44 0 -128 -33l-2 113q93 29 143 29q61 0 107 -26q21 -11 49 -38q25 21 33 26q57 37 139 36q61 0 104 -17q93 -38 119 -139q10 -33 10 -101zM437 277l203 1q-13 25 -15 29q-30 48 -87 48q-54 -1 -86 -47q-7 -12 -15 -31zM237 177q-20 0 -37 -5l-4 -2q-5 -2 -8.5 -4
t-8.5 -5.5t-8.5 -8t-6 -11t-2.5 -13.5q3 -17 9 -24q17 -22 65 -22q75 0 75 48q0 15 -9 25q-17 22 -65 22z" />
    <glyph glyph-name="ccedilla" unicode="&#xe7;" horiz-adv-x="437" 
d="M396 426v-128q-58 27 -101 27q-50 0 -82.5 -28.5t-32.5 -78.5q0 -21 8 -42q9 -26 35 -49t71 -23q46 0 103 38l-1 -128q-77 -28 -133 -28q-94 0 -154 52q-77 66 -77 177q0 81 47 144q66 91 194 91q53 0 123 -24zM237 -37l109 -51l-135 -148l-80 62z" />
    <glyph glyph-name="egrave" unicode="&#xe8;" horiz-adv-x="521" 
d="M490 188h-316q6 -30 14 -44q27 -50 86 -50q55 0 89 56l115 -55q-24 -32 -29 -37q-69 -72 -178 -72q-74 0 -123 30.5t-74 67.5q-36 54 -36 134q0 61 25 112q27 59 86 93q54 30 117 30q32 0 68 -9q114 -32 148 -145q10 -39 8 -111zM174 271h179q-9 53 -49 74q-18 10 -42 10
q-52 0 -77 -49q-5 -13 -11 -35zM241 706l141 -163l-81 -55l-172 135z" />
    <glyph glyph-name="eacute" unicode="&#xe9;" horiz-adv-x="521" 
d="M490 188h-316q6 -30 14 -44q27 -50 86 -50q55 0 89 56l115 -55q-24 -32 -29 -37q-69 -72 -178 -72q-74 0 -123 30.5t-74 67.5q-36 54 -36 134q0 61 25 112q27 59 86 93q54 30 117 30q32 0 68 -9q114 -32 148 -145q10 -39 8 -111zM174 271h179q-9 53 -49 74q-18 10 -42 10
q-52 0 -77 -49q-5 -13 -11 -35zM276 706l112 -83l-171 -135l-81 55z" />
    <glyph glyph-name="ecircumflex" unicode="&#xea;" horiz-adv-x="521" 
d="M490 188h-316q6 -30 14 -44q27 -50 86 -50q55 0 89 56l115 -55q-24 -32 -29 -37q-69 -72 -178 -72q-74 0 -123 30.5t-74 67.5q-36 54 -36 134q0 61 25 112q27 59 86 93q54 30 117 30q32 0 68 -9q114 -32 148 -145q10 -39 8 -111zM174 271h179q-9 53 -49 74q-18 10 -42 10
q-52 0 -77 -49q-5 -13 -11 -35zM269 713l181 -133l-62 -83l-125 85l-122 -86l-66 82z" />
    <glyph glyph-name="edieresis" unicode="&#xeb;" horiz-adv-x="521" 
d="M490 188h-316q6 -30 14 -44q27 -50 86 -50q55 0 89 56l115 -55q-24 -32 -29 -37q-69 -72 -178 -72q-74 0 -123 30.5t-74 67.5q-36 54 -36 134q0 61 25 112q27 59 86 93q54 30 117 30q32 0 68 -9q114 -32 148 -145q10 -39 8 -111zM174 271h179q-9 53 -49 74q-18 10 -42 10
q-52 0 -77 -49q-5 -13 -11 -35zM109 546q-22 23 -22 56t23 56t56 23t56 -23.5t23 -55.5q-1 -33 -24 -56t-56 -23q-32 0 -56 23zM322 546q-22 23 -22 56t23 56t56 23t56 -23.5t23 -55.5q0 -33 -23.5 -56t-56.5 -23q-32 0 -56 23z" />
    <glyph glyph-name="igrave" unicode="&#xec;" horiz-adv-x="250" 
d="M54 435h143v-435h-143v435zM106 706l141 -163l-81 -55l-172 135z" />
    <glyph glyph-name="iacute" unicode="&#xed;" horiz-adv-x="250" 
d="M54 435h143v-435h-143v435zM141 706l111 -83l-170 -135l-82 55z" />
    <glyph glyph-name="icircumflex" unicode="&#xee;" horiz-adv-x="250" 
d="M54 435h143v-435h-143v435zM124 713l180 -133l-62 -83l-125 85l-121 -86l-67 82z" />
    <glyph glyph-name="idieresis" unicode="&#xef;" horiz-adv-x="250" 
d="M54 435h143v-435h-143v435zM-37 546q-22 23 -22 56t23 56t56 23t56 -23.5t23 -55.5q0 -33 -23.5 -56t-56.5 -23q-32 0 -56 23zM177 546q-23 23 -23 56t23 56t56 23t56 -23.5t23 -55.5q0 -33 -23.5 -56t-56.5 -23q-32 0 -55 23z" />
    <glyph glyph-name="ntilde" unicode="&#xf1;" horiz-adv-x="542" 
d="M490 0h-142v239q0 53 -23 74q-18 15 -45 15q-30 0 -51 -17q-35 -26 -35 -94v-217h-140v435h142v-57q14 14 21.5 20.5t28 21t45 21.5t52.5 7q46 0 76.5 -17.5t45.5 -38.5q25 -38 25 -113v-279zM371 657h104q0 -1 -1 -8.5t-2 -13.5t-3.5 -17t-5.5 -20t-8 -19.5t-12 -20.5
t-15 -18q-13 -14 -33 -22q-14 -5 -33 -5q-30 0 -109 32q-43 16 -52 16q-7 0 -12 -2.5t-9 -6t-6.5 -7t-4 -8.5t-2.5 -8t-1 -7l-1 -3h-103q7 82 47 120q26 23 61 23q28 0 117 -34q28 -12 45 -12q31 0 39 41z" />
    <glyph glyph-name="ograve" unicode="&#xf2;" horiz-adv-x="562" 
d="M275 452q135 1 207 -95q45 -59 45 -139q0 -52 -21 -97q-29 -65 -89 -101t-134 -36q-70 0 -131 32q-30 19 -44 32q-73 65 -73 171q0 125 98 190q62 42 142 43zM280 328q-27 -3 -47 -13q-55 -30 -55 -99q0 -25 9 -46q12 -28 37.5 -45t56.5 -17q44 0 72.5 32.5t28.5 77.5
t-28.5 78t-73.5 32zM262 706l141 -163l-81 -55l-172 135z" />
    <glyph glyph-name="oacute" unicode="&#xf3;" horiz-adv-x="562" 
d="M275 452q135 1 207 -95q45 -59 45 -139q0 -52 -21 -97q-29 -65 -89 -101t-134 -36q-70 0 -131 32q-30 19 -44 32q-73 65 -73 171q0 125 98 190q62 42 142 43zM280 328q-27 -3 -47 -13q-55 -30 -55 -99q0 -25 9 -46q12 -28 37.5 -45t56.5 -17q44 0 72.5 32.5t28.5 77.5
t-28.5 78t-73.5 32zM297 706l111 -83l-170 -135l-82 55z" />
    <glyph glyph-name="ocircumflex" unicode="&#xf4;" horiz-adv-x="562" 
d="M275 452q135 1 207 -95q45 -59 45 -139q0 -52 -21 -97q-29 -65 -89 -101t-134 -36q-70 0 -131 32q-30 19 -44 32q-73 65 -73 171q0 125 98 190q62 42 142 43zM280 328q-27 -3 -47 -13q-55 -30 -55 -99q0 -25 9 -46q12 -28 37.5 -45t56.5 -17q44 0 72.5 32.5t28.5 77.5
t-28.5 78t-73.5 32zM280 713l180 -133l-62 -83l-125 85l-121 -86l-67 82z" />
    <glyph glyph-name="otilde" unicode="&#xf5;" horiz-adv-x="562" 
d="M275 452q135 1 207 -95q45 -59 45 -139q0 -52 -21 -97q-29 -65 -89 -101t-134 -36q-70 0 -131 32q-30 19 -44 32q-73 65 -73 171q0 125 98 190q62 42 142 43zM280 328q-27 -3 -47 -13q-55 -30 -55 -99q0 -25 9 -46q12 -28 37.5 -45t56.5 -17q44 0 72.5 32.5t28.5 77.5
t-28.5 78t-73.5 32zM381 657h104q0 -1 -1 -8.5t-2 -14t-3 -16.5t-5.5 -19.5t-8 -20t-11.5 -20.5t-15 -18q-15 -15 -34 -22q-13 -5 -33 -5q-29 0 -109 32q-41 16 -52 16q-7 0 -12 -2.5t-9 -6t-6.5 -7t-4 -8.5t-2.5 -8t-1 -7l-1 -3h-103q9 84 48 120q24 23 61 23q27 0 116 -34
q28 -12 45 -12q34 0 39 41z" />
    <glyph glyph-name="odieresis" unicode="&#xf6;" horiz-adv-x="562" 
d="M118 542q-23 23 -23 56t23.5 56t55.5 23q33 0 56 -23.5t23 -56.5t-23 -55.5t-56 -22.5t-56 23zM331 542q-23 23 -23 56t23.5 56t55.5 23q33 0 56 -23.5t23 -56.5t-23 -55.5t-56 -22.5t-56 23zM275 452q135 1 207 -95q45 -59 45 -139q0 -52 -21 -97q-29 -65 -89 -101
t-134 -36q-70 0 -131 32q-30 19 -44 32q-73 65 -73 171q0 125 98 190q62 42 142 43zM280 328q-27 -3 -47 -13q-55 -30 -55 -99q0 -25 9 -46q12 -28 37.5 -45t56.5 -17q44 0 72.5 32.5t28.5 77.5t-28.5 78t-73.5 32z" />
    <glyph glyph-name="divide" unicode="&#xf7;" horiz-adv-x="667" 
d="M414 110q-1 -34 -24 -57t-57 -22q-34 0 -57.5 22.5t-22.5 56.5q0 34 23 57.5t57 23.5t57.5 -23.5t23.5 -57.5zM414 468q-1 -33 -24 -56t-57 -23t-57.5 23t-22.5 57q0 18 6 33q20 46 74 48q34 -1 57.5 -24.5t23.5 -57.5zM667 227h-667v127h667v-127z" />
    <glyph glyph-name="oslash" unicode="&#xf8;" horiz-adv-x="562" 
d="M436 406l45 41l44 -49l-42 -37q0 -1 6 -10.5t7.5 -12.5t7 -13.5t7.5 -17t6 -18t5.5 -21t3 -23t1.5 -26.5q0 -62 -28 -115q-19 -30 -33 -45q-27 -30 -60 -47q-26 -14 -63 -22q-35 -8 -65 -8q-16 0 -31 2t-27 4.5t-25 7t-21 7.5t-19 9t-15 8.5t-13 7.5l-9 6l-45 -41l-44 49
l45 40q-41 70 -41 136q0 60 25 110q29 59 90 93t130 34q61 0 112 -23q15 -6 46 -26zM174 172l165 148q-33 20 -66 20q-49 0 -78 -33.5t-29 -82.5q0 -23 8 -52zM384 272l-169 -152q38 -22 72 -21q28 0 48 10q60 33 59 109q0 32 -10 54z" />
    <glyph glyph-name="ugrave" unicode="&#xf9;" horiz-adv-x="542" 
d="M50 437h142v-225q0 -70 34 -94q20 -14 48 -14q26 2 44 13q33 23 33 91v229h141v-229q0 -34 -1.5 -53.5t-9.5 -47t-24 -48.5q-60 -76 -182 -76q-70 0 -130 29.5t-82 89.5q-13 35 -13 120v215zM251 706l141 -163l-81 -55l-171 135z" />
    <glyph glyph-name="uacute" unicode="&#xfa;" horiz-adv-x="542" 
d="M50 437h142v-225q0 -70 34 -94q20 -14 48 -14q26 2 44 13q33 23 33 91v229h141v-229q0 -34 -1.5 -53.5t-9.5 -47t-24 -48.5q-60 -76 -182 -76q-70 0 -130 29.5t-82 89.5q-13 35 -13 120v215zM287 706l111 -83l-170 -135l-82 55z" />
    <glyph glyph-name="ucircumflex" unicode="&#xfb;" horiz-adv-x="542" 
d="M50 437h142v-225q0 -70 34 -94q20 -14 48 -14q26 2 44 13q33 23 33 91v229h141v-229q0 -34 -1.5 -53.5t-9.5 -47t-24 -48.5q-60 -76 -182 -76q-70 0 -130 29.5t-82 89.5q-13 35 -13 120v215zM269 713l181 -133l-62 -83l-125 85l-122 -86l-66 82z" />
    <glyph glyph-name="udieresis" unicode="&#xfc;" horiz-adv-x="542" 
d="M109 542q-22 23 -22 56t23 56t56 23t56 -23.5t23 -56.5q-1 -33 -24.5 -55.5t-55.5 -22.5t-56 23zM322 542q-22 23 -22 56t23 56t56 23t56 -23.5t23 -56.5t-23.5 -55.5t-56.5 -22.5q-32 0 -56 23zM50 437h142v-225q0 -70 34 -94q20 -14 48 -14q26 2 44 13q33 23 33 91v229
h141v-229q0 -34 -1.5 -53.5t-9.5 -47t-24 -48.5q-60 -76 -182 -76q-70 0 -130 29.5t-82 89.5q-13 35 -13 120v215z" />
    <glyph glyph-name="ydieresis" unicode="&#xff;" horiz-adv-x="542" 
d="M156 435l78 -195q7 -16 19 -50q12 -40 17 -60q24 65 54 136l70 170h148l-278 -639h-151l86 194l-202 444h159zM109 546q-22 23 -22 56t23 56t56 23t56 -23.5t23 -55.5q-1 -33 -24 -56t-56 -23q-32 0 -56 23zM322 546q-22 23 -22 56t23 56t56 23t56 -23.5t23 -55.5
q0 -33 -23.5 -56t-56.5 -23q-32 0 -56 23z" />
    <glyph glyph-name="dotlessi" unicode="&#x131;" horiz-adv-x="250" 
d="M54 435h143v-435h-143v435z" />
    <glyph glyph-name="OE" unicode="&#x152;" horiz-adv-x="1062" 
d="M610 649v57h408v-137h-262v-143h256v-138h-255v-152h262v-136h-409v60q-20 -14 -31 -20q-80 -49 -183 -49q-147 0 -247 88q-81 71 -106 178q-9 36 -9 84q0 58 12 107q34 132 139 205q92 65 218 65q93 0 162 -38q28 -18 45 -31zM407 568q-96 0 -157 -62q-58 -61 -58 -151
q0 -78 34.5 -126t75.5 -69q17 -9 51 -18q30 -6 60 -6q45 0 80 14q49 19 88.5 66t39.5 132q0 73 -37 127q-64 92 -177 93z" />
    <glyph glyph-name="oe" unicode="&#x153;" horiz-adv-x="875" 
d="M845 193l-344 -1q17 -36 20 -41q36 -53 100 -53q49 0 91 42l112 -55q-17 -22 -31.5 -36t-49 -32.5t-77.5 -25.5q-28 -5 -55 -5q-33 0 -62 7q-36 8 -59 22t-56 44q-21 -20 -36 -32t-53 -26.5t-82 -14.5q-67 0 -118 27q-43 23 -78 73t-35 131q0 47 18 98q25 62 81 97.5
t124 35.5q78 0 136 -38q9 -6 40 -32q25 22 39 31q58 40 144 40q83 0 143 -43t80 -122q8 -32 8 -91zM509 278l206 1q-13 26 -15 29q-33 48 -92 48q-44 0 -72 -30q-15 -17 -27 -48zM270 331q-46 -1 -74.5 -34.5t-28.5 -80.5q0 -24 7 -43q12 -32 41 -52.5t63 -20.5q23 0 43 9
q64 28 64 107q0 24 -6 43q-12 34 -42.5 53.5t-66.5 18.5z" />
    <glyph glyph-name="Ydieresis" unicode="&#x178;" horiz-adv-x="625" 
d="M3 706h178l133 -270l140 270h172l-235 -384v-322h-154v316zM173 773q-21 18 -21 51q0 31 21.5 52t51.5 21q31 0 52 -21.5t21 -51.5q-1 -31 -22 -52t-52 -21q-30 0 -51 22zM352 773q-21 21 -21 51t21.5 51.5t51.5 21.5q31 0 52 -21.5t21 -51.5q0 -31 -21.5 -52t-51.5 -21
q-31 0 -52 22z" />
    <glyph glyph-name="circumflex" unicode="&#x2c6;" horiz-adv-x="271" 
d="M51 713l180 -133l-62 -83l-125 85l-121 -86l-67 82z" />
    <glyph glyph-name="caron" unicode="&#x2c7;" horiz-adv-x="271" 
d="M180 704l67 -82l-196 -136l-179 135l61 82l125 -85z" />
    <glyph glyph-name="tilde" unicode="&#x2dc;" horiz-adv-x="271" 
d="M152 657h104q0 -1 -1 -8.5t-2 -14t-3 -16.5t-5.5 -19.5t-8 -20t-11.5 -20.5t-15 -18q-15 -15 -34 -22q-13 -5 -33 -5q-29 0 -109 32q-41 16 -52 16q-7 0 -12 -2.5t-9 -6t-6.5 -7t-4 -8.5t-2.5 -8t-2 -7v-3h-103q9 84 48 120q24 23 60 23q28 0 117 -34q28 -12 45 -12
q31 0 39 41z" />
    <glyph glyph-name="endash" unicode="&#x2013;" 
d="M37 311h510v-118h-510v118z" />
    <glyph glyph-name="emdash" unicode="&#x2014;" horiz-adv-x="667" 
d="M667 227h-667v127h667v-127z" />
    <glyph glyph-name="quoteleft" unicode="&#x2018;" horiz-adv-x="250" 
d="M133 711h87l-62 -308h-146z" />
    <glyph glyph-name="quoteright" unicode="&#x2019;" horiz-adv-x="250" 
d="M36 706h167v-90q0 -42 -5.5 -63t-26.5 -60l-49 -91l-75 26l57 124h-68v154z" />
    <glyph glyph-name="quotesinglbase" unicode="&#x201a;" horiz-adv-x="250" 
d="M90 167h148l-123 -308h-85z" />
    <glyph glyph-name="quotedblleft" unicode="&#x201c;" horiz-adv-x="437" 
d="M324 706h90l-73 -294h-141zM141 706h87l-71 -293h-144z" />
    <glyph glyph-name="quotedblright" unicode="&#x201d;" horiz-adv-x="437" 
d="M278 706h146l-121 -297h-90zM95 706h144l-121 -297h-89z" />
    <glyph glyph-name="quotedblbase" unicode="&#x201e;" horiz-adv-x="437" 
d="M279 150h145l-128 -295h-87zM95 151h142l-124 -296h-91z" />
    <glyph glyph-name="dagger" unicode="&#x2020;" horiz-adv-x="562" 
d="M354 816v-274h186v-138h-186v-511h-145v512h-188v137h188v274h145z" />
    <glyph glyph-name="bullet" unicode="&#x2022;" horiz-adv-x="333" 
d="M322 352q0 -36 -13 -65q-18 -43 -55 -66.5t-84 -23.5q-37 0 -68 14q-40 19 -65 58t-25 84q0 65 46.5 110t110.5 45q35 0 66 -14q19 -9 36 -23t34 -46.5t17 -72.5z" />
    <glyph glyph-name="ellipsis" unicode="&#x2026;" horiz-adv-x="1000" 
d="M913 75q0 -34 -22.5 -57.5t-56.5 -23.5q-15 0 -28 5q-52 20 -52 75q0 33 23.5 56.5t56.5 23.5t56 -23t23 -56zM580 75q0 -34 -22.5 -57.5t-56.5 -23.5q-14 0 -27 5q-53 18 -53 75q0 20 7 34q21 46 73 46q33 0 55.5 -23t23.5 -56zM246 75q0 -34 -22.5 -57.5t-56.5 -23.5
q-15 0 -28 5q-52 21 -52 75q0 33 23.5 56.5t57.5 23.5q33 0 55.5 -23t22.5 -56z" />
    <glyph glyph-name="fraction" unicode="&#x2044;" horiz-adv-x="125" 
d="M208 735l68 -35l-366 -732l-67 36l165 327q167 336 200 404z" />
    <glyph glyph-name="trademark" unicode="&#x2122;" horiz-adv-x="688" 
d="M674 374h-82l4 177q1 34 6 67q-3 -9 -7.5 -27l-6.5 -26l-56 -191h-75l-59 192q-1 4 -3.5 11.5l-3.5 10.5q-4 20 -7 29q6 -44 7 -66l5 -177h-82v332h106l76 -239l71 239h107v-332zM187 374h-85v265h-102v67h287v-67h-100v-265z" />
    <glyph glyph-name="minus" unicode="&#x2212;" horiz-adv-x="667" 
d="M667 227h-667v127h667v-127z" />
    <glyph glyph-name="Acute" unicode="&#xf6c9;" horiz-adv-x="271" 
d="M67 924l125 -75l-183 -110l-72 55z" />
    <glyph glyph-name="Caron" unicode="&#xf6ca;" horiz-adv-x="271" 
d="M-94 899l146 -55l148 54l40 -84l-187 -76l-188 71z" />
    <glyph glyph-name="Dieresis" unicode="&#xf6cb;" horiz-adv-x="271" 
d="M-88 773q-21 21 -21 51t21.5 51.5t51.5 21.5q31 0 52 -21.5t21 -51.5q0 -31 -21.5 -52t-51.5 -21q-31 0 -52 22zM92 773q-21 18 -21 51q0 31 21.5 52t51.5 21q31 0 52 -21.5t21 -51.5q-1 -31 -22 -52t-52 -21q-30 0 -51 22z" />
    <glyph glyph-name="Grave" unicode="&#xf6ce;" horiz-adv-x="271" 
d="M34 927l130 -131l-71 -54l-184 110z" />
    <glyph glyph-name="onefitted" unicode="&#xf6dc;" horiz-adv-x="375" 
d="M6 706h284v-706h-153v568l-131 1v137z" />
    <glyph glyph-name="fi" unicode="&#xfb01;" horiz-adv-x="542" 
d="M303 749v-118q-21 3 -41 3q-30 0 -43 -10q-14 -12 -17.5 -33t-3.5 -66v-90h99v-105h-100v-330h-140v330h-59v105h59v59q0 78 1 93q1 18 2 27.5t5.5 30.5t10.5 33.5t18.5 29t29 26t42 16t57.5 6.5q38 0 80 -7zM358 541q-25 23 -25 60q0 35 25 60t60 25q35 -1 60 -26
t25 -60t-25 -59.5t-60 -24.5t-60 25zM346 435h143v-435h-143v435z" />
    <glyph glyph-name="fl" unicode="&#xfb02;" horiz-adv-x="542" 
d="M303 749v-118q-21 3 -41 3q-30 0 -43 -10q-14 -12 -17.5 -33t-3.5 -66v-90h99v-105h-100v-330h-140v330h-59v105h59v59q0 78 1 93q1 18 2 27.5t5.5 30.5t10.5 33.5t18.5 29t29 26t42 16t57.5 6.5q38 0 80 -7zM346 746h143v-746h-143v746z" />
    <glyph glyph-name="Circumflex" horiz-adv-x="271" 
d="M52 899l189 -71l-42 -89l-145 55l-148 -55l-41 85z" />
    <glyph glyph-name="Tilde" horiz-adv-x="271" 
d="M152 890l104 -1q0 -1 -1 -8.5t-2 -13.5t-3 -16.5t-5.5 -20t-8 -20t-11.5 -20.5t-15 -18q-18 -16 -34 -21q-15 -6 -33 -6q-29 0 -109 32q-41 16 -52 16q-28 0 -36 -42l-103 1q9 84 48 119q24 24 60 24q30 0 117 -35q31 -11 45 -11q31 0 39 41z" />
    </font>
</defs>
</svg>
