<?xml version="1.0" standalone="no"?>
<!DOCTYPE svg PUBLIC "-//W3C//DTD SVG 1.1//EN" "http://www.w3.org/Graphics/SVG/1.1/DTD/svg11.dtd" >
<svg>
<metadata>
Created by FontForge 20090622 at Thu Jul 25 01:38:07 2019
 By deploy user
Copyright (c) Font Awesome
</metadata>
<defs>
<font id="FontAwesome5Free-Regular" horiz-adv-x="512" >
  <font-face 
    font-family="Font Awesome 5 Free Regular"
    font-weight="400"
    font-stretch="normal"
    units-per-em="512"
    panose-1="2 0 5 3 0 0 0 0 0 0"
    ascent="448"
    descent="-64"
    x-height="313"
    cap-height="421"
    bbox="-28 -64.5455 3992 448.545"
    underline-thickness="25"
    underline-position="-52"
    unicode-range="U+0020-U+F5C8"
  />
<missing-glyph horiz-adv-x="256" 
d="M25 0v298h206v-298h-206zM50 25h156v248h-156v-248z" />
    <glyph glyph-name="heart" unicode="Heart" 
d="M458 384q36 -31 48 -73.5t1 -81.5t-38 -67l-175 -178q-16 -16 -38 -16t-38 16l-175 178q-27 28 -38 67.5t1 81.5t48 73q43 36 101.5 31.5t100.5 -46.5q42 42 100.5 46.5t101.5 -31.5zM435 196q29 30 29 73.5t-36 77.5q-30 24 -69.5 21t-67.5 -32l-35 -35l-35 35
q-28 29 -67.5 32t-69.5 -21q-36 -34 -36 -77.5t29 -73.5l176 -178q3 -4 6 0z" />
    <glyph glyph-name="star" unicode="Star" horiz-adv-x="576" 
d="M528 276q20 -2 26 -21t-8 -33l-106 -103l25 -146q3 -19 -13 -30.5t-33 -2.5l-131 68l-131 -68q-17 -10 -33 2t-13 31l25 146l-106 103q-14 14 -8 33t26 21l146 22l65 132q9 18 29 18t29 -18l65 -132zM389 136l100 98l-139 20l-62 126l-62 -126l-139 -20l100 -98l-23 -139
l124 66l124 -66z" />
    <glyph glyph-name="user" unicode="User" horiz-adv-x="448" 
d="M314 144q55 0 94.5 -39.5t39.5 -94.5v-26q0 -20 -14 -34t-34 -14h-352q-20 0 -34 14t-14 34v26q0 55 39.5 94.5t94.5 39.5q13 0 38.5 -8t51.5 -8t52 8t38 8zM400 -16v26q0 35 -25.5 60.5t-60.5 25.5q-3 0 -31.5 -8t-58.5 -8t-58.5 8t-31.5 8q-35 0 -60.5 -25.5
t-25.5 -60.5v-26h352zM224 160q-60 0 -102 42t-42 102t42 102t102 42t102 -42t42 -102t-42 -102t-102 -42zM224 400q-40 0 -68 -28t-28 -68t28 -68t68 -28t68 28t28 68t-28 68t-68 28z" />
    <glyph glyph-name="clock" unicode="Clock" 
d="M256 440q103 0 175.5 -72.5t72.5 -175.5t-72.5 -175.5t-175.5 -72.5t-175.5 72.5t-72.5 175.5t72.5 175.5t175.5 72.5zM256 -8q83 0 141.5 58.5t58.5 141.5t-58.5 141.5t-141.5 58.5t-141.5 -58.5t-58.5 -141.5t58.5 -141.5t141.5 -58.5zM318 96l-85 62q-5 4 -5 10v164
q0 12 12 12h32q12 0 12 -12v-142l67 -48q9 -7 2 -17l-18 -26q-7 -10 -17 -3z" />
    <glyph glyph-name="list-alt" unicode="List&#x2d;Alt" 
d="M464 416q20 0 34 -14t14 -34v-352q0 -20 -14 -34t-34 -14h-416q-20 0 -34 14t-14 34v352q0 20 14 34t34 14h416zM458 16q6 0 6 6v340q0 6 -6 6h-404q-6 0 -6 -6v-340q0 -6 6 -6h404zM416 108v-24q0 -12 -12 -12h-200q-12 0 -12 12v24q0 12 12 12h200q12 0 12 -12z
M416 204v-24q0 -12 -12 -12h-200q-12 0 -12 12v24q0 12 12 12h200q12 0 12 -12zM416 300v-24q0 -12 -12 -12h-200q-12 0 -12 12v24q0 12 12 12h200q12 0 12 -12zM164 288q0 -15 -10.5 -25.5t-25.5 -10.5t-25.5 10.5t-10.5 25.5t10.5 25.5t25.5 10.5t25.5 -10.5t10.5 -25.5z
M164 192q0 -15 -10.5 -25.5t-25.5 -10.5t-25.5 10.5t-10.5 25.5t10.5 25.5t25.5 10.5t25.5 -10.5t10.5 -25.5zM164 96q0 -15 -10.5 -25.5t-25.5 -10.5t-25.5 10.5t-10.5 25.5t10.5 25.5t25.5 10.5t25.5 -10.5t10.5 -25.5z" />
    <glyph glyph-name="flag" unicode="Flag" 
d="M336 368q44 0 109 28q24 10 45.5 -4t21.5 -40v-240q0 -26 -22 -40q-61 -40 -128 -40q-37 0 -88.5 16t-73.5 16q-65 0 -128 -29v-83q0 -7 -4.5 -11.5t-11.5 -4.5h-16q-7 0 -11.5 4.5t-4.5 11.5v406q-24 14 -24 42q0 21 15 35t36 13q17 -1 30 -13t15 -29v-6q0 -8 -2 -15
q39 15 80 15q37 0 88.5 -16t73.5 -16zM464 112v240q-69 -32 -128 -32q-30 0 -81 16t-81 16q-57 0 -102 -32v-232q52 24 128 24q30 0 81 -16t81 -16q57 0 102 32z" />
    <glyph glyph-name="bookmark" unicode="Bookmark" horiz-adv-x="384" 
d="M336 448q20 0 34 -14t14 -34v-464l-192 112l-192 -112v464q0 20 14 34t34 14h288zM336 20v374q0 6 -6 6h-276q-6 0 -6 -6v-374l144 84z" />
    <glyph glyph-name="image" unicode="Image" 
d="M464 384q20 0 34 -14t14 -34v-288q0 -20 -14 -34t-34 -14h-416q-20 0 -34 14t-14 34v288q0 20 14 34t34 14h416zM458 48q6 0 6 6v276q0 6 -6 6h-404q-6 0 -6 -6v-276q0 -6 6 -6h404zM128 296q17 0 28.5 -11.5t11.5 -28.5t-11.5 -28.5t-28.5 -11.5t-28.5 11.5t-11.5 28.5
t11.5 28.5t28.5 11.5zM96 96v48l40 40q8 8 16 0l40 -40l120 120q8 8 16 0l88 -88v-80h-320z" />
    <glyph glyph-name="edit" unicode="Edit" horiz-adv-x="576" 
d="M402 103l32 32q4 4 9 2t5 -8v-145q0 -20 -14 -34t-34 -14h-352q-20 0 -34 14t-14 34v352q0 20 14 34t34 14h274q5 0 7 -5t-2 -9l-32 -32q-2 -2 -5 -2h-242v-352h352v114q0 3 2 5zM559 305l-263 -263l-90 -10q-20 -2 -34 12t-12 34l10 90l263 263q17 17 41 17t42 -17
l43 -43q17 -17 17 -41.5t-17 -41.5zM460 274l-58 58l-186 -186l-7 -65l65 7zM525 354l-43 43q-8 7 -15 0l-31 -31l58 -58l31 31q7 7 0 15z" />
    <glyph glyph-name="times-circle" unicode="Times&#x2d;Circle" 
d="M256 440q103 0 175.5 -72.5t72.5 -175.5t-72.5 -175.5t-175.5 -72.5t-175.5 72.5t-72.5 175.5t72.5 175.5t175.5 72.5zM256 -8q83 0 141.5 58.5t58.5 141.5t-58.5 141.5t-141.5 58.5t-141.5 -58.5t-58.5 -141.5t58.5 -141.5t141.5 -58.5zM358 254l-62 -62l62 -62
q8 -9 0 -17l-23 -23q-8 -8 -17 0l-62 62l-62 -62q-9 -8 -17 0l-23 23q-8 8 0 17l62 62l-62 62q-8 9 0 17l23 23q8 8 17 0l62 -62l62 62q9 8 17 0l23 -23q8 -8 0 -17z" />
    <glyph glyph-name="check-circle" unicode="Check&#x2d;Circle" 
d="M256 440q103 0 175.5 -72.5t72.5 -175.5t-72.5 -175.5t-175.5 -72.5t-175.5 72.5t-72.5 175.5t72.5 175.5t175.5 72.5zM256 392q-83 0 -141.5 -58.5t-58.5 -141.5t58.5 -141.5t141.5 -58.5t141.5 58.5t58.5 141.5t-58.5 141.5t-141.5 58.5zM396 262q9 -9 0 -17l-172 -171
q-9 -9 -17 0l-91 91q-9 9 0 17l23 23q8 8 17 0l59 -61l142 141q8 8 17 -1z" />
    <glyph glyph-name="question-circle" unicode="Question&#x2d;Circle" 
d="M256 440q103 0 175.5 -72.5t72.5 -175.5t-72.5 -175.5t-175.5 -72.5t-175.5 72.5t-72.5 175.5t72.5 175.5t175.5 72.5zM256 -8q83 0 141.5 58.5t58.5 141.5t-58.5 141.5t-141.5 58.5t-141.5 -58.5t-58.5 -141.5t58.5 -141.5t141.5 -58.5zM363 247q0 -23 -11 -39t-25 -23
t-25 -15t-11 -16v-6q0 -5 -3.5 -8.5t-8.5 -3.5h-46q-5 0 -8.5 3.5t-3.5 8.5v9q0 16 9 29.5t16.5 18.5t22.5 13q15 9 21.5 15t6.5 15q0 12 -12.5 20t-27.5 8q-16 0 -26 -6.5t-23 -23.5q-7 -9 -16 -2l-28 21q-9 7 -3 17q37 54 101 54q38 0 69.5 -26t31.5 -63zM298 80
q0 -17 -12.5 -29.5t-29.5 -12.5t-29.5 12.5t-12.5 29.5t12.5 29.5t29.5 12.5t29.5 -12.5t12.5 -29.5z" />
    <glyph glyph-name="eye" unicode="Eye" horiz-adv-x="576" 
d="M288 304q47 0 79.5 -32.5t32.5 -79t-32.5 -79t-79 -32.5t-79 32.5t-32.5 78.5q0 16 4 31q13 -7 27 -7q23 0 39.5 16.5t16.5 39.5q0 14 -7 27q15 5 31 5zM573 207q3 -7 3 -15t-3 -15q-42 -80 -118 -128.5t-167 -48.5t-167 48.5t-118 128.5q-3 7 -3 15t3 15
q42 80 118 128.5t167 48.5t167 -48.5t118 -128.5zM288 48q74 0 137.5 38.5t100.5 105.5q-37 67 -100.5 105.5t-137.5 38.5t-137.5 -38.5t-100.5 -105.5q37 -67 100.5 -105.5t137.5 -38.5z" />
    <glyph glyph-name="eye-slash" unicode="Eye&#x2d;Slash" horiz-adv-x="640" 
d="M634 -23q6 -5 6 -12q0 -6 -4 -11l-10 -12q-4 -6 -12 -6q-6 0 -10 4l-598 467q-6 5 -6 12q0 6 4 11l10 12q4 6 12 6q6 0 10 -4zM297 302q11 2 23 2q45 0 77.5 -31.5t34.5 -76.5zM343 82q-11 -2 -23 -2q-45 0 -77.5 31.5t-34.5 76.5zM320 336q-27 0 -58 -7l-47 36
q53 19 105 19q91 0 167 -48.5t118 -128.5q3 -7 3 -15t-3 -15q-22 -41 -53 -75l-38 30q26 27 44 60q-37 67 -100.5 105.5t-137.5 38.5zM320 48q27 0 58 7l47 -36q-53 -19 -105 -19q-91 0 -167 48.5t-118 128.5q-3 7 -3 15t3 15q22 41 53 75l38 -30q-26 -27 -44 -60
q37 -67 100.5 -105.5t137.5 -38.5z" />
    <glyph glyph-name="calendar-alt" unicode="Calendar&#x2d;Alt" horiz-adv-x="448" 
d="M148 160h-40q-12 0 -12 12v40q0 12 12 12h40q12 0 12 -12v-40q0 -12 -12 -12zM256 172q0 -12 -12 -12h-40q-12 0 -12 12v40q0 12 12 12h40q12 0 12 -12v-40zM352 172q0 -12 -12 -12h-40q-12 0 -12 12v40q0 12 12 12h40q12 0 12 -12v-40zM256 76q0 -12 -12 -12h-40
q-12 0 -12 12v40q0 12 12 12h40q12 0 12 -12v-40zM160 76q0 -12 -12 -12h-40q-12 0 -12 12v40q0 12 12 12h40q12 0 12 -12v-40zM352 76q0 -12 -12 -12h-40q-12 0 -12 12v40q0 12 12 12h40q12 0 12 -12v-40zM448 336v-352q0 -20 -14 -34t-34 -14h-352q-20 0 -34 14t-14 34
v352q0 20 14 34t34 14h48v52q0 12 12 12h40q12 0 12 -12v-52h128v52q0 12 12 12h40q12 0 12 -12v-52h48q20 0 34 -14t14 -34zM400 -10v298h-352v-298q0 -6 6 -6h340q6 0 6 6z" />
    <glyph glyph-name="comment" unicode="Comment" 
d="M256 416q106 0 181 -61t75 -147t-75 -147t-181 -61q-47 0 -93 14q-65 -46 -139 -46q-16 0 -22 14.5t4 25.5q2 2 9.5 10.5t19 27t18.5 36.5q-53 56 -53 126q0 86 75 147t181 61zM256 48q86 0 147 47t61 113t-61 113t-147 47t-147 -47t-61 -113q0 -51 40 -93l20 -22
l-10 -28q-8 -20 -20 -41q30 10 57 30l20 13l23 -7q38 -12 78 -12z" />
    <glyph glyph-name="folder" unicode="Folder" 
d="M464 320q20 0 34 -14t14 -34v-224q0 -20 -14 -34t-34 -14h-416q-20 0 -34 14t-14 34v288q0 20 14 34t34 14h147q13 0 22 -9l55 -55h192zM464 48v224h-199q-13 0 -22 9l-55 55h-140v-288h416z" />
    <glyph glyph-name="folder-open" unicode="Folder&#x2d;Open" horiz-adv-x="576" 
d="M528 224q28 0 42 -24.5t-1 -48.5l-80 -128q-14 -23 -41 -23h-400q-20 0 -34 14t-14 34v288q0 20 14 34t34 14h160l64 -64h160q20 0 34 -14t14 -34v-48h48zM48 330v-233l63 104q14 23 41 23h280v42q0 6 -6 6h-174l-64 64h-134q-6 0 -6 -6zM448 48l80 128h-379l-77 -128
h376z" />
    <glyph glyph-name="chart-bar" unicode="Chart&#x2d;Bar" 
d="M397 96q-5 0 -9 4t-4 9v230q0 5 4 9t9 4h22q5 0 9 -4t4 -9v-230q0 -5 -4 -9t-9 -4h-22zM205 96q-5 0 -9 4t-4 9v198q0 5 4 9t9 4h22q5 0 9 -4t4 -9v-198q0 -5 -4 -9t-9 -4h-22zM301 96q-5 0 -9 4t-4 9v134q0 5 4 9t9 4h22q5 0 9 -4t4 -9v-134q0 -5 -4 -9t-9 -4h-22z
M496 48q7 0 11.5 -4.5t4.5 -11.5v-16q0 -7 -4.5 -11.5t-11.5 -4.5h-464q-13 0 -22.5 9.5t-9.5 22.5v336q0 7 4.5 11.5t11.5 4.5h16q7 0 11.5 -4.5t4.5 -11.5v-320h448zM109 96q-5 0 -9 4t-4 9v70q0 5 4 9t9 4h22q5 0 9 -4t4 -9v-70q0 -5 -4 -9t-9 -4h-22z" />
    <glyph glyph-name="comments" unicode="Comments" horiz-adv-x="576" 
d="M532 62q7 -14 16.5 -27.5t15 -20t6.5 -7.5q10 -11 4 -25t-21 -14q-65 0 -125 39q-30 -7 -60 -7q-64 0 -115.5 27t-75.5 71q-15 2 -29 5q-59 -39 -125 -39q-15 0 -21 14t4 25q21 20 38 55q-44 43 -44 98q0 66 61 113t147 47q64 0 116 -27t76 -71q75 -9 125.5 -53.5
t50.5 -104.5q0 -55 -44 -98zM139 154l20 -4q24 -6 49 -6q65 0 112.5 33t47.5 79t-47.5 79t-112.5 33t-112.5 -33t-47.5 -79q0 -35 30 -64l24 -24l-15 -32l-8 -14q22 7 43 21zM498 96q30 29 30 64q0 36 -32 65.5t-81 40.5q1 -8 1 -10q0 -60 -51.5 -105t-127.5 -53
q49 -50 131 -50q25 0 49 6l20 4l17 -11q21 -14 43 -21l-8 14l-15 32z" />
    <glyph glyph-name="star-half" unicode="Star&#x2d;Half" horiz-adv-x="576" 
d="M288 63v-55l-131 -68q-17 -9 -33 2.5t-13 31.5l25 145l-106 103q-14 14 -8 33t26 22l146 21l65 132q9 18 29 18v-68l-62 -126l-139 -20l100 -98l-23 -139z" />
    <glyph glyph-name="lemon" unicode="Lemon" 
d="M484 420q21 -21 26.5 -48t-7.5 -49q-4 -8 -5 -26.5t3 -38.5t2 -48t-7 -56t-24.5 -62t-50.5 -65t-65 -50t-62 -24.5t-56 -7.5t-48 2t-38.5 3t-26.5 -5q-22 -13 -49 -7.5t-48 26.5t-26.5 48t7.5 49q4 8 5 26.5t-3 38.5t-2 48t7 56t24.5 62t50.5 65t65 50t62 24.5t56 7.5
t48 -2t38.5 -3t26.5 5q22 13 49 7.5t48 -26.5zM462 347q10 18 -12 39.5t-39 11.5q-17 -11 -42.5 -11.5t-52.5 2.5t-57 1.5t-65 -17.5t-69 -50t-50 -69t-17.5 -65t1.5 -57t2.5 -52.5t-11.5 -42.5q-10 -18 12 -39.5t39 -11.5q17 11 42.5 11.5t52.5 -2.5t57 -1.5t65 17.5t69 50
t50 69t17.5 65t-1.5 57t-2.5 52.5t11.5 42.5zM292 338.5q1 -8.5 -4 -15t-14 -7.5q-41 -5 -89 -53t-53 -89q-1 -9 -7.5 -14t-15 -4t-13.5 7.5t-4 14.5q7 55 65 113t113 65q8 1 14.5 -4t7.5 -13.5z" />
    <glyph glyph-name="credit-card" unicode="Credit&#x2d;Card" horiz-adv-x="576" 
d="M528 416q20 0 34 -14t14 -34v-352q0 -20 -14 -34t-34 -14h-480q-20 0 -34 14t-14 34v352q0 20 14 34t34 14h480zM54 368q-6 0 -6 -6v-42h480v42q0 6 -6 6h-468zM522 16q6 0 6 6v170h-480v-170q0 -6 6 -6h468zM192 116v-40q0 -12 -12 -12h-72q-12 0 -12 12v40q0 12 12 12
h72q12 0 12 -12zM384 116v-40q0 -12 -12 -12h-136q-12 0 -12 12v40q0 12 12 12h136q12 0 12 -12z" />
    <glyph glyph-name="hdd" unicode="Hdd" horiz-adv-x="576" 
d="M567 212q9 -12 9 -27v-137q0 -20 -14 -34t-34 -14h-480q-20 0 -34 14t-14 34v137q0 15 9 27l105 151q6 9 17.5 15t21.5 6h270q10 0 21.5 -6t17.5 -15zM153 336l-78 -112h426l-78 112h-270zM528 48v128h-480v-128h480zM496 112q0 -13 -9.5 -22.5t-22.5 -9.5t-22.5 9.5
t-9.5 22.5t9.5 22.5t22.5 9.5t22.5 -9.5t9.5 -22.5zM400 112q0 -13 -9.5 -22.5t-22.5 -9.5t-22.5 9.5t-9.5 22.5t9.5 22.5t22.5 9.5t22.5 -9.5t9.5 -22.5z" />
    <glyph glyph-name="hand-point-right" unicode="Hand&#x2d;Point&#x2d;Right" 
d="M429 310q34 0 58.5 -24.5t24.5 -58.5t-24.5 -58.5t-58.5 -24.5h-36q-2 -12 -8 -22q4 -34 -16 -63q-1 -40 -27.5 -65.5t-72.5 -25.5h-21q-34 0 -75.5 20t-51.5 20h-3q-9 -8 -22 -8h-64q-13 0 -22.5 8.5t-9.5 20.5v230q0 12 9.5 20.5t22.5 8.5h64q13 0 22 -8h3q9 0 30 24v0
q17 19 26 33q4 6 13 24t15 27.5t19 18.5t29 9q42 0 67 -23.5t25 -59.5q0 -12 -2 -23h86zM429 192q14 0 24.5 10.5t10.5 24.5t-10.5 24.5t-24.5 10.5h-159q0 7 13.5 29t13.5 42q0 35 -44 35q-4 0 -9 -8.5t-13 -24t-13 -23.5q-11 -18 -31 -40q-32 -36 -59 -40v-176
q20 -2 58 -21t62 -19h21q61 0 51 61q12 7 16.5 23t-3.5 31q14 13 14.5 32t-9.5 29h91zM88 64q0 10 -7 17t-17 7t-17 -7t-7 -17t7 -17t17 -7t17 7t7 17z" />
    <glyph glyph-name="hand-point-left" unicode="Hand&#x2d;Point&#x2d;Left" 
d="M0 227q0 34 24.5 58.5t58.5 24.5h86q-2 11 -2 23q0 36 25 59.5t67 23.5q16 0 29 -9t19 -18.5t15 -27.5t13 -24q9 -14 26 -33v0q21 -24 30 -24h3q9 8 22 8h64q13 0 22.5 -8.5t9.5 -20.5v-230q0 -12 -9.5 -20.5t-22.5 -8.5h-64q-13 0 -22 8h-3q-10 0 -51.5 -20t-75.5 -20
h-21q-46 0 -72.5 25.5t-27.5 65.5q-20 29 -16 63q-6 10 -8 22h-36q-34 0 -58.5 24.5t-24.5 58.5zM48 227q0 -14 10.5 -24.5t24.5 -10.5h91q-10 -10 -9.5 -29t14.5 -32q-8 -15 -3.5 -31t16.5 -23q-10 -61 51 -61h21q24 0 62 19t58 21v176q-27 4 -59 40q-20 22 -31 40
q-5 8 -13 23.5t-13 24t-9 8.5q-44 0 -44 -35q0 -20 13.5 -42t13.5 -29h-159q-14 0 -24.5 -10.5t-10.5 -24.5zM448 88q-10 0 -17 -7t-7 -17t7 -17t17 -7t17 7t7 17t-7 17t-17 7z" />
    <glyph glyph-name="hand-point-up" unicode="Hand&#x2d;Point&#x2d;Up" horiz-adv-x="448" 
d="M106 365q0 34 24.5 58.5t58.5 24.5t58.5 -24.5t24.5 -58.5v-36q12 -2 22 -8q34 4 63 -16q40 -1 65.5 -27.5t25.5 -72.5v-21q0 -34 -20 -75.5t-20 -51.5v-3q8 -9 8 -22v-64q0 -13 -8.5 -22.5t-20.5 -9.5h-230q-12 0 -20.5 9.5t-8.5 22.5v64q0 13 8 22v3q0 9 -24 30v0
q-19 17 -33 26q-6 4 -24 13t-27.5 15t-18.5 19t-9 29q0 42 23.5 67t59.5 25q12 0 23 -2v86zM224 365q0 14 -10.5 24.5t-24.5 10.5t-24.5 -10.5t-10.5 -24.5v-159q-7 0 -29 13.5t-42 13.5q-35 0 -35 -44q0 -4 8.5 -9t24 -13t23.5 -13q18 -11 40 -31q36 -32 40 -59h176
q2 20 21 58t19 62v21q0 61 -61 51q-7 12 -23 16.5t-31 -3.5q-13 14 -32 14.5t-29 -9.5v91zM352 24q-10 0 -17 -7t-7 -17t7 -17t17 -7t17 7t7 17t-7 17t-17 7z" />
    <glyph glyph-name="hand-point-down" unicode="Hand&#x2d;Point&#x2d;Down" horiz-adv-x="448" 
d="M189 -64q-34 0 -58.5 24.5t-24.5 58.5v86q-11 -2 -23 -2q-36 0 -59.5 25t-23.5 67q0 16 9 29t18.5 19t27.5 15t24 13q14 9 33 26v0q24 21 24 30v3q-8 9 -8 22v64q0 13 8.5 22.5t20.5 9.5h230q12 0 20.5 -9.5t8.5 -22.5v-64q0 -13 -8 -22v-3q0 -10 20 -51.5t20 -75.5v-21
q0 -46 -25.5 -72.5t-65.5 -27.5q-29 -20 -63 -16q-10 -6 -22 -8v-36q0 -34 -24.5 -58.5t-58.5 -24.5zM189 -16q14 0 24.5 10.5t10.5 24.5v91q10 -10 29 -9.5t32 14.5q15 -8 31 -3.5t23 16.5q61 -10 61 51v21q0 24 -19 62t-21 58h-176q-4 -27 -40 -59q-22 -20 -40 -31
q-8 -5 -23.5 -13t-24 -13t-8.5 -9q0 -44 35 -44q20 0 42 13.5t29 13.5v-159q0 -14 10.5 -24.5t24.5 -10.5zM328 384q0 -10 7 -17t17 -7t17 7t7 17t-7 17t-17 7t-17 -7t-7 -17z" />
    <glyph glyph-name="copy" unicode="Copy" horiz-adv-x="448" 
d="M434 382q14 -14 14 -34v-268q0 -20 -14 -34t-34 -14h-80v-48q0 -20 -14 -34t-34 -14h-224q-20 0 -34 14t-14 34v320q0 20 14 34t34 14h80v48q0 20 14 34t34 14h172q20 0 34 -14zM266 -16q6 0 6 6v42h-96q-20 0 -34 14t-14 34v224h-74q-6 0 -6 -6v-308q0 -6 6 -6h212z
M394 80q6 0 6 6v202h-88q-10 0 -17 7t-7 17v88h-106q-6 0 -6 -6v-308q0 -6 6 -6h212zM400 336v10q0 2 -2 4l-48 48q-2 2 -4 2h-10v-64h64z" />
    <glyph glyph-name="save" unicode="Save" horiz-adv-x="448" 
d="M434 318q14 -14 14 -34v-268q0 -20 -14 -34t-34 -14h-352q-20 0 -34 14t-14 34v352q0 20 14 34t34 14h268q20 0 34 -14zM272 368h-128v-80h128v80zM394 16q6 0 6 6v260q0 2 -2 4l-78 78v-100q0 -10 -7 -17t-17 -7h-176q-10 0 -17 7t-7 17v104h-42q-6 0 -6 -6v-340
q0 -6 6 -6h340zM224 216q36 0 62 -26t26 -62t-26 -62t-62 -26t-62 26t-26 62t26 62t62 26zM224 88q17 0 28.5 11.5t11.5 28.5t-11.5 28.5t-28.5 11.5t-28.5 -11.5t-11.5 -28.5t11.5 -28.5t28.5 -11.5z" />
    <glyph glyph-name="square" unicode="Square" horiz-adv-x="448" 
d="M400 416q20 0 34 -14t14 -34v-352q0 -20 -14 -34t-34 -14h-352q-20 0 -34 14t-14 34v352q0 20 14 34t34 14h352zM394 16q6 0 6 6v340q0 6 -6 6h-340q-6 0 -6 -6v-340q0 -6 6 -6h340z" />
    <glyph glyph-name="envelope" unicode="Envelope" 
d="M464 384q20 0 34 -14t14 -34v-288q0 -20 -14 -34t-34 -14h-416q-20 0 -34 14t-14 34v288q0 20 14 34t34 14h416zM464 336h-416v-41l135 -106q0 -1 14 -12.5t21 -16t18.5 -10.5t19.5 -6t19.5 6t18.5 10.5t21 16t14 12.5l135 106v41zM48 48h416v186l-105 -83
q-2 -1 -14.5 -12t-19.5 -16t-20 -12.5t-25 -11t-24 -3.5t-24.5 3.5t-25 11.5t-19.5 13t-19.5 15.5t-14.5 11.5l-105 83v-186z" />
    <glyph glyph-name="lightbulb" unicode="Lightbulb" horiz-adv-x="352" 
d="M176 368q7 0 11.5 -4.5t4.5 -11.5t-4.5 -11.5t-11.5 -4.5q-26 0 -45 -19t-19 -45q0 -7 -4.5 -11.5t-11.5 -4.5t-11.5 4.5t-4.5 11.5q0 40 28 68t68 28zM96 -11v43h160v-43q0 -5 -3 -9l-24 -37q-5 -7 -14 -7h-78q-9 0 -14 7l-24 37q-3 4 -3 9zM176 448q73 0 124.5 -51.5
t51.5 -124.5q0 -66 -44 -116q-14 -16 -29.5 -42.5t-22.5 -49.5h-48q0 7 2 14q19 61 62 110q32 36 32 84q0 53 -37.5 90.5t-90.5 37.5q-52 0 -90 -37t-38 -91q0 -48 32 -84q43 -49 62 -110q2 -7 2 -14h-48q-7 23 -22.5 49.5t-29.5 42.5q-44 50 -44 116q0 71 50.5 123.5
t125.5 52.5z" />
    <glyph glyph-name="bell" unicode="Bell" horiz-adv-x="448" 
d="M439 86q9 -10 9 -22q0 -13 -9 -22.5t-23 -9.5h-384q-14 0 -23 9.5t-9 22.5q0 12 9 22q1 1 3 4q15 15 23.5 27t18.5 45.5t10 77.5q0 58 36 101t92 54v21q0 13 9.5 22.5t22.5 9.5t22.5 -9.5t9.5 -22.5v-21q56 -11 92 -54t36 -101q0 -44 10 -77.5t18.5 -45.5t23.5 -27
q2 -3 3 -4zM68 80h312q-44 59 -44 159v1q0 46 -33 79t-79 33t-79 -33t-33 -79v-1q0 -100 -44 -159zM224 -64q-26 0 -45 18.5t-19 45.5h128q0 -27 -19 -45.5t-45 -18.5z" />
    <glyph glyph-name="hospital" unicode="Hospital" horiz-adv-x="448" 
d="M128 204v40q0 12 12 12h40q12 0 12 -12v-40q0 -12 -12 -12h-40q-12 0 -12 12zM268 192q-12 0 -12 12v40q0 12 12 12h40q12 0 12 -12v-40q0 -12 -12 -12h-40zM192 108q0 -12 -12 -12h-40q-12 0 -12 12v40q0 12 12 12h40q12 0 12 -12v-40zM268 96q-12 0 -12 12v40
q0 12 12 12h40q12 0 12 -12v-40q0 -12 -12 -12h-40zM448 -28v-36h-448v36q0 12 12 12h20v379q0 9 7 15t17 6h88v40q0 10 7 17t17 7h112q10 0 17 -7t7 -17v-40h88q10 0 17 -6t7 -15v-379h20q12 0 12 -12zM80 -15h112v67q0 12 12 12h40q12 0 12 -12v-67h112v351h-64v-24
q0 -10 -7 -17t-17 -7h-112q-10 0 -17 7t-7 17v24h-64v-351zM266 384h-26v26q0 6 -6 6h-20q-6 0 -6 -6v-26h-26q-6 0 -6 -6v-20q0 -6 6 -6h26v-26q0 -6 6 -6h20q6 0 6 6v26h26q6 0 6 6v20q0 6 -6 6z" />
    <glyph glyph-name="plus-square" unicode="Plus&#x2d;Square" horiz-adv-x="448" 
d="M352 208v-32q0 -12 -12 -12h-88v-88q0 -12 -12 -12h-32q-12 0 -12 12v88h-88q-12 0 -12 12v32q0 12 12 12h88v88q0 12 12 12h32q12 0 12 -12v-88h88q12 0 12 -12zM448 368v-352q0 -20 -14 -34t-34 -14h-352q-20 0 -34 14t-14 34v352q0 20 14 34t34 14h352q20 0 34 -14
t14 -34zM400 22v340q0 6 -6 6h-340q-6 0 -6 -6v-340q0 -6 6 -6h340q6 0 6 6z" />
    <glyph glyph-name="circle" unicode="Circle" 
d="M256 440q103 0 175.5 -72.5t72.5 -175.5t-72.5 -175.5t-175.5 -72.5t-175.5 72.5t-72.5 175.5t72.5 175.5t175.5 72.5zM256 -8q83 0 141.5 58.5t58.5 141.5t-58.5 141.5t-141.5 58.5t-141.5 -58.5t-58.5 -141.5t58.5 -141.5t141.5 -58.5z" />
    <glyph glyph-name="smile" unicode="Smile" horiz-adv-x="496" 
d="M248 440q103 0 175.5 -72.5t72.5 -175.5t-72.5 -175.5t-175.5 -72.5t-175.5 72.5t-72.5 175.5t72.5 175.5t175.5 72.5zM248 -8q83 0 141.5 58.5t58.5 141.5t-58.5 141.5t-141.5 58.5t-141.5 -58.5t-58.5 -141.5t58.5 -141.5t141.5 -58.5zM168 208q-13 0 -22.5 9.5
t-9.5 22.5t9.5 22.5t22.5 9.5t22.5 -9.5t9.5 -22.5t-9.5 -22.5t-22.5 -9.5zM328 208q-13 0 -22.5 9.5t-9.5 22.5t9.5 22.5t22.5 9.5t22.5 -9.5t9.5 -22.5t-9.5 -22.5t-22.5 -9.5zM332 135q6 8 16 9t17.5 -5.5t8.5 -16.5t-5 -17q-47 -57 -121 -57t-121 57q-6 7 -5 17
t8.5 16.5t17.5 5.5t16 -9q33 -39 84 -39t84 39z" />
    <glyph glyph-name="frown" unicode="Frown" horiz-adv-x="496" 
d="M248 440q103 0 175.5 -72.5t72.5 -175.5t-72.5 -175.5t-175.5 -72.5t-175.5 72.5t-72.5 175.5t72.5 175.5t175.5 72.5zM248 -8q83 0 141.5 58.5t58.5 141.5t-58.5 141.5t-141.5 58.5t-141.5 -58.5t-58.5 -141.5t58.5 -141.5t141.5 -58.5zM168 208q-13 0 -22.5 9.5
t-9.5 22.5t9.5 22.5t22.5 9.5t22.5 -9.5t9.5 -22.5t-9.5 -22.5t-22.5 -9.5zM328 272q13 0 22.5 -9.5t9.5 -22.5t-9.5 -22.5t-22.5 -9.5t-22.5 9.5t-9.5 22.5t9.5 22.5t22.5 9.5zM248 144q63 0 104 -49q6 -7 5 -17t-8 -16q-8 -7 -18 -6t-16 9q-26 31 -67 31t-67 -31
q-6 -8 -16 -9t-17.5 5.5t-8.5 16.5t5 17q41 49 104 49z" />
    <glyph glyph-name="meh" unicode="Meh" horiz-adv-x="496" 
d="M248 440q103 0 175.5 -72.5t72.5 -175.5t-72.5 -175.5t-175.5 -72.5t-175.5 72.5t-72.5 175.5t72.5 175.5t175.5 72.5zM248 -8q83 0 141.5 58.5t58.5 141.5t-58.5 141.5t-141.5 58.5t-141.5 -58.5t-58.5 -141.5t58.5 -141.5t141.5 -58.5zM168 208q-13 0 -22.5 9.5
t-9.5 22.5t9.5 22.5t22.5 9.5t22.5 -9.5t9.5 -22.5t-9.5 -22.5t-22.5 -9.5zM328 272q13 0 22.5 -9.5t9.5 -22.5t-9.5 -22.5t-22.5 -9.5t-22.5 9.5t-9.5 22.5t9.5 22.5t22.5 9.5zM336 128q10 0 17 -7t7 -17t-7 -17t-17 -7h-176q-10 0 -17 7t-7 17t7 17t17 7h176z" />
    <glyph glyph-name="keyboard" unicode="Keyboard" horiz-adv-x="576" 
d="M528 384q20 0 34 -14t14 -34v-288q0 -20 -14 -34t-34 -14h-480q-20 0 -34 14t-14 34v288q0 20 14 34t34 14h480zM536 48v288q0 8 -8 8h-480q-8 0 -8 -8v-288q0 -8 8 -8h480q8 0 8 8zM170 178q0 -12 -12 -12h-28q-12 0 -12 12v28q0 12 12 12h28q12 0 12 -12v-28zM266 178
q0 -12 -12 -12h-28q-12 0 -12 12v28q0 12 12 12h28q12 0 12 -12v-28zM362 178q0 -12 -12 -12h-28q-12 0 -12 12v28q0 12 12 12h28q12 0 12 -12v-28zM458 178q0 -12 -12 -12h-28q-12 0 -12 12v28q0 12 12 12h28q12 0 12 -12v-28zM122 96q0 -12 -12 -12h-28q-12 0 -12 12v28
q0 12 12 12h28q12 0 12 -12v-28zM506 96q0 -12 -12 -12h-28q-12 0 -12 12v28q0 12 12 12h28q12 0 12 -12v-28zM122 260q0 -12 -12 -12h-28q-12 0 -12 12v28q0 12 12 12h28q12 0 12 -12v-28zM218 260q0 -12 -12 -12h-28q-12 0 -12 12v28q0 12 12 12h28q12 0 12 -12v-28z
M314 260q0 -12 -12 -12h-28q-12 0 -12 12v28q0 12 12 12h28q12 0 12 -12v-28zM410 260q0 -12 -12 -12h-28q-12 0 -12 12v28q0 12 12 12h28q12 0 12 -12v-28zM506 260q0 -12 -12 -12h-28q-12 0 -12 12v28q0 12 12 12h28q12 0 12 -12v-28zM408 102q0 -12 -12 -12h-216
q-12 0 -12 12v16q0 12 12 12h216q12 0 12 -12v-16z" />
    <glyph glyph-name="calendar" unicode="Calendar" horiz-adv-x="448" 
d="M400 384q20 0 34 -14t14 -34v-352q0 -20 -14 -34t-34 -14h-352q-20 0 -34 14t-14 34v352q0 20 14 34t34 14h48v52q0 12 12 12h40q12 0 12 -12v-52h128v52q0 12 12 12h40q12 0 12 -12v-52h48zM394 -16q6 0 6 6v298h-352v-298q0 -6 6 -6h340z" />
    <glyph glyph-name="play-circle" unicode="Play&#x2d;Circle" 
d="M372 210q12 -7 12 -21t-12 -21l-176 -101q-12 -7 -24 0t-12 21v208q0 14 12 21t24 0zM504 192q0 -103 -72.5 -175.5t-175.5 -72.5t-175.5 72.5t-72.5 175.5t72.5 175.5t175.5 72.5t175.5 -72.5t72.5 -175.5zM56 192q0 -83 58.5 -141.5t141.5 -58.5t141.5 58.5t58.5 141.5
t-58.5 141.5t-141.5 58.5t-141.5 -58.5t-58.5 -141.5z" />
    <glyph glyph-name="minus-square" unicode="Minus&#x2d;Square" horiz-adv-x="448" 
d="M108 164q-12 0 -12 12v32q0 12 12 12h232q12 0 12 -12v-32q0 -12 -12 -12h-232zM448 368v-352q0 -20 -14 -34t-34 -14h-352q-20 0 -34 14t-14 34v352q0 20 14 34t34 14h352q20 0 34 -14t14 -34zM400 22v340q0 6 -6 6h-340q-6 0 -6 -6v-340q0 -6 6 -6h340q6 0 6 6z" />
    <glyph glyph-name="check-square" unicode="Check&#x2d;Square" horiz-adv-x="448" 
d="M400 416q20 0 34 -14t14 -34v-352q0 -20 -14 -34t-34 -14h-352q-20 0 -34 14t-14 34v352q0 20 14 34t34 14h352zM400 16v352h-352v-352h352zM364 258l-172 -171q-9 -9 -17 0l-91 91q-9 9 0 17l23 23q8 8 17 0l59 -61l142 140q8 9 17 0l22 -22q9 -9 0 -17z" />
    <glyph glyph-name="share-square" unicode="Share&#x2d;Square" horiz-adv-x="576" 
d="M562 290q14 -14 14 -34t-14 -34l-144 -144q-23 -23 -52.5 -10.5t-29.5 44.5v54q-49 -4 -70.5 -13.5t-21.5 -25.5t8 -40q11 -32 -16 -52.5t-55 -3.5q-40 25 -62.5 62.5t-22.5 82.5q0 59 36 99q30 33 83 50q48 15 121 18v57q0 32 29.5 44t52.5 -10zM384 112l144 144
l-144 144v-104q-33 0 -57 -1.5t-54 -5.5t-51 -12.5t-40 -21t-28.5 -33t-9.5 -46.5q0 -65 62 -104q-8 25 -9 45.5t4.5 35.5t18 26t28 17.5t38 11t45.5 6t53 2.5v-104zM409 28q11 3 21 9q6 4 12 0.5t6 -10.5v-43q0 -20 -14 -34t-34 -14h-352q-20 0 -34 14t-14 34v352
q0 20 14 34t34 14h132q12 0 12 -12v-4q0 -9 -8 -12q-20 -8 -38 -18q-3 -2 -6 -2h-86q-6 0 -6 -6v-340q0 -6 6 -6h340q6 0 6 6v26q0 9 9 12z" />
    <glyph glyph-name="compass" unicode="Compass" horiz-adv-x="496" 
d="M348 318q12 6 22 -4t4 -22l-66 -144q-5 -11 -16 -16l-144 -66q-12 -6 -22 4t-4 22l66 144q5 11 16 16zM270.5 169.5q9.5 9.5 9.5 22.5t-9.5 22.5t-22.5 9.5t-22.5 -9.5t-9.5 -22.5t9.5 -22.5t22.5 -9.5t22.5 9.5zM248 440q103 0 175.5 -72.5t72.5 -175.5t-72.5 -175.5
t-175.5 -72.5t-175.5 72.5t-72.5 175.5t72.5 175.5t175.5 72.5zM248 -8q83 0 141.5 58.5t58.5 141.5t-58.5 141.5t-141.5 58.5t-141.5 -58.5t-58.5 -141.5t58.5 -141.5t141.5 -58.5z" />
    <glyph glyph-name="caret-square-down" unicode="Caret&#x2d;Square&#x2d;Down" horiz-adv-x="448" 
d="M125 240h198q8 0 11 -7.5t-3 -12.5l-99 -99q-8 -8 -16 0l-99 99q-6 5 -3 12.5t11 7.5zM448 368v-352q0 -20 -14 -34t-34 -14h-352q-20 0 -34 14t-14 34v352q0 20 14 34t34 14h352q20 0 34 -14t14 -34zM400 22v340q0 6 -6 6h-340q-6 0 -6 -6v-340q0 -6 6 -6h340q6 0 6 6z
" />
    <glyph glyph-name="caret-square-up" unicode="Caret&#x2d;Square&#x2d;Up" horiz-adv-x="448" 
d="M323 144h-198q-8 0 -11 7.5t3 12.5l99 99q8 8 16 0l99 -99q6 -5 3 -12.5t-11 -7.5zM448 368v-352q0 -20 -14 -34t-34 -14h-352q-20 0 -34 14t-14 34v352q0 20 14 34t34 14h352q20 0 34 -14t14 -34zM400 22v340q0 6 -6 6h-340q-6 0 -6 -6v-340q0 -6 6 -6h340q6 0 6 6z" />
    <glyph glyph-name="caret-square-right" unicode="Caret&#x2d;Square&#x2d;Right" horiz-adv-x="448" 
d="M176 93v198q0 8 7.5 11t12.5 -3l99 -99q8 -8 0 -16l-99 -99q-5 -6 -12.5 -3t-7.5 11zM448 368v-352q0 -20 -14 -34t-34 -14h-352q-20 0 -34 14t-14 34v352q0 20 14 34t34 14h352q20 0 34 -14t14 -34zM400 22v340q0 6 -6 6h-340q-6 0 -6 -6v-340q0 -6 6 -6h340q6 0 6 6z
" />
    <glyph glyph-name="file" unicode="File" horiz-adv-x="384" 
d="M370 350q14 -14 14 -34v-332q0 -20 -14 -34t-34 -14h-288q-20 0 -34 14t-14 34v416q0 20 14 34t34 14h204q20 0 34 -14zM332 320l-76 76v-76h76zM48 -16h288v288h-104q-10 0 -17 7t-7 17v104h-160v-416z" />
    <glyph glyph-name="file-alt" unicode="File&#x2d;Alt" horiz-adv-x="384" 
d="M288 200v-28q0 -12 -12 -12h-168q-12 0 -12 12v28q0 12 12 12h168q12 0 12 -12zM276 128q12 0 12 -12v-28q0 -12 -12 -12h-168q-12 0 -12 12v28q0 12 12 12h168zM384 316v-332q0 -20 -14 -34t-34 -14h-288q-20 0 -34 14t-14 34v416q0 20 14 34t34 14h204q20 0 34 -14
l84 -84q14 -14 14 -34zM256 396v-76h76zM336 -16v288h-104q-10 0 -17 7t-7 17v104h-160v-416h288z" />
    <glyph glyph-name="thumbs-up" unicode="Thumbs&#x2d;Up" 
d="M466 161q7 -33 -9 -63q5 -36 -17 -67q-1 -44 -29 -69.5t-84 -25.5h-11h-11q-45 0 -79.5 10t-58 20t-40.5 10q-3 -10 -11.5 -17t-19.5 -7h-64q-13 0 -22.5 9.5t-9.5 22.5v240q0 13 9.5 22.5t22.5 9.5h99q10 9 34 40.5t35 42.5q3 4 9 33t20.5 52.5t41.5 23.5q45 0 70.5 -26
t25.5 -79q0 -23 -9 -46h36q36 0 61 -26t25 -60q0 -26 -14 -50zM405 107q15 15 15.5 35.5t-10.5 30.5q7 0 14.5 12t7.5 26t-11 26t-27 12h-104q0 18 14.5 46.5t14.5 47.5q0 13 -1 20t-5 17t-14.5 15t-27.5 5q-8 -8 -15 -43.5t-23 -51.5q-8 -8 -28 -35t-37 -44.5t-29 -17.5
h-11v-186q25 0 79.5 -19t92.5 -19h37q64 0 54 66q12 7 17 24t-3 33zM88 16q0 10 -7 17t-17 7t-17 -7t-7 -17t7 -17t17 -7t17 7t7 17z" />
    <glyph glyph-name="thumbs-down" unicode="Thumbs&#x2d;Down" 
d="M466 223q14 -24 14 -50q0 -34 -25 -60t-61 -26h-36q9 -23 9 -46q0 -53 -25.5 -79t-70.5 -26q-27 0 -41.5 23.5t-20.5 52.5t-9 33q-11 11 -35 42.5t-34 40.5h-7q-10 -16 -28 -16h-64q-13 0 -22.5 9.5t-9.5 22.5v240q0 13 9.5 22.5t22.5 9.5h64q12 0 21 -8h11q15 0 38 10
t58.5 20t80.5 10h11h11q56 0 84 -25.5t29 -69.5q22 -31 17 -67q16 -30 9 -63zM64 152q10 0 17 7t7 17t-7 17t-17 7t-17 -7t-7 -17t7 -17t17 -7zM394 135q16 0 27 12t11 26t-7.5 26t-14.5 12q11 10 10.5 30.5t-15.5 35.5q8 16 3 33t-17 24q10 66 -54 66h-37q-38 0 -92.5 -19
t-79.5 -19v-186h11q12 0 29 -17.5t37 -44.5t28 -35q16 -16 23 -51.5t15 -43.5q17 0 27.5 5t14.5 15t5 17t1 20q0 19 -14.5 47.5t-14.5 46.5h104z" />
    <glyph glyph-name="sun" unicode="Sun" 
d="M494 226q18 -12 18 -33.5t-18 -33.5l-60 -41l14 -71q4 -21 -11 -36t-36 -11l-71 14l-40 -60q-13 -18 -34.5 -18t-33.5 18l-40 60l-71 -14q-21 -4 -36 11t-11 37l14 70l-60 41q-18 12 -18 33.5t18 33.5l60 41l-14 71q-4 21 11 36t36 11l71 -14l40 60q12 17 34 17t34 -17
l40 -60l71 14q21 4 36 -11t11 -36l-14 -71zM381 140l77 53l-77 52l18 91l-91 -18l-52 77l-52 -77l-91 18l18 -91l-77 -52l77 -52l-18 -92l91 18l52 -77l52 77l91 -18zM256 296q43 0 73.5 -30.5t30.5 -73.5t-30.5 -73.5t-73.5 -30.5t-73.5 30.5t-30.5 73.5t30.5 73.5
t73.5 30.5zM256 136q23 0 39.5 16.5t16.5 39.5t-16.5 39.5t-39.5 16.5t-39.5 -16.5t-16.5 -39.5t16.5 -39.5t39.5 -16.5z" />
    <glyph glyph-name="moon" unicode="Moon" 
d="M279 -64q-106 0 -181 75t-75 181t75 181t181 75q24 0 47 -4q21 -4 32 -21.5t6.5 -37.5t-23.5 -30q-31 -18 -49.5 -49t-18.5 -67q0 -63 48.5 -103t110.5 -28q33 6 50 -22.5t-4 -54.5q-36 -45 -88 -70t-111 -25zM279 400q-86 0 -147 -61t-61 -147t61 -147t147 -61
q48 0 90.5 20.5t71.5 56.5q-84 -16 -150 38.5t-66 139.5q0 50 25 92t67 66q-19 3 -38 3z" />
    <glyph glyph-name="caret-square-left" unicode="Caret&#x2d;Square&#x2d;Left" horiz-adv-x="448" 
d="M272 291v-198q0 -8 -7.5 -11t-12.5 3l-99 99q-8 8 0 16l99 99q5 6 12.5 3t7.5 -11zM448 368v-352q0 -20 -14 -34t-34 -14h-352q-20 0 -34 14t-14 34v352q0 20 14 34t34 14h352q20 0 34 -14t14 -34zM400 22v340q0 6 -6 6h-340q-6 0 -6 -6v-340q0 -6 6 -6h340q6 0 6 6z" />
    <glyph glyph-name="dot-circle" unicode="Dot&#x2d;Circle" 
d="M256 392q-83 0 -141.5 -58.5t-58.5 -141.5t58.5 -141.5t141.5 -58.5t141.5 58.5t58.5 141.5t-58.5 141.5t-141.5 58.5zM256 440q103 0 175.5 -72.5t72.5 -175.5t-72.5 -175.5t-175.5 -72.5t-175.5 72.5t-72.5 175.5t72.5 175.5t175.5 72.5zM256 272q33 0 56.5 -23.5
t23.5 -56.5t-23.5 -56.5t-56.5 -23.5t-56.5 23.5t-23.5 56.5t23.5 56.5t56.5 23.5z" />
    <glyph glyph-name="building" unicode="Building" horiz-adv-x="448" 
d="M128 300v40q0 12 12 12h40q12 0 12 -12v-40q0 -12 -12 -12h-40q-12 0 -12 12zM268 288q-12 0 -12 12v40q0 12 12 12h40q12 0 12 -12v-40q0 -12 -12 -12h-40zM140 192q-12 0 -12 12v40q0 12 12 12h40q12 0 12 -12v-40q0 -12 -12 -12h-40zM268 192q-12 0 -12 12v40
q0 12 12 12h40q12 0 12 -12v-40q0 -12 -12 -12h-40zM192 108q0 -12 -12 -12h-40q-12 0 -12 12v40q0 12 12 12h40q12 0 12 -12v-40zM268 96q-12 0 -12 12v40q0 12 12 12h40q12 0 12 -12v-40q0 -12 -12 -12h-40zM448 -28v-36h-448v36q0 12 12 12h20v440q0 10 7 17t17 7h336
q10 0 17 -7t7 -17v-440h20q12 0 12 -12zM80 -15h112v67q0 12 12 12h40q12 0 12 -12v-67h112v414l-288 1v-415z" />
    <glyph glyph-name="file-pdf" unicode="File&#x2d;Pdf" horiz-adv-x="384" 
d="M370 350q14 -14 14 -34v-332q0 -20 -14 -34t-34 -14h-288q-20 0 -34 14t-14 34v416q0 20 14 34t34 14h204q20 0 34 -14zM332 320l-76 76v-76h76zM48 -16h288v288h-104q-10 0 -17 7t-7 17v104h-160v-416zM298 128q10 -8 5 -23.5t-22 -15.5q-25 0 -56 17q-15 -3 -69 -20
q-39 -68 -66 -51q-12 7 -10 20q5 22 51 46q16 28 36 74q-13 48 -7 67q3 15 21 14t21 -20q5 -14 -5 -56q12 -31 37 -46q51 7 64 -6zM100 50q0 -1 3.5 1.5t11 11t15.5 22.5q-26 -25 -30 -35zM182 240q-2 0 -2 -7t0.5 -17t3.5 -16q3 6 3 23t-5 17zM157 104q45 17 55 19
q-18 13 -30 36q-13 -35 -25 -55zM289 109q5 3 -5.5 6t-31.5 2q14 -6 23.5 -8t11.5 -1z" />
    <glyph glyph-name="file-word" unicode="File&#x2d;Word" horiz-adv-x="384" 
d="M370 350q14 -14 14 -34v-332q0 -20 -14 -34t-34 -14h-288q-20 0 -34 14t-14 34v416q0 20 14 34t34 14h204q20 0 34 -14zM332 320l-76 76v-76h76zM48 -16h288v288h-104q-10 0 -17 7t-7 17v104h-160v-416zM268 192h16q6 0 9.5 -4.5t2.5 -10.5l-35 -136q-2 -9 -12 -9h-24
q-10 0 -12 9l-18 72l-3 17q0 -8 -3 -17l-18 -72q-2 -9 -11 -9h-25q-10 0 -12 9l-33 136q-2 6 2 10.5t9 4.5h17q10 0 12 -10q19 -96 19 -99q0 -1 1 -4q0 6 24 104q3 9 12 9h13q10 0 12 -9q23 -97 24 -100v-2.5v-1.5q1 6 21 103q2 10 12 10z" />
    <glyph glyph-name="file-excel" unicode="File&#x2d;Excel" horiz-adv-x="384" 
d="M370 350q14 -14 14 -34v-332q0 -20 -14 -34t-34 -14h-288q-20 0 -34 14t-14 34v416q0 20 14 34t34 14h204q20 0 34 -14zM332 320l-76 76v-76h76zM48 -16h288v288h-104q-10 0 -17 7t-7 17v104h-160v-416zM260 224q7 0 10.5 -6t-0.5 -12q-35 -61 -46 -78l46 -78
q4 -6 0.5 -12t-10.5 -6h-29q-7 0 -10 6q-2 3 -29 58q-12 -27 -29 -58q-3 -6 -10 -6h-29q-7 0 -10.5 6t0.5 12l46 78l-46 78q-4 6 -0.5 12t10.5 6h29q7 0 11 -6l28 -58q9 22 29 58q3 6 10 6h29z" />
    <glyph glyph-name="file-powerpoint" unicode="File&#x2d;Powerpoint" horiz-adv-x="384" 
d="M370 350q14 -14 14 -34v-332q0 -20 -14 -34t-34 -14h-288q-20 0 -34 14t-14 34v416q0 20 14 34t34 14h204q20 0 34 -14zM332 320l-76 76v-76h76zM48 -16h288v288h-104q-10 0 -17 7t-7 17v104h-160v-416zM120 44v168q0 12 12 12h69q28 0 45.5 -18.5t17.5 -47.5
q0 -12 -2 -22t-7 -16.5l-9.5 -12t-12.5 -8.5t-13.5 -4.5t-14.5 -2.5t-13 -1h-13h-11v-47q0 -5 -3.5 -8.5t-8.5 -3.5h-24q-12 0 -12 12zM168 131h24q11 0 17.5 7.5t6.5 19t-6.5 18.5t-17.5 7h-24v-52z" />
    <glyph glyph-name="file-image" unicode="File&#x2d;Image" horiz-adv-x="384" 
d="M370 350q14 -14 14 -34v-332q0 -20 -14 -34t-34 -14h-288q-20 0 -34 14t-14 34v416q0 20 14 34t34 14h204q20 0 34 -14zM332 320l-76 76v-76h76zM48 -16h288v288h-104q-10 0 -17 7t-7 17v104h-160v-416zM80 32v64l40 40q8 8 16 0l40 -40l88 88q8 8 16 0l24 -24v-128h-224
zM128 272q20 0 34 -14t14 -34t-14 -34t-34 -14t-34 14t-14 34t14 34t34 14z" />
    <glyph glyph-name="file-archive" unicode="File&#x2d;Archive" horiz-adv-x="384" 
d="M128 288h32v-32h-32v32zM192 384v-32h-32v32h32zM128 352h32v-32h-32v32zM192 320v-32h-32v32h32zM370 350q14 -14 14 -34v-332q0 -20 -14 -34t-34 -14h-288q-20 0 -34 14t-14 34v416q0 20 14 34t34 14h204q20 0 34 -14zM256 396v-76h76zM336 -16v288h-104q-10 0 -17 7
t-7 17v104h-48v-16h-32v16h-80v-416h288zM194 182l18 -87q4 -25 -11.5 -44t-40.5 -19t-40.5 19.5t-10.5 43.5l19 97v32h32v-32h22q10 0 12 -10zM160.5 58q13.5 0 23 8t9.5 19t-9.5 19t-23 8t-23 -8t-9.5 -19t9.5 -19t23 -8zM192 256v-32h-32v32h32z" />
    <glyph glyph-name="file-audio" unicode="File&#x2d;Audio" horiz-adv-x="384" 
d="M370 350q14 -14 14 -34v-332q0 -20 -14 -34t-34 -14h-288q-20 0 -34 14t-14 34v416q0 20 14 34t34 14h204q20 0 34 -14zM332 320l-76 76v-76h76zM48 -16h288v288h-104q-10 0 -17 7t-7 17v104h-160v-416zM192 60q0 -8 -7.5 -11t-12.5 3l-36 36h-28q-5 0 -8.5 3.5t-3.5 8.5
v56q0 4 3.5 8t8.5 4h28l36 36q5 6 12.5 3t7.5 -11v-136zM233 107q7 7 7 17t-7 17q-10 10 -5.5 23.5t16.5 16.5t24 -7q20 -21 20 -50t-20 -50q-11 -11 -24 -7t-16.5 16t5.5 24z" />
    <glyph glyph-name="file-video" unicode="File&#x2d;Video" horiz-adv-x="384" 
d="M370 350q14 -14 14 -34v-332q0 -20 -14 -34t-34 -14h-288q-20 0 -34 14t-14 34v416q0 20 14 34t34 14h204q20 0 34 -14zM332 320l-76 76v-76h76zM48 -16h288v288h-104q-10 0 -17 7t-7 17v104h-160v-416zM277 195q7 8 17 4t10 -15v-112q0 -11 -10 -15t-17 4l-53 52v-37
q0 -8 -6 -14t-14 -6h-104q-8 0 -14 6t-6 14v104q0 8 6 14t14 6h104q8 0 14 -6t6 -14v-37z" />
    <glyph glyph-name="file-code" unicode="File&#x2d;Code" horiz-adv-x="384" 
d="M150 99q6 -6 0 -13l-17 -18q-3 -3 -7 -3q-3 0 -6 3l-57 54q-7 6 0 12l57 54q7 7 13 0l17 -18v-1q6 -6 0 -12l-33 -29zM370 350q14 -14 14 -34v-332q0 -20 -14 -34t-34 -14h-288q-20 0 -34 14t-14 34v416q0 20 14 34t34 14h204q20 0 34 -14zM256 396v-76h76zM336 -16v288
h-104q-10 0 -17 7t-7 17v104h-160v-416h288zM210 234l24 -7q9 -2 6 -11l-55 -188q-2 -9 -11 -6l-24 7q-9 2 -6 11l55 188q2 8 11 6zM234 157q-6 6 0 13l17 18q6 7 13 0l57 -54q7 -6 0 -12l-57 -54q-7 -7 -13 0l-17 18v1q-6 6 0 12l33 29z" />
    <glyph glyph-name="life-ring" unicode="Life&#x2d;Ring" 
d="M256 -56q-103 0 -175.5 72.5t-72.5 175.5t72.5 175.5t175.5 72.5t175.5 -72.5t72.5 -175.5t-72.5 -175.5t-175.5 -72.5zM153 21q47 -29 103 -29t103 29l-53 53q-50 -21 -100 0zM336 192q0 33 -23.5 56.5t-56.5 23.5t-56.5 -23.5t-23.5 -56.5t23.5 -56.5t56.5 -23.5
t56.5 23.5t23.5 56.5zM427 89q29 47 29 103t-29 103l-53 -53q21 -50 0 -100zM359 363q-47 29 -103 29t-103 -29l53 -53q24 10 50 10t50 -10zM85 295q-29 -47 -29 -103t29 -103l53 53q-21 50 0 100z" />
    <glyph glyph-name="paper-plane" unicode="Paper&#x2d;Plane" 
d="M440 442q26 14 51 -2.5t21 -46.5l-60 -388q-4 -23 -24 -34q-11 -6 -23 -6q-10 0 -19 3l-112 46l-43 -59q-14 -17 -34.5 -19t-36.5 12t-16 36v84l-114 48q-28 11 -30 41t24 45zM192 -16l37 50l-37 15v-65zM405 13l59 387l-416 -240l108 -45l211 185q11 9 21.5 -0.5
t2.5 -21.5l-140 -202z" />
    <glyph glyph-name="futbol" unicode="Futbol" horiz-adv-x="496" 
d="M484 269q32 -98 -15 -189.5t-144 -123.5q-38 -12 -77 -12q-79 0 -145 47t-91 124q-32 98 15 189.5t144 123.5q38 12 77 12q79 0 145 -47t91 -124zM409 75q12 16 17 26q21 42 22 89l-39 37l-71 -22l-25 -76l44 -61zM409 310q-37 52 -98 72l-47 -26v-74l64 -47l71 22z
M185 382q-60 -20 -98 -72l10 -53l71 -22l64 47v74zM139 68l43 62l-24 74l-71 23l-39 -37q1 -63 38 -115zM187 2q58 -19 122 0l22 48l-44 61h-79l-43 -61z" />
    <glyph glyph-name="newspaper" unicode="Newspaper" horiz-adv-x="576" 
d="M552 384q10 0 17 -7t7 -17v-336q0 -10 -7 -17t-17 -7h-496q-23 0 -39.5 16.5t-16.5 39.5v272q0 10 7 17t17 7h43q5 14 17.5 23t27.5 9h440zM48 56q0 -8 8 -8t8 8v248h-16v-248zM528 48v288h-416v-280q0 -4 -1 -8h417zM172 168q-12 0 -12 12v96q0 12 12 12h136
q12 0 12 -12v-96q0 -12 -12 -12h-136zM200 248v-40h80v40h-80zM160 108v24q0 12 12 12h136q12 0 12 -12v-24q0 -12 -12 -12h-136q-12 0 -12 12zM352 108v24q0 12 12 12h104q12 0 12 -12v-24q0 -12 -12 -12h-104q-12 0 -12 12zM352 252v24q0 12 12 12h104q12 0 12 -12v-24
q0 -12 -12 -12h-104q-12 0 -12 12zM352 180v24q0 12 12 12h104q12 0 12 -12v-24q0 -12 -12 -12h-104q-12 0 -12 12z" />
    <glyph glyph-name="bell-slash" unicode="Bell&#x2d;Slash" horiz-adv-x="640" 
d="M634 -23q12 -10 2 -23l-10 -12q-10 -12 -22 -2l-598 467q-12 10 -2 23l10 12q10 12 22 2zM164 80h182l62 -48h-280q-14 0 -23 9.5t-9 22.5q0 12 9 22l3 3q14 15 22 26t18 41.5t11 69.5l46 -35q-9 -68 -41 -111zM320 352q-34 0 -63 -19l-38 29q31 25 69 33v21
q0 13 9.5 22.5t22.5 9.5t22.5 -9.5t9.5 -22.5v-21q56 -11 92 -54t36 -101q0 -55 14 -93l-59 47q-3 23 -3 45v1q0 46 -33 79t-79 33zM320 -64q-26 0 -45 18.5t-19 45.5h128q0 -27 -19 -45.5t-45 -18.5z" />
    <glyph glyph-name="copyright" unicode="Copyright" 
d="M256 440q103 0 175.5 -72.5t72.5 -175.5t-72.5 -175.5t-175.5 -72.5t-175.5 72.5t-72.5 175.5t72.5 175.5t175.5 72.5zM256 -8q83 0 141.5 58.5t58.5 141.5t-58.5 141.5t-141.5 58.5t-141.5 -58.5t-58.5 -141.5t58.5 -141.5t141.5 -58.5zM363 93q-41 -41 -104 -41
q-61 0 -100.5 40.5t-39.5 100.5t40 100t100 40q59 0 97 -35q4 -4 4 -9q0 -3 -2 -6l-18 -29q-7 -11 -18 -2q-28 22 -61 22q-36 0 -57 -23t-21 -57t21 -59t57 -25t66 27q4 4 9 3.5t9 -4.5l20 -27q2 -4 2 -8t-4 -8z" />
    <glyph glyph-name="closed-captioning" unicode="Closed&#x2d;Captioning" 
d="M464 384q20 0 34 -14t14 -34v-288q0 -20 -14 -34t-34 -14h-416q-20 0 -34 14t-14 34v288q0 20 14 34t34 14h416zM458 48q6 0 6 6v276q0 6 -6 6h-404q-6 0 -6 -6v-276q0 -6 6 -6h404zM247 134q3 -4 -1 -8q-26 -28 -67 -30.5t-73 24.5t-32 74q0 46 32.5 72t73.5 24.5
t66 -26.5q3 -3 1 -6l-17 -30q-4 -6 -10 -2q-30 24 -62 13.5t-32 -44.5q0 -37 30.5 -48.5t61.5 15.5q5 5 9 -1zM437 134q3 -4 0 -8q-27 -28 -68 -30.5t-73 24.5t-32 74q0 46 32.5 72t73.5 24.5t66 -26.5q3 -3 2 -6l-18 -30q-4 -6 -9 -2q-31 24 -63 13.5t-32 -44.5
q0 -37 31 -48.5t61 15.5q6 5 10 -1z" />
    <glyph glyph-name="object-group" unicode="Object&#x2d;Group" 
d="M500 320h-12v-256h12q12 0 12 -12v-72q0 -12 -12 -12h-72q-12 0 -12 12v12h-320v-12q0 -12 -12 -12h-72q-12 0 -12 12v72q0 12 12 12h12v256h-12q-12 0 -12 12v72q0 12 12 12h72q12 0 12 -12v-12h320v12q0 12 12 12h72q12 0 12 -12v-72q0 -12 -12 -12zM448 384v-32h32v32
h-32zM32 384v-32h32v32h-32zM64 0v32h-32v-32h32zM480 0v32h-32v-32h32zM440 64v256h-12q-12 0 -12 12v12h-320v-12q0 -12 -12 -12h-12v-256h12q12 0 12 -12v-12h320v12q0 12 12 12h12zM404 256q12 0 12 -12v-168q0 -12 -12 -12h-200q-12 0 -12 12v52h-84q-12 0 -12 12v168
q0 12 12 12h200q12 0 12 -12v-52h84zM136 280v-112h144v112h-144zM376 104v112h-56v-76q0 -12 -12 -12h-76v-24h144z" />
    <glyph glyph-name="object-ungroup" unicode="Object&#x2d;Ungroup" horiz-adv-x="576" 
d="M564 224h-12v-160h12q12 0 12 -12v-72q0 -12 -12 -12h-72q-12 0 -12 12v12h-224v-12q0 -12 -12 -12h-72q-12 0 -12 12v72q0 12 12 12h12v24h-88v-12q0 -12 -12 -12h-72q-12 0 -12 12v72q0 12 12 12h12v160h-12q-12 0 -12 12v72q0 12 12 12h72q12 0 12 -12v-12h224v12
q0 12 12 12h72q12 0 12 -12v-72q0 -12 -12 -12h-12v-24h88v12q0 12 12 12h72q12 0 12 -12v-72q0 -12 -12 -12zM352 384v-32h32v32h-32zM352 128v-32h32v32h-32zM64 96v32h-32v-32h32zM64 352v32h-32v-32h32zM96 136h224v12q0 12 12 12h12v160h-12q-12 0 -12 12v12h-224v-12
q0 -12 -12 -12h-12v-160h12q12 0 12 -12v-12zM224 0v32h-32v-32h32zM504 64v160h-12q-12 0 -12 12v12h-88v-88h12q12 0 12 -12v-72q0 -12 -12 -12h-72q-12 0 -12 12v12h-88v-24h12q12 0 12 -12v-12h224v12q0 12 12 12h12zM544 0v32h-32v-32h32zM544 256v32h-32v-32h32z" />
    <glyph glyph-name="sticky-note" unicode="Sticky&#x2d;Note" horiz-adv-x="448" 
d="M448 100q0 -20 -14 -34l-84 -84q-14 -14 -34 -14h-268q-20 0 -34 14t-14 34v352q0 20 14 34t34 14h352q20 0 34 -14t14 -34v-268zM320 20l76 76h-76v-76zM400 368h-352v-352h224v104q0 10 7 17t17 7h104v224z" />
    <glyph glyph-name="clone" unicode="Clone" 
d="M464 448q20 0 34 -14t14 -34v-320q0 -20 -14 -34t-34 -14h-48v-48q0 -20 -14 -34t-34 -14h-320q-20 0 -34 14t-14 34v320q0 20 14 34t34 14h48v48q0 20 14 34t34 14h320zM362 -16q6 0 6 6v42h-224q-20 0 -34 14t-14 34v224h-42q-6 0 -6 -6v-308q0 -6 6 -6h308zM458 80
q6 0 6 6v308q0 6 -6 6h-308q-6 0 -6 -6v-308q0 -6 6 -6h308z" />
    <glyph glyph-name="hourglass" unicode="Hourglass" horiz-adv-x="384" 
d="M368 400q0 -63 -25 -120.5t-72 -87.5q47 -30 72 -87.5t25 -120.5h4q12 0 12 -12v-24q0 -12 -12 -12h-360q-12 0 -12 12v24q0 12 12 12h4q0 63 25 120.5t72 87.5q-47 30 -72 87.5t-25 120.5h-4q-12 0 -12 12v24q0 12 12 12h360q12 0 12 -12v-24q0 -12 -12 -12h-4zM64 400
q0 -76 37.5 -130t90.5 -54t90.5 54t37.5 130h-256zM320 -16q0 76 -37.5 130t-90.5 54t-90.5 -54t-37.5 -130h256z" />
    <glyph glyph-name="hand-rock" unicode="Hand&#x2d;Rock" 
d="M409 369q36 16 69.5 -6t33.5 -62v-114q0 -24 -9 -45l-43 -100q-4 -9 -4 -42q0 -13 -9.5 -22.5t-22.5 -9.5h-252q-13 0 -22.5 9.5t-9.5 22.5v8v6.5v5v4v3t-0.5 2.5t-0.5 1.5t-0.5 1l-1.5 1.5l-98 85q-39 34 -39 86v57q0 35 28 57t63 14q2 41 38.5 61t72.5 0q22 23 54 23
t54 -23q24 14 53 7.5t46 -31.5zM464 187v114q0 16 -13 22.5t-26 0t-13 -21.5q0 -7 -4.5 -11.5t-11.5 -4.5h-7q-7 0 -11.5 4.5t-4.5 11.5v26q0 17 -13 23.5t-26 0t-13 -22.5v-27q0 -7 -4.5 -11.5t-11.5 -4.5h-7q-7 0 -11.5 4.5t-4.5 11.5v40q0 16 -13 23t-26 0.5t-13 -22.5
v-41q0 -7 -4.5 -11.5t-11.5 -4.5h-7q-7 0 -11.5 4.5t-4.5 11.5v26q0 17 -13 23.5t-26 0t-13 -22.5v-116q0 -7 -4.5 -11.5t-11.5 -4.5q-6 0 -11 4l-7 6q-5 4 -5 12v41q0 16 -13 22.5t-26 0t-13 -21.5v-57q0 -30 23 -50l97 -85q20 -17 20 -43v-10h220v7q0 20 8 38l43 100
q5 12 5 26z" />
    <glyph glyph-name="hand-paper" unicode="Hand&#x2d;Paper" horiz-adv-x="448" 
d="M373 335q29 5 52 -15.5t23 -50.5v-132q0 -23 -5 -45l-30 -131q-3 -11 -11.5 -18t-20.5 -7h-222q-17 0 -27 13l-119 169q-16 22 -12 49.5t26 43.5q29 21 62 9v126q0 33 25.5 53t57.5 12q18 36 58 37t60 -36q31 8 57 -12.5t26 -53.5v-11zM400 137v132q0 12 -9 17t-18.5 0
t-9.5 -18v-76q0 -7 -4.5 -11.5t-11.5 -4.5h-6q-7 0 -11.5 4.5t-4.5 11.5v154q0 12 -9.5 17.5t-18.5 0.5t-9 -17v-155q0 -7 -4.5 -11.5t-11.5 -4.5h-7q-6 0 -11 4.5t-5 11.5v188q0 12 -9 17.5t-18 0.5t-9 -17v-189q0 -7 -5 -11.5t-11 -4.5h-7q-7 0 -11.5 4.5t-4.5 11.5v153
q0 12 -9.5 17.5t-18.5 0.5t-9 -17v-206q0 -12 -11 -15.5t-18 5.5l-27 38q-7 10 -17.5 8t-14 -11t2.5 -19l115 -162h202l27 119q4 17 4 34z" />
    <glyph glyph-name="hand-scissors" unicode="Hand&#x2d;Scissors" 
d="M256 -32q-34 0 -54 27t-10 59q-16 10 -24.5 27.5t-5.5 37.5h-88q-31 0 -52.5 21.5t-21.5 51.5t21.5 51.5t52.5 21.5l94 -9l-79 19q-29 11 -41 39t-1 56t39 40t57 1l145 -56q43 53 92 25l98 -55q34 -19 34 -58v-205q0 -23 -14.5 -41.5t-37.5 -23.5l-119 -27q-7 -2 -15 -2
h-70zM256 16h70q2 0 4 1l119 27q15 3 15 18v205q0 11 -9 16l-98 55q-15 8 -25 -4l-22 -27q-5 -6 -12 -6q-3 0 -6 1l-166 64q-16 6 -27 -3.5t-9.5 -23.5t16.5 -20l156 -59q10 -4 10 -15v-12q0 -6 -4.5 -11t-11.5 -5h-182q-16 0 -23 -12.5t0 -25t23 -12.5h182q7 0 11.5 -5
t4.5 -11v-7q0 -7 -4.5 -11.5t-11.5 -4.5h-28q-12 0 -17 -9t0 -18.5t17 -9.5h28q7 0 11.5 -4.5t4.5 -11.5v-6q0 -7 -4.5 -11.5t-11.5 -4.5q-12 0 -17 -9.5t0 -18.5t17 -9z" />
    <glyph glyph-name="hand-lizard" unicode="Hand&#x2d;Li&#x7a;ard" horiz-adv-x="576" 
d="M557 157q19 -29 19 -65v-124h-224v72l-100 38q-4 2 -8 2h-132q-23 0 -39.5 16.5t-16.5 39.5q0 36 26 62t62 26h114l18 48h-196q-33 0 -56.5 23.5t-23.5 56.5v8q0 23 16.5 39.5t39.5 16.5h294q39 0 60 -33zM528 16v76q0 21 -12 39l-146 226q-7 11 -20 11h-294q-8 0 -8 -8
v-8q0 -13 9.5 -22.5t22.5 -9.5h213q19 0 30 -15.5t4 -33.5l-24 -64q-6 -14 -18 -22.5t-27 -8.5h-114q-17 0 -28.5 -11.5t-11.5 -28.5q0 -8 8 -8h132q13 0 26 -5l99 -39q14 -5 22.5 -17t8.5 -27v-24h128z" />
    <glyph glyph-name="hand-spock" unicode="Hand&#x2d;Spock" 
d="M21 66q-20 19 -21 47t18 48q18 19 44.5 21t47.5 -15l-31 136q-7 31 12.5 56t51.5 26q1 22 15.5 39t36.5 22q27 6 50.5 -8.5t29.5 -41.5l22 -132l17 105q6 27 30 41.5t51 7.5q20 -5 33 -20t17 -34q32 0 52.5 -25.5t12.5 -57.5l-32 -133q-1 -6 -1 -12v-37q0 -17 -5 -33
l-32 -107q-3 -10 -11.5 -16.5t-18.5 -6.5h-238q-13 0 -22 9zM53.5 128q-5.5 -6 -5.5 -13.5t6 -13.5l124 -117h220l28 96q3 9 3 19v37q0 12 3 23l31 134q3 11 -5 18t-18.5 4.5t-12.5 -14.5l-27 -113q-3 -12 -16 -12h-10q-7 0 -12 6t-3 14l38 152q3 12 -5 19t-18.5 4.5
t-13.5 -13.5l-42 -170q-3 -12 -16 -12h-13q-13 0 -16 12l-45 197q-3 12 -13 14.5t-18.5 -4.5t-5.5 -18l42 -181q1 -8 -3.5 -14t-12.5 -6h-8q-13 0 -16 12l-30 134q-3 12 -13.5 14.5t-18.5 -4.5t-6 -18l35 -150v-4v-69q0 -11 -9.5 -15t-17.5 3l-53 50q-6 5 -13.5 5t-13 -6z
" />
    <glyph glyph-name="hand-pointer" unicode="Hand&#x2d;Pointer" horiz-adv-x="448" 
d="M358 269q33 12 61.5 -8t28.5 -55v-84q0 -8 -2 -15l-27 -119q-5 -23 -23.5 -37.5t-41.5 -14.5h-178q-34 0 -54 28l-109 154q-16 22 -12 49.5t26 43.5q29 21 62 9v161q0 28 19.5 47.5t47 19.5t47 -19.5t19.5 -47.5v-74q33 5 56 -19q21 10 43.5 4.5t36.5 -23.5zM81 168
q-7 10 -17.5 8t-14 -11t2.5 -19l109 -154q6 -8 15 -8h178q15 0 18 15l27 119q1 2 1 4v84q0 12 -9 17t-18.5 0t-9.5 -17q0 -7 -4.5 -11.5t-11.5 -4.5h-6q-7 0 -11.5 4.5t-4.5 11.5v21q0 12 -9.5 17t-18.5 0t-9 -17v-21q0 -7 -4.5 -11.5t-11.5 -4.5h-7q-6 0 -11 4.5t-5 11.5
v35q0 12 -9 17t-18 0t-9 -17v-35q0 -7 -5 -11.5t-11 -4.5h-7q-7 0 -11.5 4.5t-4.5 11.5v175q0 12 -9.5 17t-18.5 0t-9 -17v-241q0 -12 -11 -15.5t-18 5.5zM176 48v96q0 7 4 11.5t10 4.5h6q6 0 10 -4.5t4 -11.5v-96q0 -7 -4 -11.5t-10 -4.5h-6q-6 0 -10 4.5t-4 11.5zM252 48
v96q0 7 4 11.5t10 4.5h6q5 0 9.5 -4.5t4.5 -11.5v-96q0 -7 -4.5 -11.5t-9.5 -4.5h-6q-6 0 -10 4.5t-4 11.5zM327 48v96q0 16 14 16h6q14 0 14 -16v-96q0 -16 -14 -16h-6q-14 0 -14 16z" />
    <glyph glyph-name="hand-peace" unicode="Hand&#x2d;Peace" horiz-adv-x="448" 
d="M362 256q32 10 59 -10t27 -54v-70q0 -8 -2 -15l-27 -119q-5 -23 -23.5 -37.5t-41.5 -14.5h-205q-39 0 -58 34l-55 98q-28 49 25 92l-56 145q-11 29 1 57t40 39t56 -1t39 -41l19 -79l-9 94q0 31 21.5 52.5t51.5 21.5t51.5 -21.5t21.5 -52.5v-88q20 3 37.5 -5.5t27.5 -24.5
zM400 122v70q0 12 -9 17t-18.5 0t-9.5 -17q0 -7 -4.5 -11.5t-11.5 -4.5h-6q-7 0 -11.5 4.5t-4.5 11.5v28q0 12 -9.5 17t-18.5 0t-9 -17v-28q0 -7 -4.5 -11.5t-11.5 -4.5h-7q-6 0 -11 4.5t-5 11.5v182q0 16 -12.5 23t-25 0t-12.5 -23v-182q0 -7 -5 -11.5t-11 -4.5h-12
q-11 0 -15 10l-59 156q-6 15 -20 16.5t-23.5 -9.5t-3.5 -27l64 -166q1 -3 1 -6q0 -7 -6 -12l-27 -22q-12 -10 -4 -25l55 -98q5 -9 16 -9h205q15 0 18 15l27 119q1 2 1 4z" />
    <glyph glyph-name="registered" unicode="Registered" 
d="M256 440q103 0 175.5 -72.5t72.5 -175.5t-72.5 -175.5t-175.5 -72.5t-175.5 72.5t-72.5 175.5t72.5 175.5t175.5 72.5zM256 -8q83 0 141.5 58.5t58.5 141.5t-58.5 141.5t-141.5 58.5t-141.5 -58.5t-58.5 -141.5t58.5 -141.5t141.5 -58.5zM366 74q4 -6 0.5 -12t-10.5 -6
h-43q-7 0 -10 6l-48 90h-32v-84q0 -5 -3.5 -8.5t-8.5 -3.5h-39q-4 0 -8 3.5t-4 8.5v248q0 5 4 8.5t8 3.5h79q102 0 102 -85q0 -51 -40 -73q2 -3 53 -96zM257 208q32 0 32 33q0 16 -8 23.5t-31 7.5h-27v-64h34z" />
    <glyph glyph-name="calendar-plus" unicode="Calendar&#x2d;Plus" horiz-adv-x="448" 
d="M336 156v-24q0 -12 -12 -12h-76v-76q0 -12 -12 -12h-24q-12 0 -12 12v76h-76q-12 0 -12 12v24q0 12 12 12h76v76q0 12 12 12h24q12 0 12 -12v-76h76q12 0 12 -12zM448 336v-352q0 -20 -14 -34t-34 -14h-352q-20 0 -34 14t-14 34v352q0 20 14 34t34 14h48v52q0 12 12 12
h40q12 0 12 -12v-52h128v52q0 12 12 12h40q12 0 12 -12v-52h48q20 0 34 -14t14 -34zM400 -10v298h-352v-298q0 -6 6 -6h340q6 0 6 6z" />
    <glyph glyph-name="calendar-minus" unicode="Calendar&#x2d;Minus" horiz-adv-x="448" 
d="M124 120q-12 0 -12 12v24q0 12 12 12h200q12 0 12 -12v-24q0 -12 -12 -12h-200zM448 336v-352q0 -20 -14 -34t-34 -14h-352q-20 0 -34 14t-14 34v352q0 20 14 34t34 14h48v52q0 12 12 12h40q12 0 12 -12v-52h128v52q0 12 12 12h40q12 0 12 -12v-52h48q20 0 34 -14t14 -34
zM400 -10v298h-352v-298q0 -6 6 -6h340q6 0 6 6z" />
    <glyph glyph-name="calendar-times" unicode="Calendar&#x2d;Times" horiz-adv-x="448" 
d="M312 73l-17 -17q-9 -8 -17 0l-54 54l-54 -54q-8 -8 -17 0l-17 17q-8 9 0 17l54 54l-54 54q-8 8 0 17l17 17q9 8 17 0l54 -54l54 54q8 8 17 0l17 -17q8 -9 0 -17l-54 -54l54 -54q8 -8 0 -17zM448 336v-352q0 -20 -14 -34t-34 -14h-352q-20 0 -34 14t-14 34v352q0 20 14 34
t34 14h48v52q0 12 12 12h40q12 0 12 -12v-52h128v52q0 12 12 12h40q12 0 12 -12v-52h48q20 0 34 -14t14 -34zM400 -10v298h-352v-298q0 -6 6 -6h340q6 0 6 6z" />
    <glyph glyph-name="calendar-check" unicode="Calendar&#x2d;Check" horiz-adv-x="448" 
d="M400 384q20 0 34 -14t14 -34v-352q0 -20 -14 -34t-34 -14h-352q-20 0 -34 14t-14 34v352q0 20 14 34t34 14h48v52q0 12 12 12h40q12 0 12 -12v-52h128v52q0 12 12 12h40q12 0 12 -12v-52h48zM394 -16q6 0 6 6v298h-352v-298q0 -6 6 -6h340zM341 185l-142 -142
q-9 -8 -17 1l-75 75q-9 9 0 17l23 23q8 8 17 0l44 -45l111 110q8 9 17 0l22 -22q9 -9 0 -17z" />
    <glyph glyph-name="map" unicode="Map" horiz-adv-x="576" 
d="M560 416q6 0 11 -4.5t5 -11.5v-346q0 -9 -6 -18t-14 -12l-152 -53q-10 -3 -20 -3t-20 3l-172 61l-170 -63q-3 -1 -6 -1q-6 0 -11 4.5t-5 11.5v346q0 9 6 18t14 12l152 53q10 3 20 3t20 -3l172 -61l170 63q3 1 6 1zM224 358v-286l128 -46v286zM48 30l127 47h1v286
l-128 -44v-289zM528 65v289l-127 -47h-1v-286z" />
    <glyph glyph-name="comment-alt" unicode="Comment&#x2d;Alt" 
d="M448 448q26 0 45 -19t19 -45v-288q0 -26 -19 -45t-45 -19h-144l-125 -94q-3 -2 -7 -2q-12 0 -12 12v84h-96q-26 0 -45 19t-19 45v288q0 26 19 45t45 19h384zM464 96v288q0 7 -4.5 11.5t-11.5 4.5h-384q-7 0 -11.5 -4.5t-4.5 -11.5v-288q0 -7 4.5 -11.5t11.5 -4.5h144v-60
l67 50l13 10h160q7 0 11.5 4.5t4.5 11.5z" />
    <glyph glyph-name="pause-circle" unicode="Pause&#x2d;Circle" 
d="M256 440q103 0 175.5 -72.5t72.5 -175.5t-72.5 -175.5t-175.5 -72.5t-175.5 72.5t-72.5 175.5t72.5 175.5t175.5 72.5zM256 -8q83 0 141.5 58.5t58.5 141.5t-58.5 141.5t-141.5 58.5t-141.5 -58.5t-58.5 -141.5t58.5 -141.5t141.5 -58.5zM352 272v-160q0 -7 -4.5 -11.5
t-11.5 -4.5h-48q-7 0 -11.5 4.5t-4.5 11.5v160q0 7 4.5 11.5t11.5 4.5h48q7 0 11.5 -4.5t4.5 -11.5zM240 272v-160q0 -7 -4.5 -11.5t-11.5 -4.5h-48q-7 0 -11.5 4.5t-4.5 11.5v160q0 7 4.5 11.5t11.5 4.5h48q7 0 11.5 -4.5t4.5 -11.5z" />
    <glyph glyph-name="stop-circle" unicode="Stop&#x2d;Circle" 
d="M504 192q0 -103 -72.5 -175.5t-175.5 -72.5t-175.5 72.5t-72.5 175.5t72.5 175.5t175.5 72.5t175.5 -72.5t72.5 -175.5zM56 192q0 -83 58.5 -141.5t141.5 -58.5t141.5 58.5t58.5 141.5t-58.5 141.5t-141.5 58.5t-141.5 -58.5t-58.5 -141.5zM352 272v-160q0 -7 -4.5 -11.5
t-11.5 -4.5h-160q-7 0 -11.5 4.5t-4.5 11.5v160q0 7 4.5 11.5t11.5 4.5h160q7 0 11.5 -4.5t4.5 -11.5z" />
    <glyph glyph-name="handshake" unicode="Handshake" horiz-adv-x="640" 
d="M519 320h121v-256h-64q-13 0 -22.5 9.5t-9.5 22.5h-58q-3 -13 -11 -23l-26 -32q-12 -15 -29.5 -19.5t-34.5 2.5q-19 -24 -49 -24q-22 0 -41 16q-23 -17 -52.5 -16t-52.5 20l-85 76h-9q0 -13 -9.5 -22.5t-22.5 -9.5h-64v256h118l48 48q16 16 39 16h227q23 0 40 -16zM48 96
q7 0 11.5 5t4.5 11.5t-4.5 11t-11.5 4.5t-11.5 -4.5t-4.5 -11t4.5 -11.5t11.5 -5zM438 103q5 7 -1 12l-108 87l-9 -7q-18 -17 -40.5 -18.5t-37 6t-23.5 16.5q-20 22 -19 51.5t23 50.5l39 35h-57l-5 -2l-62 -62h-42v-128h28l97 -88q12 -10 28.5 -8t26.5 15l16 19l37 -32
q9 -7 18 3l30 36l24 -19q6 -5 11 1zM544 144v128h-45l-61 62q-3 2 -6 2h-84q-15 0 -27 -11l-65 -60q-8 -6 -8 -16t7 -18q6 -7 16.5 -6.5t17.5 6.5l55 51q12 11 23 -1l11 -12q11 -12 -1 -22l-13 -12l103 -83l8 -8h69zM592 96q7 0 11.5 5t4.5 11.5t-4.5 11t-11.5 4.5
t-11.5 -4.5t-4.5 -11t4.5 -11.5t11.5 -5z" />
    <glyph glyph-name="envelope-open" unicode="Envelope&#x2d;Open" 
d="M495 283q17 -14 17 -37v-262q0 -20 -14 -34t-34 -14h-416q-20 0 -34 14t-14 34v263q0 22 18 37l135 108q1 2 14 12.5t20 15.5t19.5 13t25 11.5t24.5 3.5t24.5 -3.5t25 -11.5t19.5 -13t20 -15.5t14 -12.5zM464 -10v254q0 2 -2 4l-133 107q-1 0 -14.5 11.5t-20.5 16.5
t-18.5 11t-19.5 6t-19.5 -6t-18.5 -10.5t-20.5 -16.5t-14.5 -12l-133 -107q-2 -1 -2 -4v-254q0 -6 6 -6h404q6 0 6 6zM432 178q8 -10 -2 -17l-71 -57q-1 -2 -14 -12.5t-20 -15.5t-19.5 -13t-25 -11.5t-24.5 -3.5t-24.5 3.5t-25 11.5t-19.5 13t-20 15.5t-14 12.5l-71 57
q-10 7 -2 17l15 18q8 9 17 2l71 -57q1 0 14.5 -11.5t20.5 -16.5t18.5 -11t19.5 -6t19.5 6t18.5 10.5t20.5 16.5t14.5 12l71 57q9 7 17 -2z" />
    <glyph glyph-name="address-book" unicode="Address&#x2d;Book" horiz-adv-x="448" 
d="M436 288h-20v-64h20q12 0 12 -12v-40q0 -12 -12 -12h-20v-64h20q12 0 12 -12v-40q0 -12 -12 -12h-20v-48q0 -20 -14 -34t-34 -14h-320q-20 0 -34 14t-14 34v416q0 20 14 34t34 14h320q20 0 34 -14t14 -34v-48h20q12 0 12 -12v-40q0 -12 -12 -12zM368 -16v416h-320v-416
h320zM208 192q-26 0 -45 19t-19 45t19 45t45 19t45 -19t19 -45t-19 -45t-45 -19zM118 64q-9 0 -15.5 5.5t-6.5 13.5v19q0 24 19.5 41t47.5 17q4 0 17 -4t28 -4t28 4t17 4q28 0 47.5 -17t19.5 -41v-19q0 -8 -6.5 -13.5t-15.5 -5.5h-180z" />
    <glyph glyph-name="address-card" unicode="Address&#x2d;Card" horiz-adv-x="576" 
d="M528 416q20 0 34 -14t14 -34v-352q0 -20 -14 -34t-34 -14h-480q-20 0 -34 14t-14 34v352q0 20 14 34t34 14h480zM528 16v352h-480v-352h480zM208 192q-26 0 -45 19t-19 45t19 45t45 19t45 -19t19 -45t-19 -45t-45 -19zM118 64q-9 0 -15.5 5.5t-6.5 13.5v19q0 24 19.5 41
t47.5 17q4 0 17 -4t28 -4t28 4t17 4q28 0 47.5 -17t19.5 -41v-19q0 -8 -6.5 -13.5t-15.5 -5.5h-180zM360 128q-8 0 -8 8v16q0 8 8 8h112q8 0 8 -8v-16q0 -8 -8 -8h-112zM360 192q-8 0 -8 8v16q0 8 8 8h112q8 0 8 -8v-16q0 -8 -8 -8h-112zM360 256q-8 0 -8 8v16q0 8 8 8h112
q8 0 8 -8v-16q0 -8 -8 -8h-112z" />
    <glyph glyph-name="user-circle" unicode="User&#x2d;Circle" horiz-adv-x="496" 
d="M248 344q40 0 68 -28t28 -68t-28 -68t-68 -28t-68 28t-28 68t28 68t68 28zM248 200q20 0 34 14t14 34t-14 34t-34 14t-34 -14t-14 -34t14 -34t34 -14zM248 440q103 0 175.5 -72.5t72.5 -175.5t-72.5 -175.5t-175.5 -72.5t-175.5 72.5t-72.5 175.5t72.5 175.5t175.5 72.5z
M248 -8q74 0 130 48q-24 38 -70 40q-30 -10 -60 -10q-29 0 -60 10q-45 -1 -70 -40q56 -48 130 -48zM411 76q37 52 37 116q0 83 -58.5 141.5t-141.5 58.5t-141.5 -58.5t-58.5 -141.5q0 -64 37 -116q41 52 105 52q3 0 21.5 -5t36.5 -5t36.5 5t21.5 5q64 0 105 -52z" />
    <glyph glyph-name="id-badge" unicode="Id&#x2d;Badge" horiz-adv-x="384" 
d="M336 448q20 0 34 -14t14 -34v-416q0 -20 -14 -34t-34 -14h-288q-20 0 -34 14t-14 34v416q0 20 14 34t34 14h288zM336 -16v416h-288v-416h288zM144 336q-7 0 -11.5 4.5t-4.5 11.5t4.5 11.5t11.5 4.5h96q7 0 11.5 -4.5t4.5 -11.5t-4.5 -11.5t-11.5 -4.5h-96zM192 160
q-26 0 -45 19t-19 45t19 45t45 19t45 -19t19 -45t-19 -45t-45 -19zM102 32q-9 0 -15.5 5.5t-6.5 13.5v19q0 24 19.5 41t47.5 17q4 0 17 -4t28 -4t28 4t17 4q28 0 47.5 -17t19.5 -41v-19q0 -8 -6.5 -13.5t-15.5 -5.5h-180z" />
    <glyph glyph-name="id-card" unicode="Id&#x2d;Card" horiz-adv-x="576" 
d="M528 416q20 0 34 -14t14 -34v-352q0 -20 -14 -34t-34 -14h-480q-20 0 -34 14t-14 34v352q0 20 14 34t34 14h480zM528 16v288h-480v-288h33q-1 4 -1 22q0 24 19.5 41t47.5 17q4 0 17 -4t28 -4t28 4t17 4q28 0 47.5 -17t19.5 -41q0 -18 -1 -22h225zM360 96q-8 0 -8 8v16
q0 8 8 8h112q8 0 8 -8v-16q0 -8 -8 -8h-112zM360 160q-8 0 -8 8v16q0 8 8 8h112q8 0 8 -8v-16q0 -8 -8 -8h-112zM360 224q-8 0 -8 8v16q0 8 8 8h112q8 0 8 -8v-16q0 -8 -8 -8h-112zM192 128q-26 0 -45 19t-19 45t19 45t45 19t45 -19t19 -45t-19 -45t-45 -19z" />
    <glyph glyph-name="window-maximize" unicode="Window&#x2d;Maximi&#x7a;e" 
d="M464 416q20 0 34 -14t14 -34v-352q0 -20 -14 -34t-34 -14h-416q-20 0 -34 14t-14 34v352q0 20 14 34t34 14h416zM464 22v234h-416v-234q0 -6 6 -6h404q6 0 6 6z" />
    <glyph glyph-name="window-minimize" unicode="Window&#x2d;Minimi&#x7a;e" 
d="M480 -32h-448q-13 0 -22.5 9.5t-9.5 22.5t9.5 22.5t22.5 9.5h448q13 0 22.5 -9.5t9.5 -22.5t-9.5 -22.5t-22.5 -9.5z" />
    <glyph glyph-name="window-restore" unicode="Window&#x2d;Restore" 
d="M464 448q20 0 34 -14t14 -34v-320q0 -20 -14 -34t-34 -14h-48v-48q0 -20 -14 -34t-34 -14h-320q-20 0 -34 14t-14 34v320q0 20 14 34t34 14h48v48q0 20 14 34t34 14h320zM368 -16v208h-320v-208h320zM464 80v320h-320v-48h224q20 0 34 -14t14 -34v-224h48z" />
    <glyph glyph-name="snowflake" unicode="Snowflake" horiz-adv-x="448" 
d="M440 93q6 -4 7.5 -10t-1.5 -12l-8 -14q-8 -14 -22 -6l-39 23l9 -34q2 -7 -1.5 -12.5t-9.5 -7.5l-15 -4q-6 -2 -12 1.5t-8 9.5l-21 81l-72 42v-84l59 -59q11 -12 0 -23l-12 -11q-11 -12 -22 0l-25 25v-46q0 -7 -4.5 -11.5t-10.5 -4.5h-16q-7 0 -11.5 4.5t-4.5 11.5v46
l-25 -26q-11 -11 -22 0l-11 12q-4 4 -4 11t4 11l58 60v84l-72 -42l-21 -81q-2 -6 -7.5 -9.5t-11.5 -1.5l-15 4q-7 2 -10 7.5t-1 11.5l9 35l-39 -23q-6 -3 -12.5 -1.5t-9.5 7.5l-8 14q-8 14 6 22l39 23l-34 9q-6 2 -9.5 7.5t-1.5 12.5l4 15q2 7 7.5 10t11.5 2l80 -22l72 42
l-72 42l-80 -22q-6 -1 -11.5 2t-7.5 10l-4 15q-2 7 1.5 12.5t9.5 7.5l34 9l-39 23q-14 8 -6 22l8 14q8 14 22 6l39 -23l-9 34q-2 7 1 12.5t10 7.5l15 4q6 2 12 -1.5t7 -9.5l21 -81l72 -42v84l-58 59q-11 12 0 23l12 11q11 12 22 0l25 -25v46q0 7 4.5 11.5t10.5 4.5h16
q7 0 11.5 -4.5t4.5 -11.5v-46l25 26q11 11 22 0l11 -12q11 -11 0 -22l-58 -60v-84l72 42l21 81q2 6 7.5 9.5t11.5 1.5l15 -4q7 -2 10 -7.5t1 -11.5l-9 -35l40 23q5 3 11.5 1.5t9.5 -7.5l8 -14q8 -14 -6 -22l-39 -23l34 -9q6 -2 9.5 -7.5t1.5 -12.5l-4 -15q-2 -7 -7.5 -10
t-11.5 -2l-80 22l-72 -42l72 -42l80 22q6 1 11.5 -2t7.5 -10l4 -15q2 -7 -1.5 -12.5t-9.5 -7.5l-34 -9z" />
    <glyph glyph-name="trash-alt" unicode="Trash&#x2d;Alt" horiz-adv-x="448" 
d="M268 32q-12 0 -12 12v216q0 12 12 12h24q12 0 12 -12v-216q0 -12 -12 -12h-24zM432 368q7 0 11.5 -4.5t4.5 -11.5v-16q0 -7 -4.5 -11.5t-11.5 -4.5h-16v-336q0 -20 -14 -34t-34 -14h-288q-20 0 -34 14t-14 34v336h-16q-7 0 -11.5 4.5t-4.5 11.5v16q0 7 4.5 11.5t11.5 4.5
h82l34 57q6 9 18 16t24 7h100q12 0 24 -7t18 -16l34 -57h82zM172 397l-18 -29h140l-18 29q-2 3 -5 3h-94q-3 0 -5 -3zM368 -16v336h-288v-336h288zM156 32q-12 0 -12 12v216q0 12 12 12h24q12 0 12 -12v-216q0 -12 -12 -12h-24z" />
    <glyph glyph-name="images" unicode="Images" horiz-adv-x="576" 
d="M480 32v-16q0 -20 -14 -34t-34 -14h-384q-20 0 -34 14t-14 34v256q0 20 14 34t34 14h16v-48h-10q-6 0 -6 -6v-244q0 -6 6 -6h372q6 0 6 6v10h48zM522 368h-372q-6 0 -6 -6v-244q0 -6 6 -6h372q6 0 6 6v244q0 6 -6 6zM528 416q20 0 34 -14t14 -34v-256q0 -20 -14 -34
t-34 -14h-384q-20 0 -34 14t-14 34v256q0 20 14 34t34 14h384zM264 304q0 -17 -11.5 -28.5t-28.5 -11.5t-28.5 11.5t-11.5 28.5t11.5 28.5t28.5 11.5t28.5 -11.5t11.5 -28.5zM192 208l40 40q8 8 16 0l40 -40l104 104q8 8 16 0l72 -72v-80h-288v48z" />
    <glyph glyph-name="clipboard" unicode="Clipboard" horiz-adv-x="384" 
d="M336 384q20 0 34 -14t14 -34v-352q0 -20 -14 -34t-34 -14h-288q-20 0 -34 14t-14 34v352q0 20 14 34t34 14h80q0 26 19 45t45 19t45 -19t19 -45h80zM192 408q-10 0 -17 -7t-7 -17t7 -17t17 -7t17 7t7 17t-7 17t-17 7zM336 -10v340q0 6 -6 6h-42v-36q0 -12 -12 -12h-168
q-12 0 -12 12v36h-42q-6 0 -6 -6v-340q0 -6 6 -6h276q6 0 6 6z" />
    <glyph glyph-name="arrow-alt-circle-down" unicode="Arrow&#x2d;Alt&#x2d;Circle&#x2d;Down" 
d="M256 440q103 0 175.5 -72.5t72.5 -175.5t-72.5 -175.5t-175.5 -72.5t-175.5 72.5t-72.5 175.5t72.5 175.5t175.5 72.5zM256 -8q83 0 141.5 58.5t58.5 141.5t-58.5 141.5t-141.5 58.5t-141.5 -58.5t-58.5 -141.5t58.5 -141.5t141.5 -58.5zM224 308q0 12 12 12h40
q12 0 12 -12v-116h67q8 0 11 -7.5t-2 -12.5l-100 -100q-8 -8 -16 0l-100 100q-5 5 -2 12.5t11 7.5h67v116z" />
    <glyph glyph-name="arrow-alt-circle-left" unicode="Arrow&#x2d;Alt&#x2d;Circle&#x2d;Left" 
d="M8 192q0 103 72.5 175.5t175.5 72.5t175.5 -72.5t72.5 -175.5t-72.5 -175.5t-175.5 -72.5t-175.5 72.5t-72.5 175.5zM456 192q0 83 -58.5 141.5t-141.5 58.5t-141.5 -58.5t-58.5 -141.5t58.5 -141.5t141.5 -58.5t141.5 58.5t58.5 141.5zM384 212v-40q0 -12 -12 -12h-116
v-67q0 -8 -7.5 -11t-12.5 2l-100 100q-8 8 0 16l100 100q5 5 12.5 2t7.5 -11v-67h116q12 0 12 -12z" />
    <glyph glyph-name="arrow-alt-circle-right" unicode="Arrow&#x2d;Alt&#x2d;Circle&#x2d;Right" 
d="M504 192q0 -103 -72.5 -175.5t-175.5 -72.5t-175.5 72.5t-72.5 175.5t72.5 175.5t175.5 72.5t175.5 -72.5t72.5 -175.5zM56 192q0 -83 58.5 -141.5t141.5 -58.5t141.5 58.5t58.5 141.5t-58.5 141.5t-141.5 58.5t-141.5 -58.5t-58.5 -141.5zM128 172v40q0 12 12 12h116v67
q0 8 7.5 11t12.5 -2l100 -100q8 -8 0 -16l-100 -100q-5 -5 -12.5 -2t-7.5 11v67h-116q-12 0 -12 12z" />
    <glyph glyph-name="arrow-alt-circle-up" unicode="Arrow&#x2d;Alt&#x2d;Circle&#x2d;Up" 
d="M256 -56q-103 0 -175.5 72.5t-72.5 175.5t72.5 175.5t175.5 72.5t175.5 -72.5t72.5 -175.5t-72.5 -175.5t-175.5 -72.5zM256 392q-83 0 -141.5 -58.5t-58.5 -141.5t58.5 -141.5t141.5 -58.5t141.5 58.5t58.5 141.5t-58.5 141.5t-141.5 58.5zM276 64h-40q-12 0 -12 12v116
h-67q-8 0 -11 7.5t2 12.5l100 100q8 8 16 0l100 -100q5 -5 2 -12.5t-11 -7.5h-67v-116q0 -12 -12 -12z" />
    <glyph glyph-name="gem" unicode="Gem" horiz-adv-x="576" 
d="M464 448q6 0 10 -5l100 -148q5 -7 -1 -14l-276 -341q-3 -4 -9 -4t-9 4l-276 341q-6 7 -1 14l100 148q3 5 10 5h352zM445 400h-57l52 -96h68zM243 400l-52 -96h194l-52 96h-90zM131 400l-63 -96h68l52 96h-57zM88 256l120 -160l-68 160h-52zM191 256l97 -243l97 243h-194z
M368 96l120 160h-52z" />
    <glyph glyph-name="money-bill-alt" unicode="Money&#x2d;Bill&#x2d;Alt" horiz-adv-x="640" 
d="M320 304q40 0 68 -33t28 -79t-28 -79t-68 -33t-68 33t-28 79t28 79t68 33zM360 136v16q0 8 -8 8h-16v88q0 8 -8 8h-14q-7 0 -13 -4l-15 -10q-4 -3 -4 -7q0 -2 2 -4l8 -14q3 -3 7 -3q3 0 5 1v-55h-16q-8 0 -8 -8v-16q0 -8 8 -8h64q8 0 8 8zM608 384q13 0 22.5 -9.5
t9.5 -22.5v-320q0 -13 -9.5 -22.5t-22.5 -9.5h-576q-13 0 -22.5 9.5t-9.5 22.5v320q0 13 9.5 22.5t22.5 9.5h576zM592 112v160q-27 0 -45.5 18.5t-18.5 45.5h-416q0 -27 -18.5 -45.5t-45.5 -18.5v-160q27 0 45.5 -18.5t18.5 -45.5h416q0 27 18.5 45.5t45.5 18.5z" />
    <glyph glyph-name="window-close" unicode="Window&#x2d;Close" 
d="M464 416q20 0 34 -14t14 -34v-352q0 -20 -14 -34t-34 -14h-416q-20 0 -34 14t-14 34v352q0 20 14 34t34 14h416zM464 22v340q0 6 -6 6h-404q-6 0 -6 -6v-340q0 -6 6 -6h404q6 0 6 6zM356 253l-61 -61l61 -61q9 -9 0 -17l-22 -22q-8 -9 -17 0l-61 61l-61 -61q-9 -9 -17 0
l-22 22q-9 8 0 17l61 61l-61 61q-9 9 0 17l22 22q8 9 17 0l61 -61l61 61q9 9 17 0l22 -22q9 -8 0 -17z" />
    <glyph glyph-name="comment-dots" unicode="Comment&#x2d;Dots" 
d="M144 240q13 0 22.5 -9.5t9.5 -22.5t-9.5 -22.5t-22.5 -9.5t-22.5 9.5t-9.5 22.5t9.5 22.5t22.5 9.5zM256 240q13 0 22.5 -9.5t9.5 -22.5t-9.5 -22.5t-22.5 -9.5t-22.5 9.5t-9.5 22.5t9.5 22.5t22.5 9.5zM368 240q13 0 22.5 -9.5t9.5 -22.5t-9.5 -22.5t-22.5 -9.5
t-22.5 9.5t-9.5 22.5t9.5 22.5t22.5 9.5zM256 416q106 0 181 -61t75 -147t-75 -147t-181 -61q-47 0 -93 14q-65 -46 -139 -46q-16 0 -22 14.5t4 25.5q2 2 9.5 10.5t19 27t18.5 36.5q-53 56 -53 126q0 86 75 147t181 61zM256 48q86 0 147 47t61 113t-61 113t-147 47t-147 -47
t-61 -113q0 -51 40 -93l20 -22l-10 -28q-8 -20 -20 -41q30 10 57 30l20 13l23 -7q38 -12 78 -12z" />
    <glyph glyph-name="smile-wink" unicode="Smile&#x2d;Wink" horiz-adv-x="496" 
d="M248 440q103 0 175.5 -72.5t72.5 -175.5t-72.5 -175.5t-175.5 -72.5t-175.5 72.5t-72.5 175.5t72.5 175.5t175.5 72.5zM248 -8q83 0 141.5 58.5t58.5 141.5t-58.5 141.5t-141.5 58.5t-141.5 -58.5t-58.5 -141.5t58.5 -141.5t141.5 -58.5zM365.5 138.5q7.5 -6.5 8.5 -16.5
t-5 -17q-47 -57 -121 -57t-121 57q-6 7 -5 17t8.5 16.5t17.5 5.5t16 -9q33 -39 84 -39t84 39q6 8 16 9t17.5 -5.5zM168 208q-13 0 -22.5 9.5t-9.5 22.5t9.5 22.5t22.5 9.5t22.5 -9.5t9.5 -22.5t-9.5 -22.5t-22.5 -9.5zM328 268q20 0 38.5 -12t21.5 -30q1 -8 -6.5 -12
t-13.5 1l-10 9q-11 9 -30 9t-31 -9l-9 -9q-6 -5 -13.5 -1t-6.5 12q3 18 21.5 30t38.5 12z" />
    <glyph glyph-name="font-awesome-logo-full" unicode="Font&#x2d;Awesome&#x2d;Logo&#x2d;Full" horiz-adv-x="3992" 
d="M455 448q23 0 40 -17t17 -40v-398q0 -23 -17 -40t-40 -17h-398q-23 0 -40 17t-17 40v398q0 23 17 40t40 17h398zM396 123v161q0 8 -10 8q-2 0 -17.5 -6.5t-29.5 -10t-30 1.5q-23 9 -41.5 13t-35 2.5t-24.5 -3.5t-24 -8l-21 -8v21q15 12 15 30q0 16 -11.5 27.5t-27 11.5
t-27 -11.5t-11.5 -27.5q0 -18 15 -30v-250q0 -14 11.5 -20t23 0t11.5 20v52q33 16 60 20t42 -0.5t32.5 -11t28.5 -6.5q25 0 62 16q9 4 9 9zM829 297h-137v-70h133q19 0 27 -15.5t0 -31t-27 -15.5h-133v-106q0 -21 -18 -30t-35.5 0t-17.5 30v261q0 16 11.5 28t28.5 12h167
q19 0 27 -16t0.5 -31.5t-26.5 -15.5zM1020 274q40 0 70 -18.5t43.5 -47t13.5 -61t-13.5 -60.5t-43.5 -46.5t-70 -18.5q-35 0 -62.5 13.5t-41.5 36t-20.5 49.5t0 54t20.5 49t41.5 36t62.5 14zM1020 78q29 0 45.5 21.5t16.5 48t-16.5 48.5t-45.5 22t-45.5 -22t-16.5 -48.5
t16.5 -48t45.5 -21.5zM1392 24q-13 0 -22 9.5t-9 22.5v117q0 29 -19.5 39.5t-43 2.5t-36.5 -26v-133q0 -20 -16 -28t-32 0t-16 28v184q0 19 16 27t31.5 0.5t15.5 -27.5v-3q22 26 60.5 35t70.5 -9.5t32 -65.5v-141q0 -14 -8.5 -21.5t-14.5 -9t-9 -1.5zM1572 22q-68 0 -68 65
v126h-16q-17 0 -24 13.5t0 27.5t24 14h16v37q0 20 15.5 28t31.5 0t16 -28v-37h25q17 0 24 -14t0 -27.5t-24 -13.5h-25v-109q0 -26 28 -26q20 0 27 -20q8 -23 -21 -33q-12 -3 -29 -3zM1992 325l59 -151q40 -105 40 -110v-2q0 -20 -15 -30.5t-32.5 -6t-24.5 22.5l-13 36h-142
l-14 -36q-7 -18 -24.5 -22.5t-32.5 6t-15 30.5v2q0 5 42 114l58 147q9 24 33 33.5t48 0t33 -33.5zM1883 146h104l-52 143zM2474 232l-53 -177q-6 -20 -24 -27.5t-36.5 0.5t-23.5 27l-43 136l-42 -136q-6 -19 -24 -27t-36 -0.5t-24 27.5l-55 177q-5 18 8 30t30.5 8.5
t22.5 -22.5l39 -142l45 140q9 24 36 24.5t36 -24.5l45 -140l39 142q5 19 22.5 22.5t30.5 -8t7 -30.5zM2750 156q0 -11 -8.5 -19.5t-21.5 -8.5h-148q5 -39 42 -52t74 8q14 6 26.5 -1.5t12.5 -21.5q0 -19 -31 -29t-62 -10q-55 0 -91.5 34.5t-36.5 91.5q0 53 35 89.5t89 36.5
q40 0 68.5 -21.5t40 -47t11.5 -49.5zM2571 170h119q-2 25 -19.5 39t-38.5 15t-39.5 -13.5t-21.5 -40.5zM2888 22q-27 0 -57 8.5t-40 22.5q-9 13 -1 26.5t23 13.5q5 0 29.5 -11.5t48.5 -11.5q40 0 40 26q0 11 -14.5 16.5t-35.5 9.5t-42 10.5t-36 23t-15 42.5q0 32 26.5 54
t72.5 22q26 0 52 -8t35 -22q8 -11 1 -23.5t-22 -12.5q-4 0 -23.5 9t-42.5 9q-17 0 -27.5 -7t-10.5 -17t15 -15t36 -9t41.5 -11t35.5 -24t15 -44q0 -34 -28 -55.5t-76 -21.5zM3154 274q41 0 71 -18.5t43 -47t13.5 -61t-13 -60.5t-43.5 -46.5t-71 -18.5q-34 0 -61.5 13.5
t-41.5 36t-20.5 49.5t0 54t20.5 49t41.5 36t61.5 14zM3154 78q30 0 46.5 21.5t16.5 48t-16.5 48.5t-46 22t-46 -22t-16 -48.5t17 -48t44.5 -21.5zM3631 56v123q0 26 -16 34.5t-36.5 1t-32.5 -24.5v-134q0 -20 -16 -28t-32 0t-16 28v123q0 25 -16 34t-36.5 2t-33.5 -26v-133
q0 -20 -15.5 -28t-31.5 0t-16 28v184q0 19 15.5 27t31.5 0.5t16 -27.5v-3q9 13 31.5 25t47.5 12q52 0 66 -44q12 18 34.5 31t48.5 13q71 0 71 -73v-145q0 -13 -9.5 -22.5t-22.5 -9.5q-26 1 -31 23q-1 4 -1 9zM3992 156q0 -11 -8.5 -19.5t-20.5 -8.5h-150q5 -39 42.5 -52
t74.5 8q14 6 27 -1.5t13 -21.5q0 -19 -31 -29t-61 -10q-56 0 -93.5 34.5t-37.5 91.5q0 53 36.5 89.5t90.5 36.5q30 0 54 -12t37.5 -31t20 -38t6.5 -37zM3812 170h120q-2 25 -19.5 39.5t-38.5 15t-40 -13.5t-22 -41z" />
    <glyph glyph-name="angry" unicode="Angry" horiz-adv-x="496" 
d="M248 440q103 0 175.5 -72.5t72.5 -175.5t-72.5 -175.5t-175.5 -72.5t-175.5 72.5t-72.5 175.5t72.5 175.5t175.5 72.5zM248 -8q83 0 141.5 58.5t58.5 141.5t-58.5 141.5t-141.5 58.5t-141.5 -58.5t-58.5 -141.5t58.5 -141.5t141.5 -58.5zM248 136q53 0 87 -41q6 -7 5 -17
t-8 -16q-8 -7 -18 -6t-16 9q-19 22 -50 22t-50 -22q-6 -8 -16 -9t-17.5 5.5t-8.5 16.5t5 17q34 41 87 41zM200 208q0 -13 -9.5 -22.5t-22.5 -9.5t-22.5 9.5t-9.5 22.5q0 8 5 16l-28 9q-9 3 -14 11.5t-2 18t11.5 14.5t18.5 2l80 -24q9 -3 14 -11.5t2 -18.5q-5 -17 -23 -17z
M399 262.5q3 -9.5 -2 -18t-14 -11.5l-28 -8q5 -9 5 -17q0 -13 -9.5 -22.5t-22.5 -9.5t-22.5 9.5t-9.5 22.5q-18 0 -23 17q-3 10 2 18.5t14 11.5l80 24q10 3 18.5 -2t11.5 -14.5z" />
    <glyph glyph-name="dizzy" unicode="Di&#x7a;&#x7a;y" horiz-adv-x="496" 
d="M248 440q103 0 175.5 -72.5t72.5 -175.5t-72.5 -175.5t-175.5 -72.5t-175.5 72.5t-72.5 175.5t72.5 175.5t175.5 72.5zM248 -8q83 0 141.5 58.5t58.5 141.5t-58.5 141.5t-141.5 58.5t-141.5 -58.5t-58.5 -141.5t58.5 -141.5t141.5 -58.5zM214 210q-6 -6 -14 -6t-14 6
l-18 18l-18 -18q-6 -6 -14 -6t-14 6t-6 14t6 14l18 18l-18 18q-6 6 -6 14t6 14t14 6t14 -6l18 -18l18 18q6 6 14 6t14 -6t6 -14t-6 -14l-18 -18l18 -18q6 -6 6 -14t-6 -14zM374 302q6 -6 6 -14t-6 -14l-18 -18l18 -18q6 -6 6 -14t-6 -14t-14 -6t-14 6l-18 18l-18 -18
q-6 -6 -14 -6t-14 6t-6 14t6 14l18 18l-18 18q-6 6 -6 14t6 14t14 6t14 -6l18 -18l18 18q6 6 14 6t14 -6zM248 176q26 0 45 -19t19 -45t-19 -45t-45 -19t-45 19t-19 45t19 45t45 19z" />
    <glyph glyph-name="flushed" unicode="Flushed" horiz-adv-x="496" 
d="M248 440q103 0 175.5 -72.5t72.5 -175.5t-72.5 -175.5t-175.5 -72.5t-175.5 72.5t-72.5 175.5t72.5 175.5t175.5 72.5zM248 -8q83 0 141.5 58.5t58.5 141.5t-58.5 141.5t-141.5 58.5t-141.5 -58.5t-58.5 -141.5t58.5 -141.5t141.5 -58.5zM344 304q33 0 56.5 -23.5
t23.5 -56.5t-23.5 -56.5t-56.5 -23.5t-56.5 23.5t-23.5 56.5t23.5 56.5t56.5 23.5zM344 176q20 0 34 14t14 34t-14 34t-34 14t-34 -14t-14 -34t14 -34t34 -14zM344 248q10 0 17 -7t7 -17t-7 -17t-17 -7t-17 7t-7 17t7 17t17 7zM232 224q0 -33 -23.5 -56.5t-56.5 -23.5
t-56.5 23.5t-23.5 56.5t23.5 56.5t56.5 23.5t56.5 -23.5t23.5 -56.5zM152 176q20 0 34 14t14 34t-14 34t-34 14t-34 -14t-14 -34t14 -34t34 -14zM152 248q10 0 17 -7t7 -17t-7 -17t-17 -7t-17 7t-7 17t7 17t17 7zM312 104q10 0 17 -7t7 -17t-7 -17t-17 -7h-128q-10 0 -17 7
t-7 17t7 17t17 7h128z" />
    <glyph glyph-name="frown-open" unicode="Frown&#x2d;Open" horiz-adv-x="496" 
d="M248 440q103 0 175.5 -72.5t72.5 -175.5t-72.5 -175.5t-175.5 -72.5t-175.5 72.5t-72.5 175.5t72.5 175.5t175.5 72.5zM248 -8q83 0 141.5 58.5t58.5 141.5t-58.5 141.5t-141.5 58.5t-141.5 -58.5t-58.5 -141.5t58.5 -141.5t141.5 -58.5zM200 240q0 -13 -9.5 -22.5
t-22.5 -9.5t-22.5 9.5t-9.5 22.5t9.5 22.5t22.5 9.5t22.5 -9.5t9.5 -22.5zM328 272q13 0 22.5 -9.5t9.5 -22.5t-9.5 -22.5t-22.5 -9.5t-22.5 9.5t-9.5 22.5t9.5 22.5t22.5 9.5zM248 160q30 0 60.5 -17t35.5 -44q1 -9 -5.5 -15t-15.5 -3q-49 15 -75 15t-75 -15q-9 -3 -15.5 3
t-5.5 15q5 27 35.5 44t60.5 17z" />
    <glyph glyph-name="grimace" unicode="Grimace" horiz-adv-x="496" 
d="M248 440q103 0 175.5 -72.5t72.5 -175.5t-72.5 -175.5t-175.5 -72.5t-175.5 72.5t-72.5 175.5t72.5 175.5t175.5 72.5zM248 -8q83 0 141.5 58.5t58.5 141.5t-58.5 141.5t-141.5 58.5t-141.5 -58.5t-58.5 -141.5t58.5 -141.5t141.5 -58.5zM168 208q-13 0 -22.5 9.5
t-9.5 22.5t9.5 22.5t22.5 9.5t22.5 -9.5t9.5 -22.5t-9.5 -22.5t-22.5 -9.5zM328 208q-13 0 -22.5 9.5t-9.5 22.5t9.5 22.5t22.5 9.5t22.5 -9.5t9.5 -22.5t-9.5 -22.5t-22.5 -9.5zM344 192q20 0 34 -14t14 -34v-32q0 -20 -14 -34t-34 -14h-192q-20 0 -34 14t-14 34v32
q0 20 14 34t34 14h192zM176 96v24h-40v-8q0 -7 4.5 -11.5t11.5 -4.5h24zM176 136v24h-24q-7 0 -11.5 -4.5t-4.5 -11.5v-8h40zM240 96v24h-48v-24h48zM240 136v24h-48v-24h48zM304 96v24h-48v-24h48zM304 136v24h-48v-24h48zM360 112v8h-40v-24h24q7 0 11.5 4.5t4.5 11.5z
M360 136v8q0 7 -4.5 11.5t-11.5 4.5h-24v-24h40z" />
    <glyph glyph-name="grin" unicode="Grin" horiz-adv-x="496" 
d="M248 440q103 0 175.5 -72.5t72.5 -175.5t-72.5 -175.5t-175.5 -72.5t-175.5 72.5t-72.5 175.5t72.5 175.5t175.5 72.5zM248 -8q83 0 141.5 58.5t58.5 141.5t-58.5 141.5t-141.5 58.5t-141.5 -58.5t-58.5 -141.5t58.5 -141.5t141.5 -58.5zM354 143q7 3 13 -2t4 -13
q-5 -34 -43.5 -57t-79.5 -23t-79.5 23t-43.5 57q-2 8 4 13t13 2q41 -13 106 -13t106 13zM168 208q-13 0 -22.5 9.5t-9.5 22.5t9.5 22.5t22.5 9.5t22.5 -9.5t9.5 -22.5t-9.5 -22.5t-22.5 -9.5zM328 208q-13 0 -22.5 9.5t-9.5 22.5t9.5 22.5t22.5 9.5t22.5 -9.5t9.5 -22.5
t-9.5 -22.5t-22.5 -9.5z" />
    <glyph glyph-name="grin-alt" unicode="Grin&#x2d;Alt" horiz-adv-x="496" 
d="M200 200q-5 -9 -15.5 -9t-16.5 9q-15 22 -16 56q1 34 16 56q5 9 15.5 9t16.5 -9q15 -22 16 -56q-1 -34 -16 -56zM328 200q-5 -9 -15.5 -9t-16.5 9q-15 22 -16 56q1 34 16 56q5 9 15.5 9t16.5 -9q15 -22 16 -56q-1 -34 -16 -56zM248 440q103 0 175.5 -72.5t72.5 -175.5
t-72.5 -175.5t-175.5 -72.5t-175.5 72.5t-72.5 175.5t72.5 175.5t175.5 72.5zM248 -8q83 0 141.5 58.5t58.5 141.5t-58.5 141.5t-141.5 58.5t-141.5 -58.5t-58.5 -141.5t58.5 -141.5t141.5 -58.5zM354 143q7 3 13 -2t4 -13q-5 -34 -43.5 -57t-79.5 -23t-79.5 23t-43.5 57
q-2 8 4 13t13 2q41 -13 106 -13t106 13z" />
    <glyph glyph-name="grin-beam" unicode="Grin&#x2d;Beam" horiz-adv-x="496" 
d="M248 440q103 0 175.5 -72.5t72.5 -175.5t-72.5 -175.5t-175.5 -72.5t-175.5 72.5t-72.5 175.5t72.5 175.5t175.5 72.5zM248 -8q83 0 141.5 58.5t58.5 141.5t-58.5 141.5t-141.5 58.5t-141.5 -58.5t-58.5 -141.5t58.5 -141.5t141.5 -58.5zM354 143q7 3 13 -2t4 -13
q-5 -34 -43.5 -57t-79.5 -23t-79.5 23t-43.5 57q-2 8 4 13t13 2q41 -13 106 -13t106 13zM118 216q-7 2 -6 9q2 30 19.5 50.5t36.5 20.5t36.5 -20.5t19.5 -50.5q1 -7 -5.5 -9t-9.5 4l-9 17q-13 22 -32 22t-32 -22l-9 -17q-3 -6 -9 -4zM278 216q-7 2 -6 9q2 30 19.5 50.5
t36.5 20.5t36.5 -20.5t19.5 -50.5q1 -7 -5.5 -9t-9.5 4l-9 17q-13 22 -32 22t-32 -22l-9 -17q-3 -6 -9 -4z" />
    <glyph glyph-name="grin-beam-sweat" unicode="Grin&#x2d;Beam&#x2d;Sweat" horiz-adv-x="496" 
d="M440 288q-22 0 -37.5 17t-15.5 42q0 28 46 97q3 4 7 4t7 -4q46 -69 46 -97q0 -25 -15.5 -42t-37.5 -17zM248 48q-41 0 -79.5 23t-43.5 57q-2 8 4 13t13 2q41 -13 106 -13t106 13q7 3 13 -2.5t4 -12.5q-5 -34 -43.5 -57t-79.5 -23zM378.5 216.5q-6.5 -1.5 -9.5 3.5l-9 17
q-13 22 -32 22t-32 -22l-9 -17q-3 -6 -9 -4q-7 2 -6 9q2 30 19.5 50.5t36.5 20.5t36.5 -20.5t19.5 -50.5q1 -7 -5.5 -8.5zM484 269q12 -37 12 -77q0 -103 -72.5 -175.5t-175.5 -72.5t-175.5 72.5t-72.5 175.5t72.5 175.5t175.5 72.5q67 0 125 -34q-14 -28 -17 -46
q-50 32 -108 32q-83 0 -141.5 -58.5t-58.5 -141.5t58.5 -141.5t141.5 -58.5t141.5 58.5t58.5 141.5q0 33 -11 64q26 0 47 13zM168 259q-19 0 -32 -22l-9 -17q-3 -6 -9 -4q-7 2 -6 9q2 30 19.5 50.5t36.5 20.5t36.5 -20.5t19.5 -50.5q1 -7 -5.5 -9t-9.5 4l-9 17
q-13 22 -32 22z" />
    <glyph glyph-name="grin-hearts" unicode="Grin&#x2d;Hearts" horiz-adv-x="496" 
d="M354 143q7 3 13 -2t4 -13q-5 -34 -43.5 -57t-79.5 -23t-79.5 23t-43.5 57q-2 8 4 13t13 2q41 -13 106 -13t106 13zM201 192l-70 18q-16 4 -23 18.5t-2 29.5q5 13 18 19t27 3l7 -2l2 7q4 14 16 22t26 6q16 -3 24.5 -16t4.5 -29l-20 -70q-2 -8 -10 -6zM390 258
q5 -15 -2 -29.5t-23 -18.5l-70 -18q-8 -2 -10 6l-20 70q-4 16 4.5 29t24.5 16q14 2 26 -6t16 -22l2 -7l7 2q14 3 27 -3t18 -19zM248 440q103 0 175.5 -72.5t72.5 -175.5t-72.5 -175.5t-175.5 -72.5t-175.5 72.5t-72.5 175.5t72.5 175.5t175.5 72.5zM248 -8q83 0 141.5 58.5
t58.5 141.5t-58.5 141.5t-141.5 58.5t-141.5 -58.5t-58.5 -141.5t58.5 -141.5t141.5 -58.5z" />
    <glyph glyph-name="grin-squint" unicode="Grin&#x2d;Squint" horiz-adv-x="496" 
d="M248 440q103 0 175.5 -72.5t72.5 -175.5t-72.5 -175.5t-175.5 -72.5t-175.5 72.5t-72.5 175.5t72.5 175.5t175.5 72.5zM248 -8q83 0 141.5 58.5t58.5 141.5t-58.5 141.5t-141.5 58.5t-141.5 -58.5t-58.5 -141.5t58.5 -141.5t141.5 -58.5zM354 143q7 3 13 -2t4 -13
q-5 -34 -43.5 -57t-79.5 -23t-79.5 23t-43.5 57q-2 8 4 13t13 2q41 -13 106 -13t106 13zM118.5 184.5q-6.5 7.5 0.5 15.5l33 40l-33 40q-7 8 0 15.5t15 2.5l80 -48q6 -3 6 -10t-6 -10l-80 -48q-9 -5 -15.5 2.5zM362 182l-80 48q-6 3 -6 10t6 10l80 48q9 5 15 -2q7 -8 0 -16
l-33 -40l33 -40q7 -8 0.5 -15.5t-15.5 -2.5z" />
    <glyph glyph-name="grin-squint-tears" unicode="Grin&#x2d;Squint&#x2d;Tears" 
d="M117 64q5 1 8.5 -2.5t2.5 -8.5q-12 -82 -31 -101q-16 -16 -39.5 -16t-40.5 17t-17 40.5t16 39.5q19 19 101 31zM76 106q-27 -6 -47 -13q-31 68 -17 144t69 130q72 73 175 73q60 0 113 -27q-7 -21 -12 -49q-47 28 -101 28q-83 0 -141 -59q-46 -45 -56 -108.5t17 -118.5z
M428 293q29 6 49 12q36 -69 24 -150t-69 -138q-73 -73 -176 -73q-51 0 -99 21q7 19 13 47q41 -20 86 -20q83 0 141 59q49 48 57 116.5t-26 125.5zM395 320q-5 -1 -8.5 2.5t-2.5 8.5q12 82 31 101q16 16 39.5 16t40.5 -17t17 -40.5t-16 -39.5q-19 -19 -101 -31zM208 212
q5 -5 3 -12l-23 -90q-2 -9 -11 -9h-1q-10 1 -11 11l-5 52l-52 5q-10 1 -11 11t9 12l90 23q7 2 12 -3zM248 237q-9 0 -12 3q-5 5 -3 12l23 90q2 9 12 9q10 -1 11 -11l5 -52l52 -5q10 -1 11 -11t-9 -12zM300 148q46 47 65 84q4 7 11.5 7.5t11.5 -5.5q19 -31 9 -73t-39 -71
t-71 -39.5t-73 9.5q-6 4 -5.5 11.5t7.5 11.5q38 20 84 65z" />
    <glyph glyph-name="grin-stars" unicode="Grin&#x2d;Stars" horiz-adv-x="496" 
d="M248 440q103 0 175.5 -72.5t72.5 -175.5t-72.5 -175.5t-175.5 -72.5t-175.5 72.5t-72.5 175.5t72.5 175.5t175.5 72.5zM248 -8q83 0 141.5 58.5t58.5 141.5t-58.5 141.5t-141.5 58.5t-141.5 -58.5t-58.5 -141.5t58.5 -141.5t141.5 -58.5zM354 143q7 3 13 -2t4 -13
q-5 -34 -43.5 -57t-79.5 -23t-79.5 23t-43.5 57q-2 8 4 13t13 2q41 -13 106 -13t106 13zM126 201l6 35l-26 24q-3 4 -1.5 8.5t6.5 5.5l35 5l15 31q2 5 7 5t7 -5l15 -31l35 -5q5 -1 6.5 -5.5t-1.5 -8.5l-26 -24l6 -35q1 -5 -3 -7.5t-8 -0.5l-31 16l-31 -16q-4 -2 -8 0.5
t-3 7.5zM385 274q5 -1 6.5 -5.5t-1.5 -8.5l-26 -24l6 -35q1 -5 -2.5 -7.5t-8.5 -0.5l-31 16l-31 -16q-4 -2 -8 0.5t-3 7.5l6 35l-26 24q-3 4 -1.5 8.5t6.5 5.5l35 5l15 31q2 5 7 5t7 -5l15 -31z" />
    <glyph glyph-name="grin-tears" unicode="Grin&#x2d;Tears" horiz-adv-x="640" 
d="M117 192q5 1 8.5 -2.5t2.5 -8.5q-12 -82 -31 -101q-16 -16 -39.5 -16t-40.5 17t-17 40.5t16 39.5q19 19 101 31zM624 161q16 -16 16 -39.5t-17 -40.5t-40.5 -17t-39.5 16q-19 19 -31 101q-1 5 2.5 8.5t8.5 2.5q82 -12 101 -31zM497 100q11 -32 29 -47q-35 -50 -89 -79.5
t-117 -29.5t-117 29.5t-89 79.5q18 15 29 47q25 -49 72.5 -78.5t104.5 -29.5t104.5 29.5t72.5 78.5zM123 224q-11 1 -50 -7q10 94 80.5 158.5t166.5 64.5t166.5 -64.5t80.5 -159.5q-38 9 -50 8q-11 72 -67 120t-130 48t-130 -48t-67 -120zM320 48q-41 0 -79.5 23t-43.5 57
q-2 8 4 13t13 2q41 -13 106 -13t106 13q7 3 13 -2.5t4 -12.5q-5 -34 -43.5 -57t-79.5 -23zM450.5 216.5q-6.5 -1.5 -9.5 3.5l-9 17q-13 22 -32 22t-32 -22l-9 -17q-3 -6 -9 -4q-7 2 -6 9q2 30 19.5 50.5t36.5 20.5t36.5 -20.5t19.5 -50.5q1 -7 -5.5 -8.5zM240 259
q-19 0 -32 -22l-9 -17q-3 -6 -9 -4q-7 2 -6 9q2 30 19.5 50.5t36.5 20.5t36.5 -20.5t19.5 -50.5q1 -7 -5.5 -9t-9.5 4l-9 17q-13 22 -32 22z" />
    <glyph glyph-name="grin-tongue" unicode="Grin&#x2d;Tongue" horiz-adv-x="496" 
d="M248 440q103 0 175.5 -72.5t72.5 -175.5t-72.5 -175.5t-175.5 -72.5t-175.5 72.5t-72.5 175.5t72.5 175.5t175.5 72.5zM312 40v44l-18 9q-11 5 -21.5 -0.5t-12.5 -16.5l-3 -12q-2 -7 -9 -7t-9 7l-2 12q-3 11 -13.5 16.5t-21.5 0.5l-18 -9v-43q0 -26 18.5 -45.5
t44.5 -19.5q27 0 46 18.5t19 45.5zM340 15q49 25 78.5 72.5t29.5 104.5q0 83 -58.5 141.5t-141.5 58.5t-141.5 -58.5t-58.5 -141.5q0 -57 29.5 -104.5t78.5 -72.5q-4 14 -4 25v44q-23 20 -27 44q-2 8 4 13t13 2q41 -13 106 -13t106 13q7 3 13 -2.5t4 -12.5q-4 -24 -27 -44
v-44q0 -11 -4 -25zM168 272q13 0 22.5 -9.5t9.5 -22.5t-9.5 -22.5t-22.5 -9.5t-22.5 9.5t-9.5 22.5t9.5 22.5t22.5 9.5zM328 272q13 0 22.5 -9.5t9.5 -22.5t-9.5 -22.5t-22.5 -9.5t-22.5 9.5t-9.5 22.5t9.5 22.5t22.5 9.5z" />
    <glyph glyph-name="grin-tongue-squint" unicode="Grin&#x2d;Tongue&#x2d;Squint" horiz-adv-x="496" 
d="M248 440q103 0 175.5 -72.5t72.5 -175.5t-72.5 -175.5t-175.5 -72.5t-175.5 72.5t-72.5 175.5t72.5 175.5t175.5 72.5zM312 40v44l-18 9q-11 5 -21.5 -0.5t-12.5 -16.5l-3 -12q-2 -7 -9 -7t-9 7l-2 12q-3 11 -13.5 16.5t-21.5 0.5l-18 -9v-43q0 -26 18.5 -45.5
t44.5 -19.5q27 0 46 18.5t19 45.5zM340 15q49 25 78.5 72.5t29.5 104.5q0 83 -58.5 141.5t-141.5 58.5t-141.5 -58.5t-58.5 -141.5q0 -57 29.5 -104.5t78.5 -72.5q-4 14 -4 25v44q-23 20 -27 44q-2 8 4 13t13 2q41 -13 106 -13t106 13q7 3 13 -2.5t4 -12.5q-4 -24 -27 -44
v-44q0 -11 -4 -25zM377 295.5q7 -7.5 0 -15.5l-33 -40l33 -40q7 -8 0.5 -15.5t-15.5 -2.5l-80 48q-6 3 -6 10t6 10l80 48q8 5 15 -2.5zM214 250q6 -3 6 -10t-6 -10l-80 -48q-9 -5 -15.5 2.5t0.5 15.5l33 40l-33 40q-7 8 0 15.5t15 2.5z" />
    <glyph glyph-name="grin-tongue-wink" unicode="Grin&#x2d;Tongue&#x2d;Wink" horiz-adv-x="496" 
d="M152 268q20 0 38.5 -12t21.5 -30q1 -8 -6.5 -12t-13.5 1l-10 9q-11 9 -30 9t-30 -9l-10 -9q-6 -6 -13.5 -1.5t-6.5 12.5q3 18 21.5 30t38.5 12zM328 320q33 0 56.5 -23.5t23.5 -56.5t-23.5 -56.5t-56.5 -23.5t-56.5 23.5t-23.5 56.5t23.5 56.5t56.5 23.5zM328 192
q20 0 34 14t14 34t-14 34t-34 14t-34 -14t-14 -34t14 -34t34 -14zM328 264q10 0 17 -7t7 -17t-7 -17t-17 -7t-17 7t-7 17t7 17t17 7zM248 440q103 0 175.5 -72.5t72.5 -175.5t-72.5 -175.5t-175.5 -72.5t-175.5 72.5t-72.5 175.5t72.5 175.5t175.5 72.5zM312 40v44l-18 9
q-11 5 -21.5 -0.5t-12.5 -16.5l-3 -12q-2 -7 -9 -7t-9 7l-2 12q-3 11 -13.5 16.5t-21.5 0.5l-18 -9v-43q0 -26 18.5 -45.5t44.5 -19.5q27 0 46 18.5t19 45.5zM340 15q49 25 78.5 72.5t29.5 104.5q0 83 -58.5 141.5t-141.5 58.5t-141.5 -58.5t-58.5 -141.5q0 -57 29.5 -104.5
t78.5 -72.5q-4 14 -4 25v44q-23 20 -27 44q-2 8 4 13t13 2q41 -13 106 -13t106 13q7 3 13 -2.5t4 -12.5q-4 -24 -27 -44v-44q0 -11 -4 -25z" />
    <glyph glyph-name="grin-wink" unicode="Grin&#x2d;Wink" horiz-adv-x="496" 
d="M328 268q20 0 38.5 -12t21.5 -30q1 -8 -6.5 -12.5t-13.5 1.5l-10 9q-11 9 -30 9t-30 -9l-10 -9q-6 -6 -13.5 -2t-6.5 13q3 18 21.5 30t38.5 12zM168 208q-13 0 -22.5 9.5t-9.5 22.5t9.5 22.5t22.5 9.5t22.5 -9.5t9.5 -22.5t-9.5 -22.5t-22.5 -9.5zM354 143q7 3 13 -2
t4 -13q-5 -34 -43.5 -57t-79.5 -23t-79.5 23t-43.5 57q-2 8 4 13t13 2q41 -13 106 -13t106 13zM248 440q103 0 175.5 -72.5t72.5 -175.5t-72.5 -175.5t-175.5 -72.5t-175.5 72.5t-72.5 175.5t72.5 175.5t175.5 72.5zM248 -8q83 0 141.5 58.5t58.5 141.5t-58.5 141.5
t-141.5 58.5t-141.5 -58.5t-58.5 -141.5t58.5 -141.5t141.5 -58.5z" />
    <glyph glyph-name="kiss" unicode="Kiss" horiz-adv-x="496" 
d="M168 272q13 0 22.5 -9.5t9.5 -22.5t-9.5 -22.5t-22.5 -9.5t-22.5 9.5t-9.5 22.5t9.5 22.5t22.5 9.5zM304 140q0 -22 -35 -36q35 -14 35 -36q0 -16 -20.5 -29.5t-50.5 -14.5h-1q-6 0 -8 6q-1 6 5 9l17 7q21 9 21 21.5t-21 21.5l-17 7q-4 2 -4 7.5t4 7.5l17 7q21 9 21 22
t-21 21l-17 8q-6 2 -5 9q2 7 8 6q31 -2 51.5 -15.5t20.5 -28.5zM248 440q103 0 175.5 -72.5t72.5 -175.5t-72.5 -175.5t-175.5 -72.5t-175.5 72.5t-72.5 175.5t72.5 175.5t175.5 72.5zM248 -8q83 0 141.5 58.5t58.5 141.5t-58.5 141.5t-141.5 58.5t-141.5 -58.5
t-58.5 -141.5t58.5 -141.5t141.5 -58.5zM328 272q13 0 22.5 -9.5t9.5 -22.5t-9.5 -22.5t-22.5 -9.5t-22.5 9.5t-9.5 22.5t9.5 22.5t22.5 9.5z" />
    <glyph glyph-name="kiss-beam" unicode="Kiss&#x2d;Beam" horiz-adv-x="496" 
d="M168 296q19 0 36.5 -20.5t19.5 -50.5q0 -7 -6 -9t-9 4l-10 17q-12 22 -31 22t-32 -22l-9 -17q-3 -5 -9.5 -3.5t-5.5 8.5q2 30 19.5 50.5t36.5 20.5zM248 440q103 0 175.5 -72.5t72.5 -175.5t-72.5 -175.5t-175.5 -72.5t-175.5 72.5t-72.5 175.5t72.5 175.5t175.5 72.5z
M248 -8q83 0 141.5 58.5t58.5 141.5t-58.5 141.5t-141.5 58.5t-141.5 -58.5t-58.5 -141.5t58.5 -141.5t141.5 -58.5zM304 140q0 -22 -35 -36q35 -14 35 -36q0 -16 -20.5 -29.5t-50.5 -14.5h-1q-6 0 -8 6q-1 6 5 9l17 7q21 9 21 21.5t-21 21.5l-17 7q-4 2 -4 7.5t4 7.5l17 7
q21 9 21 22t-21 21l-17 8q-6 2 -5 9q2 7 8 6q31 -2 51.5 -15.5t20.5 -28.5zM328 296q19 0 36.5 -20.5t19.5 -50.5q0 -7 -6 -9t-9 4l-10 17q-12 22 -31 22t-32 -22l-9 -17q-3 -5 -9.5 -3.5t-5.5 8.5q2 30 19.5 50.5t36.5 20.5z" />
    <glyph glyph-name="kiss-wink-heart" unicode="Kiss&#x2d;Wink&#x2d;Heart" horiz-adv-x="504" 
d="M304 140q0 -22 -35 -37q35 -14 35 -36q0 -15 -20.5 -28.5t-50.5 -15.5h-1q-6 0 -8 6q-1 7 5 9l17 8q21 9 21 21.5t-21 21.5l-17 7q-4 2 -4 7.5t4 7.5l17 7q21 9 21 21.5t-21 21.5l-17 7q-6 3 -5 9q2 7 8 7q31 -2 51.5 -15.5t20.5 -28.5zM374 223q-11 10 -30 10t-30 -10
l-10 -9q-6 -5 -13.5 -1t-6.5 12q3 18 21.5 30t38.5 12t38.5 -12t21.5 -30q1 -8 -6.5 -12t-13.5 1zM136 239.5q0 13.5 9.5 23t22.5 9.5t22.5 -9.5t9.5 -23t-9.5 -22.5t-22.5 -9t-22.5 9t-9.5 22.5zM501 46q7 -18 -1.5 -34.5t-26.5 -21.5l-83 -22q-10 -2 -13 7l-23 83
q-5 18 5 34t29 19q17 2 31 -7.5t18 -25.5l3 -9l8 2q16 5 31.5 -2.5t21.5 -22.5zM334 12l13 -47q-47 -21 -99 -21q-103 0 -175.5 72.5t-72.5 175.5t72.5 175.5t175.5 72.5t175.5 -72.5t72.5 -175.5q0 -46 -17 -90q-11 3 -19 3q-7 13 -22 24q10 31 10 63q0 83 -58.5 141.5
t-141.5 58.5t-141.5 -58.5t-58.5 -141.5t58.5 -141.5t141.5 -58.5q45 0 86 20z" />
    <glyph glyph-name="laugh" unicode="Laugh" horiz-adv-x="496" 
d="M248 440q103 0 175.5 -72.5t72.5 -175.5t-72.5 -175.5t-175.5 -72.5t-175.5 72.5t-72.5 175.5t72.5 175.5t175.5 72.5zM389.5 50.5q58.5 58.5 58.5 141.5t-58.5 141.5t-141.5 58.5t-141.5 -58.5t-58.5 -141.5t58.5 -141.5t141.5 -58.5t141.5 58.5zM328 224
q-13 0 -22.5 9.5t-9.5 22.5t9.5 22.5t22.5 9.5t22.5 -9.5t9.5 -22.5t-9.5 -22.5t-22.5 -9.5zM168 224q-13 0 -22.5 9.5t-9.5 22.5t9.5 22.5t22.5 9.5t22.5 -9.5t9.5 -22.5t-9.5 -22.5t-22.5 -9.5zM362 160q7 0 11 -4.5t3 -10.5q-6 -45 -40.5 -75t-80.5 -30h-14
q-46 0 -80.5 30t-40.5 75q-1 6 3 10.5t11 4.5h228z" />
    <glyph glyph-name="laugh-beam" unicode="Laugh&#x2d;Beam" horiz-adv-x="496" 
d="M248 440q103 0 175.5 -72.5t72.5 -175.5t-72.5 -175.5t-175.5 -72.5t-175.5 72.5t-72.5 175.5t72.5 175.5t175.5 72.5zM389.5 50.5q58.5 58.5 58.5 141.5t-58.5 141.5t-141.5 58.5t-141.5 -58.5t-58.5 -141.5t58.5 -141.5t141.5 -58.5t141.5 58.5zM328 296
q19 0 36.5 -20.5t19.5 -50.5q0 -7 -6 -8.5t-9 3.5l-10 17q-12 22 -31 22t-32 -22l-9 -17q-3 -5 -9.5 -3.5t-5.5 8.5q2 30 19.5 50.5t36.5 20.5zM127 220q-3 -5 -9.5 -3.5t-5.5 8.5q2 30 19.5 50.5t36.5 20.5t36.5 -20.5t19.5 -50.5q0 -7 -6 -8.5t-9 3.5l-9 17q-13 22 -32 22
t-32 -22zM362 160q7 0 11 -4.5t3 -10.5q-6 -45 -40.5 -75t-80.5 -30h-14q-46 0 -80.5 30t-40.5 75q-1 6 3 10.5t11 4.5h228z" />
    <glyph glyph-name="laugh-squint" unicode="Laugh&#x2d;Squint" horiz-adv-x="496" 
d="M248 440q103 0 175.5 -72.5t72.5 -175.5t-72.5 -175.5t-175.5 -72.5t-175.5 72.5t-72.5 175.5t72.5 175.5t175.5 72.5zM389.5 50.5q58.5 58.5 58.5 141.5t-58.5 141.5t-141.5 58.5t-141.5 -58.5t-58.5 -141.5t58.5 -141.5t141.5 -58.5t141.5 58.5zM344 252l33 -40
q7 -8 0 -15.5t-15 -2.5l-80 48q-6 3 -6 10t6 10l80 48q8 5 15 -2.5t0 -15.5zM134 194q-9 -5 -15.5 2.5t0.5 15.5l33 40l-33 40q-7 8 0 15.5t15 2.5l80 -48q6 -3 6 -10t-6 -10zM362 160q7 0 11 -4.5t3 -10.5q-6 -45 -40.5 -75t-80.5 -30h-14q-46 0 -80.5 30t-40.5 75
q-1 6 3 10.5t11 4.5h228z" />
    <glyph glyph-name="laugh-wink" unicode="Laugh&#x2d;Wink" horiz-adv-x="496" 
d="M248 440q103 0 175.5 -72.5t72.5 -175.5t-72.5 -175.5t-175.5 -72.5t-175.5 72.5t-72.5 175.5t72.5 175.5t175.5 72.5zM389.5 50.5q58.5 58.5 58.5 141.5t-58.5 141.5t-141.5 58.5t-141.5 -58.5t-58.5 -141.5t58.5 -141.5t141.5 -58.5t141.5 58.5zM328 284q20 0 38.5 -12
t21.5 -30q1 -8 -6.5 -12t-13.5 1l-10 9q-11 9 -30 9t-31 -9l-9 -9q-6 -5 -13.5 -1t-6.5 12q3 18 21.5 30t38.5 12zM168 224q-13 0 -22.5 9.5t-9.5 22.5t9.5 22.5t22.5 9.5t22.5 -9.5t9.5 -22.5t-9.5 -22.5t-22.5 -9.5zM362 160q7 0 11 -4.5t3 -10.5q-6 -45 -40.5 -75
t-80.5 -30h-14q-46 0 -80.5 30t-40.5 75q-1 6 3 10.5t11 4.5h228z" />
    <glyph glyph-name="meh-blank" unicode="Meh&#x2d;Blank" horiz-adv-x="496" 
d="M248 440q103 0 175.5 -72.5t72.5 -175.5t-72.5 -175.5t-175.5 -72.5t-175.5 72.5t-72.5 175.5t72.5 175.5t175.5 72.5zM248 -8q83 0 141.5 58.5t58.5 141.5t-58.5 141.5t-141.5 58.5t-141.5 -58.5t-58.5 -141.5t58.5 -141.5t141.5 -58.5zM168 272q13 0 22.5 -9.5
t9.5 -22.5t-9.5 -22.5t-22.5 -9.5t-22.5 9.5t-9.5 22.5t9.5 22.5t22.5 9.5zM328 272q13 0 22.5 -9.5t9.5 -22.5t-9.5 -22.5t-22.5 -9.5t-22.5 9.5t-9.5 22.5t9.5 22.5t22.5 9.5z" />
    <glyph glyph-name="meh-rolling-eyes" unicode="Meh&#x2d;Rolling&#x2d;Eyes" horiz-adv-x="496" 
d="M248 440q103 0 175.5 -72.5t72.5 -175.5t-72.5 -175.5t-175.5 -72.5t-175.5 72.5t-72.5 175.5t72.5 175.5t175.5 72.5zM248 -8q83 0 141.5 58.5t58.5 141.5t-58.5 141.5t-141.5 58.5t-141.5 -58.5t-58.5 -141.5t58.5 -141.5t141.5 -58.5zM336 296q30 0 51 -21t21 -51
t-21 -51t-51 -21t-51 21t-21 51t21 51t51 21zM336 184q17 0 28.5 11.5t11.5 28.5q0 20 -18 32q2 -4 2 -8q0 -10 -7 -17t-17 -7t-17 7t-7 17q0 4 2 8q-18 -12 -18 -32q0 -17 11.5 -28.5t28.5 -11.5zM232 224q0 -30 -21 -51t-51 -21t-51 21t-21 51t21 51t51 21t51 -21t21 -51z
M120 224q0 -17 11.5 -28.5t28.5 -11.5t28.5 11.5t11.5 28.5q0 20 -18 32q2 -4 2 -8q0 -10 -7 -17t-17 -7t-17 7t-7 17q0 4 2 8q-18 -12 -18 -32zM312 96q10 0 17 -7t7 -17t-7 -17t-17 -7h-128q-10 0 -17 7t-7 17t7 17t17 7h128z" />
    <glyph glyph-name="sad-cry" unicode="Sad&#x2d;Cry" horiz-adv-x="496" 
d="M248 440q103 0 175.5 -72.5t72.5 -175.5t-72.5 -175.5t-175.5 -72.5t-175.5 72.5t-72.5 175.5t72.5 175.5t175.5 72.5zM392 54q56 58 56 138q0 83 -58.5 141.5t-141.5 58.5t-141.5 -58.5t-58.5 -141.5q0 -80 56 -138v114q0 10 7 17t17 7t17 -7t7 -17v-151q45 -25 96 -25
t96 25v151q0 10 7 17t17 7t17 -7t7 -17v-114zM205.5 213.5q-7.5 -4.5 -13.5 1.5l-9 9q-12 9 -31 9t-30 -9l-10 -9q-6 -6 -13.5 -1.5t-6.5 12.5q3 18 21.5 30t38.5 12t38.5 -12t21.5 -30q1 -8 -6.5 -12.5zM344 268q20 0 38.5 -12t21.5 -30q1 -8 -6.5 -12t-13.5 1l-10 9
q-11 9 -30 9t-30 -9l-10 -9q-6 -5 -13.5 -1t-6.5 12q3 18 21.5 30t38.5 12zM248 176q23 0 39.5 -19t16.5 -45t-16.5 -45t-39.5 -19t-39.5 19t-16.5 45t16.5 45t39.5 19z" />
    <glyph glyph-name="sad-tear" unicode="Sad&#x2d;Tear" horiz-adv-x="496" 
d="M248 440q103 0 175.5 -72.5t72.5 -175.5t-72.5 -175.5t-175.5 -72.5t-175.5 72.5t-72.5 175.5t72.5 175.5t175.5 72.5zM248 -8q83 0 141.5 58.5t58.5 141.5t-58.5 141.5t-141.5 58.5t-141.5 -58.5t-58.5 -141.5t58.5 -141.5t141.5 -58.5zM256 144q60 0 98 -46q7 -8 6 -18
t-9 -16t-17.5 -5t-15.5 8q-24 29 -62 29q-10 0 -17 7t-7 17t7 17t17 7zM168 208q-13 0 -22.5 9.5t-9.5 22.5t9.5 22.5t22.5 9.5t22.5 -9.5t9.5 -22.5t-9.5 -22.5t-22.5 -9.5zM328 272q13 0 22.5 -9.5t9.5 -22.5t-9.5 -22.5t-22.5 -9.5t-22.5 9.5t-9.5 22.5t9.5 22.5
t22.5 9.5zM162 173q6 8 12 0q36 -49 36 -68q0 -17 -12.5 -29t-29.5 -12t-29.5 12t-12.5 29q0 19 36 68z" />
    <glyph glyph-name="smile-beam" unicode="Smile&#x2d;Beam" horiz-adv-x="496" 
d="M248 440q103 0 175.5 -72.5t72.5 -175.5t-72.5 -175.5t-175.5 -72.5t-175.5 72.5t-72.5 175.5t72.5 175.5t175.5 72.5zM248 -8q83 0 141.5 58.5t58.5 141.5t-58.5 141.5t-141.5 58.5t-141.5 -58.5t-58.5 -141.5t58.5 -141.5t141.5 -58.5zM332 135q6 8 16 9t17.5 -5.5
t8.5 -16.5t-5 -17q-47 -57 -121 -57t-121 57q-6 7 -5 17t8.5 16.5t17.5 5.5t16 -9q33 -39 84 -39t84 39zM136 237l-9 -17q-3 -6 -9 -4q-7 2 -6 9q2 30 19.5 50.5t36.5 20.5t36.5 -20.5t19.5 -50.5q1 -7 -5.5 -9t-9.5 4l-9 17q-13 22 -32 22t-32 -22zM328 296
q19 0 36.5 -20.5t19.5 -50.5q1 -7 -5.5 -9t-9.5 4l-9 17q-13 22 -32 22t-32 -22l-9 -17q-3 -6 -9 -4q-7 2 -6 9q2 30 19.5 50.5t36.5 20.5z" />
    <glyph glyph-name="surprise" unicode="Surprise" horiz-adv-x="496" 
d="M248 440q103 0 175.5 -72.5t72.5 -175.5t-72.5 -175.5t-175.5 -72.5t-175.5 72.5t-72.5 175.5t72.5 175.5t175.5 72.5zM248 -8q83 0 141.5 58.5t58.5 141.5t-58.5 141.5t-141.5 58.5t-141.5 -58.5t-58.5 -141.5t58.5 -141.5t141.5 -58.5zM248 168q26 0 45 -19t19 -45
t-19 -45t-45 -19t-45 19t-19 45t19 45t45 19zM200 240q0 -13 -9.5 -22.5t-22.5 -9.5t-22.5 9.5t-9.5 22.5t9.5 22.5t22.5 9.5t22.5 -9.5t9.5 -22.5zM328 272q13 0 22.5 -9.5t9.5 -22.5t-9.5 -22.5t-22.5 -9.5t-22.5 9.5t-9.5 22.5t9.5 22.5t22.5 9.5z" />
    <glyph glyph-name="tired" unicode="Tired" horiz-adv-x="496" 
d="M248 440q103 0 175.5 -72.5t72.5 -175.5t-72.5 -175.5t-175.5 -72.5t-175.5 72.5t-72.5 175.5t72.5 175.5t175.5 72.5zM248 -8q83 0 141.5 58.5t58.5 141.5t-58.5 141.5t-141.5 58.5t-141.5 -58.5t-58.5 -141.5t58.5 -141.5t141.5 -58.5zM377.5 295.5
q6.5 -7.5 -0.5 -15.5l-33 -40l33 -40q7 -8 0.5 -15.5t-15.5 -2.5l-80 48q-6 3 -6 10t6 10l80 48q9 5 15.5 -2.5zM220 240q0 -7 -6 -10l-80 -48q-9 -5 -15.5 2.5t0.5 15.5l33 40l-33 40q-7 8 0 15.5t15 2.5l80 -48q6 -3 6 -10zM248 176q36 0 69.5 -27t38.5 -66q1 -9 -4 -15
t-12 -3q-35 15 -92 15t-92 -15q-7 -3 -12 3t-4 15q5 39 38.5 66t69.5 27z" />
    <glyph glyph-name=".notdef" horiz-adv-x="256" 
d="M25 0v298h206v-298h-206zM50 25h156v248h-156v-248z" />
    <glyph glyph-name=".null" horiz-adv-x="0" 
 />
    <glyph glyph-name="nonmarkingreturn" horiz-adv-x="170" 
 />
    <glyph glyph-name="space" unicode=" " horiz-adv-x="200" 
 />
    <glyph glyph-name="hyphen" unicode="-" horiz-adv-x="219" 
d="M182 211v-35h-145v35h145z" />
    <glyph glyph-name="period" unicode="." horiz-adv-x="119" 
d="M86 56h-53v53h53v-53z" />
    <glyph glyph-name="zero" unicode="0" horiz-adv-x="307" 
d="M26 238q0 187 128 187q62 0 94.5 -47.5t32.5 -138.5q0 -187 -127 -187q-128 0 -128 186zM239 239q0 150 -85 150t-85 -150q0 -152 85 -152t85 152z" />
    <glyph glyph-name="one" unicode="1" horiz-adv-x="335" 
d="M164 421h24v-330h81v-35h-203v35h80v277l-75 -47v40z" />
    <glyph glyph-name="two" unicode="2" horiz-adv-x="310" 
d="M201 204l-104 -113h180v-35h-235v32l128 141q49 55 49 98q0 62 -67 62q-52 0 -103 -42l-16 33q47 45 120 45q50 0 79.5 -26t29.5 -70q0 -58 -61 -125z" />
    <glyph glyph-name="three" unicode="3" horiz-adv-x="297" 
d="M270 155q0 -48 -32 -75.5t-88 -27.5q-75 0 -123 45l17 33q50 -42 105 -42q79 0 79 68q0 67 -84 67h-42v36h34q84 0 84 69q0 29 -18 45t-50 16q-52 0 -103 -42l-16 33q47 45 121 45q49 0 78.5 -25t29.5 -68q0 -66 -58 -89q66 -18 66 -88z" />
    <glyph glyph-name="four" unicode="4" horiz-adv-x="315" 
d="M235 421v-251h55v-35h-55v-79h-42v79h-168v32l176 254h34zM193 170v179l-124 -179h124z" />
    <glyph glyph-name="five" unicode="5" horiz-adv-x="322" 
d="M283 169q0 -52 -34 -84.5t-90 -32.5q-72 0 -120 45l16 33q51 -42 104 -42q38 0 60 21.5t22 59.5q0 36 -21.5 58.5t-57.5 22.5q-51 0 -83 -43h-29v214h218v-35h-176v-130q31 29 77 29q52 0 83 -32t31 -84z" />
    <glyph glyph-name="six" unicode="6" horiz-adv-x="311" 
d="M283 169q0 -50 -33.5 -83.5t-84.5 -33.5q-66 0 -101.5 46t-35.5 131q0 92 37 144t103 52t114 -45l-16 -33q-49 42 -97 42q-47 0 -73 -42t-26 -117v-8q26 63 99 63q50 0 82 -32.5t32 -83.5zM241 169q0 36 -21.5 58.5t-56.5 22.5q-36 0 -58.5 -23t-22.5 -58
q0 -37 22.5 -59.5t58.5 -22.5q35 0 56.5 22.5t21.5 59.5z" />
    <glyph glyph-name="seven" unicode="7" horiz-adv-x="307" 
d="M228 385h-195v36h241v-32l-171 -333h-45z" />
    <glyph glyph-name="eight" unicode="8" horiz-adv-x="307" 
d="M284 153q0 -46 -35.5 -73.5t-94.5 -27.5q-60 0 -95.5 27.5t-35.5 73.5q0 33 20.5 57t55.5 33q-68 20 -68 85q0 43 34 70t89 27q54 0 88 -27t34 -70q0 -64 -67 -85q36 -9 55.5 -33t19.5 -57zM154 255q37 5 58.5 23t21.5 47q0 30 -21.5 47.5t-58.5 17.5q-38 0 -59.5 -17.5
t-21.5 -47.5q0 -29 21.5 -47t59.5 -23zM243 155q0 30 -24 48t-65 23q-89 -10 -89 -71q0 -68 89 -68t89 68z" />
    <glyph glyph-name="nine" unicode="9" horiz-adv-x="305" 
d="M280 247q0 -92 -37 -143.5t-104 -51.5q-66 0 -114 45l16 32q51 -42 98 -42t73 42t26 118v7q-12 -29 -38.5 -45.5t-61.5 -16.5q-50 0 -81.5 32t-31.5 83t33.5 84.5t83.5 33.5q66 0 102 -46.5t36 -131.5zM226 308q0 37 -22.5 59t-59.5 22q-35 0 -56 -22t-21 -59t21.5 -59
t56.5 -22q36 0 58.5 22.5t22.5 58.5z" />
    <glyph glyph-name="A" unicode="A" horiz-adv-x="376" 
d="M206 421l161 -365h-43l-40 94h-191l-40 -94h-44l160 365h37zM269 185l-81 187l-80 -187h161z" />
    <glyph glyph-name="B" unicode="B" horiz-adv-x="363" 
d="M318 155q0 -47 -31.5 -73t-89.5 -26h-152v365h146q56 0 87 -25t31 -71q0 -60 -57 -82q66 -18 66 -88zM185 386h-98v-127h98q83 0 83 64q0 63 -83 63zM276 156q0 67 -83 67h-106v-132h106q83 0 83 65z" />
    <glyph glyph-name="C" unicode="C" horiz-adv-x="357" 
d="M32 239q0 86 45.5 136t123.5 50q76 0 124 -46l-16 -33q-47 42 -108 42q-60 0 -93 -38.5t-33 -110.5t33 -111.5t93 -39.5q59 0 108 42l16 -32q-46 -46 -124 -46t-123.5 50.5t-45.5 136.5z" />
    <glyph glyph-name="D" unicode="D" horiz-adv-x="396" 
d="M167 56h-122v365h122q88 0 136 -47.5t48 -134.5q0 -88 -48 -135.5t-136 -47.5zM87 385v-293h78q142 0 142 147q0 146 -142 146h-78z" />
    <glyph glyph-name="E" unicode="E" horiz-adv-x="320" 
d="M275 91v-35h-230v365h230v-35h-188v-127h178v-36h-178v-132h188z" />
    <glyph glyph-name="F" unicode="F" horiz-adv-x="315" 
d="M87 223v-167h-42v365h225v-36h-183v-126h173v-36h-173z" />
    <glyph glyph-name="G" unicode="G" horiz-adv-x="365" 
d="M204 213v33h129v-169q-47 -25 -127 -25q-82 0 -128 49.5t-46 137.5q0 86 46 136t125 50q78 0 126 -46l-17 -33q-49 43 -109 43q-62 0 -95 -38.5t-33 -111.5q0 -74 34 -113t98 -39q46 0 88 15v111h-91z" />
    <glyph glyph-name="H" unicode="H" horiz-adv-x="392" 
d="M87 259h218v162h42v-365h-42v167h-218v-167h-42v365h42v-162z" />
    <glyph glyph-name="I" unicode="I" horiz-adv-x="132" 
d="M87 421v-365h-42v365h42z" />
    <glyph glyph-name="J" unicode="J" horiz-adv-x="126" 
d="M-3 -35v36q32 -4 37 -4q26 0 36.5 14.5t10.5 50.5v359h42v-360q0 -53 -19 -76.5t-63 -23.5q-20 0 -44 4z" />
    <glyph glyph-name="K" unicode="K" horiz-adv-x="375" 
d="M320 421l-190 -178l200 -187h-55l-188 174v-174h-42v365h42v-168l179 168h54z" />
    <glyph glyph-name="L" unicode="L" horiz-adv-x="315" 
d="M270 92v-36h-225v365h42v-329h183z" />
    <glyph glyph-name="M" unicode="M" horiz-adv-x="435" 
d="M80 421l138 -315l137 315h35v-365h-39v271l-119 -271h-29l-120 269l1 -269h-39v365h35z" />
    <glyph glyph-name="N" unicode="N" horiz-adv-x="382" 
d="M77 421l220 -294v294h40v-365h-32l-221 293v-293h-39v365h32z" />
    <glyph glyph-name="O" unicode="O" horiz-adv-x="396" 
d="M32 238q0 86 44.5 136.5t121.5 50.5t121.5 -50t44.5 -136t-45 -136.5t-121 -50.5t-121 50t-45 136zM320 239q0 72 -32 111t-90 39q-59 0 -91 -39t-32 -111t32 -111.5t91 -39.5q58 0 90 39.5t32 111.5z" />
    <glyph glyph-name="P" unicode="P" horiz-adv-x="355" 
d="M87 56h-42v365h145q57 0 88.5 -27t31.5 -75t-32 -75.5t-88 -27.5h-103v-160zM87 386v-135h100q81 0 81 68q0 67 -81 67h-100z" />
    <glyph glyph-name="Q" unicode="Q" horiz-adv-x="396" 
d="M325 -15l-29 -27q-46 35 -80 95q-8 -1 -18 -1q-76 0 -121 50t-45 136t44.5 136.5t121.5 50.5t121.5 -50t44.5 -136q0 -67 -27.5 -113t-77.5 -64q23 -41 66 -77zM198 88q58 0 90 39.5t32 111.5t-32 111t-90 39q-59 0 -91 -39t-32 -111t32 -111.5t91 -39.5z" />
    <glyph glyph-name="R" unicode="R" horiz-adv-x="376" 
d="M285 179l46 -123h-44l-45 121q-8 22 -22.5 30t-41.5 8h-91v-159h-42v365h145q59 0 90.5 -26.5t31.5 -75.5q0 -73 -73 -95q32 -5 46 -45zM87 386v-136h99q84 0 84 69q0 67 -84 67h-99z" />
    <glyph glyph-name="S" unicode="S" horiz-adv-x="320" 
d="M25 98l15 32q52 -42 121 -42q44 0 68.5 17t23.5 48q-1 27 -21 38.5t-71 23.5q-49 12 -69 20q-61 25 -61 84q0 47 36.5 76.5t96.5 29.5q80 0 126 -46l-17 -33q-50 43 -109 43q-43 0 -67 -18t-24 -50q0 -27 20 -41t66 -25q31 -7 73 -21q63 -20 63 -79q0 -47 -36.5 -75
t-97.5 -28q-87 0 -136 46z" />
    <glyph glyph-name="T" unicode="T" horiz-adv-x="309" 
d="M176 385v-329h-43v329h-127v36h297v-36h-127z" />
    <glyph glyph-name="U" unicode="U" horiz-adv-x="374" 
d="M42 199v222h42v-226q0 -107 103 -107t103 107v226h42v-222q0 -72 -37 -109.5t-108 -37.5q-145 0 -145 147z" />
    <glyph glyph-name="V" unicode="V" horiz-adv-x="357" 
d="M46 421l133 -312l134 312h43l-159 -365h-37l-159 365h45z" />
    <glyph glyph-name="W" unicode="W" horiz-adv-x="569" 
d="M302 420l104 -305l104 306h42l-128 -365h-35l-104 298l-105 -298h-35l-128 365h43l103 -305l106 305z" />
    <glyph glyph-name="X" unicode="X" horiz-adv-x="334" 
d="M274 421h50l-133 -179l139 -186h-50l-113 155l-113 -155h-50l139 187l-132 178h50l106 -147z" />
    <glyph glyph-name="Y" unicode="Y" horiz-adv-x="328" 
d="M156 241l115 180h48l-143 -218v-147h-42v148l-143 217h49z" />
    <glyph glyph-name="Z" unicode="Z" horiz-adv-x="309" 
d="M281 421v-31l-209 -299h214v-35h-263v31l209 298h-209v36h258z" />
    <glyph glyph-name="a" unicode="a" horiz-adv-x="292" 
d="M226 269v45h41v-258h-41v47q-23 -51 -87 -51q-52 0 -83 36.5t-31 96.5t31.5 97.5t82.5 37.5q61 0 87 -51zM226 186q0 99 -79 99q-38 0 -59 -26.5t-21 -73.5t21 -72.5t59 -25.5t58.5 26t20.5 73z" />
    <glyph glyph-name="b" unicode="b" horiz-adv-x="323" 
d="M283 187q0 -60 -31.5 -97.5t-83.5 -37.5q-62 0 -87 52v-48h-41v377h41v-165q24 52 87 52q52 0 83.5 -36.5t31.5 -96.5zM240 187q0 47 -21 72.5t-58 25.5q-38 0 -59 -25.5t-21 -73.5q0 -47 21 -73t59 -26q37 0 58 26.5t21 73.5z" />
    <glyph glyph-name="c" unicode="c" horiz-adv-x="266" 
d="M25 185q0 60 34 97.5t91 37.5t91 -34l-14 -31q-37 30 -75 30q-40 0 -62 -26.5t-22 -73.5q0 -46 22 -72t62 -26q37 0 75 29l14 -30q-36 -34 -93 -34q-56 0 -89.5 36.5t-33.5 96.5z" />
    <glyph glyph-name="d" unicode="d" horiz-adv-x="292" 
d="M225 270v163h42v-377h-41v47q-23 -51 -87 -51q-51 0 -82.5 37.5t-31.5 97.5t31 96.5t83 36.5q62 0 86 -50zM226 186q0 47 -20.5 73t-58.5 26t-59 -25.5t-21 -72.5t21 -73.5t59 -26.5t58.5 26t20.5 73z" />
    <glyph glyph-name="e" unicode="e" horiz-adv-x="280" 
d="M255 194v-8h-188q0 -99 87 -99q46 0 83 30l14 -30q-38 -35 -97 -35q-61 0 -95 36t-34 98q0 59 34 96.5t87 37.5q51 0 80 -33.5t29 -92.5zM68 213h150q-6 74 -72 74q-65 0 -78 -74z" />
    <glyph glyph-name="f" unicode="f" horiz-adv-x="169" 
d="M95 348v-34h63v-33h-63v-225h-41v225h-50v33h50v39q0 82 77 82q16 0 34 -5v-35q-12 4 -26 4q-44 0 -44 -51z" />
    <glyph glyph-name="g" unicode="g" horiz-adv-x="294" 
d="M228 269v45h41v-256q0 -116 -116 -116q-58 0 -101 26l7 34q48 -26 94 -26q75 0 75 78v61q-26 -51 -88 -51q-52 0 -83.5 35t-31.5 93q0 57 31.5 92.5t83.5 35.5q62 0 88 -51zM228 192q0 44 -21.5 68.5t-58.5 24.5q-38 0 -59.5 -24.5t-21.5 -68.5t21.5 -69t59.5 -25
q37 0 58.5 25t21.5 69z" />
    <glyph glyph-name="h" unicode="h" horiz-adv-x="301" 
d="M261 218v-162h-41v160q0 69 -60 69q-35 0 -57 -22.5t-22 -59.5v-147h-41v377h41v-161q26 48 87 48q93 0 93 -102z" />
    <glyph glyph-name="i" unicode="i" horiz-adv-x="122" 
d="M86 376h-50v47h50v-47zM81 314v-258h-41v258h41z" />
    <glyph glyph-name="j" unicode="j" horiz-adv-x="114" 
d="M86 376h-50v47h50v-47zM-3 -21q43 0 43 51v284h41v-289q0 -39 -19.5 -60.5t-55.5 -21.5q-16 0 -34 5v35q18 -4 25 -4z" />
    <glyph glyph-name="k" unicode="k" horiz-adv-x="308" 
d="M255 313l-129 -123l142 -134h-54l-133 124v-124h-41v377h41v-238l122 118h52z" />
    <glyph glyph-name="l" unicode="l" horiz-adv-x="121" 
d="M81 433v-377h-41v377h41z" />
    <glyph glyph-name="m" unicode="m" horiz-adv-x="447" 
d="M411 218v-162h-41v160q0 36 -13 52.5t-41 16.5q-32 0 -50.5 -22t-18.5 -60v-147h-42v160q0 69 -53 69q-33 0 -52 -22t-19 -60v-147h-41v185q0 29 -4 73h39l4 -46q24 52 82 52q60 0 79 -50q25 50 86 50q85 0 85 -102z" />
    <glyph glyph-name="n" unicode="n" horiz-adv-x="297" 
d="M261 218v-162h-41v160q0 69 -60 69q-35 0 -57 -22.5t-22 -59.5v-147h-41v185q0 29 -4 73h39l4 -47q25 53 89 53q93 0 93 -102z" />
    <glyph glyph-name="o" unicode="o" horiz-adv-x="293" 
d="M25 186q0 61 33 97.5t88 36.5t88.5 -36.5t33.5 -97.5t-33.5 -97.5t-88.5 -36.5t-88 36.5t-33 97.5zM226 186q0 47 -21 73t-59 26t-58.5 -26t-20.5 -73q0 -99 79 -99q80 0 80 99z" />
    <glyph glyph-name="p" unicode="p" horiz-adv-x="319" 
d="M283 185q0 -60 -31.5 -96.5t-83.5 -36.5q-62 0 -87 52v-159h-41v296q0 29 -4 73h39l4 -50q24 56 89 56q52 0 83.5 -37.5t31.5 -97.5zM240 185q0 47 -21 73.5t-58 26.5q-38 0 -59 -25.5t-21 -73.5q0 -47 21 -73t59 -26t58.5 25.5t20.5 72.5z" />
    <glyph glyph-name="q" unicode="q" horiz-adv-x="296" 
d="M227 265l5 49h39q-4 -29 -4 -73v-296h-42v157q-23 -50 -86 -50q-52 0 -83 36.5t-31 96.5t31.5 97.5t82.5 37.5q64 0 88 -55zM226 186q0 99 -79 99q-38 0 -59 -26.5t-21 -73.5t21 -72.5t59 -25.5t58.5 26t20.5 73z" />
    <glyph glyph-name="r" unicode="r" horiz-adv-x="219" 
d="M183 317l-1 -38q-14 4 -27 4q-37 0 -56 -24q-18 -25 -18 -56v-147h-41v185q0 29 -4 73h39l4 -48q20 54 81 54q12 0 23 -3z" />
    <glyph glyph-name="s" unicode="s" horiz-adv-x="252" 
d="M24 86l14 30q38 -30 91 -30q59 0 59 39q0 28 -44 39l-44 10q-67 16 -67 69q0 34 27 55.5t72 21.5q57 0 91 -34l-14 -30q-36 30 -77 30q-58 0 -58 -40q0 -30 40 -39l43 -11q71 -18 71 -70q0 -34 -27.5 -54t-73.5 -20q-64 0 -103 34z" />
    <glyph glyph-name="t" unicode="t" horiz-adv-x="173" 
d="M169 314v-33h-74v-141q0 -52 45 -52q13 0 28 5v-35q-16 -6 -36 -6q-37 0 -57.5 21.5t-20.5 60.5v147h-50v33h50v66l41 14v-80h74z" />
    <glyph glyph-name="u" unicode="u" horiz-adv-x="293" 
d="M214 168v146h41v-258h-40v45q-25 -49 -84 -49q-93 0 -93 102v160h42v-159q0 -68 58 -68q34 0 55 22t21 59z" />
    <glyph glyph-name="v" unicode="v" horiz-adv-x="272" 
d="M50 313l87 -212l88 212h41l-111 -257h-39l-110 257h44z" />
    <glyph glyph-name="w" unicode="w" horiz-adv-x="445" 
d="M242 314l74 -209l74 209h41l-95 -258h-40l-74 201l-73 -201h-40l-95 258h43l73 -208l75 208h37z" />
    <glyph glyph-name="x" unicode="x" horiz-adv-x="274" 
d="M211 314h51l-100 -125l106 -133h-50l-81 101l-81 -101h-50l107 133l-101 125h50l75 -95z" />
    <glyph glyph-name="y" unicode="y" horiz-adv-x="272" 
d="M137 101l88 213h41l-120 -282q-33 -77 -118 -92l-9 32q36 9 55 22q19 15 31 42l10 23l-109 255h44z" />
    <glyph glyph-name="z" unicode="z" horiz-adv-x="269" 
d="M238 314v-31l-161 -194h166v-33h-217v29l162 196h-157v33h207z" />
  </font>
</defs>
</svg>
