<svg xmlns="http://www.w3.org/2000/svg">
<defs>
<font id="TradeGothicLTCom-BdCn20" horiz-adv-x="444" >
  <font-face 
    font-family="Trade Gothic LT Com Cn"
    font-weight="700"
    font-stretch="condensed"
    units-per-em="1000"
    panose-1="2 11 8 6 4 3 3 2 0 4"
    ascent="800"
    descent="-200"
    x-height="538"
    cap-height="722"
    bbox="-167 -305 1000 990"
    underline-thickness="50"
    underline-position="-125"
    unicode-range="U+000D-FB02"
  />
<missing-glyph horiz-adv-x="512" 
d="M222 117v67h56v-67h-56zM225 234l-2 17q0 55 13 81t46 59q32 31 41 47.5t9 35.5q0 36 -22.5 60.5t-53.5 24.5t-53.5 -22t-28.5 -73l-50 8q7 71 44 104t91 33q53 0 88.5 -36t35.5 -95q0 -32 -12.5 -58.5t-50.5 -61.5q-37 -33 -43 -52t-6 -72h-46zM462 50v617h-412v-617
h412zM512 718v-718h-512v718h512z" />
    <glyph glyph-name="IJ" unicode="IJ" horiz-adv-x="544" 
d="M77 0v722h124v-722h-124zM269 98h26q36 0 50.5 15t14.5 45v564h124v-578q0 -35 -8 -63t-27.5 -48.5t-53.5 -31.5t-85 -11h-41v108z" />
    <glyph glyph-name="ij" unicode="ij" horiz-adv-x="436" 
d="M55 568v102h112v-102h-112zM55 0v538h112v-538h-112zM275 620v102h112v-102h-112zM214 -68h19q23 0 32.5 12t9.5 30v563h112v-568q0 -40 -10.5 -67t-28.5 -43t-41.5 -22.5t-49.5 -6.5h-43v102z" />
    <glyph glyph-name="napostrophe" unicode="&#x22;n" horiz-adv-x="529" 
d="M139 0v538h106v-54q18 15 32 27t29 20t33 12.5t42 4.5q45 0 69.5 -30t24.5 -83v-435h-112v417q0 20 -11 29.5t-29 9.5t-35 -10t-37 -24v-422h-112zM118 604l-69 -124h-53l49 124h-45v118h118v-118z" />
    <glyph glyph-name="fi" unicode="fi" 
d="M277 620v102h112v-102h-112zM277 0v538h112v-538h-112zM62 446h-66v92h66v67q0 66 32.5 96.5t92.5 30.5h56v-92h-32q-20 0 -28.5 -8t-8.5 -28v-66h64v-92h-64v-446h-112v446z" />
    <glyph glyph-name="fl" unicode="fl" 
d="M277 0v722h112v-722h-112zM62 446h-66v92h66v67q0 66 32.5 96.5t92.5 30.5h56v-92h-32q-20 0 -28.5 -8t-8.5 -28v-66h64v-92h-64v-446h-112v446z" />
    <glyph glyph-name=".notdef" horiz-adv-x="512" 
d="M222 117v67h56v-67h-56zM225 234l-2 17q0 55 13 81t46 59q32 31 41 47.5t9 35.5q0 36 -22.5 60.5t-53.5 24.5t-53.5 -22t-28.5 -73l-50 8q7 71 44 104t91 33q53 0 88.5 -36t35.5 -95q0 -32 -12.5 -58.5t-50.5 -61.5q-37 -33 -43 -52t-6 -72h-46zM462 50v617h-412v-617
h412zM512 718v-718h-512v718h512z" />
    <glyph glyph-name="nonmarkingreturn" unicode="&#xd;" horiz-adv-x="278" 
 />
    <glyph glyph-name="space" unicode=" " horiz-adv-x="222" 
 />
    <glyph glyph-name="exclam" unicode="!" horiz-adv-x="278" 
d="M80 0v118h118v-118h-118zM76 722h126l-22 -510h-82z" />
    <glyph glyph-name="quotedbl" unicode="&#x22;" horiz-adv-x="333" 
d="M199 722h94v-274h-94v274zM40 722h94v-274h-94v274z" />
    <glyph glyph-name="numbersign" unicode="#" 
d="M192 430l-16 -138h80l16 138h-80zM408 214h-72l-24 -214h-90l25 214h-81l-24 -214h-91l25 214h-66v78h76l15 138h-66v78h76l25 214h89l-25 -214h81l25 214h89l-25 -214h64v-78h-72l-16 -138h62v-78z" />
    <glyph glyph-name="dollar" unicode="$" 
d="M192 624q-23 -8 -36.5 -28t-13.5 -46q0 -33 13.5 -56t36.5 -44v174zM252 96q31 12 43.5 35t12.5 58q0 37 -15.5 59t-40.5 45v-197zM192 810h60v-88q42 -8 78 -32t61 -59l-76 -65q-11 19 -25.5 36t-37.5 22v-207q32 -20 61 -42t51.5 -48t36 -58.5t13.5 -74.5
q0 -38 -10.5 -71.5t-31 -59.5t-51 -43t-69.5 -20v-116h-60v116q-52 5 -93.5 38t-68.5 75l83 63q10 -26 30 -49t49 -31v235q-29 18 -56.5 38.5t-48.5 45.5t-34 55.5t-13 66.5q0 35 10 66.5t29.5 56t47.5 41t65 21.5v88z" />
    <glyph glyph-name="percent" unicode="%" horiz-adv-x="778" 
d="M130 558q0 -35 24.5 -59.5t59.5 -24.5t59.5 24.5t24.5 59.5t-24.5 59.5t-59.5 24.5t-59.5 -24.5t-24.5 -59.5zM480 164q0 -35 24.5 -59.5t59.5 -24.5t59.5 24.5t24.5 59.5t-24.5 59.5t-59.5 24.5t-59.5 -24.5t-24.5 -59.5zM632 732l-409 -742h-75l409 742h75zM400 164
q0 34 13 64t35 52t52 35t64 13t64 -13t52 -35t35 -52t13 -64t-13 -64t-35 -52t-52 -35t-64 -13t-64 13t-52 35t-35 52t-13 64zM50 558q0 34 13 64t35 52t52 35t64 13t64 -13t52 -35t35 -52t13 -64t-13 -64t-35 -52t-52 -35t-64 -13t-64 13t-52 35t-35 52t-13 64z" />
    <glyph glyph-name="ampersand" unicode="&#x26;" horiz-adv-x="556" 
d="M166 175q0 -32 20.5 -54.5t52.5 -22.5q18 0 30.5 4.5t26.5 16.5q-29 34 -54 69.5t-45 75.5q-16 -24 -23.5 -42t-7.5 -47zM192 589q0 -35 10.5 -71t23.5 -68q22 29 41 61.5t19 70.5q0 42 -11.5 60t-33.5 18q-23 0 -36 -18.5t-13 -52.5zM506 323q-11 -50 -29.5 -96
t-38.5 -93q14 -13 32 -22t37 -12v-110q-82 2 -140 55q-30 -29 -62.5 -42t-79.5 -13q-39 0 -71 12.5t-54.5 34.5t-35 53t-12.5 69q0 57 28.5 110t66.5 94q-20 44 -38.5 97.5t-18.5 101.5q0 37 10 68t29.5 53.5t49 35.5t68.5 13q69 0 108 -41t39 -109q0 -34 -11.5 -63.5
t-29.5 -56.5t-40 -51.5t-43 -47.5q19 -39 41.5 -76t48.5 -71q13 33 24.5 66t19.5 68z" />
    <glyph glyph-name="quotesingle" unicode="'" horiz-adv-x="222" 
d="M64 722h94v-274h-94v274z" />
    <glyph glyph-name="parenleft" unicode="(" horiz-adv-x="278" 
d="M246 732q-57 -88 -87.5 -192.5t-30.5 -216.5t30.5 -216.5t87.5 -192.5h-96q-55 86 -86.5 192t-31.5 217t31.5 217t86.5 192h96z" />
    <glyph glyph-name="parenright" unicode=")" horiz-adv-x="278" 
d="M128 732q55 -86 86.5 -192t31.5 -217t-31.5 -217t-86.5 -192h-96q57 88 87.5 192.5t30.5 216.5t-30.5 216.5t-87.5 192.5h96z" />
    <glyph glyph-name="asterisk" unicode="*" 
d="M402 556q-38 -2 -75.5 -7t-75.5 -10q26 -29 53.5 -56t57.5 -51l-79 -55q-13 36 -29 70.5t-32 69.5q-16 -35 -32 -69.5t-29 -70.5l-79 55q30 24 57.5 51t53.5 56q-38 5 -75.5 10t-75.5 7l30 89q60 -36 127 -67q-3 37 -9.5 73t-14.5 71h94q-8 -35 -14.5 -71t-9.5 -73
q67 31 127 67z" />
    <glyph glyph-name="plus" unicode="+" horiz-adv-x="600" 
d="M251 506h98v-204h204v-98h-204v-204h-98v204h-204v98h204v204z" />
    <glyph glyph-name="comma" unicode="," horiz-adv-x="222" 
d="M170 0l-69 -124h-53l49 124h-45v118h118v-118z" />
    <glyph glyph-name="hyphen" unicode="-" horiz-adv-x="333" 
d="M44 223v92h245v-92h-245z" />
    <glyph glyph-name="period" unicode="." horiz-adv-x="222" 
d="M52 0v118h118v-118h-118z" />
    <glyph glyph-name="slash" unicode="/" horiz-adv-x="278" 
d="M201 732h98l-222 -742h-98z" />
    <glyph glyph-name="zero" unicode="0" 
d="M280 565q0 69 -58 69t-58 -69v-408q0 -69 58 -69t58 69v408zM46 534q0 103 41 150.5t135 47.5t135 -47.5t41 -150.5v-346q0 -103 -41 -150.5t-135 -47.5t-135 47.5t-41 150.5v346z" />
    <glyph glyph-name="one" unicode="1" 
d="M177 572h-98v67q42 21 79 44t68 49h63v-732h-112v572z" />
    <glyph glyph-name="two" unicode="2" 
d="M44 0v97q58 84 102.5 151t74.5 121t45.5 98.5t15.5 84.5q0 43 -15 62.5t-41 19.5q-30 0 -45 -21t-15 -54v-49h-118v34q0 40 12.5 74t36 59.5t57.5 40t78 14.5q38 0 69 -13t53 -35.5t34 -51.5t12 -60q0 -43 -8.5 -83.5t-33.5 -92.5t-70 -122t-118 -172h219v-102h-345z" />
    <glyph glyph-name="three" unicode="3" 
d="M158 209v-49q0 -34 13.5 -53t42.5 -19q27 0 43 20t16 65v55q0 59 -24.5 80.5t-81.5 21.5v98q27 0 46.5 5t31.5 17.5t17.5 34t5.5 53.5q0 51 -11 73.5t-39 22.5q-26 0 -41 -15.5t-15 -58.5v-30h-112v34q0 37 11 67.5t33 53t53 35t72 12.5q40 0 70 -15.5t50.5 -41t30.5 -59
t10 -69.5q0 -63 -15 -101.5t-63 -64.5q27 -14 44.5 -30t27.5 -37t13.5 -48t3.5 -64q0 -109 -43.5 -160.5t-136.5 -51.5q-77 0 -121 41.5t-44 134.5v43h112z" />
    <glyph glyph-name="four" unicode="4" 
d="M234 266v282h-2l-121 -282h123zM232 174h-216v92l210 456h120v-456h66v-92h-66v-174h-114v174z" />
    <glyph glyph-name="five" unicode="5" 
d="M162 209v-58q0 -29 15 -46t40 -17q29 0 45 19.5t16 68.5v164q0 35 -15.5 50.5t-36.5 15.5q-29 0 -44 -16t-23 -39h-96q1 42 3 81t3 82t2 93.5t1 114.5h301l-4 -102h-195l-7 -156l2 -2q23 28 44.5 35t50.5 7q72 0 102 -49.5t30 -140.5v-100q0 -114 -39 -169t-129 -55
q-38 0 -70.5 8.5t-56.5 28t-37.5 51t-13.5 76.5v55h112z" />
    <glyph glyph-name="six" unicode="6" 
d="M164 157q0 -69 58 -69t58 69v120q0 35 -14.5 52t-37.5 17q-17 0 -35 -12t-29 -21v-156zM275 528v37q0 69 -53 69q-58 0 -58 -69v-169q12 12 22.5 21t22 15t25 9t32.5 3q27 0 51 -8t42 -26t28.5 -46t10.5 -68v-86q0 -115 -41 -167.5t-135 -52.5t-135 47.5t-41 150.5v346
q0 103 41 150.5t135 47.5q37 1 66.5 -11t50.5 -33.5t32.5 -51.5t11.5 -64v-44h-108z" />
    <glyph glyph-name="seven" unicode="7" 
d="M56 620v102h326v-70l-147 -652h-117l145 620h-207z" />
    <glyph glyph-name="eight" unicode="8" 
d="M222 436q29 0 41.5 23t12.5 76t-12.5 76t-41.5 23t-41.5 -23t-12.5 -76t12.5 -76t41.5 -23zM222 88q36 0 50 31.5t14 88.5t-14 88.5t-50 31.5t-50 -31.5t-14 -88.5t14 -88.5t50 -31.5zM46 200q0 66 14.5 111t60.5 74q-33 24 -49 63t-16 81q0 105 44.5 154t121.5 49
q76 0 121 -49t45 -154q0 -42 -16 -81t-49 -63q46 -29 60.5 -74t14.5 -111q0 -103 -44 -156.5t-132 -53.5t-132 53.5t-44 156.5z" />
    <glyph glyph-name="nine" unicode="9" 
d="M280 565q0 69 -58 69t-58 -69v-120q0 -35 14.5 -52t37.5 -17q17 0 35 12t29 21v156zM169 194v-37q0 -69 53 -69q58 0 58 69v169q-12 -12 -22.5 -21t-22 -15t-25 -9t-32.5 -3q-27 0 -51 8t-42 26t-28.5 46t-10.5 68v86q0 115 41 167.5t135 52.5t135 -47.5t41 -150.5v-346
q0 -103 -41 -150.5t-135 -47.5q-37 -1 -66.5 11t-50.5 33.5t-32.5 51t-11.5 64.5v44h108z" />
    <glyph glyph-name="colon" unicode=":" horiz-adv-x="222" 
d="M52 278v118h118v-118h-118zM52 0v118h118v-118h-118z" />
    <glyph glyph-name="semicolon" unicode=";" horiz-adv-x="222" 
d="M52 278v118h118v-118h-118zM170 0l-69 -124h-53l49 124h-45v118h118v-118z" />
    <glyph glyph-name="less" unicode="&#x3c;" horiz-adv-x="600" 
d="M553 0l-506 211v84l506 211v-104l-365 -149l365 -149v-104z" />
    <glyph glyph-name="equal" unicode="=" horiz-adv-x="600" 
d="M553 100h-506v98h506v-98zM553 308h-506v98h506v-98z" />
    <glyph glyph-name="greater" unicode="&#x3e;" horiz-adv-x="600" 
d="M47 104l365 149l-365 149v104l506 -211v-84l-506 -211v104z" />
    <glyph glyph-name="question" unicode="?" horiz-adv-x="389" 
d="M124 0v118h118v-118h-118zM137 212v84q0 52 16 94.5t36 78.5t36 67t16 59q0 18 -11.5 31.5t-30.5 13.5q-16 0 -27.5 -7t-20 -18t-14.5 -24.5t-9 -26.5l-96 36q23 66 66 99t115 33q28 0 54 -10t46 -28t32 -42.5t12 -53.5q0 -28 -5.5 -49.5t-14 -39.5t-19.5 -34t-23 -32
t-23 -33t-19.5 -38t-14 -47t-5.5 -59v-54h-96z" />
    <glyph glyph-name="at" unicode="@" horiz-adv-x="800" 
d="M369 233q27 0 50 14t39 36t25 48.5t9 52.5q0 37 -21.5 62t-55.5 25q-27 0 -50 -14t-39.5 -36t-25.5 -48t-9 -51q0 -38 21.5 -63.5t56.5 -25.5zM539 548h81l-63 -257q-2 -9 -4.5 -19t-2.5 -20q0 -11 3 -19t13 -8q21 0 41.5 13.5t37 38t27 58t10.5 73.5q0 60 -21 106
t-57 77t-84.5 47t-104.5 16q-64 0 -116.5 -22.5t-90 -62t-58 -93.5t-20.5 -117q0 -64 22 -117.5t62 -92t94 -60t119 -21.5q63 0 118 21.5t95 61.5h83q-51 -78 -129.5 -119.5t-172.5 -41.5q-80 0 -149 26.5t-121 75.5t-81.5 117t-29.5 152q0 81 29.5 149t80.5 117.5t119.5 77
t146.5 27.5q67 0 129 -22t110 -61.5t76.5 -95.5t28.5 -124q0 -77 -28.5 -131t-68 -88.5t-81.5 -50.5t-69 -16q-23 0 -39 13t-18 41l-2 1q-20 -23 -49 -39t-59 -16q-32 0 -60 13t-49 35.5t-33.5 53t-12.5 64.5q0 47 15.5 92.5t43.5 81t67.5 57t88.5 21.5q37 0 67 -16t50 -49z
" />
    <glyph glyph-name="A" unicode="A" 
d="M172 268h100l-49 310h-2zM132 0h-120l133 722h154l133 -722h-120l-22 160h-136z" />
    <glyph glyph-name="B" unicode="B" horiz-adv-x="500" 
d="M184 426h45q35 0 59 23.5t24 68.5q0 102 -81 102h-47v-194zM184 102h52q50 0 70 28t20 83q0 56 -23 83.5t-79 27.5h-40v-222zM60 722h184q100 0 146 -49t46 -142q0 -23 -5 -46.5t-15.5 -43.5t-27 -36t-38.5 -25q48 -21 74 -61t26 -110q0 -45 -10.5 -83t-33.5 -66t-60 -44
t-90 -16h-196v722z" />
    <glyph glyph-name="C" unicode="C" horiz-adv-x="500" 
d="M310 481v56q0 46 -18 66.5t-42 20.5q-38 0 -52 -19.5t-14 -60.5v-366q0 -41 14 -60.5t52 -19.5q34 0 47 19t13 54v87h124v-83q0 -38 -11.5 -72t-34 -59t-57.5 -39.5t-81 -14.5q-49 0 -84.5 14.5t-59 39.5t-35 59t-11.5 72v372q0 38 11.5 72t35 59t59 39.5t84.5 14.5
q46 0 81 -16t57.5 -43t34 -63t11.5 -76v-53h-124z" />
    <glyph glyph-name="D" unicode="D" horiz-adv-x="500" 
d="M184 102h43q50 0 69.5 22t19.5 79v316q0 57 -19.5 79t-69.5 22h-43v-518zM60 722h184q97 0 146.5 -53t49.5 -165v-286q0 -112 -49.5 -165t-146.5 -53h-184v722z" />
    <glyph glyph-name="E" unicode="E" 
d="M60 0v722h332v-108h-208v-186h160v-108h-160v-212h222v-108h-346z" />
    <glyph glyph-name="F" unicode="F" 
d="M60 0v722h346v-108h-222v-186h166v-108h-166v-320h-124z" />
    <glyph glyph-name="G" unicode="G" horiz-adv-x="500" 
d="M231 366h203v-366h-60l-23 54q-28 -33 -54.5 -48.5t-70.5 -15.5q-74 0 -120 49t-46 136v372q0 38 11.5 72t34 59t56.5 39.5t80 14.5t81 -16t58.5 -43t35 -63t11.5 -76v-46h-118q0 40 -4 66.5t-13 42t-22.5 21.5t-31.5 6q-23 0 -39 -16.5t-16 -62.5v-371q0 -35 13 -55.5
t45 -20.5q38 0 53 23t15 77v70h-79v98z" />
    <glyph glyph-name="H" unicode="H" horiz-adv-x="500" 
d="M60 0v722h124v-294h132v294h124v-722h-124v320h-132v-320h-124z" />
    <glyph glyph-name="I" unicode="I" horiz-adv-x="278" 
d="M77 0v722h124v-722h-124z" />
    <glyph glyph-name="J" unicode="J" horiz-adv-x="278" 
d="M3 98h26q36 0 50.5 15t14.5 45v564h124v-578q0 -35 -8 -63t-27.5 -48.5t-53.5 -31.5t-85 -11h-41v108z" />
    <glyph glyph-name="K" unicode="K" horiz-adv-x="451" 
d="M54 0v722h124v-267h2l130 267h124l-134 -269l151 -453h-126l-101 336h-2l-44 -80v-256h-124z" />
    <glyph glyph-name="L" unicode="L" horiz-adv-x="389" 
d="M54 0v722h124v-614h195v-108h-319z" />
    <glyph glyph-name="M" unicode="M" horiz-adv-x="611" 
d="M557 722v-722h-108v564h-2l-112 -564h-60l-112 564h-2v-564h-108v722h163l88 -422h2l88 422h163z" />
    <glyph glyph-name="N" unicode="N" horiz-adv-x="500" 
d="M60 0v722h115l151 -413h2v413h112v-722h-108l-158 451h-2v-451h-112z" />
    <glyph glyph-name="O" unicode="O" horiz-adv-x="500" 
d="M184 178q0 -41 14 -60.5t52 -19.5t52 19.5t14 60.5v366q0 41 -14 60.5t-52 19.5t-52 -19.5t-14 -60.5v-366zM60 547q0 38 11.5 72t35 59t59 39.5t84.5 14.5t84.5 -14.5t59 -39.5t35 -59t11.5 -72v-372q0 -38 -11.5 -72t-35 -59t-59 -39.5t-84.5 -14.5t-84.5 14.5
t-59 39.5t-35 59t-11.5 72v372z" />
    <glyph glyph-name="P" unicode="P" horiz-adv-x="500" 
d="M184 398h48q30 0 50.5 5t33 18t17.5 34.5t5 53.5t-5 53.5t-17.5 34t-33 18t-50.5 5.5h-48v-222zM60 0v722h178q115 0 169.5 -49t54.5 -164q0 -58 -13.5 -98.5t-41 -66t-70 -37t-99.5 -11.5h-54v-296h-124z" />
    <glyph glyph-name="Q" unicode="Q" horiz-adv-x="500" 
d="M259 258q10 -5 24.5 -14.5t32.5 -29.5v330q0 41 -14 60.5t-52 19.5t-52 -19.5t-14 -60.5v-366q0 -41 14 -60.5t52 -19.5q28 0 42 11q-11 20 -19 27t-14 12v110zM477 -54q-17 0 -33 2t-31 9t-30.5 20.5t-31.5 35.5q-41 -23 -101 -23q-49 0 -84.5 14.5t-59 39.5t-35 59
t-11.5 72v372q0 38 11.5 72t35 59t59 39.5t84.5 14.5t84.5 -14.5t59 -39.5t35 -59t11.5 -72v-372q0 -53 -21 -93q21 -18 34.5 -22.5t23.5 -5.5v-108z" />
    <glyph glyph-name="R" unicode="R" horiz-adv-x="502" 
d="M184 398h44q25 0 42.5 5t28.5 18t16 34.5t5 53.5q0 64 -21 87.5t-71 23.5h-44v-222zM184 0h-124v722h174q104 0 157 -49t53 -164q0 -44 -7.5 -75t-20 -52.5t-28 -34.5t-31.5 -20l105 -327h-126l-88 299q-12 -2 -29.5 -2.5t-34.5 -0.5v-296z" />
    <glyph glyph-name="S" unicode="S" 
d="M286 544q-2 23 -8.5 38.5t-16 24.5t-20.5 13t-21 4q-30 0 -46 -18.5t-16 -52.5q0 -31 18.5 -57t46.5 -52t61 -52.5t61 -58.5t46.5 -70.5t18.5 -87.5q0 -45 -14.5 -79.5t-40 -58t-62 -35.5t-79.5 -12t-77 16t-57.5 43.5t-36.5 63.5t-15 77l118 17q4 -55 24 -82t50 -27
q32 0 52 17t20 49q0 36 -18.5 64t-46.5 54t-61 52t-61 57t-46.5 70t-18.5 91q0 87 50 133.5t142 46.5q38 0 68 -13t51.5 -36.5t35 -55.5t17.5 -70z" />
    <glyph glyph-name="T" unicode="T" horiz-adv-x="388" 
d="M132 614h-120v108h364v-108h-120v-614h-124v614z" />
    <glyph glyph-name="U" unicode="U" horiz-adv-x="500" 
d="M60 722h124v-545q0 -79 66 -79t66 79v545h124v-540q0 -94 -50.5 -143t-139.5 -49t-139.5 49t-50.5 143v540z" />
    <glyph glyph-name="V" unicode="V" 
d="M313 722h122l-151 -722h-124l-151 722h122l90 -501h2z" />
    <glyph glyph-name="W" unicode="W" horiz-adv-x="667" 
d="M275 722h102l84 -460h2l69 460h116l-127 -722h-104l-90 477h-2l-84 -477h-104l-137 722h116l76 -460h2z" />
    <glyph glyph-name="X" unicode="X" 
d="M156 378l-132 344h122l76 -229h2l69 229h122l-125 -344l140 -378h-122l-84 263h-2l-86 -263h-122z" />
    <glyph glyph-name="Y" unicode="Y" 
d="M284 0h-124v300l-150 422h126l87 -275h2l83 275h126l-150 -422v-300z" />
    <glyph glyph-name="Z" unicode="Z" 
d="M72 614v108h328v-118l-228 -496h228v-108h-356v118l231 496h-203z" />
    <glyph glyph-name="bracketleft" unicode="[" horiz-adv-x="278" 
d="M250 674h-118v-702h118v-48h-214v798h214v-48z" />
    <glyph glyph-name="backslash" unicode="\" horiz-adv-x="278" 
d="M299 -10h-98l-222 742h98z" />
    <glyph glyph-name="bracketright" unicode="]" horiz-adv-x="278" 
d="M28 722h214v-798h-214v48h118v702h-118v48z" />
    <glyph glyph-name="asciicircum" unicode="^" horiz-adv-x="600" 
d="M56 302l190 420h108l190 -420h-109l-136 302l-136 -302h-107z" />
    <glyph glyph-name="underscore" unicode="_" horiz-adv-x="500" 
d="M0 -125v50h500v-50h-500z" />
    <glyph glyph-name="grave" unicode="`" horiz-adv-x="222" 
d="M-32 746h135l79 -144h-83z" />
    <glyph glyph-name="a" unicode="a" 
d="M273 273q-38 -22 -63 -40t-39 -35t-19.5 -33t-5.5 -34q0 -26 13 -37.5t39 -11.5q23 0 42 15t33 35v141zM42 380q5 82 53 125t127 43q78 0 120.5 -36t42.5 -110v-345q0 -13 2.5 -28t4.5 -29h-107q-1 11 -3 21.5t-3 20.5q-32 -26 -61 -39t-70 -13q-57 0 -85.5 34.5
t-28.5 86.5q0 44 14.5 79t44.5 64t75 53.5t105 47.5v32q0 69 -55 69q-38 0 -50 -20.5t-14 -55.5h-112z" />
    <glyph glyph-name="b" unicode="b" 
d="M166 110q17 -12 32 -20t32 -8q11 0 21 3.5t17.5 13.5t11.5 26.5t4 43.5v200q0 27 -4 43.5t-11.5 26.5t-17.5 13.5t-21 3.5q-17 0 -32 -8t-32 -20v-318zM54 0v722h112v-230q16 13 29.5 23.5t26.5 18t27.5 11t32.5 3.5q53 0 83.5 -38t30.5 -112v-258q0 -74 -30.5 -112
t-83.5 -38q-42 0 -67 15.5t-53 50.5h-2v-56h-106z" />
    <glyph glyph-name="c" unicode="c" 
d="M284 354v14q0 47 -16 67.5t-46 20.5t-46 -20.5t-16 -67.5v-198q0 -47 16 -67.5t46 -20.5t46 20.5t16 67.5v34h112v-14q0 -44 -9 -81t-30 -63.5t-54 -41t-81 -14.5t-81 14.5t-54 41t-30 63.5t-9 81v158q0 44 9 81t30 63.5t54 41t81 14.5q47 0 80 -14t53.5 -39.5t30 -61.5
t10.5 -79h-112z" />
    <glyph glyph-name="d" unicode="d" 
d="M278 428q-17 12 -32 20t-32 8q-23 0 -38.5 -17t-15.5 -70v-200q0 -53 15.5 -70t38.5 -17q17 0 32 8t32 20v318zM284 0v56h-2q-28 -35 -53 -50.5t-67 -15.5q-53 0 -83.5 38t-30.5 112v258q0 74 30.5 112t83.5 38q18 0 32.5 -3.5t27.5 -11t26 -18t30 -23.5v230h112v-722
h-106z" />
    <glyph glyph-name="e" unicode="e" 
d="M284 340v28q0 47 -16 67.5t-46 20.5t-46 -20.5t-16 -67.5v-28h124zM396 248h-236v-78q0 -47 16 -67.5t46 -20.5t46 20.5t16 67.5v12h112q-1 -43 -10.5 -78t-30.5 -60.5t-53.5 -39.5t-79.5 -14q-48 0 -81 14.5t-54 41t-30 63.5t-9 81v158q0 44 9 81t30 63.5t54 41t81 14.5
t81 -14.5t54 -41t30 -63.5t9 -81v-100z" />
    <glyph glyph-name="f" unicode="f" horiz-adv-x="278" 
d="M76 446h-66v92h66v67q0 66 32.5 96.5t92.5 30.5h56v-92h-32q-20 0 -28.5 -8t-8.5 -28v-66h64v-92h-64v-446h-112v446z" />
    <glyph glyph-name="g" unicode="g" 
d="M231 -90q56 0 75.5 9.5t19.5 30.5t-19.5 30.5t-75.5 9.5t-75.5 -9.5t-19.5 -30.5t19.5 -30.5t75.5 -9.5zM198 230q16 0 27 5t17.5 17.5t9 34.5t2.5 56t-2.5 56t-9 34.5t-17.5 17.5t-27 5q-14 0 -24 -5t-17.5 -17.5t-11 -34.5t-3.5 -56t3.5 -56t11 -34.5t17.5 -17.5t24 -5
zM426 455q-5 1 -9 1h-9q-15 0 -28.5 -3.5t-25.5 -13.5q6 -21 9 -44.5t3 -40.5q0 -62 -10.5 -103t-31.5 -66.5t-53 -36t-75 -10.5h-36q-9 -2 -15.5 -8.5t-6.5 -16.5q0 -18 21.5 -23.5t53.5 -7t69 -3t69 -13t53.5 -36.5t21.5 -72q0 -69 -60.5 -98.5t-169.5 -29.5
q-85 0 -131.5 22t-46.5 64q0 32 22 54.5t51 29.5v2q-23 9 -37 25.5t-14 42.5q0 14 6.5 27t16.5 24t22 20.5t23 15.5q-21 15 -35 29t-22 35t-11.5 51.5t-3.5 77.5q0 55 9.5 93t30.5 61.5t54 33.5t80 10q36 0 67 -13.5t57 -44.5q11 16 20.5 27.5t19.5 18t22 9.5t30 3v-93z" />
    <glyph glyph-name="h" unicode="h" horiz-adv-x="453" 
d="M54 0v722h112v-234q15 13 28.5 24.5t27.5 19t32 12t42 4.5q45 0 69.5 -30t24.5 -83v-435h-112v417q0 20 -11 29.5t-29 9.5t-35 -10t-37 -24v-422h-112z" />
    <glyph glyph-name="i" unicode="i" horiz-adv-x="222" 
d="M55 568v102h112v-102h-112zM55 0v538h112v-538h-112z" />
    <glyph glyph-name="j" unicode="j" horiz-adv-x="222" 
d="M61 620v102h112v-102h-112zM0 -68h19q23 0 32.5 12t9.5 30v563h112v-568q0 -40 -10.5 -67t-28.5 -43t-41.5 -22.5t-49.5 -6.5h-43v102z" />
    <glyph glyph-name="k" unicode="k" 
d="M294 368l130 -368h-113l-90 267h-2l-53 -79v-188h-112v722h112v-374h2l123 190h120z" />
    <glyph glyph-name="l" unicode="l" horiz-adv-x="222" 
d="M55 0v722h112v-722h-112z" />
    <glyph glyph-name="m" unicode="m" horiz-adv-x="667" 
d="M277 0v417q0 20 -11 29.5t-28 9.5q-18 0 -35 -10t-37 -24v-422h-112v538h106v-54q18 15 32 27t28 20t29 12.5t35 4.5q42 0 61 -15.5t37 -48.5q20 19 36.5 31.5t31 20t28.5 10t29 2.5q53 0 79 -30t26 -83v-435h-112v417q0 20 -11.5 29.5t-28.5 9.5q-18 0 -35 -10t-36 -24
v-422h-112z" />
    <glyph glyph-name="n" unicode="n" horiz-adv-x="446" 
d="M55 0v538h106v-54q18 15 32 27t29 20t33 12.5t42 4.5q45 0 69.5 -30t24.5 -83v-435h-112v417q0 20 -11 29.5t-29 9.5t-35 -10t-37 -24v-422h-112z" />
    <glyph glyph-name="o" unicode="o" 
d="M284 368q0 47 -16 67.5t-46 20.5t-46 -20.5t-16 -67.5v-198q0 -47 16 -67.5t46 -20.5t46 20.5t16 67.5v198zM48 348q0 44 9 81t30 63.5t54 41t81 14.5t81 -14.5t54 -41t30 -63.5t9 -81v-158q0 -44 -9 -81t-30 -63.5t-54 -41t-81 -14.5t-81 14.5t-54 41t-30 63.5t-9 81
v158z" />
    <glyph glyph-name="p" unicode="p" 
d="M166 110q17 -12 32 -20t32 -8q11 0 21 3.5t17.5 13.5t11.5 26.5t4 43.5v200q0 27 -4 43.5t-11.5 26.5t-17.5 13.5t-21 3.5q-17 0 -32 -8t-32 -20v-318zM160 538v-56h2q28 35 53 50.5t67 15.5q53 0 83.5 -38t30.5 -112v-258q0 -74 -30.5 -112t-83.5 -38q-18 0 -32.5 3.5
t-27.5 11t-26.5 17.5t-29.5 24v-216h-112v708h106z" />
    <glyph glyph-name="q" unicode="q" 
d="M278 428q-17 12 -32 20t-32 8q-23 0 -38.5 -17t-15.5 -70v-200q0 -53 15.5 -70t38.5 -17q17 0 32 8t32 20v318zM390 538v-708h-112v216q-17 -14 -30 -24t-26 -17.5t-27.5 -11t-32.5 -3.5q-53 0 -83.5 38t-30.5 112v258q0 74 30.5 112t83.5 38q42 0 67 -15.5t53 -50.5h2
v56h106z" />
    <glyph glyph-name="r" unicode="r" horiz-adv-x="333" 
d="M54 0v538h107v-63h2q20 35 53.5 54t73.5 19h23v-117q-15 4 -31 7.5t-41 3.5q-29 0 -52 -18t-23 -54v-370h-112z" />
    <glyph glyph-name="s" unicode="s" horiz-adv-x="389" 
d="M258 389q-12 67 -64 67q-22 0 -35.5 -11t-13.5 -32t15.5 -38.5t39 -35t50.5 -37t50.5 -43t39 -54t15.5 -70.5q0 -36 -11.5 -63t-32.5 -45.5t-50 -27.5t-63 -9q-74 0 -116 39.5t-55 110.5l98 27q5 -34 20.5 -59.5t53.5 -25.5q22 0 36 12t14 35t-15.5 42.5t-39 37.5
t-50.5 37t-50.5 42t-39 51t-15.5 65q0 32 11.5 58.5t32 45.5t47.5 29.5t59 10.5q66 0 108.5 -40t55.5 -103z" />
    <glyph glyph-name="t" unicode="t" horiz-adv-x="278" 
d="M10 446v92h62v145h112v-145h75v-92h-75v-310q0 -44 38 -44h37v-96q-11 -3 -23 -4.5t-33 -1.5q-63 0 -97 29.5t-34 91.5v335h-62z" />
    <glyph glyph-name="u" unicode="u" 
d="M390 538v-538h-106v54q-18 -15 -32 -27t-29 -20t-33 -12.5t-42 -4.5q-45 0 -69.5 30t-24.5 83v435h112v-417q0 -20 11 -29.5t29 -9.5t35 10t37 24v422h112z" />
    <glyph glyph-name="v" unicode="v" horiz-adv-x="389" 
d="M265 538h114l-130 -538h-109l-130 538h114l69 -360h2z" />
    <glyph glyph-name="w" unicode="w" horiz-adv-x="556" 
d="M236 537h83l60 -335h2l61 336h108l-124 -538h-90l-61 340h-2l-73 -340h-90l-104 538h108l49 -336h2z" />
    <glyph glyph-name="x" unicode="x" horiz-adv-x="389" 
d="M132 285l-111 253h116l57 -150l60 150h116l-116 -251l122 -287h-116l-65 182h-2l-65 -182h-116z" />
    <glyph glyph-name="y" unicode="y" horiz-adv-x="389" 
d="M266 538h113l-141 -578q-9 -37 -22 -61.5t-32 -39.5t-43.5 -21.5t-55.5 -6.5h-47v92h27q42 0 58 22t16 65q0 17 -3.5 34t-8.5 37l-117 457h114l72 -344h2z" />
    <glyph glyph-name="z" unicode="z" horiz-adv-x="389" 
d="M44 446v92h315v-92l-209 -354h209v-92h-329v92l205 354h-191z" />
    <glyph glyph-name="braceleft" unicode="{" horiz-adv-x="278" 
d="M0 354q22 0 39 19t17 61v202q0 48 22 72t82 24h110v-48h-82q-20 0 -28 -13.5t-8 -36.5v-194q0 -30 -8.5 -51.5t-20.5 -35t-25 -20t-22 -7.5v-3q9 -2 22 -8t25 -19.5t20.5 -35t8.5 -54.5v-194q0 -23 8 -36.5t28 -13.5h82v-48h-110q-60 0 -82 24t-22 72v206q0 42 -17 61
t-39 19v58z" />
    <glyph glyph-name="bar" unicode="|" horiz-adv-x="222" 
d="M62 732h98v-742h-98v742z" />
    <glyph glyph-name="braceright" unicode="}" horiz-adv-x="278" 
d="M278 292q-22 0 -39 -19t-17 -61v-202q0 -48 -22 -72t-82 -24h-110v48h82q20 0 28 13.5t8 36.5v194q0 30 8.5 51.5t20.5 35t25 20t22 7.5v3q-9 1 -22 7.5t-25 20t-20.5 35t-8.5 54.5v194q0 23 -8 36.5t-28 13.5h-82v48h110q60 0 82 -24t22 -72v-206q0 -42 17 -61t39 -19
v-58z" />
    <glyph glyph-name="asciitilde" unicode="~" horiz-adv-x="600" 
d="M539 249q-14 -13 -28 -26.5t-29.5 -25t-34 -19t-41.5 -7.5q-28 0 -52.5 9.5t-49.5 23.5q-21 12 -50.5 21.5t-64.5 9.5q-33 0 -52.5 -20.5t-31.5 -43.5l-44 86q11 13 24 26.5t28.5 25t35.5 19t45 7.5q26 0 54 -9.5t57 -22.5q28 -12 52 -22t50 -10q30 0 50.5 20.5
t37.5 43.5z" />
    <glyph glyph-name="Euro" unicode="&#x20ac;" 
d="M74 315v80h-60l23 84h37v68q0 44 17 78.5t45.5 58t65 36t75.5 12.5q42 0 83 -14t73 -43l-31 -114q-24 32 -56 47.5t-64 15.5q-34 0 -59 -19t-25 -61v-65h181l-23 -84h-158v-80h138l-23 -84h-115v-48q0 -46 25.5 -66t60.5 -20q34 0 62.5 9.5t55.5 34.5v-116
q-32 -19 -65.5 -27t-66.5 -8q-39 0 -74.5 12.5t-62.5 36.5t-43 58t-16 78v56h-60l23 84h37z" />
    <glyph glyph-name="quotesinglbase" unicode="&#x201a;" horiz-adv-x="222" 
d="M170 0l-69 -124h-53l49 124h-45v118h118v-118z" />
    <glyph glyph-name="florin" unicode="&#x192;" 
d="M34 -73q6 -3 13.5 -4t15.5 -1q27 0 43 16t26.5 63t18 133.5t16.5 227.5h-93v84h100q4 80 20.5 135t41.5 88.5t57.5 48t69.5 14.5q12 0 23.5 -1.5t23.5 -3.5v-94q-23 13 -51 13q-16 0 -30 -9t-24.5 -31.5t-17 -61t-7.5 -98.5h102v-84h-106q-8 -127 -18.5 -226t-32 -167
t-57.5 -103.5t-95 -35.5q-19 0 -39 5v92z" />
    <glyph glyph-name="quotedblbase" unicode="&#x201e;" 
d="M189 0l-69 -124h-53l49 124h-45v118h118v-118zM374 0l-69 -124h-53l49 124h-45v118h118v-118z" />
    <glyph glyph-name="ellipsis" unicode="&#x2026;" horiz-adv-x="1000" 
d="M443 0v118h114v-118h-114zM776 0v118h114v-118h-114zM110 0v118h114v-118h-114z" />
    <glyph glyph-name="dagger" unicode="&#x2020;" horiz-adv-x="500" 
d="M434 450l-167 42l45 -169q-15 -51 -24 -153t-19 -250h-38q-10 148 -19 250t-24 153l45 169l-167 -42v124l163 -42l-39 200h120l-39 -200l163 42v-124z" />
    <glyph glyph-name="daggerdbl" unicode="&#x2021;" horiz-adv-x="500" 
d="M434 450l-167 42l45 -166l-45 -166l167 42v-124l-163 42l39 -200h-120l39 200l-163 -42v124l167 -42l-45 166l45 166l-167 -42v124l163 -42l-39 200h120l-39 -200l163 42v-124z" />
    <glyph glyph-name="circumflex" unicode="&#x2c6;" horiz-adv-x="222" 
d="M56 746h110l96 -144h-92l-59 89l-59 -89h-92z" />
    <glyph glyph-name="perthousand" unicode="&#x2030;" horiz-adv-x="1000" 
d="M94 572q0 -29 20.5 -49.5t49.5 -20.5t49.5 20.5t20.5 49.5t-20.5 49.5t-49.5 20.5t-49.5 -20.5t-20.5 -49.5zM766 150q0 -29 20.5 -49.5t49.5 -20.5t49.5 20.5t20.5 49.5t-20.5 49.5t-49.5 20.5t-49.5 -20.5t-20.5 -49.5zM412 150q0 -29 20.5 -49.5t49.5 -20.5t49.5 20.5
t20.5 49.5t-20.5 49.5t-49.5 20.5t-49.5 -20.5t-20.5 -49.5zM507 732h70l-411 -742h-70zM332 150q0 31 12 58.5t32 47.5t47.5 32t58.5 12t58.5 -12t47.5 -32t32 -47.5t12 -58.5t-12 -58.5t-32 -47.5t-47.5 -32t-58.5 -12t-58.5 12t-47.5 32t-32 47.5t-12 58.5zM686 150
q0 31 12 58.5t32 47.5t47.5 32t58.5 12t58.5 -12t47.5 -32t32 -47.5t12 -58.5t-12 -58.5t-32 -47.5t-47.5 -32t-58.5 -12t-58.5 12t-47.5 32t-32 47.5t-12 58.5zM14 572q0 31 12 58.5t32 47.5t47.5 32t58.5 12t58.5 -12t47.5 -32t32 -47.5t12 -58.5t-12 -58.5t-32 -47.5
t-47.5 -32t-58.5 -12t-58.5 12t-47.5 32t-32 47.5t-12 58.5z" />
    <glyph glyph-name="Scaron" unicode="&#x160;" 
d="M286 544q-2 23 -8.5 38.5t-16 24.5t-20.5 13t-21 4q-30 0 -46 -18.5t-16 -52.5q0 -31 18.5 -57t46.5 -52t61 -52.5t61 -58.5t46.5 -70.5t18.5 -87.5q0 -45 -14.5 -79.5t-40 -58t-62 -35.5t-79.5 -12t-77 16t-57.5 43.5t-36.5 63.5t-15 77l118 17q4 -55 24 -82t50 -27
q32 0 52 17t20 49q0 36 -18.5 64t-46.5 54t-61 52t-61 57t-46.5 70t-18.5 91q0 87 50 133.5t142 46.5q38 0 68 -13t51.5 -36.5t35 -55.5t17.5 -70zM277 760h-110l-96 144h92l59 -89l59 89h92z" />
    <glyph glyph-name="guilsinglleft" unicode="&#x2039;" horiz-adv-x="333" 
d="M274 115h-96l-115 155l115 153h99l-117 -154z" />
    <glyph glyph-name="OE" unicode="&#x152;" horiz-adv-x="722" 
d="M330 540q0 41 -19 58t-50 17q-42 0 -59.5 -26.5t-17.5 -68.5v-315q0 -42 17.5 -68.5t59.5 -26.5q31 0 50 17t19 58v355zM270 0q-104 0 -157 56.5t-53 163.5v282q0 107 53 163.5t157 56.5h400v-108h-216v-186h168v-108h-168v-212h230v-108h-414z" />
    <glyph glyph-name="Zcaron" unicode="&#x17d;" 
d="M72 614v108h328v-118l-228 -496h228v-108h-356v118l231 496h-203zM277 760h-110l-96 144h92l59 -89l59 89h92z" />
    <glyph glyph-name="quoteleft" unicode="&#x2018;" horiz-adv-x="222" 
d="M52 608l69 124h53l-49 -124h45v-118h-118v118z" />
    <glyph glyph-name="quoteright" unicode="&#x2019;" horiz-adv-x="222" 
d="M170 604l-69 -124h-53l49 124h-45v118h118v-118z" />
    <glyph glyph-name="quotedblleft" unicode="&#x201c;" 
d="M255 608l69 124h53l-49 -124h45v-118h-118v118zM70 608l69 124h53l-49 -124h45v-118h-118v118z" />
    <glyph glyph-name="quotedblright" unicode="&#x201d;" 
d="M189 604l-69 -124h-53l49 124h-45v118h118v-118zM374 604l-69 -124h-53l49 124h-45v118h118v-118z" />
    <glyph glyph-name="bullet" unicode="&#x2022;" horiz-adv-x="500" 
d="M69 361q0 37 14 70t38.5 57.5t57 38.5t70.5 14q37 0 70 -14t58 -38.5t39 -57.5t14 -70q0 -38 -14 -70.5t-39 -57.5t-58 -39t-70 -14q-38 0 -70.5 14t-57 39t-38.5 57.5t-14 70.5z" />
    <glyph glyph-name="endash" unicode="&#x2013;" horiz-adv-x="500" 
d="M0 233v72h500v-72h-500z" />
    <glyph glyph-name="emdash" unicode="&#x2014;" horiz-adv-x="1000" 
d="M0 233v72h1000v-72h-1000z" />
    <glyph glyph-name="tilde" unicode="&#x2dc;" horiz-adv-x="222" 
d="M274 733q-4 -21 -11.5 -42.5t-19.5 -38t-29.5 -27t-42.5 -10.5q-18 0 -34 6t-31 14t-29.5 13.5t-30.5 5.5q-23 0 -32 -11t-10 -33h-56q4 21 11 42.5t19 38t30 27t43 10.5q18 0 34 -6t31 -13t29.5 -13.5t30.5 -6.5q23 0 32 11t10 33h56z" />
    <glyph glyph-name="trademark" unicode="&#x2122;" horiz-adv-x="990" 
d="M370 647h-120v-337h-96v337h-120v75h336v-75zM662 451l103 271h135v-412h-92v302h-2l-110 -302h-69l-110 302h-2v-302h-92v412h136z" />
    <glyph glyph-name="scaron" unicode="&#x161;" horiz-adv-x="389" 
d="M258 389q-12 67 -64 67q-22 0 -35.5 -11t-13.5 -32t15.5 -38.5t39 -35t50.5 -37t50.5 -43t39 -54t15.5 -70.5q0 -36 -11.5 -63t-32.5 -45.5t-50 -27.5t-63 -9q-74 0 -116 39.5t-55 110.5l98 27q5 -34 20.5 -59.5t53.5 -25.5q22 0 36 12t14 35t-15.5 42.5t-39 37.5
t-50.5 37t-50.5 42t-39 51t-15.5 65q0 32 11.5 58.5t32 45.5t47.5 29.5t59 10.5q66 0 108.5 -40t55.5 -103zM250 602h-110l-96 144h92l59 -89l59 89h92z" />
    <glyph glyph-name="guilsinglright" unicode="&#x203a;" horiz-adv-x="333" 
d="M173 269l-117 154h99l115 -153l-115 -155h-96z" />
    <glyph glyph-name="oe" unicode="&#x153;" horiz-adv-x="667" 
d="M507 340v28q0 47 -16 67.5t-46 20.5t-42.5 -20.5t-12.5 -67.5v-28h117zM278 368q0 47 -15 67.5t-41 20.5q-30 0 -46 -20.5t-16 -67.5v-198q0 -47 16 -67.5t46 -20.5q26 0 41 20.5t15 67.5v198zM390 248v-78q0 -47 12.5 -67.5t42.5 -20.5t46 20.5t16 67.5v12h112
q-1 -43 -10.5 -78t-29 -60.5t-50 -39.5t-72.5 -14q-46 0 -75 16.5t-46 45.5q-16 -29 -45.5 -45.5t-80.5 -16.5q-44 0 -74.5 14.5t-50 41t-28.5 63.5t-9 81v158q0 44 9 81t28.5 63.5t50 41t74.5 14.5q52 0 82 -15t46 -46q36 61 119 61q43 0 74 -14.5t50.5 -41t28.5 -63.5
t9 -81v-100h-229z" />
    <glyph glyph-name="zcaron" unicode="&#x17e;" horiz-adv-x="389" 
d="M44 446v92h315v-92l-209 -354h209v-92h-329v92l205 354h-191zM250 602h-110l-96 144h92l59 -89l59 89h92z" />
    <glyph glyph-name="Ydieresis" unicode="&#x178;" 
d="M284 0h-124v300l-150 422h126l87 -275h2l83 275h126l-150 -422v-300zM197 880v-108h-108v108h108zM247 772v108h108v-108h-108z" />
    <glyph glyph-name="uni00A0" unicode="&#xa0;" horiz-adv-x="222" 
 />
    <glyph glyph-name="exclamdown" unicode="&#xa1;" horiz-adv-x="278" 
d="M198 538v-118h-118v118h118zM202 -184h-126l22 510h82z" />
    <glyph glyph-name="cent" unicode="&#xa2;" 
d="M239 465q-5 1 -16 1q-32 0 -52.5 -20.5t-20.5 -67.5v-198q0 -9 2 -17t4 -15h2zM297 364v14q0 38 -15 59l-91 -337q12 -8 32 -8q32 0 51.5 20.5t19.5 67.5v34h112v-14q0 -44 -9.5 -81t-31 -63.5t-56.5 -41t-86 -14.5q-26 0 -43 4l-33 -120h-75l40 145q-40 25 -57 69
t-17 102v158q0 44 10 81t32 63.5t57 41t86 14.5q9 0 16.5 -0.5t15.5 -1.5l35 128h74l-41 -150q41 -24 59 -67.5t19 -102.5h-104z" />
    <glyph glyph-name="sterling" unicode="&#xa3;" 
d="M35 97q24 8 39 23t23.5 41.5t11.5 65t3 92.5h-77v84h63q-11 46 -19.5 89.5t-8.5 74.5q0 78 40 121.5t125 43.5q82 0 121.5 -49t39.5 -153h-102q-2 33 -5.5 54.5t-11 33.5t-18.5 17t-27 5q-50 0 -50 -64q0 -44 10.5 -84.5t18.5 -88.5h99v-84h-90q-1 -33 -2 -61.5t-4.5 -53
t-10 -46.5t-18.5 -42q15 -11 33 -17.5t37 -6.5q16 0 26 8.5t15.5 23.5t7.5 34.5t2 40.5h100v-59q0 -71 -34.5 -110.5t-98.5 -39.5q-38 0 -70 13.5t-58 34.5q-26 -18 -52.5 -31.5t-57.5 -16.5v107z" />
    <glyph glyph-name="currency" unicode="&#xa4;" 
d="M110 361q0 -25 9 -46.5t24 -37t35.5 -24.5t43.5 -9t43.5 9t35.5 24.5t24 37t9 46.5t-9 46t-24 37t-35.5 25t-43.5 9t-43.5 -9t-35.5 -25t-24 -37t-9 -46zM386 146l-48 48q-24 -17 -54 -26.5t-62 -9.5q-33 0 -63 9.5t-54 26.5l-47 -48l-50 53l47 46q-17 24 -27 54t-10 62
t10 62t27 54l-47 46l50 53l47 -48q24 17 54 26.5t63 9.5q32 0 62 -9.5t54 -26.5l48 48l50 -53l-47 -46q17 -24 27 -54t10 -62t-10 -62t-27 -54l47 -46z" />
    <glyph glyph-name="yen" unicode="&#xa5;" 
d="M22 722h100l101 -299h2l97 299h100l-91 -254h87v-84h-121l-27 -80h148v-84h-148v-220h-96v220h-148v84h148l-27 80h-121v84h87z" />
    <glyph glyph-name="brokenbar" unicode="&#xa6;" horiz-adv-x="222" 
d="M160 426h-98v306h98v-306zM160 -10h-98v306h98v-306z" />
    <glyph glyph-name="section" unicode="&#xa7;" horiz-adv-x="500" 
d="M144 399q0 -8 9.5 -23.5t25 -35t34.5 -39.5t37.5 -37t34 -27.5t25.5 -10.5q20 0 33 13.5t13 30.5q0 7 -9.5 22.5t-24.5 34.5t-33.5 39t-37.5 37t-35.5 27.5t-27.5 10.5q-21 0 -32.5 -12.5t-11.5 -29.5zM333 602q-15 17 -33 34.5t-43 17.5q-52 0 -52 -46q0 -22 18 -45
t45 -48t58.5 -52.5t58.5 -56.5t45 -60.5t18 -65.5q0 -49 -28 -82.5t-80 -35.5q23 -23 36.5 -46.5t13.5 -61.5q0 -30 -10 -54.5t-27.5 -42t-41.5 -27.5t-53 -10q-55 0 -93.5 22t-76.5 59l73 57q12 -23 30.5 -41.5t48.5 -18.5q26 0 42 12t16 38q0 22 -18 46.5t-45.5 52
t-59.5 56.5t-59.5 60t-45.5 63t-18 65q0 51 31 80t80 34q-25 19 -37.5 46t-12.5 59q0 53 35.5 87.5t108.5 34.5q46 0 84 -23.5t61 -56.5z" />
    <glyph glyph-name="dieresis" unicode="&#xa8;" horiz-adv-x="222" 
d="M86 722v-108h-108v108h108zM136 614v108h108v-108h-108z" />
    <glyph glyph-name="copyright" unicode="&#xa9;" horiz-adv-x="800" 
d="M595 299q-6 -37 -23 -66t-41 -49.5t-54 -31t-63 -10.5q-48 0 -87 17t-67 47t-43 70t-15 87q0 48 14.5 88.5t41.5 70t66 46t88 16.5q34 0 64.5 -10t54 -29.5t39.5 -48t22 -66.5h-78q-8 38 -36 57t-66 19q-57 0 -86.5 -39t-29.5 -102q0 -30 8.5 -56.5t24 -46t37 -31
t48.5 -11.5q42 0 68.5 20.5t31.5 58.5h81zM682 361q0 64 -22 118t-60.5 93t-90 60.5t-109.5 21.5q-59 0 -110.5 -21.5t-89.5 -60.5t-60 -93t-22 -118t22 -118t60 -93t89.5 -60.5t110.5 -21.5q58 0 109.5 21.5t90 60.5t60.5 93t22 118zM400 -10q-75 0 -144 26t-121.5 74.5
t-83.5 117t-31 153.5q0 84 31 152.5t83.5 117t121.5 75t144 26.5t144 -26.5t121.5 -75t83.5 -117t31 -152.5q0 -85 -31 -153.5t-83.5 -117t-121.5 -74.5t-144 -26z" />
    <glyph glyph-name="ordfeminine" unicode="&#xaa;" horiz-adv-x="266" 
d="M164 559q-23 -12 -37 -21.5t-22 -18.5t-10.5 -18t-2.5 -19q0 -26 29 -26q15 0 26.5 9t16.5 21v73zM14 631q3 49 35.5 75t86.5 26q51 0 78.5 -21.5t27.5 -66.5v-208q0 -8 1.5 -17t3.5 -17h-70q0 5 -1.5 10t-2.5 11q-20 -15 -39.5 -21t-45.5 -6q-37 0 -55.5 20.5
t-18.5 52.5q0 53 38 86t112 61v19q0 20 -8 28.5t-26 8.5q-22 0 -29.5 -11.5t-8.5 -29.5h-78z" />
    <glyph glyph-name="guillemotleft" unicode="&#xab;" horiz-adv-x="500" 
d="M441 115h-96l-115 155l115 153h99l-117 -154zM274 115h-96l-115 155l115 153h99l-117 -154z" />
    <glyph glyph-name="logicalnot" unicode="&#xac;" horiz-adv-x="600" 
d="M455 308h-408v98h506v-307h-98v209z" />
    <glyph glyph-name="uni00AD" unicode="&#xad;" horiz-adv-x="333" 
d="M44 223v92h245v-92h-245z" />
    <glyph glyph-name="registered" unicode="&#xae;" horiz-adv-x="800" 
d="M334 395h71q45 0 63 14.5t18 43.5t-20 40.5t-65 11.5h-67v-110zM334 154h-82v415h157q78 0 119.5 -27.5t41.5 -95.5q0 -29 -8 -49t-21.5 -33t-32 -20t-38.5 -9l100 -181h-91l-93 177h-52v-177zM682 361q0 64 -22 118t-60.5 93t-90 60.5t-109.5 21.5q-59 0 -110.5 -21.5
t-89.5 -60.5t-60 -93t-22 -118t22 -118t60 -93t89.5 -60.5t110.5 -21.5q58 0 109.5 21.5t90 60.5t60.5 93t22 118zM400 -10q-75 0 -144 26t-121.5 74.5t-83.5 117t-31 153.5q0 84 31 152.5t83.5 117t121.5 75t144 26.5t144 -26.5t121.5 -75t83.5 -117t31 -152.5
q0 -85 -31 -153.5t-83.5 -117t-121.5 -74.5t-144 -26z" />
    <glyph glyph-name="macron" unicode="&#xaf;" horiz-adv-x="222" 
d="M-36 701h294v-64h-294v64z" />
    <glyph glyph-name="degree" unicode="&#xb0;" horiz-adv-x="400" 
d="M200 502q36 0 59 25.5t23 61.5t-23 61.5t-59 25.5t-59 -25.5t-23 -61.5t23 -61.5t59 -25.5zM200 446q-30 0 -56.5 11t-46 30.5t-30.5 45.5t-11 56t11 56t30.5 45.5t46 30.5t56.5 11t56.5 -11t46 -30.5t30.5 -45.5t11 -56t-11 -56t-30.5 -45.5t-46 -30.5t-56.5 -11z" />
    <glyph glyph-name="plusminus" unicode="&#xb1;" horiz-adv-x="600" 
d="M47 98h506v-98h-506v98zM251 506h98v-137h204v-98h-204v-137h-98v137h-204v98h204v137z" />
    <glyph glyph-name="twosuperior" unicode="&#xb2;" horiz-adv-x="266" 
d="M14 292v81q75 85 110.5 144t35.5 107q0 28 -28 28q-14 0 -23 -10t-9 -24v-19h-86v20q0 24 9.5 44.5t26.5 36t40.5 24t52.5 8.5q25 0 45 -8t34 -21t22 -30.5t8 -36.5q0 -27 -4.5 -54t-18 -57.5t-39 -67.5t-67.5 -85h126v-80h-235z" />
    <glyph glyph-name="threesuperior" unicode="&#xb3;" horiz-adv-x="266" 
d="M106 418v-21q0 -31 27 -31q14 0 20.5 9t6.5 30v25q0 35 -14 44.5t-43 9.5v74q28 0 41.5 10.5t13.5 47.5q0 18 -6 29t-20 11q-13 0 -19 -8.5t-6 -19.5v-17h-84v20q0 45 30 73t83 28q29 0 50.5 -9t35.5 -24.5t21 -35.5t7 -42q0 -38 -9 -60.5t-38 -38.5q33 -17 43 -40.5
t10 -67.5q0 -65 -29.5 -96.5t-95.5 -31.5q-51 0 -81 25t-30 82v25h86z" />
    <glyph glyph-name="acute" unicode="&#xb4;" horiz-adv-x="222" 
d="M123 602h-83l79 144h135z" />
    <glyph glyph-name="mu" unicode="&#xb5;" 
d="M390 538v-538h-106v54q-16 -14 -29 -24.5t-26.5 -19t-28.5 -13.5t-34 -7v-160h-112v708h112v-417q0 -20 11 -29.5t29 -9.5t35 10t37 24v422h112z" />
    <glyph glyph-name="paragraph" unicode="&#xb6;" horiz-adv-x="500" 
d="M195 352q-44 0 -79 13.5t-59.5 38t-37.5 58t-13 72.5q0 50 14.5 86t41.5 58.5t65.5 33t86.5 10.5h288v-64h-56v-738h-82v738h-87v-738h-82v432z" />
    <glyph glyph-name="periodcentered" unicode="&#xb7;" horiz-adv-x="222" 
d="M44 253q0 28 19 47.5t48 19.5q28 0 47.5 -19.5t19.5 -47.5q0 -29 -19.5 -48t-47.5 -19q-29 0 -48 19t-19 48z" />
    <glyph glyph-name="cedilla" unicode="&#xb8;" horiz-adv-x="222" 
d="M8 -163q12 -6 31.5 -11.5t33.5 -5.5q26 0 42.5 12t16.5 29q0 15 -9 23t-22 11t-27.5 1t-24.5 -6l-22 18l68 92h48l-41 -60q5 1 10.5 1.5t10.5 0.5q16 -1 32.5 -6t29.5 -14t21 -23t8 -33q0 -24 -10.5 -43t-27.5 -32t-39.5 -20t-46.5 -7q-36 0 -62 9t-37 14z" />
    <glyph glyph-name="onesuperior" unicode="&#xb9;" horiz-adv-x="266" 
d="M94 627h-52v48q29 11 54 25.5t45 31.5h49v-440h-96v335z" />
    <glyph glyph-name="ordmasculine" unicode="&#xba;" horiz-adv-x="266" 
d="M164 619q0 49 -31 49t-31 -49v-110q0 -49 31 -49t31 49v110zM20 612q0 53 25.5 86.5t87.5 33.5q63 0 88 -33t25 -87v-95q0 -54 -25 -87.5t-88 -33.5q-62 0 -87.5 34t-25.5 87v95z" />
    <glyph glyph-name="guillemotright" unicode="&#xbb;" horiz-adv-x="500" 
d="M173 269l-117 154h99l115 -153l-115 -155h-96zM340 269l-117 154h99l115 -153l-115 -155h-96z" />
    <glyph glyph-name="onequarter" unicode="&#xbc;" horiz-adv-x="666" 
d="M512 176v133h-2l-62 -133h64zM102 627h-52v48q29 11 54 25.5t45 30.5h49v-439h-96v335zM74 -10l410 742h91l-410 -742h-91zM512 100h-142v80l129 253h95v-257h38v-76h-38v-100h-82v100z" />
    <glyph glyph-name="onehalf" unicode="&#xbd;" horiz-adv-x="666" 
d="M100 627h-52v48q29 11 54 25.5t45 31.5h49v-440h-96v335zM398 0v81q75 85 110.5 144t35.5 107q0 28 -28 28q-14 0 -23 -10t-9 -24v-19h-86v20q0 24 9.5 44.5t26.5 36t40.5 24t52.5 8.5q25 0 45 -8t34 -21t22 -30.5t8 -36.5q0 -27 -4.5 -54t-18 -57.5t-39 -67.5t-67.5 -85
h126v-80h-235zM66 -10l410 742h91l-410 -742h-91z" />
    <glyph glyph-name="threequarters" unicode="&#xbe;" horiz-adv-x="666" 
d="M512 176v133h-2l-62 -133h64zM116 418v-21q0 -31 27 -31q14 0 20.5 9t6.5 30v25q0 35 -14 44.5t-43 9.5v74q28 0 41.5 10.5t13.5 47.5q0 18 -6 29t-20 11q-13 0 -19 -8.5t-6 -19.5v-17h-84v20q0 45 30 73t83 28q29 0 50.5 -9t35.5 -24.5t21 -35.5t7 -42q0 -38 -9 -60.5
t-38 -38.5q33 -17 43 -40.5t10 -67.5q0 -65 -29.5 -96.5t-95.5 -31.5q-51 0 -81 25t-30 82v25h86zM93 -10l410 742h91l-410 -742h-91zM512 100h-142v80l129 253h95v-257h38v-76h-38v-100h-82v100z" />
    <glyph glyph-name="questiondown" unicode="&#xbf;" horiz-adv-x="389" 
d="M265 538v-118h-118v118h118zM252 326v-84q0 -52 -16 -94.5t-36 -78.5t-36 -67t-16 -59q0 -18 11.5 -31.5t30.5 -13.5q16 0 27.5 7t20 18t14.5 24.5t9 26.5l96 -36q-23 -66 -66 -99t-115 -33q-28 0 -54 10t-46 28t-32 42.5t-12 53.5q0 28 5.5 49.5t14 39.5t19.5 34t23 32
t23 33t19.5 38t14 47t5.5 59v54h96z" />
    <glyph glyph-name="Agrave" unicode="&#xc0;" 
d="M93 850h101l59 -108h-62zM172 268h100l-49 310h-2zM132 0h-120l133 722h154l133 -722h-120l-22 160h-136z" />
    <glyph glyph-name="Aacute" unicode="&#xc1;" 
d="M253 742h-62l59 108h101zM172 268h100l-49 310h-2zM132 0h-120l133 722h154l133 -722h-120l-22 160h-136z" />
    <glyph glyph-name="Acircumflex" unicode="&#xc2;" 
d="M172 268h100l-49 310h-2zM132 0h-120l133 722h154l133 -722h-120l-22 160h-136zM181 850h82l72 -108h-69l-44 67l-44 -67h-69z" />
    <glyph glyph-name="Atilde" unicode="&#xc3;" 
d="M344 835q-3 -16 -8.5 -32t-14.5 -28.5t-22 -20.5t-32 -8q-14 0 -26 4.5t-23 10.5t-22 10t-23 4q-17 0 -24 -8t-7 -25h-42q3 16 8 32t14 28.5t22.5 20.5t32.5 8q13 0 25 -4.5t24 -9.5q11 -6 22 -10.5t23 -4.5q17 0 23.5 8t7.5 25h42zM172 268h100l-49 310h-2zM132 0h-120
l133 722h154l133 -722h-120l-22 160h-136z" />
    <glyph glyph-name="Adieresis" unicode="&#xc4;" 
d="M172 268h100l-49 310h-2zM132 0h-120l133 722h154l133 -722h-120l-22 160h-136zM197 879v-108h-108v108h108zM247 771v108h108v-108h-108z" />
    <glyph glyph-name="Aring" unicode="&#xc5;" 
d="M172 268h100l-49 310h-2zM132 0h-120l133 722h154l133 -722h-120l-22 160h-136zM170 862q0 -22 15 -37t37 -15t37 15t15 37t-15 37t-37 15t-37 -15t-15 -37zM120 862q0 21 8 39.5t22 32.5t32.5 22t39.5 8t39.5 -8t32.5 -22t22 -32.5t8 -39.5t-8 -39.5t-22 -32.5
t-32.5 -22t-39.5 -8t-39.5 8t-32.5 22t-22 32.5t-8 39.5z" />
    <glyph glyph-name="AE" unicode="&#xc6;" horiz-adv-x="722" 
d="M334 278v354h-2l-108 -354h110zM245 722h425v-108h-212v-186h164v-108h-164v-212h226v-108h-350v170h-144l-52 -170h-126z" />
    <glyph glyph-name="Ccedilla" unicode="&#xc7;" horiz-adv-x="500" 
d="M147 -163q12 -6 31.5 -11.5t33.5 -5.5q26 0 42.5 12t16.5 29q0 15 -9 23t-22 11t-27.5 1t-24.5 -6l-22 18l61 83q-43 3 -74.5 19t-52 40.5t-30.5 56.5t-10 68v372q0 38 11.5 72t35 59t59 39.5t84.5 14.5q46 0 81 -16t57.5 -43t34 -63t11.5 -76v-53h-124v56q0 46 -18 66.5
t-42 20.5q-38 0 -52 -19.5t-14 -60.5v-366q0 -41 14 -60.5t52 -19.5q34 0 47 19t13 54v87h124v-83q0 -36 -10 -67.5t-29.5 -56t-49 -40t-69.5 -19.5l-35 -52q5 1 10.5 1.5t10.5 0.5q16 -1 32.5 -6t29.5 -14t21 -23t8 -33q0 -24 -10.5 -43t-27.5 -32t-39.5 -20t-46.5 -7
q-36 0 -62 9t-37 14z" />
    <glyph glyph-name="Egrave" unicode="&#xc8;" 
d="M93 850h101l59 -108h-62zM60 0v722h332v-108h-208v-186h160v-108h-160v-212h222v-108h-346z" />
    <glyph glyph-name="Eacute" unicode="&#xc9;" 
d="M253 742h-62l59 108h101zM60 0v722h332v-108h-208v-186h160v-108h-160v-212h222v-108h-346z" />
    <glyph glyph-name="Ecircumflex" unicode="&#xca;" 
d="M192 850h82l72 -108h-69l-44 67l-44 -67h-69zM60 0v722h332v-108h-208v-186h160v-108h-160v-212h222v-108h-346z" />
    <glyph glyph-name="Edieresis" unicode="&#xcb;" 
d="M60 0v722h332v-108h-208v-186h160v-108h-160v-212h222v-108h-346zM209 879v-108h-108v108h108zM259 771v108h108v-108h-108z" />
    <glyph glyph-name="Igrave" unicode="&#xcc;" horiz-adv-x="278" 
d="M11 850h101l59 -108h-62zM77 0v722h124v-722h-124z" />
    <glyph glyph-name="Iacute" unicode="&#xcd;" horiz-adv-x="278" 
d="M170 742h-62l59 108h101zM77 0v722h124v-722h-124z" />
    <glyph glyph-name="Icircumflex" unicode="&#xce;" horiz-adv-x="278" 
d="M77 0v722h124v-722h-124zM84 903h110l96 -144h-92l-59 89l-59 -89h-92z" />
    <glyph glyph-name="Idieresis" unicode="&#xcf;" horiz-adv-x="278" 
d="M77 0v722h124v-722h-124zM114 880v-108h-108v108h108zM164 772v108h108v-108h-108z" />
    <glyph glyph-name="Eth" unicode="&#xd0;" horiz-adv-x="500" 
d="M258 320h-74v-218h43q50 0 69.5 22t19.5 79v316q0 57 -19.5 79t-69.5 22h-43v-192h74v-108zM20 428h40v294h184q97 0 146.5 -53t49.5 -165v-286q0 -112 -49.5 -165t-146.5 -53h-184v320h-40v108z" />
    <glyph glyph-name="Ntilde" unicode="&#xd1;" horiz-adv-x="500" 
d="M60 0v722h115l151 -413h2v413h112v-722h-108l-158 451h-2v-451h-112zM413 891q-4 -21 -11.5 -42.5t-19.5 -38t-29.5 -27t-42.5 -10.5q-18 0 -34 6t-31 14t-29.5 13.5t-30.5 5.5q-23 0 -32 -11t-10 -33h-56q4 21 11 42.5t19 38t30 27t43 10.5q18 0 34 -6t31 -13
t29.5 -13.5t30.5 -6.5q23 0 32 11t10 33h56z" />
    <glyph glyph-name="Ograve" unicode="&#xd2;" horiz-adv-x="500" 
d="M121 850h101l59 -108h-62zM184 178q0 -41 14 -60.5t52 -19.5t52 19.5t14 60.5v366q0 41 -14 60.5t-52 19.5t-52 -19.5t-14 -60.5v-366zM60 547q0 38 11.5 72t35 59t59 39.5t84.5 14.5t84.5 -14.5t59 -39.5t35 -59t11.5 -72v-372q0 -38 -11.5 -72t-35 -59t-59 -39.5
t-84.5 -14.5t-84.5 14.5t-59 39.5t-35 59t-11.5 72v372z" />
    <glyph glyph-name="Oacute" unicode="&#xd3;" horiz-adv-x="500" 
d="M281 742h-62l59 108h101zM184 178q0 -41 14 -60.5t52 -19.5t52 19.5t14 60.5v366q0 41 -14 60.5t-52 19.5t-52 -19.5t-14 -60.5v-366zM60 547q0 38 11.5 72t35 59t59 39.5t84.5 14.5t84.5 -14.5t59 -39.5t35 -59t11.5 -72v-372q0 -38 -11.5 -72t-35 -59t-59 -39.5
t-84.5 -14.5t-84.5 14.5t-59 39.5t-35 59t-11.5 72v372z" />
    <glyph glyph-name="Ocircumflex" unicode="&#xd4;" horiz-adv-x="500" 
d="M209 850h82l72 -108h-69l-44 67l-44 -67h-69zM184 178q0 -41 14 -60.5t52 -19.5t52 19.5t14 60.5v366q0 41 -14 60.5t-52 19.5t-52 -19.5t-14 -60.5v-366zM60 547q0 38 11.5 72t35 59t59 39.5t84.5 14.5t84.5 -14.5t59 -39.5t35 -59t11.5 -72v-372q0 -38 -11.5 -72
t-35 -59t-59 -39.5t-84.5 -14.5t-84.5 14.5t-59 39.5t-35 59t-11.5 72v372z" />
    <glyph glyph-name="Otilde" unicode="&#xd5;" horiz-adv-x="500" 
d="M372 835q-3 -16 -8.5 -32t-14.5 -28.5t-22 -20.5t-32 -8q-14 0 -26 4.5t-23 10.5t-22 10t-23 4q-17 0 -24 -8t-7 -25h-42q3 16 8 32t14 28.5t22.5 20.5t32.5 8q13 0 25 -4.5t24 -9.5q11 -6 22 -10.5t23 -4.5q17 0 23.5 8t7.5 25h42zM184 178q0 -41 14 -60.5t52 -19.5
t52 19.5t14 60.5v366q0 41 -14 60.5t-52 19.5t-52 -19.5t-14 -60.5v-366zM60 547q0 38 11.5 72t35 59t59 39.5t84.5 14.5t84.5 -14.5t59 -39.5t35 -59t11.5 -72v-372q0 -38 -11.5 -72t-35 -59t-59 -39.5t-84.5 -14.5t-84.5 14.5t-59 39.5t-35 59t-11.5 72v372z" />
    <glyph glyph-name="Odieresis" unicode="&#xd6;" horiz-adv-x="500" 
d="M184 178q0 -41 14 -60.5t52 -19.5t52 19.5t14 60.5v366q0 41 -14 60.5t-52 19.5t-52 -19.5t-14 -60.5v-366zM60 547q0 38 11.5 72t35 59t59 39.5t84.5 14.5t84.5 -14.5t59 -39.5t35 -59t11.5 -72v-372q0 -38 -11.5 -72t-35 -59t-59 -39.5t-84.5 -14.5t-84.5 14.5
t-59 39.5t-35 59t-11.5 72v372zM225 879v-108h-108v108h108zM275 771v108h108v-108h-108z" />
    <glyph glyph-name="multiply" unicode="&#xd7;" horiz-adv-x="600" 
d="M370 253l183 -183l-69 -70l-184 184l-184 -184l-69 70l184 183l-184 184l69 69l184 -184l184 184l69 -69z" />
    <glyph glyph-name="Oslash" unicode="&#xd8;" horiz-adv-x="500" 
d="M197 121q12 -23 53 -23q38 0 52 19.5t14 60.5v246h-2zM312 582q-5 21 -19.5 31.5t-42.5 10.5q-38 0 -52 -19.5t-14 -60.5v-287h2zM110 -120h-82l69 176q-19 24 -28 54t-9 65v372q0 38 11.5 72t35 59t59 39.5t84.5 14.5q61 0 103 -24l38 96h81l-59 -152q27 -44 27 -105
v-372q0 -38 -11.5 -72t-35 -59t-59 -39.5t-84.5 -14.5q-51 0 -90 17z" />
    <glyph glyph-name="Ugrave" unicode="&#xd9;" horiz-adv-x="500" 
d="M121 850h101l59 -108h-62zM60 722h124v-545q0 -79 66 -79t66 79v545h124v-540q0 -94 -50.5 -143t-139.5 -49t-139.5 49t-50.5 143v540z" />
    <glyph glyph-name="Uacute" unicode="&#xda;" horiz-adv-x="500" 
d="M281 742h-62l59 108h101zM60 722h124v-545q0 -79 66 -79t66 79v545h124v-540q0 -94 -50.5 -143t-139.5 -49t-139.5 49t-50.5 143v540z" />
    <glyph glyph-name="Ucircumflex" unicode="&#xdb;" horiz-adv-x="500" 
d="M60 722h124v-545q0 -79 66 -79t66 79v545h124v-540q0 -94 -50.5 -143t-139.5 -49t-139.5 49t-50.5 143v540zM195 903h110l96 -144h-92l-59 89l-59 -89h-92z" />
    <glyph glyph-name="Udieresis" unicode="&#xdc;" horiz-adv-x="500" 
d="M60 722h124v-545q0 -79 66 -79t66 79v545h124v-540q0 -94 -50.5 -143t-139.5 -49t-139.5 49t-50.5 143v540zM225 879v-108h-108v108h108zM275 771v108h108v-108h-108z" />
    <glyph glyph-name="Yacute" unicode="&#xdd;" 
d="M255 742h-62l59 108h101zM284 0h-124v300l-150 422h126l87 -275h2l83 275h126l-150 -422v-300z" />
    <glyph glyph-name="Thorn" unicode="&#xde;" horiz-adv-x="500" 
d="M184 258h48q30 0 50.5 5t33 18t17.5 34.5t5 53.5t-5 53.5t-17.5 34t-33 18t-50.5 5.5h-48v-222zM184 582h54q115 0 169.5 -49t54.5 -164q0 -58 -13.5 -98.5t-41 -66t-70 -37t-99.5 -11.5h-54v-156h-124v722h124v-140z" />
    <glyph glyph-name="germandbls" unicode="&#xdf;" 
d="M54 0v540q0 94 41.5 141t117.5 47q50 0 83 -15.5t52.5 -42t27 -62.5t7.5 -77q0 -60 -17 -94.5t-56 -39.5v-2q48 -15 70 -59.5t22 -131.5q0 -59 -7.5 -98.5t-22.5 -63t-36.5 -33t-49.5 -9.5h-66v95q12 -3 27 -3q23 0 31 16.5t8 50.5v101q0 41 -16 59.5t-46 18.5v92
q15 2 24 6t14 12t7 21t2 33v70q0 35 -13 49.5t-39 14.5q-29 0 -41 -17.5t-12 -56.5v-562h-112z" />
    <glyph glyph-name="agrave" unicode="&#xe0;" 
d="M84 676h101l59 -108h-62zM273 273q-38 -22 -63 -40t-39 -35t-19.5 -33t-5.5 -34q0 -26 13 -37.5t39 -11.5q23 0 42 15t33 35v141zM42 380q5 82 53 125t127 43q78 0 120.5 -36t42.5 -110v-345q0 -13 2.5 -28t4.5 -29h-107q-1 11 -3 21.5t-3 20.5q-32 -26 -61 -39t-70 -13
q-57 0 -85.5 34.5t-28.5 86.5q0 44 14.5 79t44.5 64t75 53.5t105 47.5v32q0 69 -55 69q-38 0 -50 -20.5t-14 -55.5h-112z" />
    <glyph glyph-name="aacute" unicode="&#xe1;" 
d="M244 568h-62l59 108h101zM273 273q-38 -22 -63 -40t-39 -35t-19.5 -33t-5.5 -34q0 -26 13 -37.5t39 -11.5q23 0 42 15t33 35v141zM42 380q5 82 53 125t127 43q78 0 120.5 -36t42.5 -110v-345q0 -13 2.5 -28t4.5 -29h-107q-1 11 -3 21.5t-3 20.5q-32 -26 -61 -39t-70 -13
q-57 0 -85.5 34.5t-28.5 86.5q0 44 14.5 79t44.5 64t75 53.5t105 47.5v32q0 69 -55 69q-38 0 -50 -20.5t-14 -55.5h-112z" />
    <glyph glyph-name="acircumflex" unicode="&#xe2;" 
d="M172 676h82l72 -108h-69l-44 67l-44 -67h-69zM273 273q-38 -22 -63 -40t-39 -35t-19.5 -33t-5.5 -34q0 -26 13 -37.5t39 -11.5q23 0 42 15t33 35v141zM42 380q5 82 53 125t127 43q78 0 120.5 -36t42.5 -110v-345q0 -13 2.5 -28t4.5 -29h-107q-1 11 -3 21.5t-3 20.5
q-32 -26 -61 -39t-70 -13q-57 0 -85.5 34.5t-28.5 86.5q0 44 14.5 79t44.5 64t75 53.5t105 47.5v32q0 69 -55 69q-38 0 -50 -20.5t-14 -55.5h-112z" />
    <glyph glyph-name="atilde" unicode="&#xe3;" 
d="M335 666q-3 -16 -8.5 -32t-14.5 -28.5t-22 -20.5t-32 -8q-14 0 -26 4.5t-23 10.5t-22 10t-23 4q-17 0 -24 -8t-7 -25h-42q3 16 8 32t14 28.5t22.5 20.5t32.5 8q13 0 25 -4.5t24 -9.5q11 -6 22 -10.5t23 -4.5q17 0 23.5 8t7.5 25h42zM273 273q-38 -22 -63 -40t-39 -35
t-19.5 -33t-5.5 -34q0 -26 13 -37.5t39 -11.5q23 0 42 15t33 35v141zM42 380q5 82 53 125t127 43q78 0 120.5 -36t42.5 -110v-345q0 -13 2.5 -28t4.5 -29h-107q-1 11 -3 21.5t-3 20.5q-32 -26 -61 -39t-70 -13q-57 0 -85.5 34.5t-28.5 86.5q0 44 14.5 79t44.5 64t75 53.5
t105 47.5v32q0 69 -55 69q-38 0 -50 -20.5t-14 -55.5h-112z" />
    <glyph glyph-name="adieresis" unicode="&#xe4;" 
d="M273 273q-38 -22 -63 -40t-39 -35t-19.5 -33t-5.5 -34q0 -26 13 -37.5t39 -11.5q23 0 42 15t33 35v141zM42 380q5 82 53 125t127 43q78 0 120.5 -36t42.5 -110v-345q0 -13 2.5 -28t4.5 -29h-107q-1 11 -3 21.5t-3 20.5q-32 -26 -61 -39t-70 -13q-57 0 -85.5 34.5
t-28.5 86.5q0 44 14.5 79t44.5 64t75 53.5t105 47.5v32q0 69 -55 69q-38 0 -50 -20.5t-14 -55.5h-112zM197 722v-108h-108v108h108zM247 614v108h108v-108h-108z" />
    <glyph glyph-name="aring" unicode="&#xe5;" 
d="M273 273q-38 -22 -63 -40t-39 -35t-19.5 -33t-5.5 -34q0 -26 13 -37.5t39 -11.5q23 0 42 15t33 35v141zM42 380q5 82 53 125t127 43q78 0 120.5 -36t42.5 -110v-345q0 -13 2.5 -28t4.5 -29h-107q-1 11 -3 21.5t-3 20.5q-32 -26 -61 -39t-70 -13q-57 0 -85.5 34.5
t-28.5 86.5q0 44 14.5 79t44.5 64t75 53.5t105 47.5v32q0 69 -55 69q-38 0 -50 -20.5t-14 -55.5h-112zM170 704q0 -22 15 -37t37 -15t37 15t15 37t-15 37t-37 15t-37 -15t-15 -37zM120 704q0 21 8 39.5t22 32.5t32.5 22t39.5 8t39.5 -8t32.5 -22t22 -32.5t8 -39.5t-8 -39.5
t-22 -32.5t-32.5 -22t-39.5 -8t-39.5 8t-32.5 22t-22 32.5t-8 39.5z" />
    <glyph glyph-name="ae" unicode="&#xe6;" horiz-adv-x="667" 
d="M507 340v28q0 47 -16 67.5t-46 20.5t-45.5 -20.5t-15.5 -67.5v-28h123zM272 273q-38 -22 -62.5 -40t-38.5 -35t-19.5 -33t-5.5 -34q0 -26 13 -37.5t39 -11.5q23 0 41.5 15t32.5 35v141zM384 248v-78q0 -47 15.5 -67.5t45.5 -20.5t46 20.5t16 67.5v12h112
q-1 -43 -10.5 -78t-30.5 -60.5t-53.5 -39.5t-79.5 -14q-50 0 -83.5 19t-52.5 51q-27 -24 -49.5 -38t-40.5 -21t-32.5 -9t-26.5 -2q-66 0 -96 34.5t-30 86.5q0 44 14.5 79t44.5 64t74.5 53.5t104.5 47.5v32q0 69 -54 69q-38 0 -50 -20.5t-14 -55.5h-112q5 82 51 125t113 43
q87 0 129 -50q20 26 50.5 38t68.5 12q45 0 76 -14.5t51 -41t29 -63.5t9 -81v-100h-235z" />
    <glyph glyph-name="ccedilla" unicode="&#xe7;" 
d="M119 -163q12 -6 31.5 -11.5t33.5 -5.5q26 0 42.5 12t16.5 29q0 15 -9 23t-22 11t-27.5 1t-24.5 -6l-22 18l61 83q-42 3 -70.5 19t-46.5 42t-26 61t-8 77v158q0 44 9 81t30 63.5t54 41t81 14.5q47 0 80 -14t53.5 -39.5t30 -61.5t10.5 -79h-112v14q0 47 -16 67.5t-46 20.5
t-46 -20.5t-16 -67.5v-198q0 -47 16 -67.5t46 -20.5t46 20.5t16 67.5v34h112v-14q0 -83 -33.5 -136.5t-114.5 -61.5l-35 -52q5 1 10.5 1.5t10.5 0.5q16 -1 32.5 -6t29.5 -14t21 -23t8 -33q0 -24 -10.5 -43t-27.5 -32t-39.5 -20t-46.5 -7q-36 0 -62 9t-37 14z" />
    <glyph glyph-name="egrave" unicode="&#xe8;" 
d="M93 676h101l59 -108h-62zM284 340v28q0 47 -16 67.5t-46 20.5t-46 -20.5t-16 -67.5v-28h124zM396 248h-236v-78q0 -47 16 -67.5t46 -20.5t46 20.5t16 67.5v12h112q-1 -43 -10.5 -78t-30.5 -60.5t-53.5 -39.5t-79.5 -14q-48 0 -81 14.5t-54 41t-30 63.5t-9 81v158
q0 44 9 81t30 63.5t54 41t81 14.5t81 -14.5t54 -41t30 -63.5t9 -81v-100z" />
    <glyph glyph-name="eacute" unicode="&#xe9;" 
d="M253 568h-62l59 108h101zM284 340v28q0 47 -16 67.5t-46 20.5t-46 -20.5t-16 -67.5v-28h124zM396 248h-236v-78q0 -47 16 -67.5t46 -20.5t46 20.5t16 67.5v12h112q-1 -43 -10.5 -78t-30.5 -60.5t-53.5 -39.5t-79.5 -14q-48 0 -81 14.5t-54 41t-30 63.5t-9 81v158
q0 44 9 81t30 63.5t54 41t81 14.5t81 -14.5t54 -41t30 -63.5t9 -81v-100z" />
    <glyph glyph-name="ecircumflex" unicode="&#xea;" 
d="M181 676h82l72 -108h-69l-44 67l-44 -67h-69zM284 340v28q0 47 -16 67.5t-46 20.5t-46 -20.5t-16 -67.5v-28h124zM396 248h-236v-78q0 -47 16 -67.5t46 -20.5t46 20.5t16 67.5v12h112q-1 -43 -10.5 -78t-30.5 -60.5t-53.5 -39.5t-79.5 -14q-48 0 -81 14.5t-54 41
t-30 63.5t-9 81v158q0 44 9 81t30 63.5t54 41t81 14.5t81 -14.5t54 -41t30 -63.5t9 -81v-100z" />
    <glyph glyph-name="edieresis" unicode="&#xeb;" 
d="M284 340v28q0 47 -16 67.5t-46 20.5t-46 -20.5t-16 -67.5v-28h124zM396 248h-236v-78q0 -47 16 -67.5t46 -20.5t46 20.5t16 67.5v12h112q-1 -43 -10.5 -78t-30.5 -60.5t-53.5 -39.5t-79.5 -14q-48 0 -81 14.5t-54 41t-30 63.5t-9 81v158q0 44 9 81t30 63.5t54 41t81 14.5
t81 -14.5t54 -41t30 -63.5t9 -81v-100zM197 722v-108h-108v108h108zM247 614v108h108v-108h-108z" />
    <glyph glyph-name="igrave" unicode="&#xec;" horiz-adv-x="222" 
d="M-18 676h101l59 -108h-62zM55 0v538h112v-538h-112z" />
    <glyph glyph-name="iacute" unicode="&#xed;" horiz-adv-x="222" 
d="M142 568h-62l59 108h101zM55 0v538h112v-538h-112z" />
    <glyph glyph-name="icircumflex" unicode="&#xee;" horiz-adv-x="222" 
d="M55 0v538h112v-538h-112zM56 746h110l96 -144h-92l-59 89l-59 -89h-92z" />
    <glyph glyph-name="idieresis" unicode="&#xef;" horiz-adv-x="222" 
d="M55 0v538h112v-538h-112zM86 722v-108h-108v108h108zM136 614v108h108v-108h-108z" />
    <glyph glyph-name="eth" unicode="&#xf0;" 
d="M284 325q0 43 -16 62t-46 19t-46 -19t-16 -62v-162q0 -43 16 -62t46 -19t46 19t16 62v162zM416 648l-95 -37q33 -59 54 -135t21 -162v-140q0 -41 -9 -75t-30 -58t-54 -37.5t-81 -13.5t-81 13.5t-54 37.5t-30 58t-9 75v140q0 41 9 75t30 58t54 37.5t81 13.5q9 0 17.5 -0.5
t19.5 -1.5q-2 23 -11 43t-18 37l-105 -40l-27 72l93 35q-10 14 -21.5 28.5t-25.5 26.5l86 24q25 -18 47 -46l109 42z" />
    <glyph glyph-name="ntilde" unicode="&#xf1;" 
d="M54 0v538h106v-54q18 15 32 27t29 20t33 12.5t42 4.5q45 0 69.5 -30t24.5 -83v-435h-112v417q0 20 -11 29.5t-29 9.5t-35 -10t-37 -24v-422h-112zM385 733q-4 -21 -11.5 -42.5t-19.5 -38t-29.5 -27t-42.5 -10.5q-18 0 -34 6t-31 14t-29.5 13.5t-30.5 5.5q-23 0 -32 -11
t-10 -33h-56q4 21 11 42.5t19 38t30 27t43 10.5q18 0 34 -6t31 -13t29.5 -13.5t30.5 -6.5q23 0 32 11t10 33h56z" />
    <glyph glyph-name="ograve" unicode="&#xf2;" 
d="M93 676h101l59 -108h-62zM284 368q0 47 -16 67.5t-46 20.5t-46 -20.5t-16 -67.5v-198q0 -47 16 -67.5t46 -20.5t46 20.5t16 67.5v198zM48 348q0 44 9 81t30 63.5t54 41t81 14.5t81 -14.5t54 -41t30 -63.5t9 -81v-158q0 -44 -9 -81t-30 -63.5t-54 -41t-81 -14.5t-81 14.5
t-54 41t-30 63.5t-9 81v158z" />
    <glyph glyph-name="oacute" unicode="&#xf3;" 
d="M253 568h-62l59 108h101zM284 368q0 47 -16 67.5t-46 20.5t-46 -20.5t-16 -67.5v-198q0 -47 16 -67.5t46 -20.5t46 20.5t16 67.5v198zM48 348q0 44 9 81t30 63.5t54 41t81 14.5t81 -14.5t54 -41t30 -63.5t9 -81v-158q0 -44 -9 -81t-30 -63.5t-54 -41t-81 -14.5t-81 14.5
t-54 41t-30 63.5t-9 81v158z" />
    <glyph glyph-name="ocircumflex" unicode="&#xf4;" horiz-adv-x="418" 
d="M168 676h82l72 -108h-69l-44 67l-44 -67h-69zM271 368q0 47 -16 67.5t-46 20.5t-46 -20.5t-16 -67.5v-198q0 -47 16 -67.5t46 -20.5t46 20.5t16 67.5v198zM35 348q0 44 9 81t30 63.5t54 41t81 14.5t81 -14.5t54 -41t30 -63.5t9 -81v-158q0 -44 -9 -81t-30 -63.5t-54 -41
t-81 -14.5t-81 14.5t-54 41t-30 63.5t-9 81v158z" />
    <glyph glyph-name="otilde" unicode="&#xf5;" 
d="M345 661q-3 -16 -8.5 -32t-14.5 -28.5t-22 -20.5t-32 -8q-14 0 -26 4.5t-23 10.5t-22 10t-23 4q-17 0 -24 -8t-7 -25h-42q3 16 8 32t14 28.5t22.5 20.5t32.5 8q13 0 25 -4.5t24 -9.5q11 -6 22 -10.5t23 -4.5q17 0 23.5 8t7.5 25h42zM284 368q0 47 -16 67.5t-46 20.5
t-46 -20.5t-16 -67.5v-198q0 -47 16 -67.5t46 -20.5t46 20.5t16 67.5v198zM48 348q0 44 9 81t30 63.5t54 41t81 14.5t81 -14.5t54 -41t30 -63.5t9 -81v-158q0 -44 -9 -81t-30 -63.5t-54 -41t-81 -14.5t-81 14.5t-54 41t-30 63.5t-9 81v158z" />
    <glyph glyph-name="odieresis" unicode="&#xf6;" 
d="M284 368q0 47 -16 67.5t-46 20.5t-46 -20.5t-16 -67.5v-198q0 -47 16 -67.5t46 -20.5t46 20.5t16 67.5v198zM48 348q0 44 9 81t30 63.5t54 41t81 14.5t81 -14.5t54 -41t30 -63.5t9 -81v-158q0 -44 -9 -81t-30 -63.5t-54 -41t-81 -14.5t-81 14.5t-54 41t-30 63.5t-9 81
v158zM197 722v-108h-108v108h108zM247 614v108h108v-108h-108z" />
    <glyph glyph-name="divide" unicode="&#xf7;" horiz-adv-x="600" 
d="M220 460q0 33 23.5 56.5t56.5 23.5t56.5 -23.5t23.5 -56.5t-23.5 -56.5t-56.5 -23.5t-56.5 23.5t-23.5 56.5zM220 46q0 33 23.5 56.5t56.5 23.5t56.5 -23.5t23.5 -56.5t-23.5 -56.5t-56.5 -23.5t-56.5 23.5t-23.5 56.5zM47 204v98h506v-98h-506z" />
    <glyph glyph-name="oslash" unicode="&#xf8;" 
d="M184 94q16 -12 38 -12q30 0 46 20.5t16 67.5v183h-2zM262 442q-14 14 -40 14q-30 0 -46 -20.5t-16 -67.5v-195h2zM108 -120h-66l58 153q-28 27 -40 67t-12 90v158q0 44 9 81t30 63.5t54 41t81 14.5q38 0 71 -11l41 109h68l-54 -143q26 -27 37 -66.5t11 -88.5v-158
q0 -44 -9 -81t-30 -63.5t-54 -41t-81 -14.5q-39 0 -69 11z" />
    <glyph glyph-name="ugrave" unicode="&#xf9;" 
d="M93 676h101l59 -108h-62zM390 538v-538h-106v54q-18 -15 -32 -27t-29 -20t-33 -12.5t-42 -4.5q-45 0 -69.5 30t-24.5 83v435h112v-417q0 -20 11 -29.5t29 -9.5t35 10t37 24v422h112z" />
    <glyph glyph-name="uacute" unicode="&#xfa;" 
d="M253 568h-62l59 108h101zM390 538v-538h-106v54q-18 -15 -32 -27t-29 -20t-33 -12.5t-42 -4.5q-45 0 -69.5 30t-24.5 83v435h112v-417q0 -20 11 -29.5t29 -9.5t35 10t37 24v422h112z" />
    <glyph glyph-name="ucircumflex" unicode="&#xfb;" 
d="M390 538v-538h-106v54q-18 -15 -32 -27t-29 -20t-33 -12.5t-42 -4.5q-45 0 -69.5 30t-24.5 83v435h112v-417q0 -20 11 -29.5t29 -9.5t35 10t37 24v422h112zM167 746h110l96 -144h-92l-59 89l-59 -89h-92z" />
    <glyph glyph-name="udieresis" unicode="&#xfc;" 
d="M390 538v-538h-106v54q-18 -15 -32 -27t-29 -20t-33 -12.5t-42 -4.5q-45 0 -69.5 30t-24.5 83v435h112v-417q0 -20 11 -29.5t29 -9.5t35 10t37 24v422h112zM197 722v-108h-108v108h108zM247 614v108h108v-108h-108z" />
    <glyph glyph-name="yacute" unicode="&#xfd;" horiz-adv-x="389" 
d="M228 568h-62l59 108h101zM266 538h113l-141 -578q-9 -37 -22 -61.5t-32 -39.5t-43.5 -21.5t-55.5 -6.5h-47v92h27q42 0 58 22t16 65q0 17 -3.5 34t-8.5 37l-117 457h114l72 -344h2z" />
    <glyph glyph-name="thorn" unicode="&#xfe;" 
d="M166 110q17 -12 32 -20t32 -8q11 0 21 3.5t17.5 13.5t11.5 26.5t4 43.5v200q0 27 -4 43.5t-11.5 26.5t-17.5 13.5t-21 3.5q-17 0 -32 -8t-32 -20v-318zM166 722v-235h2q23 32 47.5 46.5t66.5 14.5q53 0 83.5 -38t30.5 -112v-258q0 -74 -30.5 -112t-83.5 -38
q-18 0 -32.5 3.5t-27.5 11t-26.5 17.5t-29.5 24v-216h-112v892h112z" />
    <glyph glyph-name="ydieresis" unicode="&#xff;" horiz-adv-x="389" 
d="M266 538h113l-141 -578q-9 -37 -22 -61.5t-32 -39.5t-43.5 -21.5t-55.5 -6.5h-47v92h27q42 0 58 22t16 65q0 17 -3.5 34t-8.5 37l-117 457h114l72 -344h2zM170 722v-108h-108v108h108zM220 614v108h108v-108h-108z" />
    <glyph glyph-name=".null" horiz-adv-x="0" 
 />
    <glyph glyph-name="Amacron" unicode="&#x100;" 
d="M172 268h100l-49 310h-2zM132 0h-120l133 722h154l133 -722h-120l-22 160h-136zM77 858h294v-64h-294v64z" />
    <glyph glyph-name="amacron" unicode="&#x101;" 
d="M273 273q-38 -22 -63 -40t-39 -35t-19.5 -33t-5.5 -34q0 -26 13 -37.5t39 -11.5q23 0 42 15t33 35v141zM42 380q5 82 53 125t127 43q78 0 120.5 -36t42.5 -110v-345q0 -13 2.5 -28t4.5 -29h-107q-1 11 -3 21.5t-3 20.5q-32 -26 -61 -39t-70 -13q-57 0 -85.5 34.5
t-28.5 86.5q0 44 14.5 79t44.5 64t75 53.5t105 47.5v32q0 69 -55 69q-38 0 -50 -20.5t-14 -55.5h-112zM75 701h294v-64h-294v64z" />
    <glyph glyph-name="Abreve" unicode="&#x102;" 
d="M172 268h100l-49 310h-2zM132 0h-120l133 722h154l133 -722h-120l-22 160h-136zM332 848q-1 -22 -8.5 -41t-21 -33.5t-33.5 -23t-47 -8.5t-47.5 8.5t-34 23t-20.5 33.5t-8 41h43q4 -29 20.5 -42t46.5 -13t46.5 13t20.5 42h43z" />
    <glyph glyph-name="abreve" unicode="&#x103;" 
d="M323 674q-1 -22 -8.5 -41t-21 -33.5t-33.5 -23t-47 -8.5t-47.5 8.5t-34 23t-20.5 33.5t-8 41h43q4 -29 20.5 -42t46.5 -13t46.5 13t20.5 42h43zM273 273q-38 -22 -63 -40t-39 -35t-19.5 -33t-5.5 -34q0 -26 13 -37.5t39 -11.5q23 0 42 15t33 35v141zM42 380q5 82 53 125
t127 43q78 0 120.5 -36t42.5 -110v-345q0 -13 2.5 -28t4.5 -29h-107q-1 11 -3 21.5t-3 20.5q-32 -26 -61 -39t-70 -13q-57 0 -85.5 34.5t-28.5 86.5q0 44 14.5 79t44.5 64t75 53.5t105 47.5v32q0 69 -55 69q-38 0 -50 -20.5t-14 -55.5h-112z" />
    <glyph glyph-name="Aogonek" unicode="&#x104;" 
d="M132 0h-120l133 722h154l133 -722h-31q-9 -5 -20 -10q-23 -11 -43.5 -26t-34 -35t-13.5 -45q0 -23 14.5 -35t34.5 -12q23 0 47.5 13.5t42.5 26.5l19 -36q-32 -23 -67 -41.5t-75 -18.5q-41 0 -69.5 23.5t-28.5 68.5q0 39 23 65.5t56 43.5q22 10 45 18h-20l-22 160h-136z
M172 268h100l-49 310h-2z" />
    <glyph glyph-name="aogonek" unicode="&#x105;" 
d="M42 380q5 82 53 125t127 43q78 0 120.5 -36t42.5 -110v-345q0 -13 2.5 -28t4.5 -29h-35q-8 -5 -19 -10q-15 -11 -35.5 -26t-34 -35t-13.5 -45q0 -23 14.5 -35t34.5 -12q23 0 45.5 12.5t40.5 25.5l19 -36q-32 -23 -65 -40.5t-73 -17.5q-41 0 -69.5 23.5t-28.5 68.5
q0 39 23 65.5t56 43.5q21 10 40 17q-4 13 -6 24q-2 13 -2 25q-37 -30 -66.5 -44t-69.5 -14q-57 0 -85.5 34.5t-28.5 86.5q0 44 14.5 79t44.5 64t75 53.5t105 47.5v32q0 69 -55 69q-38 0 -50 -20.5t-14 -55.5h-112zM273 273q-38 -22 -63 -40t-39 -35t-19.5 -33t-5.5 -34
q0 -26 13 -37.5t39 -11.5q23 0 42 15t33 35v141z" />
    <glyph glyph-name="Cacute" unicode="&#x106;" horiz-adv-x="500" 
d="M310 481v56q0 46 -18 66.5t-42 20.5q-38 0 -52 -19.5t-14 -60.5v-366q0 -41 14 -60.5t52 -19.5q34 0 47 19t13 54v87h124v-83q0 -38 -11.5 -72t-34 -59t-57.5 -39.5t-81 -14.5q-49 0 -84.5 14.5t-59 39.5t-35 59t-11.5 72v372q0 38 11.5 72t35 59t59 39.5t84.5 14.5
q46 0 81 -16t57.5 -43t34 -63t11.5 -76v-53h-124zM262 759h-83l79 144h135z" />
    <glyph glyph-name="cacute" unicode="&#x107;" 
d="M284 354v14q0 47 -16 67.5t-46 20.5t-46 -20.5t-16 -67.5v-198q0 -47 16 -67.5t46 -20.5t46 20.5t16 67.5v34h112v-14q0 -44 -9 -81t-30 -63.5t-54 -41t-81 -14.5t-81 14.5t-54 41t-30 63.5t-9 81v158q0 44 9 81t30 63.5t54 41t81 14.5q47 0 80 -14t53.5 -39.5t30 -61.5
t10.5 -79h-112zM237 602h-83l79 144h135z" />
    <glyph glyph-name="Ccircumflex" unicode="&#x108;" horiz-adv-x="500" 
d="M310 481v56q0 46 -18 66.5t-42 20.5q-38 0 -52 -19.5t-14 -60.5v-366q0 -41 14 -60.5t52 -19.5q34 0 47 19t13 54v87h124v-83q0 -38 -11.5 -72t-34 -59t-57.5 -39.5t-81 -14.5q-49 0 -84.5 14.5t-59 39.5t-35 59t-11.5 72v372q0 38 11.5 72t35 59t59 39.5t84.5 14.5
q46 0 81 -16t57.5 -43t34 -63t11.5 -76v-53h-124zM193 903h110l96 -144h-92l-59 89l-59 -89h-92z" />
    <glyph glyph-name="ccircumflex" unicode="&#x109;" 
d="M284 354v14q0 47 -16 67.5t-46 20.5t-46 -20.5t-16 -67.5v-198q0 -47 16 -67.5t46 -20.5t46 20.5t16 67.5v34h112v-14q0 -44 -9 -81t-30 -63.5t-54 -41t-81 -14.5t-81 14.5t-54 41t-30 63.5t-9 81v158q0 44 9 81t30 63.5t54 41t81 14.5q47 0 80 -14t53.5 -39.5t30 -61.5
t10.5 -79h-112zM167 746h110l96 -144h-92l-59 89l-59 -89h-92z" />
    <glyph glyph-name="Cdotaccent" unicode="&#x10a;" horiz-adv-x="500" 
d="M310 481v56q0 46 -18 66.5t-42 20.5q-38 0 -52 -19.5t-14 -60.5v-366q0 -41 14 -60.5t52 -19.5q34 0 47 19t13 54v87h124v-83q0 -38 -11.5 -72t-34 -59t-57.5 -39.5t-81 -14.5q-49 0 -84.5 14.5t-59 39.5t-35 59t-11.5 72v372q0 38 11.5 72t35 59t59 39.5t84.5 14.5
q46 0 81 -16t57.5 -43t34 -63t11.5 -76v-53h-124zM302 879v-108h-108v108h108z" />
    <glyph glyph-name="cdotaccent" unicode="&#x10b;" 
d="M284 354v14q0 47 -16 67.5t-46 20.5t-46 -20.5t-16 -67.5v-198q0 -47 16 -67.5t46 -20.5t46 20.5t16 67.5v34h112v-14q0 -44 -9 -81t-30 -63.5t-54 -41t-81 -14.5t-81 14.5t-54 41t-30 63.5t-9 81v158q0 44 9 81t30 63.5t54 41t81 14.5q47 0 80 -14t53.5 -39.5t30 -61.5
t10.5 -79h-112zM277 722v-108h-108v108h108z" />
    <glyph glyph-name="Ccaron" unicode="&#x10c;" horiz-adv-x="500" 
d="M310 481v56q0 46 -18 66.5t-42 20.5q-38 0 -52 -19.5t-14 -60.5v-366q0 -41 14 -60.5t52 -19.5q34 0 47 19t13 54v87h124v-83q0 -38 -11.5 -72t-34 -59t-57.5 -39.5t-81 -14.5q-49 0 -84.5 14.5t-59 39.5t-35 59t-11.5 72v372q0 38 11.5 72t35 59t59 39.5t84.5 14.5
q46 0 81 -16t57.5 -43t34 -63t11.5 -76v-53h-124zM302 759h-110l-96 144h92l59 -89l59 89h92z" />
    <glyph glyph-name="ccaron" unicode="&#x10d;" 
d="M284 354v14q0 47 -16 67.5t-46 20.5t-46 -20.5t-16 -67.5v-198q0 -47 16 -67.5t46 -20.5t46 20.5t16 67.5v34h112v-14q0 -44 -9 -81t-30 -63.5t-54 -41t-81 -14.5t-81 14.5t-54 41t-30 63.5t-9 81v158q0 44 9 81t30 63.5t54 41t81 14.5q47 0 80 -14t53.5 -39.5t30 -61.5
t10.5 -79h-112zM277 602h-110l-96 144h92l59 -89l59 89h92z" />
    <glyph glyph-name="Dcaron" unicode="&#x10e;" horiz-adv-x="500" 
d="M184 102h43q50 0 69.5 22t19.5 79v316q0 57 -19.5 79t-69.5 22h-43v-518zM60 722h184q97 0 146.5 -53t49.5 -165v-286q0 -112 -49.5 -165t-146.5 -53h-184v722zM279 759h-110l-96 144h92l59 -89l59 89h92z" />
    <glyph glyph-name="dcaron" unicode="&#x10f;" 
d="M278 428q-17 12 -32 20t-32 8q-23 0 -38.5 -17t-15.5 -70v-200q0 -53 15.5 -70t38.5 -17q17 0 32 8t32 20v318zM284 0v56h-2q-28 -35 -53 -50.5t-67 -15.5q-53 0 -83.5 38t-30.5 112v258q0 74 30.5 112t83.5 38q18 0 32.5 -3.5t27.5 -11t26 -18t30 -23.5v230h112v-722
h-106zM461 629h-38v93h86v-91l-35 -87h-41z" />
    <glyph glyph-name="Dcroat" unicode="&#x110;" horiz-adv-x="500" 
d="M258 320h-74v-218h43q50 0 69.5 22t19.5 79v316q0 57 -19.5 79t-69.5 22h-43v-192h74v-108zM20 428h40v294h184q97 0 146.5 -53t49.5 -165v-286q0 -112 -49.5 -165t-146.5 -53h-184v320h-40v108z" />
    <glyph glyph-name="dcroat" unicode="&#x111;" 
d="M284 0v56h-2q-28 -35 -53 -50.5t-67 -15.5q-53 0 -83.5 38t-30.5 112v248q0 74 30.5 111t83.5 37q18 0 32 -3t27.5 -10.5t26.5 -17.5t31 -23v107h-108v78h108v55h111v-55h54v-78h-54v-589h-106zM278 418q-17 12 -32 20t-32 8q-23 0 -38.5 -17t-15.5 -70v-190
q0 -53 15.5 -70t38.5 -17q17 0 32 8t32 20v308z" />
    <glyph glyph-name="Emacron" unicode="&#x112;" 
d="M60 0v722h332v-108h-208v-186h160v-108h-160v-212h222v-108h-346zM87 858h294v-64h-294v64z" />
    <glyph glyph-name="emacron" unicode="&#x113;" 
d="M284 340v28q0 47 -16 67.5t-46 20.5t-46 -20.5t-16 -67.5v-28h124zM396 248h-236v-78q0 -47 16 -67.5t46 -20.5t46 20.5t16 67.5v12h112q-1 -43 -10.5 -78t-30.5 -60.5t-53.5 -39.5t-79.5 -14q-48 0 -81 14.5t-54 41t-30 63.5t-9 81v158q0 44 9 81t30 63.5t54 41t81 14.5
t81 -14.5t54 -41t30 -63.5t9 -81v-100zM75 701h294v-64h-294v64z" />
    <glyph glyph-name="Ebreve" unicode="&#x114;" 
d="M60 0v722h332v-108h-208v-186h160v-108h-160v-212h222v-108h-346zM381 906q-2 -29 -11.5 -54.5t-27.5 -45t-45 -31t-63 -11.5t-63 11.5t-45 31t-27.5 45t-11.5 54.5h58q5 -39 27 -56.5t62 -17.5t62 17.5t27 56.5h58z" />
    <glyph glyph-name="ebreve" unicode="&#x115;" 
d="M284 340v28q0 47 -16 67.5t-46 20.5t-46 -20.5t-16 -67.5v-28h124zM396 248h-236v-78q0 -47 16 -67.5t46 -20.5t46 20.5t16 67.5v12h112q-1 -43 -10.5 -78t-30.5 -60.5t-53.5 -39.5t-79.5 -14q-48 0 -81 14.5t-54 41t-30 63.5t-9 81v158q0 44 9 81t30 63.5t54 41t81 14.5
t81 -14.5t54 -41t30 -63.5t9 -81v-100zM369 749q-2 -29 -11.5 -54.5t-27.5 -45t-45 -31t-63 -11.5t-63 11.5t-45 31t-27.5 45t-11.5 54.5h58q5 -39 27 -56.5t62 -17.5t62 17.5t27 56.5h58z" />
    <glyph glyph-name="Edotaccent" unicode="&#x116;" 
d="M60 0v722h332v-108h-208v-186h160v-108h-160v-212h222v-108h-346zM286 879v-108h-108v108h108z" />
    <glyph glyph-name="edotaccent" unicode="&#x117;" 
d="M284 340v28q0 47 -16 67.5t-46 20.5t-46 -20.5t-16 -67.5v-28h124zM396 248h-236v-78q0 -47 16 -67.5t46 -20.5t46 20.5t16 67.5v12h112q-1 -43 -10.5 -78t-30.5 -60.5t-53.5 -39.5t-79.5 -14q-48 0 -81 14.5t-54 41t-30 63.5t-9 81v158q0 44 9 81t30 63.5t54 41t81 14.5
t81 -14.5t54 -41t30 -63.5t9 -81v-100zM276 722v-108h-108v108h108z" />
    <glyph glyph-name="Eogonek" unicode="&#x118;" 
d="M60 0v722h332v-108h-208v-186h160v-108h-160v-212h222v-108h-40q-9 -5 -20 -10q-23 -11 -43.5 -26t-34 -35t-13.5 -45q0 -23 14.5 -35t34.5 -12q23 0 47.5 13.5t42.5 26.5l19 -36q-32 -23 -67 -41.5t-75 -18.5q-41 0 -69.5 23.5t-28.5 68.5q0 39 23 65.5t56 43.5
q22 10 45 18h-237z" />
    <glyph glyph-name="eogonek" unicode="&#x119;" 
d="M396 248h-236v-78q0 -47 16 -67.5t46 -20.5t46 20.5t16 67.5v12h112q-1 -43 -10.5 -78t-30.5 -60.5t-53 -39.5q-5 -3 -9 -6q-16 -12 -34 -30.5t-31.5 -38.5t-13.5 -45q0 -23 14.5 -35t34.5 -12q23 0 47.5 13.5t42.5 26.5l19 -36q-32 -23 -67 -41.5t-75 -18.5
q-41 0 -69.5 23.5t-28.5 68.5q0 39 23 67t56 48l3 2q-43 1 -73 14q-33 15 -54 41.5t-30 63.5t-9 81v158q0 44 9 81t30 63.5t54 41t81 14.5t81 -14.5t54 -41t30 -63.5t9 -81v-100zM284 340v28q0 47 -16 67.5t-46 20.5t-46 -20.5t-16 -67.5v-28h124z" />
    <glyph glyph-name="Ecaron" unicode="&#x11a;" 
d="M60 0v722h332v-108h-208v-186h160v-108h-160v-212h222v-108h-346zM290 759h-110l-96 144h92l59 -89l59 89h92z" />
    <glyph glyph-name="ecaron" unicode="&#x11b;" 
d="M284 340v28q0 47 -16 67.5t-46 20.5t-46 -20.5t-16 -67.5v-28h124zM396 248h-236v-78q0 -47 16 -67.5t46 -20.5t46 20.5t16 67.5v12h112q-1 -43 -10.5 -78t-30.5 -60.5t-53.5 -39.5t-79.5 -14q-48 0 -81 14.5t-54 41t-30 63.5t-9 81v158q0 44 9 81t30 63.5t54 41t81 14.5
t81 -14.5t54 -41t30 -63.5t9 -81v-100zM277 602h-110l-96 144h92l59 -89l59 89h92z" />
    <glyph glyph-name="Gcircumflex" unicode="&#x11c;" horiz-adv-x="500" 
d="M231 366h203v-366h-60l-23 54q-28 -33 -54.5 -48.5t-70.5 -15.5q-74 0 -120 49t-46 136v372q0 38 11.5 72t34 59t56.5 39.5t80 14.5t81 -16t58.5 -43t35 -63t11.5 -76v-46h-118q0 40 -4 66.5t-13 42t-22.5 21.5t-31.5 6q-23 0 -39 -16.5t-16 -62.5v-371q0 -35 13 -55.5
t45 -20.5q38 0 53 23t15 77v70h-79v98zM189 903h110l96 -144h-92l-59 89l-59 -89h-92z" />
    <glyph glyph-name="gcircumflex" unicode="&#x11d;" 
d="M231 -90q56 0 75.5 9.5t19.5 30.5t-19.5 30.5t-75.5 9.5t-75.5 -9.5t-19.5 -30.5t19.5 -30.5t75.5 -9.5zM198 230q16 0 27 5t17.5 17.5t9 34.5t2.5 56t-2.5 56t-9 34.5t-17.5 17.5t-27 5q-14 0 -24 -5t-17.5 -17.5t-11 -34.5t-3.5 -56t3.5 -56t11 -34.5t17.5 -17.5t24 -5
zM426 455q-5 1 -9 1h-9q-15 0 -28.5 -3.5t-25.5 -13.5q6 -21 9 -44.5t3 -40.5q0 -62 -10.5 -103t-31.5 -66.5t-53 -36t-75 -10.5h-36q-9 -2 -15.5 -8.5t-6.5 -16.5q0 -18 21.5 -23.5t53.5 -7t69 -3t69 -13t53.5 -36.5t21.5 -72q0 -69 -60.5 -98.5t-169.5 -29.5
q-85 0 -131.5 22t-46.5 64q0 32 22 54.5t51 29.5v2q-23 9 -37 25.5t-14 42.5q0 14 6.5 27t16.5 24t22 20.5t23 15.5q-21 15 -35 29t-22 35t-11.5 51.5t-3.5 77.5q0 55 9.5 93t30.5 61.5t54 33.5t80 10q36 0 67 -13.5t57 -44.5q11 16 20.5 27.5t19.5 18t22 9.5t30 3v-93z
M152 746h110l96 -144h-92l-59 89l-59 -89h-92z" />
    <glyph glyph-name="Gbreve" unicode="&#x11e;" horiz-adv-x="500" 
d="M231 366h203v-366h-60l-23 54q-28 -33 -54.5 -48.5t-70.5 -15.5q-74 0 -120 49t-46 136v372q0 38 11.5 72t34 59t56.5 39.5t80 14.5t81 -16t58.5 -43t35 -63t11.5 -76v-46h-118q0 40 -4 66.5t-13 42t-22.5 21.5t-31.5 6q-23 0 -39 -16.5t-16 -62.5v-371q0 -35 13 -55.5
t45 -20.5q38 0 53 23t15 77v70h-79v98zM391 906q-2 -29 -11.5 -54.5t-27.5 -45t-45 -31t-63 -11.5t-63 11.5t-45 31t-27.5 45t-11.5 54.5h58q5 -39 27 -56.5t62 -17.5t62 17.5t27 56.5h58z" />
    <glyph glyph-name="gbreve" unicode="&#x11f;" 
d="M231 -90q56 0 75.5 9.5t19.5 30.5t-19.5 30.5t-75.5 9.5t-75.5 -9.5t-19.5 -30.5t19.5 -30.5t75.5 -9.5zM198 230q16 0 27 5t17.5 17.5t9 34.5t2.5 56t-2.5 56t-9 34.5t-17.5 17.5t-27 5q-14 0 -24 -5t-17.5 -17.5t-11 -34.5t-3.5 -56t3.5 -56t11 -34.5t17.5 -17.5t24 -5
zM426 455q-5 1 -9 1h-9q-15 0 -28.5 -3.5t-25.5 -13.5q6 -21 9 -44.5t3 -40.5q0 -62 -10.5 -103t-31.5 -66.5t-53 -36t-75 -10.5h-36q-9 -2 -15.5 -8.5t-6.5 -16.5q0 -18 21.5 -23.5t53.5 -7t69 -3t69 -13t53.5 -36.5t21.5 -72q0 -69 -60.5 -98.5t-169.5 -29.5
q-85 0 -131.5 22t-46.5 64q0 32 22 54.5t51 29.5v2q-23 9 -37 25.5t-14 42.5q0 14 6.5 27t16.5 24t22 20.5t23 15.5q-21 15 -35 29t-22 35t-11.5 51.5t-3.5 77.5q0 55 9.5 93t30.5 61.5t54 33.5t80 10q36 0 67 -13.5t57 -44.5q11 16 20.5 27.5t19.5 18t22 9.5t30 3v-93z
M354 749q-2 -29 -11.5 -54.5t-27.5 -45t-45 -31t-63 -11.5t-63 11.5t-45 31t-27.5 45t-11.5 54.5h58q5 -39 27 -56.5t62 -17.5t62 17.5t27 56.5h58z" />
    <glyph glyph-name="Gdotaccent" unicode="&#x120;" horiz-adv-x="500" 
d="M231 366h203v-366h-60l-23 54q-28 -33 -54.5 -48.5t-70.5 -15.5q-74 0 -120 49t-46 136v372q0 38 11.5 72t34 59t56.5 39.5t80 14.5t81 -16t58.5 -43t35 -63t11.5 -76v-46h-118q0 40 -4 66.5t-13 42t-22.5 21.5t-31.5 6q-23 0 -39 -16.5t-16 -62.5v-371q0 -35 13 -55.5
t45 -20.5q38 0 53 23t15 77v70h-79v98zM298 879v-108h-108v108h108z" />
    <glyph glyph-name="gdotaccent" unicode="&#x121;" 
d="M231 -90q56 0 75.5 9.5t19.5 30.5t-19.5 30.5t-75.5 9.5t-75.5 -9.5t-19.5 -30.5t19.5 -30.5t75.5 -9.5zM198 230q16 0 27 5t17.5 17.5t9 34.5t2.5 56t-2.5 56t-9 34.5t-17.5 17.5t-27 5q-14 0 -24 -5t-17.5 -17.5t-11 -34.5t-3.5 -56t3.5 -56t11 -34.5t17.5 -17.5t24 -5
zM426 455q-5 1 -9 1h-9q-15 0 -28.5 -3.5t-25.5 -13.5q6 -21 9 -44.5t3 -40.5q0 -62 -10.5 -103t-31.5 -66.5t-53 -36t-75 -10.5h-36q-9 -2 -15.5 -8.5t-6.5 -16.5q0 -18 21.5 -23.5t53.5 -7t69 -3t69 -13t53.5 -36.5t21.5 -72q0 -69 -60.5 -98.5t-169.5 -29.5
q-85 0 -131.5 22t-46.5 64q0 32 22 54.5t51 29.5v2q-23 9 -37 25.5t-14 42.5q0 14 6.5 27t16.5 24t22 20.5t23 15.5q-21 15 -35 29t-22 35t-11.5 51.5t-3.5 77.5q0 55 9.5 93t30.5 61.5t54 33.5t80 10q36 0 67 -13.5t57 -44.5q11 16 20.5 27.5t19.5 18t22 9.5t30 3v-93z
M261 722v-108h-108v108h108z" />
    <glyph glyph-name="Gcommaaccent" unicode="&#x122;" horiz-adv-x="500" 
d="M231 366h203v-366h-60l-23 54q-28 -33 -54.5 -48.5t-70.5 -15.5q-74 0 -120 49t-46 136v372q0 38 11.5 72t34 59t56.5 39.5t80 14.5t81 -16t58.5 -43t35 -63t11.5 -76v-46h-118q0 40 -4 66.5t-13 42t-22.5 21.5t-31.5 6q-23 0 -39 -16.5t-16 -62.5v-371q0 -35 13 -55.5
t45 -20.5q38 0 53 23t15 77v70h-79v98zM239 -146h-41v96h93v-94l-35 -84h-46z" />
    <glyph glyph-name="gcommaaccent" unicode="&#x123;" 
d="M231 -90q56 0 75.5 9.5t19.5 30.5t-19.5 30.5t-75.5 9.5t-75.5 -9.5t-19.5 -30.5t19.5 -30.5t75.5 -9.5zM198 230q16 0 27 5t17.5 17.5t9 34.5t2.5 56t-2.5 56t-9 34.5t-17.5 17.5t-27 5q-14 0 -24 -5t-17.5 -17.5t-11 -34.5t-3.5 -56t3.5 -56t11 -34.5t17.5 -17.5t24 -5
zM426 455q-5 1 -9 1h-9q-15 0 -28.5 -3.5t-25.5 -13.5q6 -21 9 -44.5t3 -40.5q0 -62 -10.5 -103t-31.5 -66.5t-53 -36t-75 -10.5h-36q-9 -2 -15.5 -8.5t-6.5 -16.5q0 -18 21.5 -23.5t53.5 -7t69 -3t69 -13t53.5 -36.5t21.5 -72q0 -69 -60.5 -98.5t-169.5 -29.5
q-85 0 -131.5 22t-46.5 64q0 32 22 54.5t51 29.5v2q-23 9 -37 25.5t-14 42.5q0 14 6.5 27t16.5 24t22 20.5t23 15.5q-21 15 -35 29t-22 35t-11.5 51.5t-3.5 77.5q0 55 9.5 93t30.5 61.5t54 33.5t80 10q36 0 67 -13.5t57 -44.5q11 16 20.5 27.5t19.5 18t22 9.5t30 3v-93z
M209 673h37v-84h-85v83l32 74h42z" />
    <glyph glyph-name="Hcircumflex" unicode="&#x124;" horiz-adv-x="500" 
d="M60 0v722h124v-294h132v294h124v-722h-124v320h-132v-320h-124zM197 903h110l96 -144h-92l-59 89l-59 -89h-92z" />
    <glyph glyph-name="hcircumflex" unicode="&#x125;" 
d="M54 0v722h112v-234q15 13 28.5 24.5t27.5 19t32 12t42 4.5q45 0 69.5 -30t24.5 -83v-435h-112v417q0 20 -11 29.5t-29 9.5t-35 -10t-37 -24v-422h-112zM162 903h110l96 -144h-92l-59 89l-59 -89h-92z" />
    <glyph glyph-name="Hbar" unicode="&#x126;" horiz-adv-x="500" 
d="M60 0v722h124v-131h132v131h124v-722h-124v268h-132v-268h-124zM184 370h132v135h-132v-135z" />
    <glyph glyph-name="hbar" unicode="&#x127;" 
d="M54 0v589h-53v78h53v55h112v-55h112v-78h-112v-107q15 13 28.5 24.5t27.5 19t32 12t42 4.5q45 0 69.5 -30t24.5 -83v-429h-112v411q0 20 -11 29.5t-29 9.5t-35 -10t-37 -24v-416h-112z" />
    <glyph glyph-name="Itilde" unicode="&#x128;" horiz-adv-x="278" 
d="M262 835q-3 -16 -8.5 -32t-14.5 -28.5t-22 -20.5t-32 -8q-14 0 -26 4.5t-23 10.5t-22 10t-23 4q-17 0 -24 -8t-7 -25h-42q3 16 8 32t14 28.5t22.5 20.5t32.5 8q13 0 25 -4.5t24 -9.5q11 -6 22 -10.5t23 -4.5q17 0 23.5 8t7.5 25h42zM77 0v722h124v-722h-124z" />
    <glyph glyph-name="itilde" unicode="&#x129;" horiz-adv-x="222" 
d="M233 666q-3 -16 -8.5 -32t-14.5 -28.5t-22 -20.5t-32 -8q-14 0 -26 4.5t-23 10.5t-22 10t-23 4q-17 0 -24 -8t-7 -25h-42q3 16 8 32t14 28.5t22.5 20.5t32.5 8q13 0 25 -4.5t24 -9.5q11 -6 22 -10.5t23 -4.5q17 0 23.5 8t7.5 25h42zM55 0v538h112v-538h-112z" />
    <glyph glyph-name="Imacron" unicode="&#x12a;" horiz-adv-x="278" 
d="M77 0v722h124v-722h-124zM-9 858h294v-64h-294v64z" />
    <glyph glyph-name="imacron" unicode="&#x12b;" horiz-adv-x="222" 
d="M55 0v538h112v-538h-112zM-35 701h294v-64h-294v64z" />
    <glyph glyph-name="Iogonek" unicode="&#x12e;" horiz-adv-x="278" 
d="M77 0v722h124v-722h-23q-9 -5 -16 -10q-14 -11 -30.5 -26t-28 -35t-11.5 -45q0 -23 14.5 -35t34.5 -12q23 0 46 12t41 25l19 -36q-32 -24 -64.5 -40.5t-72.5 -16.5q-41 0 -70.5 24t-29.5 68q0 38 21.5 65t50.5 44q19 10 37 18h-42z" />
    <glyph glyph-name="iogonek" unicode="&#x12f;" horiz-adv-x="222" 
d="M55 0v538h112v-538h-17q-9 -5 -16 -10q-14 -11 -30.5 -26t-28 -35t-11.5 -45q0 -23 14.5 -35t34.5 -12q23 0 46 12t41 25l19 -36q-32 -24 -64.5 -40.5t-72.5 -16.5q-41 0 -70.5 24t-29.5 68q0 38 21.5 65t50.5 44q19 10 37 18h-36zM55 620v102h112v-102h-112z" />
    <glyph glyph-name="Idotaccent" unicode="&#x130;" horiz-adv-x="278" 
d="M77 0v722h124v-722h-124zM193 879v-108h-108v108h108z" />
    <glyph glyph-name="dotlessi" unicode="&#x131;" horiz-adv-x="222" 
d="M55 0v538h112v-538h-112z" />
    <glyph glyph-name="Jcircumflex" unicode="&#x134;" horiz-adv-x="278" 
d="M3 98h26q36 0 50.5 15t14.5 45v564h124v-578q0 -35 -8 -63t-27.5 -48.5t-53.5 -31.5t-85 -11h-41v108zM97 903h110l96 -144h-92l-59 89l-59 -89h-92z" />
    <glyph glyph-name="jcircumflex" unicode="&#x135;" horiz-adv-x="222" 
d="M0 -68h19q23 0 32.5 12t9.5 30v563h112v-568q0 -40 -10.5 -67t-28.5 -43t-41.5 -22.5t-49.5 -6.5h-43v102zM58 746h110l96 -144h-92l-59 89l-59 -89h-92z" />
    <glyph glyph-name="Kcommaaccent" unicode="&#x136;" 
d="M54 0v722h124v-267h2l130 267h124l-134 -269l151 -453h-126l-101 336h-2l-44 -80v-256h-124zM234 -146h-41v96h93v-94l-35 -84h-46z" />
    <glyph glyph-name="kcommaaccent" unicode="&#x137;" 
d="M294 368l130 -368h-113l-90 267h-2l-53 -79v-188h-112v722h112v-374h2l123 190h120zM224 -146h-41v96h93v-94l-35 -84h-46z" />
    <glyph glyph-name="Lacute" unicode="&#x139;" horiz-adv-x="389" 
d="M54 0v722h124v-614h195v-108h-319zM152 759h-83l79 144h135z" />
    <glyph glyph-name="lacute" unicode="&#x13a;" horiz-adv-x="222" 
d="M55 0v722h112v-722h-112zM125 759h-83l79 144h135z" />
    <glyph glyph-name="Lcommaaccent" unicode="&#x13b;" horiz-adv-x="389" 
d="M54 0v722h124v-614h195v-108h-319zM205 -146h-41v96h93v-94l-35 -84h-46z" />
    <glyph glyph-name="lcommaaccent" unicode="&#x13c;" horiz-adv-x="222" 
d="M55 0v722h112v-722h-112zM104 -146h-41v96h93v-94l-35 -84h-46z" />
    <glyph glyph-name="Lcaron" unicode="&#x13d;" horiz-adv-x="389" 
d="M54 0v722h124v-614h195v-108h-319zM259 629h-38v93h86v-91l-35 -87h-41z" />
    <glyph glyph-name="lcaron" unicode="&#x13e;" horiz-adv-x="222" 
d="M55 0v722h112v-722h-112zM238 629h-38v93h86v-91l-35 -87h-41z" />
    <glyph glyph-name="Ldot" unicode="&#x13f;" horiz-adv-x="389" 
d="M54 0v722h124v-614h195v-108h-319zM342 420v-108h-108v108h108z" />
    <glyph glyph-name="ldot" unicode="&#x140;" horiz-adv-x="379" 
d="M55 0v722h112v-722h-112zM348 420v-108h-108v108h108z" />
    <glyph glyph-name="Lslash" unicode="&#x141;" horiz-adv-x="389" 
d="M178 108h195v-108h-319v290l-54 -22v82l54 22v350h124v-301l116 47v-82l-116 -47v-231z" />
    <glyph glyph-name="lslash" unicode="&#x142;" horiz-adv-x="222" 
d="M167 0h-112v333l-70 -36v74l70 36v315h112v-258l70 36v-74l-70 -36v-390z" />
    <glyph glyph-name="Nacute" unicode="&#x143;" horiz-adv-x="500" 
d="M60 0v722h115l151 -413h2v413h112v-722h-108l-158 451h-2v-451h-112zM272 759h-83l79 144h135z" />
    <glyph glyph-name="nacute" unicode="&#x144;" 
d="M54 0v538h106v-54q18 15 32 27t29 20t33 12.5t42 4.5q45 0 69.5 -30t24.5 -83v-435h-112v417q0 20 -11 29.5t-29 9.5t-35 -10t-37 -24v-422h-112zM247 602h-83l79 144h135z" />
    <glyph glyph-name="Ncommaaccent" unicode="&#x145;" horiz-adv-x="500" 
d="M60 0v722h115l151 -413h2v413h112v-722h-108l-158 451h-2v-451h-112zM245 -146h-41v96h93v-94l-35 -84h-46z" />
    <glyph glyph-name="ncommaaccent" unicode="&#x146;" 
d="M54 0v538h106v-54q18 15 32 27t29 20t33 12.5t42 4.5q45 0 69.5 -30t24.5 -83v-435h-112v417q0 20 -11 29.5t-29 9.5t-35 -10t-37 -24v-422h-112zM214 -146h-41v96h93v-94l-35 -84h-46z" />
    <glyph glyph-name="Ncaron" unicode="&#x147;" horiz-adv-x="500" 
d="M60 0v722h115l151 -413h2v413h112v-722h-108l-158 451h-2v-451h-112zM307 759h-110l-96 144h92l59 -89l59 89h92z" />
    <glyph glyph-name="ncaron" unicode="&#x148;" 
d="M54 0v538h106v-54q18 15 32 27t29 20t33 12.5t42 4.5q45 0 69.5 -30t24.5 -83v-435h-112v417q0 20 -11 29.5t-29 9.5t-35 -10t-37 -24v-422h-112zM279 602h-110l-96 144h92l59 -89l59 89h92z" />
    <glyph glyph-name="Omacron" unicode="&#x14c;" horiz-adv-x="500" 
d="M184 178q0 -41 14 -60.5t52 -19.5t52 19.5t14 60.5v366q0 41 -14 60.5t-52 19.5t-52 -19.5t-14 -60.5v-366zM60 547q0 38 11.5 72t35 59t59 39.5t84.5 14.5t84.5 -14.5t59 -39.5t35 -59t11.5 -72v-372q0 -38 -11.5 -72t-35 -59t-59 -39.5t-84.5 -14.5t-84.5 14.5
t-59 39.5t-35 59t-11.5 72v372zM104 858h294v-64h-294v64z" />
    <glyph glyph-name="omacron" unicode="&#x14d;" 
d="M284 368q0 47 -16 67.5t-46 20.5t-46 -20.5t-16 -67.5v-198q0 -47 16 -67.5t46 -20.5t46 20.5t16 67.5v198zM48 348q0 44 9 81t30 63.5t54 41t81 14.5t81 -14.5t54 -41t30 -63.5t9 -81v-158q0 -44 -9 -81t-30 -63.5t-54 -41t-81 -14.5t-81 14.5t-54 41t-30 63.5t-9 81
v158zM76 701h294v-64h-294v64z" />
    <glyph glyph-name="Obreve" unicode="&#x14e;" horiz-adv-x="500" 
d="M184 178q0 -41 14 -60.5t52 -19.5t52 19.5t14 60.5v366q0 41 -14 60.5t-52 19.5t-52 -19.5t-14 -60.5v-366zM60 547q0 38 11.5 72t35 59t59 39.5t84.5 14.5t84.5 -14.5t59 -39.5t35 -59t11.5 -72v-372q0 -38 -11.5 -72t-35 -59t-59 -39.5t-84.5 -14.5t-84.5 14.5
t-59 39.5t-35 59t-11.5 72v372zM396 906q-2 -29 -11.5 -54.5t-27.5 -45t-45 -31t-63 -11.5t-63 11.5t-45 31t-27.5 45t-11.5 54.5h58q5 -39 27 -56.5t62 -17.5t62 17.5t27 56.5h58z" />
    <glyph glyph-name="obreve" unicode="&#x14f;" 
d="M284 368q0 47 -16 67.5t-46 20.5t-46 -20.5t-16 -67.5v-198q0 -47 16 -67.5t46 -20.5t46 20.5t16 67.5v198zM48 348q0 44 9 81t30 63.5t54 41t81 14.5t81 -14.5t54 -41t30 -63.5t9 -81v-158q0 -44 -9 -81t-30 -63.5t-54 -41t-81 -14.5t-81 14.5t-54 41t-30 63.5t-9 81
v158zM370 749q-2 -29 -11.5 -54.5t-27.5 -45t-45 -31t-63 -11.5t-63 11.5t-45 31t-27.5 45t-11.5 54.5h58q5 -39 27 -56.5t62 -17.5t62 17.5t27 56.5h58z" />
    <glyph glyph-name="Ohungarumlaut" unicode="&#x150;" horiz-adv-x="500" 
d="M184 178q0 -41 14 -60.5t52 -19.5t52 19.5t14 60.5v366q0 41 -14 60.5t-52 19.5t-52 -19.5t-14 -60.5v-366zM60 547q0 38 11.5 72t35 59t59 39.5t84.5 14.5t84.5 -14.5t59 -39.5t35 -59t11.5 -72v-372q0 -38 -11.5 -72t-35 -59t-59 -39.5t-84.5 -14.5t-84.5 14.5
t-59 39.5t-35 59t-11.5 72v372zM183 759h-79l69 144h135zM353 759h-83l79 144h135z" />
    <glyph glyph-name="ohungarumlaut" unicode="&#x151;" 
d="M284 368q0 47 -16 67.5t-46 20.5t-46 -20.5t-16 -67.5v-198q0 -47 16 -67.5t46 -20.5t46 20.5t16 67.5v198zM48 348q0 44 9 81t30 63.5t54 41t81 14.5t81 -14.5t54 -41t30 -63.5t9 -81v-158q0 -44 -9 -81t-30 -63.5t-54 -41t-81 -14.5t-81 14.5t-54 41t-30 63.5t-9 81
v158zM153 602h-79l69 144h135zM323 602h-83l79 144h135z" />
    <glyph glyph-name="Racute" unicode="&#x154;" horiz-adv-x="500" 
d="M184 398h44q25 0 42.5 5t28.5 18t16 34.5t5 53.5q0 64 -21 87.5t-71 23.5h-44v-222zM184 0h-124v722h174q104 0 157 -49t53 -164q0 -44 -7.5 -75t-20 -52.5t-28 -34.5t-31.5 -20l105 -327h-126l-88 299q-12 -2 -29.5 -2.5t-34.5 -0.5v-296zM249 759h-83l79 144h135z" />
    <glyph glyph-name="racute" unicode="&#x155;" horiz-adv-x="333" 
d="M54 0v538h107v-63h2q20 35 53.5 54t73.5 19h23v-117q-15 4 -31 7.5t-41 3.5q-29 0 -52 -18t-23 -54v-370h-112zM210 602h-83l79 144h135z" />
    <glyph glyph-name="Rcommaaccent" unicode="&#x156;" horiz-adv-x="500" 
d="M184 398h44q25 0 42.5 5t28.5 18t16 34.5t5 53.5q0 64 -21 87.5t-71 23.5h-44v-222zM184 0h-124v722h174q104 0 157 -49t53 -164q0 -44 -7.5 -75t-20 -52.5t-28 -34.5t-31.5 -20l105 -327h-126l-88 299q-12 -2 -29.5 -2.5t-34.5 -0.5v-296zM242 -146h-41v96h93v-94
l-35 -84h-46z" />
    <glyph glyph-name="rcommaaccent" unicode="&#x157;" horiz-adv-x="333" 
d="M54 0v538h107v-63h2q20 35 53.5 54t73.5 19h23v-117q-15 4 -31 7.5t-41 3.5q-29 0 -52 -18t-23 -54v-370h-112zM104 -146h-41v96h93v-94l-35 -84h-46z" />
    <glyph glyph-name="Rcaron" unicode="&#x158;" horiz-adv-x="500" 
d="M184 398h44q25 0 42.5 5t28.5 18t16 34.5t5 53.5q0 64 -21 87.5t-71 23.5h-44v-222zM184 0h-124v722h174q104 0 157 -49t53 -164q0 -44 -7.5 -75t-20 -52.5t-28 -34.5t-31.5 -20l105 -327h-126l-88 299q-12 -2 -29.5 -2.5t-34.5 -0.5v-296zM290 759h-110l-96 144h92
l59 -89l59 89h92z" />
    <glyph glyph-name="rcaron" unicode="&#x159;" horiz-adv-x="333" 
d="M54 0v538h107v-63h2q20 35 53.5 54t73.5 19h23v-117q-15 4 -31 7.5t-41 3.5q-29 0 -52 -18t-23 -54v-370h-112zM243 602h-110l-96 144h92l59 -89l59 89h92z" />
    <glyph glyph-name="Sacute" unicode="&#x15a;" 
d="M286 544q-2 23 -8.5 38.5t-16 24.5t-20.5 13t-21 4q-30 0 -46 -18.5t-16 -52.5q0 -31 18.5 -57t46.5 -52t61 -52.5t61 -58.5t46.5 -70.5t18.5 -87.5q0 -45 -14.5 -79.5t-40 -58t-62 -35.5t-79.5 -12t-77 16t-57.5 43.5t-36.5 63.5t-15 77l118 17q4 -55 24 -82t50 -27
q32 0 52 17t20 49q0 36 -18.5 64t-46.5 54t-61 52t-61 57t-46.5 70t-18.5 91q0 87 50 133.5t142 46.5q38 0 68 -13t51.5 -36.5t35 -55.5t17.5 -70zM240 759h-83l79 144h135z" />
    <glyph glyph-name="sacute" unicode="&#x15b;" horiz-adv-x="389" 
d="M258 389q-12 67 -64 67q-22 0 -35.5 -11t-13.5 -32t15.5 -38.5t39 -35t50.5 -37t50.5 -43t39 -54t15.5 -70.5q0 -36 -11.5 -63t-32.5 -45.5t-50 -27.5t-63 -9q-74 0 -116 39.5t-55 110.5l98 27q5 -34 20.5 -59.5t53.5 -25.5q22 0 36 12t14 35t-15.5 42.5t-39 37.5
t-50.5 37t-50.5 42t-39 51t-15.5 65q0 32 11.5 58.5t32 45.5t47.5 29.5t59 10.5q66 0 108.5 -40t55.5 -103zM216 602h-83l79 144h135z" />
    <glyph glyph-name="Scircumflex" unicode="&#x15c;" 
d="M286 544q-2 23 -8.5 38.5t-16 24.5t-20.5 13t-21 4q-30 0 -46 -18.5t-16 -52.5q0 -31 18.5 -57t46.5 -52t61 -52.5t61 -58.5t46.5 -70.5t18.5 -87.5q0 -45 -14.5 -79.5t-40 -58t-62 -35.5t-79.5 -12t-77 16t-57.5 43.5t-36.5 63.5t-15 77l118 17q4 -55 24 -82t50 -27
q32 0 52 17t20 49q0 36 -18.5 64t-46.5 54t-61 52t-61 57t-46.5 70t-18.5 91q0 87 50 133.5t142 46.5q38 0 68 -13t51.5 -36.5t35 -55.5t17.5 -70zM169 903h110l96 -144h-92l-59 89l-59 -89h-92z" />
    <glyph glyph-name="scircumflex" unicode="&#x15d;" horiz-adv-x="389" 
d="M258 389q-12 67 -64 67q-22 0 -35.5 -11t-13.5 -32t15.5 -38.5t39 -35t50.5 -37t50.5 -43t39 -54t15.5 -70.5q0 -36 -11.5 -63t-32.5 -45.5t-50 -27.5t-63 -9q-74 0 -116 39.5t-55 110.5l98 27q5 -34 20.5 -59.5t53.5 -25.5q22 0 36 12t14 35t-15.5 42.5t-39 37.5
t-50.5 37t-50.5 42t-39 51t-15.5 65q0 32 11.5 58.5t32 45.5t47.5 29.5t59 10.5q66 0 108.5 -40t55.5 -103zM139 746h110l96 -144h-92l-59 89l-59 -89h-92z" />
    <glyph glyph-name="Scedilla" unicode="&#x15e;" 
d="M120 -163q12 -6 31.5 -11.5t33.5 -5.5q26 0 42.5 12t16.5 29q0 15 -9 23t-22 11t-27.5 1t-24.5 -6l-22 18l61 83q-35 2 -63 15q-34 16 -57.5 43.5t-36.5 63.5t-15 77l118 17q4 -55 24 -82t50 -27q32 0 52 17t20 49q0 36 -18.5 64t-46.5 54t-61 52t-61 57t-46.5 70
t-18.5 91q0 87 50 133.5t142 46.5q38 0 68 -13t51.5 -36.5t35 -55.5t17.5 -70l-118 -13q-2 23 -8.5 38.5t-16 24.5t-20.5 13t-21 4q-30 0 -46 -18.5t-16 -52.5q0 -31 18.5 -57t46.5 -52t61 -52.5t61 -58.5t46.5 -70.5t18.5 -87.5q0 -45 -14.5 -79.5t-40 -58t-62.5 -35.5
q-21 -7 -44 -10l-35 -52q5 1 10.5 1.5t10.5 0.5q16 -1 32.5 -6t29.5 -14t21 -23t8 -33q0 -24 -10.5 -43t-27.5 -32t-39.5 -20t-46.5 -7q-36 0 -62 9t-37 14z" />
    <glyph glyph-name="scedilla" unicode="&#x15f;" horiz-adv-x="389" 
d="M93 -163q12 -6 31.5 -11.5t33.5 -5.5q26 0 42.5 12t16.5 29q0 15 -9 23t-22 11t-27.5 1t-24.5 -6l-22 18l61 83q-56 6 -91 38q-42 40 -55 111l98 27q5 -34 20.5 -59.5t53.5 -25.5q22 0 36 12t14 35t-15.5 42.5t-39 37.5t-50.5 37t-50.5 42t-39 51t-15.5 65
q0 32 11.5 58.5t32 45.5t47.5 29.5t59 10.5q66 0 108.5 -40t55.5 -103l-95 -16q-12 67 -64 67q-22 0 -35.5 -11t-13.5 -32t15.5 -38.5t39 -35t50.5 -37t50.5 -43t39 -54t15.5 -70.5q0 -36 -11.5 -63t-32.5 -45.5t-50 -27.5q-19 -5 -39 -8l-35 -51q5 1 10.5 1.5t10.5 0.5
q16 -1 32.5 -6t29.5 -14t21 -23t8 -33q0 -24 -10.5 -43t-27.5 -32t-39.5 -20t-46.5 -7q-36 0 -62 9t-37 14z" />
    <glyph glyph-name="Tcommaaccent" unicode="&#x162;" horiz-adv-x="389" 
d="M132 614h-120v108h364v-108h-120v-614h-124v614zM188 -146h-41v96h93v-94l-35 -84h-46z" />
    <glyph glyph-name="tcommaaccent" unicode="&#x163;" horiz-adv-x="278" 
d="M10 446v92h62v145h112v-145h75v-92h-75v-310q0 -44 38 -44h37v-96q-11 -3 -23 -4.5t-33 -1.5q-63 0 -97 29.5t-34 91.5v335h-62zM152 -146h-41v96h93v-94l-35 -84h-46z" />
    <glyph glyph-name="Tcaron" unicode="&#x164;" horiz-adv-x="389" 
d="M132 614h-120v108h364v-108h-120v-614h-124v614zM249 759h-110l-96 144h92l59 -89l59 89h92z" />
    <glyph glyph-name="tcaron" unicode="&#x165;" horiz-adv-x="278" 
d="M251 644h-35v78h81v-77l-31 -74h-41zM10 446v92h62v145h112v-145h75v-92h-75v-310q0 -44 38 -44h37v-96q-11 -3 -23 -4.5t-33 -1.5q-63 0 -97 29.5t-34 91.5v335h-62z" />
    <glyph glyph-name="Tbar" unicode="&#x166;" horiz-adv-x="389" 
d="M132 614h-120v108h364v-108h-120v-136h94v-106h-94v-372h-124v372h-92v106h92v136z" />
    <glyph glyph-name="tbar" unicode="&#x167;" horiz-adv-x="278" 
d="M10 446v92h62v145h112v-145h75v-92h-75v-88h63v-83h-63v-139q0 -44 38 -44h37v-96q-11 -3 -23 -4.5t-33 -1.5q-63 0 -97 29.5t-34 91.5v164h-54v83h54v88h-62z" />
    <glyph glyph-name="Utilde" unicode="&#x168;" horiz-adv-x="500" 
d="M373 835q-3 -16 -8.5 -32t-14.5 -28.5t-22 -20.5t-32 -8q-14 0 -26 4.5t-23 10.5t-22 10t-23 4q-17 0 -24 -8t-7 -25h-42q3 16 8 32t14 28.5t22.5 20.5t32.5 8q13 0 25 -4.5t24 -9.5q11 -6 22 -10.5t23 -4.5q17 0 23.5 8t7.5 25h42zM60 722h124v-545q0 -79 66 -79t66 79
v545h124v-540q0 -94 -50.5 -143t-139.5 -49t-139.5 49t-50.5 143v540z" />
    <glyph glyph-name="utilde" unicode="&#x169;" 
d="M344 661q-3 -16 -8.5 -32t-14.5 -28.5t-22 -20.5t-32 -8q-14 0 -26 4.5t-23 10.5t-22 10t-23 4q-17 0 -24 -8t-7 -25h-42q3 16 8 32t14 28.5t22.5 20.5t32.5 8q13 0 25 -4.5t24 -9.5q11 -6 22 -10.5t23 -4.5q17 0 23.5 8t7.5 25h42zM390 538v-538h-106v54
q-18 -15 -32 -27t-29 -20t-33 -12.5t-42 -4.5q-45 0 -69.5 30t-24.5 83v435h112v-417q0 -20 11 -29.5t29 -9.5t35 10t37 24v422h112z" />
    <glyph glyph-name="Umacron" unicode="&#x16a;" horiz-adv-x="500" 
d="M60 722h124v-545q0 -79 66 -79t66 79v545h124v-540q0 -94 -50.5 -143t-139.5 -49t-139.5 49t-50.5 143v540zM104 858h294v-64h-294v64z" />
    <glyph glyph-name="umacron" unicode="&#x16b;" 
d="M390 538v-538h-106v54q-18 -15 -32 -27t-29 -20t-33 -12.5t-42 -4.5q-45 0 -69.5 30t-24.5 83v435h112v-417q0 -20 11 -29.5t29 -9.5t35 10t37 24v422h112zM76 701h294v-64h-294v64z" />
    <glyph glyph-name="Ubreve" unicode="&#x16c;" horiz-adv-x="500" 
d="M60 722h124v-545q0 -79 66 -79t66 79v545h124v-540q0 -94 -50.5 -143t-139.5 -49t-139.5 49t-50.5 143v540zM400 906q-2 -29 -11.5 -54.5t-27.5 -45t-45 -31t-63 -11.5t-63 11.5t-45 31t-27.5 45t-11.5 54.5h58q5 -39 27 -56.5t62 -17.5t62 17.5t27 56.5h58z" />
    <glyph glyph-name="ubreve" unicode="&#x16d;" 
d="M390 538v-538h-106v54q-18 -15 -32 -27t-29 -20t-33 -12.5t-42 -4.5q-45 0 -69.5 30t-24.5 83v435h112v-417q0 -20 11 -29.5t29 -9.5t35 10t37 24v422h112zM369 749q-2 -29 -11.5 -54.5t-27.5 -45t-45 -31t-63 -11.5t-63 11.5t-45 31t-27.5 45t-11.5 54.5h58
q5 -39 27 -56.5t62 -17.5t62 17.5t27 56.5h58z" />
    <glyph glyph-name="Uring" unicode="&#x16e;" horiz-adv-x="500" 
d="M60 722h124v-545q0 -79 66 -79t66 79v545h124v-540q0 -94 -50.5 -143t-139.5 -49t-139.5 49t-50.5 143v540zM199 860q0 -22 15 -37t37 -15t37 15t15 37t-15 37t-37 15t-37 -15t-15 -37zM149 860q0 21 8 39.5t22 32.5t32.5 22t39.5 8t39.5 -8t32.5 -22t22 -32.5t8 -39.5
t-8 -39.5t-22 -32.5t-32.5 -22t-39.5 -8t-39.5 8t-32.5 22t-22 32.5t-8 39.5z" />
    <glyph glyph-name="uring" unicode="&#x16f;" 
d="M390 538v-538h-106v54q-18 -15 -32 -27t-29 -20t-33 -12.5t-42 -4.5q-45 0 -69.5 30t-24.5 83v435h112v-417q0 -20 11 -29.5t29 -9.5t35 10t37 24v422h112zM167 704q0 -22 15 -37t37 -15t37 15t15 37t-15 37t-37 15t-37 -15t-15 -37zM117 704q0 21 8 39.5t22 32.5
t32.5 22t39.5 8t39.5 -8t32.5 -22t22 -32.5t8 -39.5t-8 -39.5t-22 -32.5t-32.5 -22t-39.5 -8t-39.5 8t-32.5 22t-22 32.5t-8 39.5z" />
    <glyph glyph-name="Uhungarumlaut" unicode="&#x170;" horiz-adv-x="500" 
d="M60 722h124v-545q0 -79 66 -79t66 79v545h124v-540q0 -94 -50.5 -143t-139.5 -49t-139.5 49t-50.5 143v540zM184 759h-79l69 144h135zM354 759h-83l79 144h135z" />
    <glyph glyph-name="uhungarumlaut" unicode="&#x171;" 
d="M390 538v-538h-106v54q-18 -15 -32 -27t-29 -20t-33 -12.5t-42 -4.5q-45 0 -69.5 30t-24.5 83v435h112v-417q0 -20 11 -29.5t29 -9.5t35 10t37 24v422h112zM155 602h-79l69 144h135zM325 602h-83l79 144h135z" />
    <glyph glyph-name="Uogonek" unicode="&#x172;" horiz-adv-x="500" 
d="M60 722h124v-545q0 -79 66 -79t66 79v545h124v-540q0 -94 -51 -143q-30 -29 -73 -41q-3 -2 -7 -4q-16 -10 -36.5 -26t-34 -37.5t-13.5 -46.5q0 -23 14.5 -35t34.5 -12q23 0 47.5 13.5t42.5 26.5l19 -36q-32 -23 -67 -41.5t-75 -18.5q-41 0 -69.5 23.5t-28.5 68.5
q0 39 23 65.5t56 44.5l14 8q-79 3 -126 48q-50 49 -50 143v540z" />
    <glyph glyph-name="uogonek" unicode="&#x173;" 
d="M390 538v-538h-35q-9 -4 -18 -10q-15 -11 -35.5 -26t-34 -35t-13.5 -45q0 -23 14.5 -35t34.5 -12q23 0 46 12.5t41 25.5l19 -36q-32 -23 -65.5 -40.5t-73.5 -17.5q-41 0 -69.5 23.5t-28.5 68.5q0 39 23 65.5t56 43.5q19 9 36 16v57q-21 -16 -35 -28t-29 -20t-33 -12.5
t-42 -4.5q-45 0 -69.5 30t-24.5 83v435h112v-417q0 -20 11 -29.5t29 -9.5t35 10t37 24v422h112z" />
    <glyph glyph-name="Wcircumflex" unicode="&#x174;" horiz-adv-x="667" 
d="M275 722h102l84 -460h2l69 460h116l-127 -722h-104l-90 477h-2l-84 -477h-104l-137 722h116l76 -460h2zM274 903h110l96 -144h-92l-59 89l-59 -89h-92z" />
    <glyph glyph-name="wcircumflex" unicode="&#x175;" horiz-adv-x="556" 
d="M236 537h83l60 -335h2l61 336h108l-124 -538h-90l-61 340h-2l-73 -340h-90l-104 538h108l49 -336h2zM223 746h110l96 -144h-92l-59 89l-59 -89h-92z" />
    <glyph glyph-name="Ycircumflex" unicode="&#x176;" 
d="M284 0h-124v300l-150 422h126l87 -275h2l83 275h126l-150 -422v-300zM168 903h110l96 -144h-92l-59 89l-59 -89h-92z" />
    <glyph glyph-name="ycircumflex" unicode="&#x177;" horiz-adv-x="389" 
d="M266 538h113l-141 -578q-9 -37 -22 -61.5t-32 -39.5t-43.5 -21.5t-55.5 -6.5h-47v92h27q42 0 58 22t16 65q0 17 -3.5 34t-8.5 37l-117 457h114l72 -344h2zM143 746h110l96 -144h-92l-59 89l-59 -89h-92z" />
    <glyph glyph-name="Zacute" unicode="&#x179;" 
d="M72 614v108h328v-118l-228 -496h228v-108h-356v118l231 496h-203zM264 759h-83l79 144h135z" />
    <glyph glyph-name="zacute" unicode="&#x17a;" horiz-adv-x="389" 
d="M44 446v92h315v-92l-209 -354h209v-92h-329v92l205 354h-191zM228 602h-83l79 144h135z" />
    <glyph glyph-name="Zdotaccent" unicode="&#x17b;" 
d="M72 614v108h328v-118l-228 -496h228v-108h-356v118l231 496h-203zM294 879v-108h-108v108h108z" />
    <glyph glyph-name="zdotaccent" unicode="&#x17c;" horiz-adv-x="389" 
d="M44 446v92h315v-92l-209 -354h209v-92h-329v92l205 354h-191zM261 722v-108h-108v108h108z" />
    <glyph glyph-name="Scommaaccent" unicode="&#x218;" 
d="M286 544q-2 23 -8.5 38.5t-16 24.5t-20.5 13t-21 4q-30 0 -46 -18.5t-16 -52.5q0 -31 18.5 -57t46.5 -52t61 -52.5t61 -58.5t46.5 -70.5t18.5 -87.5q0 -45 -14.5 -79.5t-40 -58t-62 -35.5t-79.5 -12t-77 16t-57.5 43.5t-36.5 63.5t-15 77l118 17q4 -55 24 -82t50 -27
q32 0 52 17t20 49q0 36 -18.5 64t-46.5 54t-61 52t-61 57t-46.5 70t-18.5 91q0 87 50 133.5t142 46.5q38 0 68 -13t51.5 -36.5t35 -55.5t17.5 -70zM213 -146h-41v96h93v-94l-35 -84h-46z" />
    <glyph glyph-name="scommaaccent" unicode="&#x219;" horiz-adv-x="389" 
d="M258 389q-12 67 -64 67q-22 0 -35.5 -11t-13.5 -32t15.5 -38.5t39 -35t50.5 -37t50.5 -43t39 -54t15.5 -70.5q0 -36 -11.5 -63t-32.5 -45.5t-50 -27.5t-63 -9q-74 0 -116 39.5t-55 110.5l98 27q5 -34 20.5 -59.5t53.5 -25.5q22 0 36 12t14 35t-15.5 42.5t-39 37.5
t-50.5 37t-50.5 42t-39 51t-15.5 65q0 32 11.5 58.5t32 45.5t47.5 29.5t59 10.5q66 0 108.5 -40t55.5 -103zM185 -146h-41v96h93v-94l-35 -84h-46z" />
    <glyph glyph-name="uni021A" unicode="&#x21a;" horiz-adv-x="389" 
d="M132 614h-120v108h364v-108h-120v-614h-124v614zM188 -146h-41v96h93v-94l-35 -84h-46z" />
    <glyph glyph-name="uni021B" unicode="&#x21b;" horiz-adv-x="278" 
d="M10 446v92h62v145h112v-145h75v-92h-75v-310q0 -44 38 -44h37v-96q-11 -3 -23 -4.5t-33 -1.5q-63 0 -97 29.5t-34 91.5v335h-62zM152 -146h-41v96h93v-94l-35 -84h-46z" />
    <glyph glyph-name="dotlessj" unicode="&#x237;" horiz-adv-x="222" 
d="M0 -68h19q23 0 32.5 12t9.5 30v563h112v-568q0 -40 -10.5 -67t-28.5 -43t-41.5 -22.5t-49.5 -6.5h-43v102z" />
    <glyph glyph-name="caron" unicode="&#x2c7;" horiz-adv-x="222" 
d="M166 602h-110l-96 144h92l59 -89l59 89h92z" />
    <glyph glyph-name="uni02C9" unicode="&#x2c9;" horiz-adv-x="222" 
d="M-36 701h294v-64h-294v64z" />
    <glyph glyph-name="breve" unicode="&#x2d8;" horiz-adv-x="222" 
d="M258 749q-2 -29 -11.5 -54.5t-27.5 -45t-45 -31t-63 -11.5t-63 11.5t-45 31t-27.5 45t-11.5 54.5h58q5 -39 27 -56.5t62 -17.5t62 17.5t27 56.5h58z" />
    <glyph glyph-name="dotaccent" unicode="&#x2d9;" horiz-adv-x="222" 
d="M165 722v-108h-108v108h108z" />
    <glyph glyph-name="ring" unicode="&#x2da;" horiz-adv-x="222" 
d="M59 704q0 -22 15 -37t37 -15t37 15t15 37t-15 37t-37 15t-37 -15t-15 -37zM9 704q0 21 8 39.5t22 32.5t32.5 22t39.5 8t39.5 -8t32.5 -22t22 -32.5t8 -39.5t-8 -39.5t-22 -32.5t-32.5 -22t-39.5 -8t-39.5 8t-32.5 22t-22 32.5t-8 39.5z" />
    <glyph glyph-name="ogonek" unicode="&#x2db;" horiz-adv-x="222" 
d="M243 9q-19 -8 -42 -19t-43.5 -26t-34 -35t-13.5 -45q0 -23 14.5 -35t34.5 -12q23 0 47.5 13.5t42.5 26.5l19 -36q-32 -23 -67 -41.5t-75 -18.5q-41 0 -69.5 23.5t-28.5 68.5q0 39 23 65.5t56.5 43t70.5 25.5t65 14v-12z" />
    <glyph glyph-name="hungarumlaut" unicode="&#x2dd;" horiz-adv-x="222" 
d="M33 602h-79l69 144h135zM203 602h-83l79 144h135z" />
    <glyph glyph-name="uni0394" unicode="&#x394;" horiz-adv-x="689" 
d="M9 0l267 712h122l283 -712h-672zM336 576l-168 -467h348z" />
    <glyph glyph-name="uni03A9" unicode="&#x3a9;" horiz-adv-x="761" 
d="M425 0v192q77 18 115 73t38 132q0 44 -14.5 83t-41 68t-64 46t-82.5 17q-46 0 -83.5 -17t-64.5 -46.5t-41.5 -68.5t-14.5 -83q0 -78 38 -131t114 -73v-192h-277v102h180v39q-45 13 -79 39t-56.5 61t-34 77t-11.5 87q0 70 26 128t70.5 100t104.5 65t128 23
q69 0 128.5 -22.5t104 -63.5t70 -99t25.5 -128q0 -45 -11 -88t-33.5 -78.5t-57 -62t-80.5 -38.5v-39h182v-102h-278z" />
    <glyph glyph-name="uni03BC" unicode="&#x3bc;" 
d="M390 538v-538h-106v54q-16 -14 -29 -24.5t-26.5 -19t-28.5 -13.5t-34 -7v-160h-112v708h112v-417q0 -20 11 -29.5t29 -9.5t35 10t37 24v422h112z" />
    <glyph glyph-name="pi" unicode="&#x3c0;" horiz-adv-x="597" 
d="M574 14q-23 -11 -43 -16.5t-45 -5.5q-34 0 -55 10t-32.5 28t-15.5 42t-4 53v254h-196v-379h-112v379h-70v106h570v-106h-79v-228q0 -11 0.5 -22.5t4 -20.5t11 -15t22.5 -6q11 0 22 3t22 8v-84z" />
    <glyph glyph-name="fraction" unicode="&#x2044;" horiz-adv-x="167" 
d="M-167 -10l410 742h91l-410 -742h-91z" />
    <glyph glyph-name="afii61289" unicode="&#x2113;" horiz-adv-x="500" 
d="M449 51q-75 -65 -165 -65q-75 0 -116.5 40t-41.5 104v53l-56 -51h-2l-45 70l102 85v241q0 42 13 77.5t35.5 61t54 40t69.5 14.5q33 0 59.5 -10.5t45.5 -30t29.5 -46.5t10.5 -60q0 -77 -47 -150.5t-142 -156.5v-117q0 -20 5.5 -33.5t14.5 -21.5t20.5 -11.5t22.5 -3.5
q19 0 41.5 9t46.5 28h2zM337 567q0 29 -11 49t-29 20t-31 -22.5t-13 -61.5v-177q44 48 64 97t20 95z" />
    <glyph glyph-name="Omega" unicode="&#x2126;" horiz-adv-x="761" 
d="M425 0v192q77 18 115 73t38 132q0 44 -14.5 83t-41 68t-64 46t-82.5 17q-46 0 -83.5 -17t-64.5 -46.5t-41.5 -68.5t-14.5 -83q0 -78 38 -131t114 -73v-192h-277v102h180v39q-45 13 -79 39t-56.5 61t-34 77t-11.5 87q0 70 26 128t70.5 100t104.5 65t128 23
q69 0 128.5 -22.5t104 -63.5t70 -99t25.5 -128q0 -45 -11 -88t-33.5 -78.5t-57 -62t-80.5 -38.5v-39h182v-102h-278z" />
    <glyph glyph-name="estimated" unicode="&#x212e;" horiz-adv-x="600" 
d="M157 259v-181q59 -59 145 -59q63 0 109 28.5t84 91.5l35 -21q-23 -36 -46.5 -61.5t-51 -42t-59.5 -24t-71 -7.5q-59 0 -106.5 21.5t-81.5 59t-52 87.5t-18 108t18 108.5t52 87.5t81.5 58.5t106.5 21.5q58 0 105.5 -20.5t81.5 -57t53 -87t19 -111.5h-404zM448 295v145
q-63 60 -147 60t-144 -60v-145h291z" />
    <glyph glyph-name="partialdiff" unicode="&#x2202;" horiz-adv-x="560" 
d="M518 359q0 -64 -10.5 -130t-39 -120t-78 -88t-128.5 -34q-50 0 -91 17t-70 48t-45 72.5t-16 91.5q0 48 16 88.5t44.5 70t68.5 46.5t88 17q41 0 75 -13.5t66 -39.5l1 26q1 35 -6.5 73.5t-24.5 71t-46 54t-72 21.5q-36 0 -65 -14t-56 -36l-62 72q42 32 82.5 50t95.5 18
q78 0 130 -32t84 -83.5t45.5 -116t13.5 -130.5zM396 289q-25 29 -54 45.5t-68 16.5q-31 0 -53.5 -11.5t-37.5 -31t-22 -45t-7 -53.5q0 -26 6.5 -50.5t20 -43.5t35 -30t50.5 -11q35 0 60.5 18.5t41 47t23 62t6.5 62.5z" />
    <glyph glyph-name="Delta" unicode="&#x2206;" horiz-adv-x="689" 
d="M9 0l267 712h122l283 -712h-672zM336 576l-168 -467h348z" />
    <glyph glyph-name="product" unicode="&#x220f;" horiz-adv-x="743" 
d="M564 -214v891h-385v-891h-119v1000h623v-1000h-119z" />
    <glyph glyph-name="summation" unicode="&#x2211;" horiz-adv-x="654" 
d="M25 -214v95l301 411l-288 400v94h579v-109h-421l272 -384l-290 -398h451v-109h-604z" />
    <glyph glyph-name="minus" unicode="&#x2212;" horiz-adv-x="600" 
d="M47 204v98h506v-98h-506z" />
    <glyph glyph-name="uni2215" unicode="&#x2215;" horiz-adv-x="167" 
d="M-167 -10l410 742h91l-410 -742h-91z" />
    <glyph glyph-name="uni2219" unicode="&#x2219;" horiz-adv-x="222" 
d="M44 253q0 28 19 47.5t48 19.5q28 0 47.5 -19.5t19.5 -47.5q0 -29 -19.5 -48t-47.5 -19q-29 0 -48 19t-19 48z" />
    <glyph glyph-name="radical" unicode="&#x221a;" horiz-adv-x="545" 
d="M344 -214h-110l-151 313l-51 -24l-44 93l155 71l126 -269l166 816h122z" />
    <glyph glyph-name="infinity" unicode="&#x221e;" horiz-adv-x="823" 
d="M778 265q0 -39 -12 -73t-34 -59.5t-54.5 -40t-72.5 -14.5q-31 0 -58 9.5t-50.5 25t-44.5 36t-40 42.5q-21 -22 -41.5 -42.5t-43 -36t-48.5 -24.5t-59 -9q-41 0 -73 14t-55 39t-35 58.5t-12 72.5t11.5 72t33.5 58t54 39t72 14q33 0 60.5 -9.5t51 -26t44 -38t40.5 -45.5
q19 23 39.5 45t44 38.5t51 26.5t59.5 10q40 0 72 -14t54 -38.5t34 -57.5t12 -72zM684 262q0 35 -21.5 60t-58.5 25q-20 0 -38.5 -8.5t-35 -21.5t-31.5 -28.5t-27 -28.5q13 -15 28 -29.5t32 -26t35.5 -18.5t39.5 -7q37 0 57 24t20 59zM352 260q-12 13 -28 28.5t-33.5 28
t-36.5 21t-38 8.5q-35 0 -55.5 -26t-20.5 -59q0 -36 21 -58.5t58 -22.5q19 0 38 7.5t36 19t32 25.5t27 28z" />
    <glyph glyph-name="integral" unicode="&#x222b;" horiz-adv-x="614" 
d="M493 708q0 -23 -15.5 -39t-38.5 -16q-24 0 -35 12t-16 26t-9.5 26t-14.5 12q-11 0 -14.5 -9.5t-3.5 -18.5q0 -36 2 -72.5t2 -72.5l1 -470v-95t-12.5 -97.5t-44 -76.5t-93.5 -31q-17 0 -37 4.5t-37 14t-28 24.5t-11 36q0 23 15.5 38t38.5 15q24 0 34.5 -12t16 -26t9 -26
t14.5 -12q13 0 15.5 12t2.5 21q0 28 -2 55.5t-2 56.5l-1 529v55.5t3.5 60.5t12.5 58t27 48q43 47 110 47q17 0 36.5 -4.5t36 -13.5t27.5 -23.5t11 -35.5z" />
    <glyph glyph-name="approxequal" unicode="&#x2248;" horiz-adv-x="600" 
d="M571 457q-3 -35 -13 -67t-28.5 -56t-46.5 -38.5t-68 -14.5q-28 0 -61.5 10.5t-67 22.5t-64.5 22.5t-54 10.5q-28 0 -43 -20.5t-19 -45.5h-75q3 33 12.5 64.5t27.5 56t45.5 39.5t65.5 15q30 0 62.5 -10t65.5 -21.5t65 -21.5t60 -10q29 0 43 19t19 45h74zM569 244
q-3 -34 -12.5 -66t-27.5 -56.5t-45 -39t-66 -14.5q-29 0 -64 10.5t-69.5 23t-66 23t-52.5 10.5q-27 0 -42.5 -21.5t-19.5 -45.5h-75q3 33 12.5 65t28 56.5t45.5 40t65 15.5q31 0 63 -10t64 -22t64 -22t63 -10q28 0 42 18.5t19 44.5h74z" />
    <glyph glyph-name="notequal" unicode="&#x2260;" horiz-adv-x="600" 
d="M276 94l-78 -155l-98 50l52 105h-115v113h173l56 112h-229v113h286l78 153l99 -49l-53 -104h115v-113h-172l-56 -112h228v-113h-286z" />
    <glyph glyph-name="lessequal" unicode="&#x2264;" horiz-adv-x="600" 
d="M37 276v113l525 174v-118l-370 -112l370 -109v-118zM37 -38v113h525v-113h-525z" />
    <glyph glyph-name="greaterequal" unicode="&#x2265;" horiz-adv-x="600" 
d="M37 106v118l370 109l-370 112v118l525 -174v-113zM37 -38v113h525v-113h-525z" />
    <glyph glyph-name="lozenge" unicode="&#x25ca;" horiz-adv-x="593" 
d="M348 -35h-105l-178 391l179 391h104l180 -391zM296 635l-116 -279l116 -280l117 280z" />
    <glyph glyph-name="grave.cap" unicode="&#xe300;" horiz-adv-x="222" 
d="M-32 903h135l79 -144h-83z" />
    <glyph glyph-name="acute.cap" unicode="&#xe301;" horiz-adv-x="222" 
d="M123 759h-83l79 144h135z" />
    <glyph glyph-name="circumflex.cap" unicode="&#xe302;" horiz-adv-x="222" 
d="M56 903h110l96 -144h-92l-59 89l-59 -89h-92z" />
    <glyph glyph-name="caron.cap" unicode="&#xe303;" horiz-adv-x="222" 
d="M166 759h-110l-96 144h92l59 -89l59 89h92z" />
    <glyph glyph-name="tilde.cap" unicode="&#xe304;" horiz-adv-x="222" 
d="M274 890q-4 -21 -11.5 -42.5t-19.5 -38t-29.5 -27t-42.5 -10.5q-18 0 -34 6t-31 14t-29.5 13.5t-30.5 5.5q-23 0 -32 -11t-10 -33h-56q4 21 11 42.5t19 38t30 27t43 10.5q18 0 34 -6t31 -13t29.5 -13.5t30.5 -6.5q23 0 32 11t10 33h56z" />
    <glyph glyph-name="dieresis.cap" unicode="&#xe305;" horiz-adv-x="222" 
d="M86 879v-108h-108v108h108zM136 771v108h108v-108h-108z" />
    <glyph glyph-name="macron.cap" unicode="&#xe306;" horiz-adv-x="222" 
d="M-36 858h294v-64h-294v64z" />
    <glyph glyph-name="breve.cap" unicode="&#xe307;" horiz-adv-x="222" 
d="M258 906q-2 -29 -11.5 -54.5t-27.5 -45t-45 -31t-63 -11.5t-63 11.5t-45 31t-27.5 45t-11.5 54.5h58q5 -39 27 -56.5t62 -17.5t62 17.5t27 56.5h58z" />
    <glyph glyph-name="ring.cap" unicode="&#xe308;" horiz-adv-x="222" 
d="M59 860q0 -22 15 -37t37 -15t37 15t15 37t-15 37t-37 15t-37 -15t-15 -37zM9 860q0 21 8 39.5t22 32.5t32.5 22t39.5 8t39.5 -8t32.5 -22t22 -32.5t8 -39.5t-8 -39.5t-22 -32.5t-32.5 -22t-39.5 -8t-39.5 8t-32.5 22t-22 32.5t-8 39.5z" />
    <glyph glyph-name="hungarumlaut.cap" unicode="&#xe309;" horiz-adv-x="222" 
d="M33 759h-79l69 144h135zM203 759h-83l79 144h135z" />
    <glyph glyph-name="dotaccent.cap" unicode="&#xe30a;" horiz-adv-x="222" 
d="M165 879v-108h-108v108h108z" />
    <glyph glyph-name="caron.alt" unicode="&#xe30b;" horiz-adv-x="222" 
d="M101 629h-38v93h86v-91l-35 -87h-41z" />
    <glyph glyph-name="commaaccent" unicode="&#xe30c;" horiz-adv-x="222" 
d="M104 -146h-41v96h93v-94l-35 -84h-46z" />
    <glyph glyph-name="commaaccent.alt" unicode="&#xe30d;" horiz-adv-x="222" 
d="M116 673h37v-84h-85v83l32 74h42z" />
    <glyph glyph-name="uniF8FF" unicode="&#xf8ff;" horiz-adv-x="512" 
d="M222 117v67h56v-67h-56zM225 234l-2 17q0 55 13 81t46 59q32 31 41 47.5t9 35.5q0 36 -22.5 60.5t-53.5 24.5t-53.5 -22t-28.5 -73l-50 8q7 71 44 104t91 33q53 0 88.5 -36t35.5 -95q0 -32 -12.5 -58.5t-50.5 -61.5q-37 -33 -43 -52t-6 -72h-46zM462 50v617h-412v-617
h412zM512 718v-718h-512v718h512z" />
    <glyph glyph-name="hookabovecomb" unicode="&#x309;" horiz-adv-x="222" 
d="M89 302q0 21 6 37.5t14 29.5q8 15 14 26.5t6 22.5q0 7 -4 12.5t-12 5.5q-7 0 -11 -2.5t-7.5 -7t-5.5 -9.5t-4 -11l-37 14q9 26 25.5 39t44.5 13q11 0 21 -4t18 -11t12.5 -16.5t4.5 -20.5t-2 -19.5t-5.5 -15.5t-7.5 -13.5t-10 -13.5q-3 -4 -7.5 -11t-8 -15t-5 -17.5
t-1.5 -12.5h-38z" />
    <glyph glyph-name="dotbelowcomb" unicode="&#x323;" horiz-adv-x="222" 
d="M165 -35v-108h-108v108h108z" />
    <glyph glyph-name="uni1EA2" unicode="&#x1ea2;" 
d="M209 742q-1 7 2.5 17t9.5 20q7 12 11.5 21.5t4.5 17.5q0 6 -3 10.5t-10 4.5q-5 0 -8.5 -2t-6 -5.5t-4 -7.5t-3.5 -9l-30 11q8 21 21 31.5t35 10.5q9 0 17 -3.5t14.5 -9t10 -13t3.5 -16.5t-1.5 -15.5t-4.5 -12.5t-6 -11t-8 -11q-2 -3 -5.5 -8.5t-6 -11t-1.5 -8.5h-31z
M172 268h100l-49 310h-2zM132 0h-120l133 722h154l133 -722h-120l-22 160h-136z" />
    <glyph glyph-name="uni1EA0" unicode="&#x1ea0;" 
d="M276 -34v-108h-108v108h108zM172 268h100l-49 310h-2zM132 0h-120l133 722h154l133 -722h-120l-22 160h-136z" />
    <glyph glyph-name="gravecomb" unicode="&#x300;" horiz-adv-x="222" 
d="M-32 746h135l79 -144h-83z" />
    <glyph glyph-name="acutecomb" unicode="&#x301;" horiz-adv-x="222" 
d="M123 602h-83l79 144h135z" />
    <glyph glyph-name="tildecomb" unicode="&#x303;" horiz-adv-x="222" 
d="M274 733q-4 -21 -11.5 -42.5t-19.5 -38t-29.5 -27t-42.5 -10.5q-18 0 -34 6t-31 14t-29.5 13.5t-30.5 5.5q-23 0 -32 -11t-10 -33h-56q4 21 11 42.5t19 38t30 27t43 10.5q18 0 34 -6t31 -13t29.5 -13.5t30.5 -6.5q23 0 32 11t10 33h56z" />
    <glyph glyph-name="uni031B" unicode="&#x31b;" horiz-adv-x="222" 
d="M403 727l-52 -93h-40l37 93h-34v89h89v-89z" />
    <glyph glyph-name="uni1EA6" unicode="&#x1ea6;" 
d="M181 850h82l72 -108h-69l-44 66l-44 -66h-69zM93 978h101l59 -108h-62zM172 268h100l-49 310h-2zM132 0h-120l133 722h154l133 -722h-120l-22 160h-136z" />
    <glyph glyph-name="uni1EA4" unicode="&#x1ea4;" 
d="M180 850h83l72 -108h-69l-44 67l-45 -67h-69zM253 870h-62l59 108h102zM172 268h100l-49 310h-2zM132 0h-120l133 722h154l133 -722h-120l-22 160h-136z" />
    <glyph glyph-name="uni1EAA" unicode="&#x1eaa;" 
d="M181 850h82l72 -108h-69l-44 67l-44 -67h-69zM344 962q-3 -16 -8.5 -32t-14.5 -28.5t-22 -20t-32 -7.5q-14 0 -26 4.5t-23 10.5t-22 10t-23 4q-17 0 -24 -8.5t-7 -24.5h-42q3 16 8 32t14 28.5t22.5 20t32.5 7.5q13 0 25 -4.5t24 -9.5l22 -10t23 -5q17 0 23.5 8.5
t7.5 24.5h42zM172 268h100l-49 310h-2zM132 0h-120l133 722h154l133 -722h-120l-22 160h-136z" />
    <glyph glyph-name="uni1EA8" unicode="&#x1ea8;" 
d="M181 850h82l72 -108h-69l-44 67l-44 -67h-69zM209 870q-1 7 2.5 17t9.5 20q7 12 11.5 21.5t4.5 17.5q0 6 -3 10.5t-10 4.5q-5 0 -8.5 -2t-6 -5.5t-4 -7.5t-3.5 -9l-30 11q8 21 21 31.5t35 10.5q9 0 17 -3.5t14.5 -9t10 -13t3.5 -16.5t-1.5 -15.5t-4.5 -12.5t-6 -11
t-8 -11q-2 -3 -5.5 -8.5t-6 -11t-1.5 -8.5h-31zM172 268h100l-49 310h-2zM132 0h-120l133 722h154l133 -722h-120l-22 160h-136z" />
    <glyph glyph-name="uni1EAC" unicode="&#x1eac;" 
d="M172 268h100l-49 310h-2zM132 0h-120l133 722h154l133 -722h-120l-22 160h-136zM276 -34v-108h-108v108h108zM181 850h82l72 -108h-69l-44 67l-44 -67h-69z" />
    <glyph glyph-name="uni1EB0" unicode="&#x1eb0;" 
d="M332 848q-2 -21 -9 -40.5t-20.5 -34t-33.5 -23t-47 -8.5t-47.5 8.5t-34 23t-20.5 34t-9 40.5h44q4 -29 20.5 -42t46.5 -13t46.5 13t19.5 42h44zM93 978h101l60 -108h-63zM172 268h100l-49 310h-2zM132 0h-120l133 722h154l133 -722h-120l-22 160h-136z" />
    <glyph glyph-name="uni1EAE" unicode="&#x1eae;" 
d="M252 870h-62l59 108h101zM332 848q-1 -21 -8.5 -40.5t-21 -34t-33.5 -23t-47 -8.5t-47.5 8.5t-34 23t-20.5 34t-8 40.5h43q4 -29 20.5 -42t46.5 -13t46.5 13t20.5 42h43zM172 268h100l-49 310h-2zM132 0h-120l133 722h154l133 -722h-120l-22 160h-136z" />
    <glyph glyph-name="uni1EB4" unicode="&#x1eb4;" 
d="M345 962q-3 -16 -8.5 -32t-14.5 -28.5t-22 -20t-32 -7.5q-14 0 -26 4.5t-23 10.5t-22 10t-23 4q-17 0 -24 -8.5t-7 -24.5h-42q3 16 8 32t14 28.5t22.5 20t32.5 7.5q13 0 25 -4.5t24 -9.5l22 -10t23 -5q17 0 23.5 8.5t7.5 24.5h42zM332 848q-2 -22 -9 -41t-20.5 -33.5
t-33.5 -23t-47 -8.5t-47.5 8.5t-34 23t-20.5 33.5t-9 41h44q4 -29 20.5 -42t46.5 -13t46.5 13t19.5 42h44zM172 268h100l-49 310h-2zM132 0h-120l133 722h154l133 -722h-120l-22 160h-136z" />
    <glyph glyph-name="uni1EB2" unicode="&#x1eb2;" 
d="M332 848q-1 -22 -8.5 -41t-21 -33.5t-33.5 -23t-47 -8.5t-47.5 8.5t-34 23t-20.5 33.5t-8 41h43q4 -29 20.5 -42t46.5 -13t46.5 13t20.5 42h43zM207 870q-1 7 2.5 17t9.5 20q7 12 11.5 21.5t4.5 17.5q0 6 -3 10.5t-10 4.5q-5 0 -8.5 -2t-6 -5.5t-4 -7.5t-3.5 -9l-30 11
q8 21 21 31.5t35 10.5q9 0 17 -3.5t14.5 -9t10 -13t3.5 -16.5t-1.5 -15.5t-4.5 -12.5t-6 -11t-8 -11q-2 -3 -5.5 -8.5t-6 -11t-1.5 -8.5h-31zM172 268h100l-49 310h-2zM132 0h-120l133 722h154l133 -722h-120l-22 160h-136z" />
    <glyph glyph-name="uni1EB6" unicode="&#x1eb6;" 
d="M172 268h100l-49 310h-2zM132 0h-120l133 722h154l133 -722h-120l-22 160h-136zM276 -34v-108h-108v108h108zM332 848q-1 -22 -8.5 -41t-21 -33.5t-33.5 -23t-47 -8.5t-47.5 8.5t-34 23t-20.5 33.5t-8 41h43q4 -29 20.5 -42t46.5 -13t46.5 13t20.5 42h43z" />
    <glyph glyph-name="uni1EBC" unicode="&#x1ebc;" 
d="M344 835q-3 -16 -8.5 -32t-14.5 -28.5t-22 -20.5t-32 -8q-14 0 -26 4.5t-23 10.5t-22 10t-23 4q-17 0 -24 -8t-7 -25h-42q3 16 8 32t14 28.5t22.5 20.5t32.5 8q13 0 25 -4.5t24 -9.5q11 -6 22 -10.5t23 -4.5q17 0 23.5 8t7.5 25h42zM60 0v722h332v-108h-208v-186h160
v-108h-160v-212h222v-108h-346z" />
    <glyph glyph-name="uni1EBA" unicode="&#x1eba;" 
d="M207 742q-1 7 2.5 17t9.5 20q7 12 11.5 21.5t4.5 17.5q0 6 -3 10.5t-10 4.5q-5 0 -8.5 -2t-6 -5.5t-4 -7.5t-3.5 -9l-30 11q8 21 21 31.5t35 10.5q9 0 17 -3.5t14.5 -9t10 -13t3.5 -16.5t-1.5 -15.5t-4.5 -12.5t-6 -11t-8 -11q-2 -3 -5.5 -8.5t-6 -11t-1.5 -8.5h-31z
M60 0v722h332v-108h-208v-186h160v-108h-160v-212h222v-108h-346z" />
    <glyph glyph-name="uni1EB8" unicode="&#x1eb8;" 
d="M60 0v722h332v-108h-208v-186h160v-108h-160v-212h222v-108h-346zM276 -35v-108h-108v108h108z" />
    <glyph glyph-name="uni1EC0" unicode="&#x1ec0;" 
d="M104 978h101l59 -108h-62zM188 850h83l72 -108h-69l-44 67l-45 -67h-69zM60 0v722h332v-108h-208v-186h160v-108h-160v-212h222v-108h-346z" />
    <glyph glyph-name="uni1EBE" unicode="&#x1ebe;" 
d="M193 850h82l72 -108h-69l-44 66l-44 -66h-69zM264 870h-62l59 108h101zM60 0v722h332v-108h-208v-186h160v-108h-160v-212h222v-108h-346z" />
    <glyph glyph-name="uni1EC4" unicode="&#x1ec4;" 
d="M192 850h82l72 -108h-69l-44 67l-44 -67h-69zM355 962q-3 -16 -8.5 -32t-14.5 -28.5t-22 -20t-32 -7.5q-14 0 -26 4.5t-23 10.5t-22 10t-23 4q-17 0 -24 -8.5t-7 -24.5h-42q3 16 8 32t14 28.5t22.5 20t32.5 7.5q13 0 25 -4.5t24 -9.5l22 -10t23 -5q17 0 23.5 8.5
t7.5 24.5h42zM60 0v722h332v-108h-208v-186h160v-108h-160v-212h222v-108h-346z" />
    <glyph glyph-name="uni1EC2" unicode="&#x1ec2;" 
d="M192 850h82l72 -108h-69l-44 67l-44 -67h-69zM220 870q-1 7 2.5 17t9.5 20q7 12 11.5 21.5t4.5 17.5q0 6 -3 10.5t-10 4.5q-5 0 -8.5 -2t-6 -5.5t-4 -7.5t-3.5 -9l-30 11q8 21 21 31.5t35 10.5q9 0 17 -3.5t14.5 -9t10 -13t3.5 -16.5t-1.5 -15.5t-4.5 -12.5t-6 -11
t-8 -11q-2 -3 -5.5 -8.5t-6 -11t-1.5 -8.5h-31zM60 0v722h332v-108h-208v-186h160v-108h-160v-212h222v-108h-346z" />
    <glyph glyph-name="uni1EC6" unicode="&#x1ec6;" 
d="M191 850h82l72 -108h-69l-44 67l-44 -67h-69zM60 0v722h332v-108h-208v-186h160v-108h-160v-212h222v-108h-346zM276 -35v-108h-108v108h108z" />
    <glyph glyph-name="uni1EC8" unicode="&#x1ec8;" horiz-adv-x="278" 
d="M126 742q-1 7 2.5 17t9.5 20q7 12 11.5 21.5t4.5 17.5q0 6 -3 10.5t-10 4.5q-5 0 -8.5 -2t-6 -5.5t-4 -7.5t-3.5 -9l-30 11q8 21 21 31.5t35 10.5q9 0 17 -3.5t14.5 -9t10 -13t3.5 -16.5t-1.5 -15.5t-4.5 -12.5t-6 -11t-8 -11q-2 -3 -5.5 -8.5t-6 -11t-1.5 -8.5h-31z
M77 0v722h124v-722h-124z" />
    <glyph glyph-name="uni1ECA" unicode="&#x1eca;" horiz-adv-x="278" 
d="M77 0v722h124v-722h-124zM193 -35v-108h-108v108h108z" />
    <glyph glyph-name="uni1ECE" unicode="&#x1ece;" horiz-adv-x="500" 
d="M237 742q-1 7 2.5 17t9.5 20q7 12 11.5 21.5t4.5 17.5q0 6 -3 10.5t-10 4.5q-5 0 -8.5 -2t-6 -5.5t-4 -7.5t-3.5 -9l-30 11q8 21 21 31.5t35 10.5q9 0 17 -3.5t14.5 -9t10 -13t3.5 -16.5t-1.5 -15.5t-4.5 -12.5t-6 -11t-8 -11q-2 -3 -5.5 -8.5t-6 -11t-1.5 -8.5h-31z
M184 178q0 -41 14 -60.5t52 -19.5t52 19.5t14 60.5v366q0 41 -14 60.5t-52 19.5t-52 -19.5t-14 -60.5v-366zM60 547q0 38 11.5 72t35 59t59 39.5t84.5 14.5t84.5 -14.5t59 -39.5t35 -59t11.5 -72v-372q0 -38 -11.5 -72t-35 -59t-59 -39.5t-84.5 -14.5t-84.5 14.5t-59 39.5
t-35 59t-11.5 72v372z" />
    <glyph glyph-name="uni1ECC" unicode="&#x1ecc;" horiz-adv-x="500" 
d="M184 178q0 -41 14 -60.5t52 -19.5t52 19.5t14 60.5v366q0 41 -14 60.5t-52 19.5t-52 -19.5t-14 -60.5v-366zM60 547q0 38 11.5 72t35 59t59 39.5t84.5 14.5t84.5 -14.5t59 -39.5t35 -59t11.5 -72v-372q0 -38 -11.5 -72t-35 -59t-59 -39.5t-84.5 -14.5t-84.5 14.5
t-59 39.5t-35 59t-11.5 72v372zM304 -35v-108h-108v108h108z" />
    <glyph glyph-name="uni1ED2" unicode="&#x1ed2;" horiz-adv-x="500" 
d="M209 850h82l72 -108h-69l-44 67l-44 -67h-69zM120 978h102l59 -108h-62zM184 178q0 -41 14 -60.5t52 -19.5t52 19.5t14 60.5v366q0 41 -14 60.5t-52 19.5t-52 -19.5t-14 -60.5v-366zM60 547q0 38 11.5 72t35 59t59 39.5t84.5 14.5t84.5 -14.5t59 -39.5t35 -59t11.5 -72
v-372q0 -38 -11.5 -72t-35 -59t-59 -39.5t-84.5 -14.5t-84.5 14.5t-59 39.5t-35 59t-11.5 72v372z" />
    <glyph glyph-name="uni1EE4" unicode="&#x1ee4;" horiz-adv-x="500" 
d="M304 -34v-108h-108v108h108zM60 722h124v-545q0 -79 66 -79t66 79v545h124v-540q0 -94 -50.5 -143t-139.5 -49t-139.5 49t-50.5 143v540z" />
    <glyph glyph-name="uni1EF0" unicode="&#x1ef0;" horiz-adv-x="500" 
d="M304 -34v-108h-108v108h108zM475 742l-35 -61h-26l24 61h-22v59h59v-59zM60 722h124v-545q0 -79 66 -79t66 79v545h124v-540q0 -94 -50.5 -143t-139.5 -49t-139.5 49t-50.5 143v540z" />
    <glyph glyph-name="uni1ED0" unicode="&#x1ed0;" horiz-adv-x="500" 
d="M281 870h-62l59 108h101zM208 850h83l72 -108h-69l-44 67l-45 -67h-69zM184 178q0 -41 14 -60.5t52 -19.5t52 19.5t14 60.5v366q0 41 -14 60.5t-52 19.5t-52 -19.5t-14 -60.5v-366zM60 547q0 38 11.5 72t35 59t59 39.5t84.5 14.5t84.5 -14.5t59 -39.5t35 -59t11.5 -72
v-372q0 -38 -11.5 -72t-35 -59t-59 -39.5t-84.5 -14.5t-84.5 14.5t-59 39.5t-35 59t-11.5 72v372z" />
    <glyph glyph-name="uni1ED6" unicode="&#x1ed6;" horiz-adv-x="500" 
d="M209 850h82l72 -108h-69l-44 67l-44 -67h-69zM372 962q-3 -16 -8.5 -32t-14.5 -28.5t-22 -20t-32 -7.5q-14 0 -26 4.5t-23 10.5t-22 10t-23 4q-17 0 -24 -8.5t-7 -24.5h-42q3 16 8 32t14 28.5t22.5 20t32.5 7.5q13 0 25 -4.5t24 -9.5l22 -10t23 -5q17 0 23.5 8.5
t7.5 24.5h42zM184 178q0 -41 14 -60.5t52 -19.5t52 19.5t14 60.5v366q0 41 -14 60.5t-52 19.5t-52 -19.5t-14 -60.5v-366zM60 547q0 38 11.5 72t35 59t59 39.5t84.5 14.5t84.5 -14.5t59 -39.5t35 -59t11.5 -72v-372q0 -38 -11.5 -72t-35 -59t-59 -39.5t-84.5 -14.5
t-84.5 14.5t-59 39.5t-35 59t-11.5 72v372z" />
    <glyph glyph-name="uni1ED4" unicode="&#x1ed4;" horiz-adv-x="500" 
d="M209 850h82l72 -108h-69l-44 67l-44 -67h-69zM237 870q-1 7 2.5 17t9.5 20q7 12 11.5 21.5t4.5 17.5q0 6 -3 10.5t-10 4.5q-5 0 -8.5 -2t-6 -5.5t-4 -7.5t-3.5 -9l-30 11q8 21 21 31.5t35 10.5q9 0 17 -3.5t14.5 -9t10 -13t3.5 -16.5t-1.5 -15.5t-4.5 -12.5t-6 -11
t-8 -11q-2 -3 -5.5 -8.5t-6 -11t-1.5 -8.5h-31zM184 178q0 -41 14 -60.5t52 -19.5t52 19.5t14 60.5v366q0 41 -14 60.5t-52 19.5t-52 -19.5t-14 -60.5v-366zM60 547q0 38 11.5 72t35 59t59 39.5t84.5 14.5t84.5 -14.5t59 -39.5t35 -59t11.5 -72v-372q0 -38 -11.5 -72
t-35 -59t-59 -39.5t-84.5 -14.5t-84.5 14.5t-59 39.5t-35 59t-11.5 72v372z" />
    <glyph glyph-name="uni1ED8" unicode="&#x1ed8;" horiz-adv-x="500" 
d="M209 850h82l72 -108h-69l-44 67l-44 -67h-69zM184 178q0 -41 14 -60.5t52 -19.5t52 19.5t14 60.5v366q0 41 -14 60.5t-52 19.5t-52 -19.5t-14 -60.5v-366zM60 547q0 38 11.5 72t35 59t59 39.5t84.5 14.5t84.5 -14.5t59 -39.5t35 -59t11.5 -72v-372q0 -38 -11.5 -72
t-35 -59t-59 -39.5t-84.5 -14.5t-84.5 14.5t-59 39.5t-35 59t-11.5 72v372zM304 -35v-108h-108v108h108z" />
    <glyph glyph-name="Ohorn" unicode="&#x1a0;" horiz-adv-x="500" 
d="M426 742l-35 -61h-26l24 61h-22v59h59v-59zM184 178q0 -41 14 -60.5t52 -19.5t52 19.5t14 60.5v366q0 41 -14 60.5t-52 19.5t-52 -19.5t-14 -60.5v-366zM60 547q0 38 11.5 72t35 59t59 39.5t84.5 14.5t84.5 -14.5t59 -39.5t35 -59t11.5 -72v-372q0 -38 -11.5 -72t-35 -59
t-59 -39.5t-84.5 -14.5t-84.5 14.5t-59 39.5t-35 59t-11.5 72v372z" />
    <glyph glyph-name="uni1EDC" unicode="&#x1edc;" horiz-adv-x="500" 
d="M121 850h101l59 -108h-62zM426 742l-35 -61h-26l24 61h-22v59h59v-59zM184 178q0 -41 14 -60.5t52 -19.5t52 19.5t14 60.5v366q0 41 -14 60.5t-52 19.5t-52 -19.5t-14 -60.5v-366zM60 547q0 38 11.5 72t35 59t59 39.5t84.5 14.5t84.5 -14.5t59 -39.5t35 -59t11.5 -72
v-372q0 -38 -11.5 -72t-35 -59t-59 -39.5t-84.5 -14.5t-84.5 14.5t-59 39.5t-35 59t-11.5 72v372z" />
    <glyph glyph-name="uni1EDA" unicode="&#x1eda;" horiz-adv-x="500" 
d="M281 742h-62l59 108h101zM426 742l-35 -61h-26l24 61h-22v59h59v-59zM184 178q0 -41 14 -60.5t52 -19.5t52 19.5t14 60.5v366q0 41 -14 60.5t-52 19.5t-52 -19.5t-14 -60.5v-366zM60 547q0 38 11.5 72t35 59t59 39.5t84.5 14.5t84.5 -14.5t59 -39.5t35 -59t11.5 -72v-372
q0 -38 -11.5 -72t-35 -59t-59 -39.5t-84.5 -14.5t-84.5 14.5t-59 39.5t-35 59t-11.5 72v372z" />
    <glyph glyph-name="uni1EE0" unicode="&#x1ee0;" horiz-adv-x="500" 
d="M372 835q-3 -16 -8.5 -32t-14.5 -28.5t-22 -20.5t-32 -8q-14 0 -26 4.5t-23 10.5t-22 10t-23 4q-17 0 -24 -8t-7 -25h-42q3 16 8 32t14 28.5t22.5 20.5t32.5 8q13 0 25 -4.5t24 -9.5q11 -6 22 -10.5t23 -4.5q17 0 23.5 8t7.5 25h42zM426 742l-35 -61h-26l24 61h-22v59h59
v-59zM184 178q0 -41 14 -60.5t52 -19.5t52 19.5t14 60.5v366q0 41 -14 60.5t-52 19.5t-52 -19.5t-14 -60.5v-366zM60 547q0 38 11.5 72t35 59t59 39.5t84.5 14.5t84.5 -14.5t59 -39.5t35 -59t11.5 -72v-372q0 -38 -11.5 -72t-35 -59t-59 -39.5t-84.5 -14.5t-84.5 14.5
t-59 39.5t-35 59t-11.5 72v372z" />
    <glyph glyph-name="Uhorn" unicode="&#x1af;" horiz-adv-x="501" 
d="M475 742l-35 -61h-26l24 61h-22v59h59v-59zM60 722h124v-545q0 -79 66 -79t66 79v545h124v-540q0 -94 -50.5 -143t-139.5 -49t-139.5 49t-50.5 143v540z" />
    <glyph glyph-name="uni1EDE" unicode="&#x1ede;" horiz-adv-x="500" 
d="M233 742q-1 7 2.5 17t9.5 20q7 12 11.5 21.5t4.5 17.5q0 6 -3 10.5t-10 4.5q-5 0 -8.5 -2t-6 -5.5t-4 -7.5t-3.5 -9l-30 11q8 21 21 31.5t35 10.5q9 0 17 -3.5t14.5 -9t10 -13t3.5 -16.5t-1.5 -15.5t-4.5 -12.5t-6 -11t-8 -11q-2 -3 -5.5 -8.5t-6 -11t-1.5 -8.5h-31z
M426 742l-35 -61h-26l24 61h-22v59h59v-59zM184 178q0 -41 14 -60.5t52 -19.5t52 19.5t14 60.5v366q0 41 -14 60.5t-52 19.5t-52 -19.5t-14 -60.5v-366zM60 547q0 38 11.5 72t35 59t59 39.5t84.5 14.5t84.5 -14.5t59 -39.5t35 -59t11.5 -72v-372q0 -38 -11.5 -72t-35 -59
t-59 -39.5t-84.5 -14.5t-84.5 14.5t-59 39.5t-35 59t-11.5 72v372z" />
    <glyph glyph-name="uni1EE2" unicode="&#x1ee2;" horiz-adv-x="500" 
d="M426 742l-35 -61h-26l24 61h-22v59h59v-59zM184 178q0 -41 14 -60.5t52 -19.5t52 19.5t14 60.5v366q0 41 -14 60.5t-52 19.5t-52 -19.5t-14 -60.5v-366zM60 547q0 38 11.5 72t35 59t59 39.5t84.5 14.5t84.5 -14.5t59 -39.5t35 -59t11.5 -72v-372q0 -38 -11.5 -72t-35 -59
t-59 -39.5t-84.5 -14.5t-84.5 14.5t-59 39.5t-35 59t-11.5 72v372zM304 -35v-108h-108v108h108z" />
    <glyph glyph-name="uni1EE6" unicode="&#x1ee6;" horiz-adv-x="500" 
d="M237 742q-1 7 2.5 17t9.5 20q7 12 11.5 21.5t4.5 17.5q0 6 -3 10.5t-10 4.5q-5 0 -8.5 -2t-6 -5.5t-4 -7.5t-3.5 -9l-30 11q8 21 21 31.5t35 10.5q9 0 17 -3.5t14.5 -9t10 -13t3.5 -16.5t-1.5 -15.5t-4.5 -12.5t-6 -11t-8 -11q-2 -3 -5.5 -8.5t-6 -11t-1.5 -8.5h-31z
M60 722h124v-545q0 -79 66 -79t66 79v545h124v-540q0 -94 -50.5 -143t-139.5 -49t-139.5 49t-50.5 143v540z" />
    <glyph glyph-name="uni1EEA" unicode="&#x1eea;" horiz-adv-x="500" 
d="M121 850h101l59 -108h-62zM475 742l-35 -61h-26l24 61h-22v59h59v-59zM60 722h124v-545q0 -79 66 -79t66 79v545h124v-540q0 -94 -50.5 -143t-139.5 -49t-139.5 49t-50.5 143v540z" />
    <glyph glyph-name="uni1EE8" unicode="&#x1ee8;" horiz-adv-x="500" 
d="M281 742h-62l59 108h101zM475 742l-35 -61h-26l24 61h-22v59h59v-59zM60 722h124v-545q0 -79 66 -79t66 79v545h124v-540q0 -94 -50.5 -143t-139.5 -49t-139.5 49t-50.5 143v540z" />
    <glyph glyph-name="uni1EEE" unicode="&#x1eee;" horiz-adv-x="500" 
d="M372 835q-3 -16 -8.5 -32t-14.5 -28.5t-22 -20.5t-32 -8q-14 0 -26 4.5t-23 10.5t-22 10t-23 4q-17 0 -24 -8t-7 -25h-42q3 16 8 32t14 28.5t22.5 20.5t32.5 8q13 0 25 -4.5t24 -9.5q11 -6 22 -10.5t23 -4.5q17 0 23.5 8t7.5 25h42zM475 742l-35 -61h-26l24 61h-22v59h59
v-59zM60 722h124v-545q0 -79 66 -79t66 79v545h124v-540q0 -94 -50.5 -143t-139.5 -49t-139.5 49t-50.5 143v540z" />
    <glyph glyph-name="uni1EEC" unicode="&#x1eec;" horiz-adv-x="500" 
d="M237 742q-1 7 2.5 17t9.5 20q7 12 11.5 21.5t4.5 17.5q0 6 -3 10.5t-10 4.5q-5 0 -8.5 -2t-6 -5.5t-4 -7.5t-3.5 -9l-30 11q8 21 21 31.5t35 10.5q9 0 17 -3.5t14.5 -9t10 -13t3.5 -16.5t-1.5 -15.5t-4.5 -12.5t-6 -11t-8 -11q-2 -3 -5.5 -8.5t-6 -11t-1.5 -8.5h-31z
M475 742l-35 -61h-26l24 61h-22v59h59v-59zM60 722h124v-545q0 -79 66 -79t66 79v545h124v-540q0 -94 -50.5 -143t-139.5 -49t-139.5 49t-50.5 143v540z" />
    <glyph glyph-name="Ygrave" unicode="&#x1ef2;" 
d="M95 850h101l59 -108h-62zM284 0h-124v300l-150 422h126l87 -275h2l83 275h126l-150 -422v-300z" />
    <glyph glyph-name="uni1EF8" unicode="&#x1ef8;" 
d="M344 835q-3 -16 -8.5 -32t-14.5 -28.5t-22 -20.5t-32 -8q-14 0 -26 4.5t-23 10.5t-22 10t-23 4q-17 0 -24 -8t-7 -25h-42q3 16 8 32t14 28.5t22.5 20.5t32.5 8q13 0 25 -4.5t24 -9.5q11 -6 22 -10.5t23 -4.5q17 0 23.5 8t7.5 25h42zM284 0h-124v300l-150 422h126l87 -275
h2l83 275h126l-150 -422v-300z" />
    <glyph glyph-name="uni1EF6" unicode="&#x1ef6;" 
d="M211 742q-1 7 2.5 17t9.5 20q7 12 11.5 21.5t4.5 17.5q0 6 -3 10.5t-10 4.5q-5 0 -8.5 -2t-6 -5.5t-4 -7.5t-3.5 -9l-30 11q8 21 21 31.5t35 10.5q9 0 17 -3.5t14.5 -9t10 -13t3.5 -16.5t-1.5 -15.5t-4.5 -12.5t-6 -11t-8 -11q-2 -3 -5.5 -8.5t-6 -11t-1.5 -8.5h-31z
M284 0h-124v300l-150 422h126l87 -275h2l83 275h126l-150 -422v-300z" />
    <glyph glyph-name="uni1EF4" unicode="&#x1ef4;" 
d="M284 0h-124v300l-150 422h126l87 -275h2l83 275h126l-150 -422v-300zM276 -35v-108h-108v108h108z" />
    <glyph glyph-name="uni1EA3" unicode="&#x1ea3;" 
d="M200 568q-1 7 2.5 17t9.5 20q7 12 11.5 21.5t4.5 17.5q0 6 -3 10.5t-10 4.5q-5 0 -8.5 -2t-6 -5.5t-4 -7.5t-3.5 -9l-30 11q8 21 21 31.5t35 10.5q9 0 17 -3.5t14.5 -9t10 -13t3.5 -16.5t-1.5 -15.5t-4.5 -12.5t-6 -11t-8 -11q-2 -3 -5.5 -8.5t-6 -11t-1.5 -8.5h-31z
M273 273q-38 -22 -63 -40t-39 -35t-19.5 -33t-5.5 -34q0 -26 13 -37.5t39 -11.5q23 0 42 15t33 35v141zM42 380q5 82 53 125t127 43q78 0 120.5 -36t42.5 -110v-345q0 -13 2.5 -28t4.5 -29h-107q-1 11 -3 21.5t-3 20.5q-32 -26 -61 -39t-70 -13q-57 0 -85.5 34.5t-28.5 86.5
q0 44 14.5 79t44.5 64t75 53.5t105 47.5v32q0 69 -55 69q-38 0 -50 -20.5t-14 -55.5h-112z" />
    <glyph glyph-name="uni1EA1" unicode="&#x1ea1;" 
d="M273 273q-38 -22 -63 -40t-39 -35t-19.5 -33t-5.5 -34q0 -26 13 -37.5t39 -11.5q23 0 42 15t33 35v141zM42 380q5 82 53 125t127 43q78 0 120.5 -36t42.5 -110v-345q0 -13 2.5 -28t4.5 -29h-107q-1 11 -3 21.5t-3 20.5q-32 -26 -61 -39t-70 -13q-57 0 -85.5 34.5
t-28.5 86.5q0 44 14.5 79t44.5 64t75 53.5t105 47.5v32q0 69 -55 69q-38 0 -50 -20.5t-14 -55.5h-112zM267 -35v-108h-108v108h108z" />
    <glyph glyph-name="uni1EA7" unicode="&#x1ea7;" 
d="M172 676h83l72 -108h-69l-45 67l-44 -67h-69zM83 804h102l59 -108h-62zM273 273q-38 -22 -63 -40t-39 -35t-19.5 -33t-5.5 -34q0 -26 13 -37.5t39 -11.5q23 0 42 15t33 35v141zM42 380q5 82 53 125t127 43q78 0 120.5 -36t42.5 -110v-345q0 -13 2.5 -28t4.5 -29h-107
q-1 11 -3 21.5t-3 20.5q-32 -26 -61 -39t-70 -13q-57 0 -85.5 34.5t-28.5 86.5q0 44 14.5 79t44.5 64t75 53.5t105 47.5v32q0 69 -55 69q-38 0 -50 -20.5t-14 -55.5h-112z" />
    <glyph glyph-name="uni1EA5" unicode="&#x1ea5;" 
d="M171 676h83l72 -108h-69l-44 67l-45 -67h-69zM244 696h-62l59 108h101zM273 273q-38 -22 -63 -40t-39 -35t-19.5 -33t-5.5 -34q0 -26 13 -37.5t39 -11.5q23 0 42 15t33 35v141zM42 380q5 82 53 125t127 43q78 0 120.5 -36t42.5 -110v-345q0 -13 2.5 -28t4.5 -29h-107
q-1 11 -3 21.5t-3 20.5q-32 -26 -61 -39t-70 -13q-57 0 -85.5 34.5t-28.5 86.5q0 44 14.5 79t44.5 64t75 53.5t105 47.5v32q0 69 -55 69q-38 0 -50 -20.5t-14 -55.5h-112z" />
    <glyph glyph-name="uni1EAB" unicode="&#x1eab;" 
d="M172 676h82l72 -108h-69l-44 66l-44 -66h-69zM335 788q-3 -16 -8.5 -32t-14.5 -28.5t-22 -20t-32 -7.5q-14 0 -26 4.5t-23 10.5t-22 10t-23 4q-17 0 -24 -8.5t-7 -24.5h-42q3 16 8 32t14 28.5t22.5 20t32.5 7.5q13 0 25 -4.5t24 -9.5l22 -10t23 -5q17 0 23.5 8.5
t7.5 24.5h42zM273 273q-38 -22 -63 -40t-39 -35t-19.5 -33t-5.5 -34q0 -26 13 -37.5t39 -11.5q23 0 42 15t33 35v141zM42 380q5 82 53 125t127 43q78 0 120.5 -36t42.5 -110v-345q0 -13 2.5 -28t4.5 -29h-107q-1 11 -3 21.5t-3 20.5q-32 -26 -61 -39t-70 -13
q-57 0 -85.5 34.5t-28.5 86.5q0 44 14.5 79t44.5 64t75 53.5t105 47.5v32q0 69 -55 69q-38 0 -50 -20.5t-14 -55.5h-112z" />
    <glyph glyph-name="uni1EA9" unicode="&#x1ea9;" 
d="M172 676h82l72 -108h-69l-44 67l-44 -67h-69zM200 696q-1 7 2.5 17t9.5 20q7 12 11.5 21.5t4.5 17.5q0 6 -3 10.5t-10 4.5q-5 0 -8.5 -2t-6 -5.5t-4 -7.5t-3.5 -9l-30 11q8 21 21 31.5t35 10.5q9 0 17 -3.5t14.5 -9t10 -13t3.5 -16.5t-1.5 -15.5t-4.5 -12.5t-6 -11
t-8 -11q-2 -3 -5.5 -8.5t-6 -11t-1.5 -8.5h-31zM273 273q-38 -22 -63 -40t-39 -35t-19.5 -33t-5.5 -34q0 -26 13 -37.5t39 -11.5q23 0 42 15t33 35v141zM42 380q5 82 53 125t127 43q78 0 120.5 -36t42.5 -110v-345q0 -13 2.5 -28t4.5 -29h-107q-1 11 -3 21.5t-3 20.5
q-32 -26 -61 -39t-70 -13q-57 0 -85.5 34.5t-28.5 86.5q0 44 14.5 79t44.5 64t75 53.5t105 47.5v32q0 69 -55 69q-38 0 -50 -20.5t-14 -55.5h-112z" />
    <glyph glyph-name="uni1EAD" unicode="&#x1ead;" 
d="M172 676h82l72 -108h-69l-44 67l-44 -67h-69zM273 273q-38 -22 -63 -40t-39 -35t-19.5 -33t-5.5 -34q0 -26 13 -37.5t39 -11.5q23 0 42 15t33 35v141zM42 380q5 82 53 125t127 43q78 0 120.5 -36t42.5 -110v-345q0 -13 2.5 -28t4.5 -29h-107q-1 11 -3 21.5t-3 20.5
q-32 -26 -61 -39t-70 -13q-57 0 -85.5 34.5t-28.5 86.5q0 44 14.5 79t44.5 64t75 53.5t105 47.5v32q0 69 -55 69q-38 0 -50 -20.5t-14 -55.5h-112zM267 -35v-108h-108v108h108z" />
    <glyph glyph-name="uni1EB1" unicode="&#x1eb1;" 
d="M84 804h101l59 -108h-62zM323 675q-1 -22 -8.5 -41t-21 -33.5t-33.5 -23.5t-47 -9t-47.5 9t-34 23.5t-20.5 33.5t-8 41h43q4 -29 20.5 -42.5t46.5 -13.5t46.5 13.5t20.5 42.5h43zM273 273q-38 -22 -63 -40t-39 -35t-19.5 -33t-5.5 -34q0 -26 13 -37.5t39 -11.5
q23 0 42 15t33 35v141zM42 380q5 82 53 125t127 43q78 0 120.5 -36t42.5 -110v-345q0 -13 2.5 -28t4.5 -29h-107q-1 11 -3 21.5t-3 20.5q-32 -26 -61 -39t-70 -13q-57 0 -85.5 34.5t-28.5 86.5q0 44 14.5 79t44.5 64t75 53.5t105 47.5v32q0 69 -55 69q-38 0 -50 -20.5
t-14 -55.5h-112z" />
    <glyph glyph-name="uni1EAF" unicode="&#x1eaf;" 
d="M244 696h-62l59 108h101zM323 675q-1 -22 -8 -41t-20.5 -33.5t-34 -23.5t-47.5 -9t-47 9t-33.5 23.5t-21 33.5t-8.5 41h43q4 -29 20.5 -42.5t46.5 -13.5t46.5 13.5t20.5 42.5h43zM273 273q-38 -22 -63 -40t-39 -35t-19.5 -33t-5.5 -34q0 -26 13 -37.5t39 -11.5
q23 0 42 15t33 35v141zM42 380q5 82 53 125t127 43q78 0 120.5 -36t42.5 -110v-345q0 -13 2.5 -28t4.5 -29h-107q-1 11 -3 21.5t-3 20.5q-32 -26 -61 -39t-70 -13q-57 0 -85.5 34.5t-28.5 86.5q0 44 14.5 79t44.5 64t75 53.5t105 47.5v32q0 69 -55 69q-38 0 -50 -20.5
t-14 -55.5h-112z" />
    <glyph glyph-name="uni1EB5" unicode="&#x1eb5;" 
d="M335 788q-3 -16 -8.5 -32t-14.5 -28.5t-22 -20t-32 -7.5q-14 0 -26 4.5t-23 10.5t-22 10t-23 4q-17 0 -24 -8.5t-7 -24.5h-42q3 16 8 32t14 28.5t22.5 20t32.5 7.5q13 0 25 -4.5t24 -9.5l22 -10t23 -5q17 0 23.5 8.5t7.5 24.5h42zM323 674q-1 -22 -8.5 -41t-21 -33.5
t-33.5 -23t-47 -8.5t-47.5 8.5t-34 23t-20.5 33.5t-8 41h43q4 -29 20.5 -42t46.5 -13t46.5 13t20.5 42h43zM273 273q-38 -22 -63 -40t-39 -35t-19.5 -33t-5.5 -34q0 -26 13 -37.5t39 -11.5q23 0 42 15t33 35v141zM42 380q5 82 53 125t127 43q78 0 120.5 -36t42.5 -110v-345
q0 -13 2.5 -28t4.5 -29h-107q-1 11 -3 21.5t-3 20.5q-32 -26 -61 -39t-70 -13q-57 0 -85.5 34.5t-28.5 86.5q0 44 14.5 79t44.5 64t75 53.5t105 47.5v32q0 69 -55 69q-38 0 -50 -20.5t-14 -55.5h-112z" />
    <glyph glyph-name="uni1EB3" unicode="&#x1eb3;" 
d="M200 696q-1 7 2.5 17t9.5 20q7 12 11.5 21.5t4.5 17.5q0 6 -3 10.5t-10 4.5q-5 0 -8.5 -2t-6 -5.5t-4 -7.5t-3.5 -9l-30 11q8 21 21 31.5t35 10.5q9 0 17 -3.5t14.5 -9t10 -13t3.5 -16.5t-1.5 -15.5t-4.5 -12.5t-6 -11t-8 -11q-2 -3 -5.5 -8.5t-6 -11t-1.5 -8.5h-31z
M323 674q-1 -22 -8.5 -41t-21 -33.5t-33.5 -23t-47 -8.5t-47.5 8.5t-34 23t-20.5 33.5t-8 41h43q4 -29 20.5 -42t46.5 -13t46.5 13t20.5 42h43zM273 273q-38 -22 -63 -40t-39 -35t-19.5 -33t-5.5 -34q0 -26 13 -37.5t39 -11.5q23 0 42 15t33 35v141zM42 380q5 82 53 125
t127 43q78 0 120.5 -36t42.5 -110v-345q0 -13 2.5 -28t4.5 -29h-107q-1 11 -3 21.5t-3 20.5q-32 -26 -61 -39t-70 -13q-57 0 -85.5 34.5t-28.5 86.5q0 44 14.5 79t44.5 64t75 53.5t105 47.5v32q0 69 -55 69q-38 0 -50 -20.5t-14 -55.5h-112z" />
    <glyph glyph-name="uni1EB7" unicode="&#x1eb7;" 
d="M323 674q-1 -22 -8.5 -41t-21 -33.5t-33.5 -23t-47 -8.5t-47.5 8.5t-34 23t-20.5 33.5t-8 41h43q4 -29 20.5 -42t46.5 -13t46.5 13t20.5 42h43zM273 273q-38 -22 -63 -40t-39 -35t-19.5 -33t-5.5 -34q0 -26 13 -37.5t39 -11.5q23 0 42 15t33 35v141zM42 380q5 82 53 125
t127 43q78 0 120.5 -36t42.5 -110v-345q0 -13 2.5 -28t4.5 -29h-107q-1 11 -3 21.5t-3 20.5q-32 -26 -61 -39t-70 -13q-57 0 -85.5 34.5t-28.5 86.5q0 44 14.5 79t44.5 64t75 53.5t105 47.5v32q0 69 -55 69q-38 0 -50 -20.5t-14 -55.5h-112zM267 -35v-108h-108v108h108z" />
    <glyph glyph-name="uni1EBD" unicode="&#x1ebd;" 
d="M344 661q-3 -16 -8.5 -32t-14.5 -28.5t-22 -20.5t-32 -8q-14 0 -26 4.5t-23 10.5t-22 10t-23 4q-17 0 -24 -8t-7 -25h-42q3 16 8 32t14 28.5t22.5 20.5t32.5 8q13 0 25 -4.5t24 -9.5q11 -6 22 -10.5t23 -4.5q17 0 23.5 8t7.5 25h42zM284 340v28q0 47 -16 67.5t-46 20.5
t-46 -20.5t-16 -67.5v-28h124zM396 248h-236v-78q0 -47 16 -67.5t46 -20.5t46 20.5t16 67.5v12h112q-1 -43 -10.5 -78t-30.5 -60.5t-53.5 -39.5t-79.5 -14q-48 0 -81 14.5t-54 41t-30 63.5t-9 81v158q0 44 9 81t30 63.5t54 41t81 14.5t81 -14.5t54 -41t30 -63.5t9 -81v-100z
" />
    <glyph glyph-name="uni1EBB" unicode="&#x1ebb;" 
d="M209 568q-1 7 2.5 17t9.5 20q7 12 11.5 21.5t4.5 17.5q0 6 -3 10.5t-10 4.5q-5 0 -8.5 -2t-6 -5.5t-4 -7.5t-3.5 -9l-30 11q8 21 21 31.5t35 10.5q9 0 17 -3.5t14.5 -9t10 -13t3.5 -16.5t-1.5 -15.5t-4.5 -12.5t-6 -11t-8 -11q-2 -3 -5.5 -8.5t-6 -11t-1.5 -8.5h-31z
M284 340v28q0 47 -16 67.5t-46 20.5t-46 -20.5t-16 -67.5v-28h124zM396 248h-236v-78q0 -47 16 -67.5t46 -20.5t46 20.5t16 67.5v12h112q-1 -43 -10.5 -78t-30.5 -60.5t-53.5 -39.5t-79.5 -14q-48 0 -81 14.5t-54 41t-30 63.5t-9 81v158q0 44 9 81t30 63.5t54 41t81 14.5
t81 -14.5t54 -41t30 -63.5t9 -81v-100z" />
    <glyph glyph-name="uni1EB9" unicode="&#x1eb9;" 
d="M284 340v28q0 47 -16 67.5t-46 20.5t-46 -20.5t-16 -67.5v-28h124zM396 248h-236v-78q0 -47 16 -67.5t46 -20.5t46 20.5t16 67.5v12h112q-1 -43 -10.5 -78t-30.5 -60.5t-53.5 -39.5t-79.5 -14q-48 0 -81 14.5t-54 41t-30 63.5t-9 81v158q0 44 9 81t30 63.5t54 41t81 14.5
t81 -14.5t54 -41t30 -63.5t9 -81v-100zM277 -35v-108h-108v108h108z" />
    <glyph glyph-name="uni1EC1" unicode="&#x1ec1;" 
d="M180 676h83l72 -108h-69l-44 67l-45 -67h-69zM92 804h101l60 -108h-63zM284 340v28q0 47 -16 67.5t-46 20.5t-46 -20.5t-16 -67.5v-28h124zM396 248h-236v-78q0 -47 16 -67.5t46 -20.5t46 20.5t16 67.5v12h112q-1 -43 -10.5 -78t-30.5 -60.5t-53.5 -39.5t-79.5 -14
q-48 0 -81 14.5t-54 41t-30 63.5t-9 81v158q0 44 9 81t30 63.5t54 41t81 14.5t81 -14.5t54 -41t30 -63.5t9 -81v-100z" />
    <glyph glyph-name="uni1EBF" unicode="&#x1ebf;" 
d="M181 676h82l72 -108h-69l-44 67l-44 -67h-69zM253 696h-62l59 108h101zM284 340v28q0 47 -16 67.5t-46 20.5t-46 -20.5t-16 -67.5v-28h124zM396 248h-236v-78q0 -47 16 -67.5t46 -20.5t46 20.5t16 67.5v12h112q-1 -43 -10.5 -78t-30.5 -60.5t-53.5 -39.5t-79.5 -14
q-48 0 -81 14.5t-54 41t-30 63.5t-9 81v158q0 44 9 81t30 63.5t54 41t81 14.5t81 -14.5t54 -41t30 -63.5t9 -81v-100z" />
    <glyph glyph-name="uni1EC5" unicode="&#x1ec5;" 
d="M181 676h82l72 -108h-69l-44 66l-44 -66h-69zM344 788q-3 -16 -8.5 -32t-14.5 -28.5t-22 -20t-32 -7.5q-14 0 -26 4.5t-23 10.5t-22 10t-23 4q-17 0 -24 -8.5t-7 -24.5h-42q3 16 8 32t14 28.5t22.5 20t32.5 7.5q13 0 25 -4.5t24 -9.5l22 -10t23 -5q17 0 23.5 8.5
t7.5 24.5h42zM284 340v28q0 47 -16 67.5t-46 20.5t-46 -20.5t-16 -67.5v-28h124zM396 248h-236v-78q0 -47 16 -67.5t46 -20.5t46 20.5t16 67.5v12h112q-1 -43 -10.5 -78t-30.5 -60.5t-53.5 -39.5t-79.5 -14q-48 0 -81 14.5t-54 41t-30 63.5t-9 81v158q0 44 9 81t30 63.5
t54 41t81 14.5t81 -14.5t54 -41t30 -63.5t9 -81v-100z" />
    <glyph glyph-name="uni1EC3" unicode="&#x1ec3;" 
d="M209 696q-1 7 2.5 17t9.5 20q7 12 11.5 21.5t4.5 17.5q0 6 -3 10.5t-10 4.5q-5 0 -8.5 -2t-6 -5.5t-4 -7.5t-3.5 -9l-30 11q8 21 21 31.5t35 10.5q9 0 17 -3.5t14.5 -9t10 -13t3.5 -16.5t-1.5 -15.5t-4.5 -12.5t-6 -11t-8 -11q-2 -3 -5.5 -8.5t-6 -11t-1.5 -8.5h-31z
M181 676h82l72 -108h-69l-44 67l-44 -67h-69zM284 340v28q0 47 -16 67.5t-46 20.5t-46 -20.5t-16 -67.5v-28h124zM396 248h-236v-78q0 -47 16 -67.5t46 -20.5t46 20.5t16 67.5v12h112q-1 -43 -10.5 -78t-30.5 -60.5t-53.5 -39.5t-79.5 -14q-48 0 -81 14.5t-54 41t-30 63.5
t-9 81v158q0 44 9 81t30 63.5t54 41t81 14.5t81 -14.5t54 -41t30 -63.5t9 -81v-100z" />
    <glyph glyph-name="uni1EC7" unicode="&#x1ec7;" 
d="M181 676h82l72 -108h-69l-44 67l-44 -67h-69zM284 340v28q0 47 -16 67.5t-46 20.5t-46 -20.5t-16 -67.5v-28h124zM396 248h-236v-78q0 -47 16 -67.5t46 -20.5t46 20.5t16 67.5v12h112q-1 -43 -10.5 -78t-30.5 -60.5t-53.5 -39.5t-79.5 -14q-48 0 -81 14.5t-54 41
t-30 63.5t-9 81v158q0 44 9 81t30 63.5t54 41t81 14.5t81 -14.5t54 -41t30 -63.5t9 -81v-100zM277 -35v-108h-108v108h108z" />
    <glyph glyph-name="uni1EC9" unicode="&#x1ec9;" horiz-adv-x="222" 
d="M98 568q-1 7 2.5 17t9.5 20q7 12 11.5 21.5t4.5 17.5q0 6 -3 10.5t-10 4.5q-5 0 -8.5 -2t-6 -5.5t-4 -7.5t-3.5 -9l-30 11q8 21 21 31.5t35 10.5q9 0 17 -3.5t14.5 -9t10 -13t3.5 -16.5t-1.5 -15.5t-4.5 -12.5t-6 -11t-8 -11q-2 -3 -5.5 -8.5t-6 -11t-1.5 -8.5h-31zM55 0
v538h112v-538h-112z" />
    <glyph glyph-name="uni1ECB" unicode="&#x1ecb;" horiz-adv-x="222" 
d="M55 568v102h112v-102h-112zM55 0v538h112v-538h-112zM165 -35v-108h-108v108h108z" />
    <glyph glyph-name="uni1ECF" unicode="&#x1ecf;" 
d="M209 568q-1 7 2.5 17t9.5 20q7 12 11.5 21.5t4.5 17.5q0 6 -3 10.5t-10 4.5q-5 0 -8.5 -2t-6 -5.5t-4 -7.5t-3.5 -9l-30 11q8 21 21 31.5t35 10.5q9 0 17 -3.5t14.5 -9t10 -13t3.5 -16.5t-1.5 -15.5t-4.5 -12.5t-6 -11t-8 -11q-2 -3 -5.5 -8.5t-6 -11t-1.5 -8.5h-31z
M284 368q0 47 -16 67.5t-46 20.5t-46 -20.5t-16 -67.5v-198q0 -47 16 -67.5t46 -20.5t46 20.5t16 67.5v198zM48 348q0 44 9 81t30 63.5t54 41t81 14.5t81 -14.5t54 -41t30 -63.5t9 -81v-158q0 -44 -9 -81t-30 -63.5t-54 -41t-81 -14.5t-81 14.5t-54 41t-30 63.5t-9 81v158z
" />
    <glyph glyph-name="uni1ECD" unicode="&#x1ecd;" 
d="M284 368q0 47 -16 67.5t-46 20.5t-46 -20.5t-16 -67.5v-198q0 -47 16 -67.5t46 -20.5t46 20.5t16 67.5v198zM48 348q0 44 9 81t30 63.5t54 41t81 14.5t81 -14.5t54 -41t30 -63.5t9 -81v-158q0 -44 -9 -81t-30 -63.5t-54 -41t-81 -14.5t-81 14.5t-54 41t-30 63.5t-9 81
v158zM276 -35v-108h-108v108h108z" />
    <glyph glyph-name="uni1ED3" unicode="&#x1ed3;" 
d="M92 804h102l59 -108h-62zM181 676h83l72 -108h-69l-45 67l-44 -67h-69zM284 368q0 47 -16 67.5t-46 20.5t-46 -20.5t-16 -67.5v-198q0 -47 16 -67.5t46 -20.5t46 20.5t16 67.5v198zM48 348q0 44 9 81t30 63.5t54 41t81 14.5t81 -14.5t54 -41t30 -63.5t9 -81v-158
q0 -44 -9 -81t-30 -63.5t-54 -41t-81 -14.5t-81 14.5t-54 41t-30 63.5t-9 81v158z" />
    <glyph glyph-name="uni1ED1" unicode="&#x1ed1;" 
d="M180 676h83l72 -108h-69l-44 67l-45 -67h-69zM253 696h-62l59 108h101zM284 368q0 47 -16 67.5t-46 20.5t-46 -20.5t-16 -67.5v-198q0 -47 16 -67.5t46 -20.5t46 20.5t16 67.5v198zM48 348q0 44 9 81t30 63.5t54 41t81 14.5t81 -14.5t54 -41t30 -63.5t9 -81v-158
q0 -44 -9 -81t-30 -63.5t-54 -41t-81 -14.5t-81 14.5t-54 41t-30 63.5t-9 81v158z" />
    <glyph glyph-name="uni1ED7" unicode="&#x1ed7;" 
d="M181 676h82l72 -108h-69l-44 66l-44 -66h-69zM344 788q-3 -16 -8.5 -32t-14.5 -28.5t-22 -20t-32 -7.5q-14 0 -26 4.5t-23 10.5t-22 10t-23 4q-17 0 -24 -8.5t-7 -24.5h-42q3 16 8 32t14 28.5t22.5 20t32.5 7.5q13 0 25 -4.5t24 -9.5l22 -10t23 -5q17 0 23.5 8.5
t7.5 24.5h42zM284 368q0 47 -16 67.5t-46 20.5t-46 -20.5t-16 -67.5v-198q0 -47 16 -67.5t46 -20.5t46 20.5t16 67.5v198zM48 348q0 44 9 81t30 63.5t54 41t81 14.5t81 -14.5t54 -41t30 -63.5t9 -81v-158q0 -44 -9 -81t-30 -63.5t-54 -41t-81 -14.5t-81 14.5t-54 41
t-30 63.5t-9 81v158z" />
    <glyph glyph-name="uni1ED5" unicode="&#x1ed5;" 
d="M209 696q-1 7 2.5 17t9.5 20q7 12 11.5 21.5t4.5 17.5q0 6 -3 10.5t-10 4.5q-5 0 -8.5 -2t-6 -5.5t-4 -7.5t-3.5 -9l-30 11q8 21 21 31.5t35 10.5q9 0 17 -3.5t14.5 -9t10 -13t3.5 -16.5t-1.5 -15.5t-4.5 -12.5t-6 -11t-8 -11q-2 -3 -5.5 -8.5t-6 -11t-1.5 -8.5h-31z
M181 676h82l72 -108h-69l-44 67l-44 -67h-69zM284 368q0 47 -16 67.5t-46 20.5t-46 -20.5t-16 -67.5v-198q0 -47 16 -67.5t46 -20.5t46 20.5t16 67.5v198zM48 348q0 44 9 81t30 63.5t54 41t81 14.5t81 -14.5t54 -41t30 -63.5t9 -81v-158q0 -44 -9 -81t-30 -63.5t-54 -41
t-81 -14.5t-81 14.5t-54 41t-30 63.5t-9 81v158z" />
    <glyph glyph-name="uni1ED9" unicode="&#x1ed9;" 
d="M181 676h82l72 -108h-69l-44 67l-44 -67h-69zM284 368q0 47 -16 67.5t-46 20.5t-46 -20.5t-16 -67.5v-198q0 -47 16 -67.5t46 -20.5t46 20.5t16 67.5v198zM48 348q0 44 9 81t30 63.5t54 41t81 14.5t81 -14.5t54 -41t30 -63.5t9 -81v-158q0 -44 -9 -81t-30 -63.5t-54 -41
t-81 -14.5t-81 14.5t-54 41t-30 63.5t-9 81v158zM276 -35v-108h-108v108h108z" />
    <glyph glyph-name="ohorn" unicode="&#x1a1;" 
d="M395 550l-35 -61h-26l24 61h-22v59h59v-59zM284 368q0 47 -16 67.5t-46 20.5t-46 -20.5t-16 -67.5v-198q0 -47 16 -67.5t46 -20.5t46 20.5t16 67.5v198zM48 348q0 44 9 81t30 63.5t54 41t81 14.5t81 -14.5t54 -41t30 -63.5t9 -81v-158q0 -44 -9 -81t-30 -63.5t-54 -41
t-81 -14.5t-81 14.5t-54 41t-30 63.5t-9 81v158z" />
    <glyph glyph-name="uni1EDD" unicode="&#x1edd;" 
d="M93 676h101l59 -108h-62zM395 550l-35 -61h-26l24 61h-22v59h59v-59zM284 368q0 47 -16 67.5t-46 20.5t-46 -20.5t-16 -67.5v-198q0 -47 16 -67.5t46 -20.5t46 20.5t16 67.5v198zM48 348q0 44 9 81t30 63.5t54 41t81 14.5t81 -14.5t54 -41t30 -63.5t9 -81v-158
q0 -44 -9 -81t-30 -63.5t-54 -41t-81 -14.5t-81 14.5t-54 41t-30 63.5t-9 81v158z" />
    <glyph glyph-name="uni1EDB" unicode="&#x1edb;" 
d="M253 568h-62l59 108h101zM395 550l-35 -61h-26l24 61h-22v59h59v-59zM284 368q0 47 -16 67.5t-46 20.5t-46 -20.5t-16 -67.5v-198q0 -47 16 -67.5t46 -20.5t46 20.5t16 67.5v198zM48 348q0 44 9 81t30 63.5t54 41t81 14.5t81 -14.5t54 -41t30 -63.5t9 -81v-158
q0 -44 -9 -81t-30 -63.5t-54 -41t-81 -14.5t-81 14.5t-54 41t-30 63.5t-9 81v158z" />
    <glyph glyph-name="uni1EE1" unicode="&#x1ee1;" 
d="M344 666q-3 -16 -8.5 -32t-14.5 -28.5t-22 -20.5t-32 -8q-14 0 -26 4.5t-23 10.5t-22 10t-23 4q-17 0 -24 -8t-7 -25h-42q3 16 8 32t14 28.5t22.5 20.5t32.5 8q13 0 25 -4.5t24 -9.5q11 -6 22 -10.5t23 -4.5q17 0 23.5 8t7.5 25h42zM395 550l-35 -61h-26l24 61h-22v59h59
v-59zM284 368q0 47 -16 67.5t-46 20.5t-46 -20.5t-16 -67.5v-198q0 -47 16 -67.5t46 -20.5t46 20.5t16 67.5v198zM48 348q0 44 9 81t30 63.5t54 41t81 14.5t81 -14.5t54 -41t30 -63.5t9 -81v-158q0 -44 -9 -81t-30 -63.5t-54 -41t-81 -14.5t-81 14.5t-54 41t-30 63.5t-9 81
v158z" />
    <glyph glyph-name="uni1EDF" unicode="&#x1edf;" 
d="M395 550l-35 -61h-26l24 61h-22v59h59v-59zM209 568q-1 7 2.5 17t9.5 20q7 12 11.5 21.5t4.5 17.5q0 6 -3 10.5t-10 4.5q-5 0 -8.5 -2t-6 -5.5t-4 -7.5t-3.5 -9l-30 11q8 21 21 31.5t35 10.5q9 0 17 -3.5t14.5 -9t10 -13t3.5 -16.5t-1.5 -15.5t-4.5 -12.5t-6 -11t-8 -11
q-2 -3 -5.5 -8.5t-6 -11t-1.5 -8.5h-31zM284 368q0 47 -16 67.5t-46 20.5t-46 -20.5t-16 -67.5v-198q0 -47 16 -67.5t46 -20.5t46 20.5t16 67.5v198zM48 348q0 44 9 81t30 63.5t54 41t81 14.5t81 -14.5t54 -41t30 -63.5t9 -81v-158q0 -44 -9 -81t-30 -63.5t-54 -41
t-81 -14.5t-81 14.5t-54 41t-30 63.5t-9 81v158z" />
    <glyph glyph-name="uni1EE3" unicode="&#x1ee3;" 
d="M395 550l-35 -61h-26l24 61h-22v59h59v-59zM284 368q0 47 -16 67.5t-46 20.5t-46 -20.5t-16 -67.5v-198q0 -47 16 -67.5t46 -20.5t46 20.5t16 67.5v198zM48 348q0 44 9 81t30 63.5t54 41t81 14.5t81 -14.5t54 -41t30 -63.5t9 -81v-158q0 -44 -9 -81t-30 -63.5t-54 -41
t-81 -14.5t-81 14.5t-54 41t-30 63.5t-9 81v158zM276 -35v-108h-108v108h108z" />
    <glyph glyph-name="uni1EE7" unicode="&#x1ee7;" 
d="M209 568q-1 7 2.5 17t9.5 20q7 12 11.5 21.5t4.5 17.5q0 6 -3 10.5t-10 4.5q-5 0 -8.5 -2t-6 -5.5t-4 -7.5t-3.5 -9l-30 11q8 21 21 31.5t35 10.5q9 0 17 -3.5t14.5 -9t10 -13t3.5 -16.5t-1.5 -15.5t-4.5 -12.5t-6 -11t-8 -11q-2 -3 -5.5 -8.5t-6 -11t-1.5 -8.5h-31z
M390 538v-538h-106v54q-18 -15 -32 -27t-29 -20t-33 -12.5t-42 -4.5q-45 0 -69.5 30t-24.5 83v435h112v-417q0 -20 11 -29.5t29 -9.5t35 10t37 24v422h112z" />
    <glyph glyph-name="uni1EE5" unicode="&#x1ee5;" 
d="M390 538v-538h-106v54q-18 -15 -32 -27t-29 -20t-33 -12.5t-42 -4.5q-45 0 -69.5 30t-24.5 83v435h112v-417q0 -20 11 -29.5t29 -9.5t35 10t37 24v422h112zM276 -35v-108h-108v108h108z" />
    <glyph glyph-name="uhorn" unicode="&#x1b0;" 
d="M425 550l-35 -61h-26l24 61h-22v59h59v-59zM390 538v-538h-106v54q-18 -15 -32 -27t-29 -20t-33 -12.5t-42 -4.5q-45 0 -69.5 30t-24.5 83v435h112v-417q0 -20 11 -29.5t29 -9.5t35 10t37 24v422h112z" />
    <glyph glyph-name="uni1EEB" unicode="&#x1eeb;" 
d="M425 550l-35 -61h-26l24 61h-22v59h59v-59zM93 676h101l59 -108h-62zM390 538v-538h-106v54q-18 -15 -32 -27t-29 -20t-33 -12.5t-42 -4.5q-45 0 -69.5 30t-24.5 83v435h112v-417q0 -20 11 -29.5t29 -9.5t35 10t37 24v422h112z" />
    <glyph glyph-name="uni1EE9" unicode="&#x1ee9;" 
d="M425 550l-35 -61h-26l24 61h-22v59h59v-59zM253 568h-62l59 108h101zM390 538v-538h-106v54q-18 -15 -32 -27t-29 -20t-33 -12.5t-42 -4.5q-45 0 -69.5 30t-24.5 83v435h112v-417q0 -20 11 -29.5t29 -9.5t35 10t37 24v422h112z" />
    <glyph glyph-name="uni1EEF" unicode="&#x1eef;" 
d="M345 666q-3 -16 -8.5 -32t-14.5 -28.5t-22 -20.5t-32 -8q-14 0 -26 4.5t-23 10.5t-22 10t-23 4q-17 0 -24 -8t-7 -25h-42q3 16 8 32t14 28.5t22.5 20.5t32.5 8q13 0 25 -4.5t24 -9.5q11 -6 22 -10.5t23 -4.5q17 0 23.5 8t7.5 25h42zM425 550l-35 -61h-26l24 61h-22v59h59
v-59zM390 538v-538h-106v54q-18 -15 -32 -27t-29 -20t-33 -12.5t-42 -4.5q-45 0 -69.5 30t-24.5 83v435h112v-417q0 -20 11 -29.5t29 -9.5t35 10t37 24v422h112z" />
    <glyph glyph-name="uni1EED" unicode="&#x1eed;" 
d="M425 550l-35 -61h-26l24 61h-22v59h59v-59zM209 568q-1 7 2.5 17t9.5 20q7 12 11.5 21.5t4.5 17.5q0 6 -3 10.5t-10 4.5q-5 0 -8.5 -2t-6 -5.5t-4 -7.5t-3.5 -9l-30 11q8 21 21 31.5t35 10.5q9 0 17 -3.5t14.5 -9t10 -13t3.5 -16.5t-1.5 -15.5t-4.5 -12.5t-6 -11t-8 -11
q-2 -3 -5.5 -8.5t-6 -11t-1.5 -8.5h-31zM390 538v-538h-106v54q-18 -15 -32 -27t-29 -20t-33 -12.5t-42 -4.5q-45 0 -69.5 30t-24.5 83v435h112v-417q0 -20 11 -29.5t29 -9.5t35 10t37 24v422h112z" />
    <glyph glyph-name="uni1EF1" unicode="&#x1ef1;" 
d="M425 550l-35 -61h-26l24 61h-22v59h59v-59zM390 538v-538h-106v54q-18 -15 -32 -27t-29 -20t-33 -12.5t-42 -4.5q-45 0 -69.5 30t-24.5 83v435h112v-417q0 -20 11 -29.5t29 -9.5t35 10t37 24v422h112zM276 -35v-108h-108v108h108z" />
    <glyph glyph-name="ygrave" unicode="&#x1ef3;" horiz-adv-x="389" 
d="M68 676h101l59 -108h-62zM266 538h113l-141 -578q-9 -37 -22 -61.5t-32 -39.5t-43.5 -21.5t-55.5 -6.5h-47v92h27q42 0 58 22t16 65q0 17 -3.5 34t-8.5 37l-117 457h114l72 -344h2z" />
    <glyph glyph-name="uni1EF9" unicode="&#x1ef9;" horiz-adv-x="389" 
d="M319 661q-3 -16 -8.5 -32t-14.5 -28.5t-22 -20.5t-32 -8q-14 0 -26 4.5t-23 10.5t-22 10t-23 4q-17 0 -24 -8t-7 -25h-42q3 16 8 32t14 28.5t22.5 20.5t32.5 8q13 0 25 -4.5t24 -9.5q11 -6 22 -10.5t23 -4.5q17 0 23.5 8t7.5 25h42zM266 538h113l-141 -578
q-9 -37 -22 -61.5t-32 -39.5t-43.5 -21.5t-55.5 -6.5h-47v92h27q42 0 58 22t16 65q0 17 -3.5 34t-8.5 37l-117 457h114l72 -344h2z" />
    <glyph glyph-name="uni1EF7" unicode="&#x1ef7;" horiz-adv-x="389" 
d="M184 568q-1 7 2.5 17t9.5 20q7 12 11.5 21.5t4.5 17.5q0 6 -3 10.5t-10 4.5q-5 0 -8.5 -2t-6 -5.5t-4 -7.5t-3.5 -9l-30 11q8 21 21 31.5t35 10.5q9 0 17 -3.5t14.5 -9t10 -13t3.5 -16.5t-1.5 -15.5t-4.5 -12.5t-6 -11t-8 -11q-2 -3 -5.5 -8.5t-6 -11t-1.5 -8.5h-31z
M266 538h113l-141 -578q-9 -37 -22 -61.5t-32 -39.5t-43.5 -21.5t-55.5 -6.5h-47v92h27q42 0 58 22t16 65q0 17 -3.5 34t-8.5 37l-117 457h114l72 -344h2z" />
    <glyph glyph-name="uni1EF5" unicode="&#x1ef5;" horiz-adv-x="389" 
d="M251 -197v-108h-108v108h108zM266 538h113l-141 -578q-9 -37 -22 -61.5t-32 -39.5t-43.5 -21.5t-55.5 -6.5h-47v92h27q42 0 58 22t16 65q0 17 -3.5 34t-8.5 37l-117 457h114l72 -344h2z" />
    </font>
</defs>
</svg>
