<?xml version="1.0" standalone="no"?><!DOCTYPE svg PUBLIC "-//W3C//DTD SVG 1.1//EN" "http://www.w3.org/Graphics/SVG/1.1/DTD/svg11.dtd" ><svg xmlns="http://www.w3.org/2000/svg"><metadata></metadata><defs><font id="3.000;GOOG;OpenSansSemiCondensed-BoldItalic" horiz-adv-x="2280"><font-face font-family="Open Sans SemiCondensed" font-weight="700" font-stretch="normal" units-per-em="2048" panose-1="0 0 0 0 0 0 0 0 0 0" ascent="2189" descent="-600" x-height="0" bbox="-932 -627 2343 2162" underline-thickness="50" underline-position="-100" unicode-range="U+0000-fffd" /><missing-glyph horiz-adv-x="1229"  /><glyph glyph-name=".null" unicode="" d="" /><glyph glyph-name="nonmarkingreturn" unicode="" d="" /><glyph glyph-name="space" unicode=" " d="" /><glyph glyph-name="exclam" unicode="!" d="M131 474 l171 988 l312 0 l-249 -988 l-234 0 ZM154 -23 q-73 0 -106.5 36 q-33.5 36 -33.5 92 q0 77 47 139 q47 62 148 62 q61 0 96.5 -34 q35.5 -34 35.5 -96 q0 -88 -53 -143.5 q-53 -55.5 -134 -55.5 Z" /><glyph glyph-name="quotedbl" unicode="&quot;" d="M585 934 l77 528 l271 0 l-148 -528 l-200 0 ZM198 934 l75 528 l271 0 l-148 -528 l-198 0 Z" /><glyph glyph-name="numbersign" unicode="#" d="M97 0 l122 413 l-196 0 l25 194 l227 0 l80 256 l-208 0 l25 196 l238 0 l122 403 l202 0 l-122 -403 l176 0 l120 403 l201 0 l-121 -403 l197 0 l-25 -196 l-229 0 l-79 -256 l212 0 l-26 -194 l-242 0 l-125 -413 l-202 0 l124 413 l-175 0 l-122 -413 l-199 0 ZM476 607 l176 0 l78 256 l-175 0 l-79 -256 Z" /><glyph glyph-name="dollar" unicode="$" d="M306 -120 l44 203 q-102 5 -179 27 q-77 22 -138 58 l23 258 q66 -44 154 -79 q88 -35 187 -41 l73 342 q-71 35 -134 81 q-63 46 -101.5 111 q-38.5 65 -38.5 158 q0 130 58 217.5 q58 87.5 156 134 q98 46.5 218 54.5 l34 151 l115 0 l-31 -151 q88 -8 153 -30.5 q65 -22.5 125 -57.5 l-108 -221 q-52 31 -107.5 53 q-55.5 22 -111.5 27 l-69 -321 q74 -37 137 -81.5 q63 -44.5 101.5 -109 q38.5 -64.5 38.5 -161.5 q0 -122 -52 -212.5 q-52 -90.5 -150.5 -143.5 q-98.5 -53 -239.5 -64 l-41 -201 l-116 -1 ZM513 313 q42 7 72.5 27 q30.5 20 46 51 q15.5 31 15.5 72 q0 30 -8.5 52.5 q-8.5 22.5 -25 41.5 q-16.5 19 -40.5 34 l-60 -278 ZM525 910 l55 264 q-39 -6 -68 -24 q-29 -18 -45 -49 q-16 -31 -16 -74 q0 -23 7.5 -43.5 q7.5 -20.5 24 -38.5 q16.5 -18 42.5 -35 Z" /><glyph glyph-name="percent" unicode="%" d="M241 0 l940 1462 l215 0 l-938 -1462 l-217 0 ZM356 565 q-119 0 -182 75.5 q-63 75.5 -63 220.5 q0 70 13.5 153.5 q13.5 83.5 43 166 q29.5 82.5 76 151 q46.5 68.5 112.5 110 q66 41.5 153 41.5 q116 0 182 -73.5 q66 -73.5 66 -221.5 q0 -67 -13.5 -149.5 q-13.5 -82.5 -43 -165.5 q-29.5 -83 -76.5 -152.5 q-47 -69.5 -113 -112.5 q-66 -43 -155 -43 ZM377 756 q29 0 54.5 31 q25.5 31 45.5 81.5 q20 50.5 34 110 q14 59.5 21.5 117 q7.5 57.5 7.5 100.5 q0 49 -12.5 72 q-12.5 23 -38.5 23 q-29 0 -53.5 -30.5 q-24.5 -30.5 -45 -79.5 q-20.5 -49 -35 -108 q-14.5 -59 -22 -117 q-7.5 -58 -7.5 -105 q0 -48 13 -71.5 q13 -23.5 38 -23.5 ZM1137 -18 q-123 0 -186 73 q-63 73 -63 213 q0 84 15.5 172.5 q15.5 88.5 46.5 170.5 q31 82 78 147 q47 65 111.5 103 q64.5 38 146.5 38 q116 0 181.5 -72 q65.5 -72 65.5 -218 q0 -70 -13.5 -154 q-13.5 -84 -43 -167 q-29.5 -83 -76 -152.5 q-46.5 -69.5 -112 -111.5 q-65.5 -42 -151.5 -42 ZM1154 173 q30 0 55 31 q25 31 45 81 q20 50 34.5 109 q14.5 59 21.5 116.5 q7 57.5 7 102.5 q0 48 -13 71 q-13 23 -39 23 q-30 0 -55 -31.5 q-25 -31.5 -44.5 -82 q-19.5 -50.5 -33.5 -110 q-14 -59.5 -21.5 -116.5 q-7.5 -57 -7.5 -99 q0 -48 13 -71.5 q13 -23.5 38 -23.5 Z" /><glyph glyph-name="ampersand" unicode="&amp;" d="M396 -20 q-172 0 -268 89 q-96 89 -96 253 q0 105 38.5 191.5 q38.5 86.5 113 158.5 q74.5 72 183.5 133 q-31 62 -47.5 126 q-16.5 64 -16.5 133 q0 127 51 221 q51 94 141 146 q90 52 209 52 q98 0 167.5 -34.5 q69.5 -34.5 106.5 -96 q37 -61.5 37 -143.5 q0 -96 -39 -176.5 q-39 -80.5 -111.5 -148 q-72.5 -67.5 -171.5 -123.5 l144 -256 q41 60 70.5 125.5 q29.5 65.5 56.5 141.5 l276 0 q-34 -88 -76 -174 q-42 -86 -91.5 -165 q-49.5 -79 -105.5 -146 l166 -287 l-326 0 l-54 101 q-77 -54 -160.5 -87.5 q-83.5 -33.5 -196.5 -33.5 ZM449 219 q38 0 72 10.5 q34 10.5 64 28 q30 17.5 56 38.5 l-175 332 q-46 -33 -79 -73 q-33 -40 -50.5 -88 q-17.5 -48 -17.5 -109 q0 -41 15 -72.5 q15 -31.5 44.5 -49 q29.5 -17.5 70.5 -17.5 ZM594 928 q35 24 64.5 50.5 q29.5 26.5 52 57.5 q22.5 31 35 66 q12.5 35 12.5 73 q0 46 -21 72.5 q-21 26.5 -59 26.5 q-40 0 -66 -27 q-26 -27 -38.5 -68 q-12.5 -41 -12.5 -84 q0 -48 9 -91 q9 -43 24 -76 Z" /><glyph glyph-name="quotesingle" unicode="&#39;" d="M200 934 l76 528 l270 0 l-148 -528 l-198 0 Z" /><glyph glyph-name="parenleft" unicode="(" d="M169 -324 q-39 75 -65 166.5 q-26 91.5 -38.5 190.5 q-12.5 99 -12.5 195 q0 172 32.5 342 q32.5 170 95.5 331 q63 161 153 306.5 q90 145.5 205 268.5 l236 0 q-103 -123 -189.5 -267 q-86.5 -144 -151 -304 q-64.5 -160 -100 -331 q-35.5 -171 -35.5 -349 q0 -97 10 -191.5 q10 -94.5 30.5 -184.5 q20.5 -90 51.5 -173 l-222 0 Z" /><glyph glyph-name="parenright" unicode=")" d="M-152 -324 q102 124 188.5 268 q86.5 144 150.5 303.5 q64 159.5 99.5 330.5 q35.5 171 35.5 348 q0 95 -10.5 191.5 q-10.5 96.5 -30 187.5 q-19.5 91 -50.5 171 l222 0 q40 -81 65.5 -170.5 q25.5 -89.5 37.5 -185.5 q12 -96 12 -196 q0 -176 -33 -347.5 q-33 -171.5 -96 -331.5 q-63 -160 -152.5 -303.5 q-89.5 -143.5 -203.5 -265.5 l-235 0 Z" /><glyph glyph-name="asterisk" unicode="*" d="M667 661 l-92 299 l-177 -254 l-186 163 l243 221 l-285 81 l81 225 l282 -151 l19 327 l243 -40 l-89 -313 l318 47 l1 -240 l-296 19 l159 -289 l-221 -95 Z" /><glyph glyph-name="plus" unicode="+" d="M666 831 l346 0 l0 -218 l-346 0 l0 -383 l-220 0 l0 383 l-347 0 l0 218 l347 0 l0 388 l220 0 l0 -388 Z" /><glyph glyph-name="comma" unicode="," d="M-104 -270 q34 80 69 172 q35 92 67 183 q32 91 55 167 l265 0 l7 -22 q-34 -84 -74.5 -171.5 q-40.5 -87.5 -85.5 -170.5 q-45 -83 -90 -158 l-213 0 Z" /><glyph glyph-name="hyphen" unicode="-" d="M33 428 l51 243 l502 0 l-52 -243 l-501 0 Z" /><glyph glyph-name="period" unicode="." d="M156 -23 q-73 0 -106.5 36 q-33.5 36 -33.5 92 q0 77 47 139 q47 62 147 62 q62 0 97.5 -34 q35.5 -34 35.5 -96 q0 -88 -53.5 -143.5 q-53.5 -55.5 -133.5 -55.5 Z" /><glyph glyph-name="slash" unicode="/" d="M-99 -6 l806 1475 l262 0 l-807 -1475 l-261 0 Z" /><glyph glyph-name="zero" unicode="0" d="M402 -20 q-175 0 -258 109.5 q-83 109.5 -83 325.5 q0 107 15.5 227 q15.5 120 48 240 q32.5 120 81.5 228.5 q49 108.5 115.5 192.5 q66.5 84 151 132.5 q84.5 48.5 187.5 48.5 q83 0 146 -25 q63 -25 106.5 -77.5 q43.5 -52.5 65.5 -134 q22 -81.5 22 -193.5 q0 -112 -15.5 -234.5 q-15.5 -122.5 -47 -243 q-31.5 -120.5 -79.5 -227.5 q-48 -107 -115 -190 q-67 -83 -152 -131 q-85 -48 -189 -48 ZM428 218 q45 0 84 43 q39 43 72.5 115.5 q33.5 72.5 60 163 q26.5 90.5 45.5 186 q19 95.5 28.5 184.5 q9.5 89 9.5 157 q0 91 -22 134.5 q-22 43.5 -72 43.5 q-45 0 -85 -45.5 q-40 -45.5 -74 -121 q-34 -75.5 -60.5 -167.5 q-26.5 -92 -45 -186.5 q-18.5 -94.5 -28.5 -177.5 q-10 -83 -10 -139 q0 -95 22 -142.5 q22 -47.5 75 -47.5 Z" /><glyph glyph-name="one" unicode="1" d="M337 0 l184 862 q10 40 20 81 q10 41 21.5 84.5 q11.5 43.5 24.5 89.5 q-18 -16 -46 -40.5 q-28 -24.5 -54 -43.5 l-173 -130 l-124 188 l498 371 l238 0 l-310 -1462 l-279 0 Z" /><glyph glyph-name="two" unicode="2" d="M-55 0 l40 198 l417 420 q72 72 128.5 136.5 q56.5 64.5 95.5 123 q39 58.5 59.5 114.5 q20.5 56 20.5 110 q0 67 -32.5 103 q-32.5 36 -91.5 36 q-45 0 -88.5 -19 q-43.5 -19 -88 -52 q-44.5 -33 -93.5 -75 l-116 191 q94 91 201 144 q107 53 239 53 q117 0 196 -44 q79 -44 119.5 -118 q40.5 -74 40.5 -166 q0 -124 -50.5 -231.5 q-50.5 -107.5 -137 -208 q-86.5 -100.5 -196.5 -204.5 l-269 -260 l0 -8 l498 0 l-51 -243 l-841 0 Z" /><glyph glyph-name="three" unicode="3" d="M329 -20 q-101 0 -181 17.5 q-80 17.5 -151 55.5 l0 256 q72 -49 160.5 -72.5 q88.5 -23.5 164.5 -23.5 q66 0 119 17 q53 17 91 49.5 q38 32.5 58 79.5 q20 47 20 106 q0 55 -22 94 q-22 39 -72.5 60 q-50.5 21 -134.5 21 l-106 0 l46 219 l73 0 q65 0 123.5 16 q58.5 16 103.5 48 q45 32 70.5 79.5 q25.5 47.5 25.5 111.5 q0 60 -33.5 97 q-33.5 37 -106.5 37 q-71 0 -136.5 -28.5 q-65.5 -28.5 -124.5 -69.5 l-92 200 q92 65 189 99 q97 34 226 34 q113 0 194 -37 q81 -37 125 -106 q44 -69 44 -166 q0 -101 -41 -185 q-41 -84 -116.5 -142.5 q-75.5 -58.5 -181.5 -85.5 l0 -7 q100 -23 164.5 -94.5 q64.5 -71.5 64.5 -199.5 q0 -95 -35.5 -181.5 q-35.5 -86.5 -106.5 -153.5 q-71 -67 -176.5 -106 q-105.5 -39 -244.5 -39 Z" /><glyph glyph-name="four" unicode="4" d="M425 0 l64 302 l-515 0 l46 218 l705 945 l281 0 l-199 -936 l152 0 l-48 -227 l-152 0 l-63 -302 l-271 0 ZM261 529 l276 0 l77 349 q8 37 19.5 81 q11.5 44 23 84 q11.5 40 18.5 63 l-8 0 q-27 -48 -52 -87 q-25 -39 -51 -72 l-303 -418 Z" /><glyph glyph-name="five" unicode="5" d="M341 -20 q-68 0 -128 9 q-60 9 -109 24.5 q-49 15.5 -85 34.5 l0 265 q62 -43 141.5 -70 q79.5 -27 166.5 -27 q77 0 132 25.5 q55 25.5 90 67.5 q35 42 52 95 q17 53 17 107 q0 84 -43.5 136 q-43.5 52 -147.5 52 q-50 0 -97.5 -11 q-47.5 -11 -85.5 -24 l-89 75 l199 723 l668 0 l-52 -244 l-426 0 l-88 -307 q28 7 57 11 q29 4 61 4 q97 0 172 -41.5 q75 -41.5 118 -124.5 q43 -83 43 -206 q0 -109 -32 -211.5 q-32 -102.5 -100 -184.5 q-68 -82 -175.5 -130 q-107.5 -48 -258.5 -48 Z" /><glyph glyph-name="six" unicode="6" d="M445 -20 q-126 0 -209 53.5 q-83 53.5 -123 154.5 q-40 101 -40 241 q0 115 20 234 q20 119 59 233 q39 114 95.5 214 q56.5 100 128.5 175 q58 60 127.5 105 q69.5 45 153 69.5 q83.5 24.5 182.5 24.5 q64 0 117.5 -6.5 q53.5 -6.5 94.5 -17.5 l-50 -233 q-38 11 -82.5 18 q-44.5 7 -87.5 7 q-113 0 -198.5 -52 q-85.5 -52 -146 -152.5 q-60.5 -100.5 -101.5 -249.5 l8 0 q31 45 71.5 79.5 q40.5 34.5 91 53.5 q50.5 19 110.5 19 q135 0 205.5 -93.5 q70.5 -93.5 70.5 -254.5 q0 -93 -26 -201 q-26 -108 -84 -203.5 q-58 -95.5 -153.5 -156.5 q-95.5 -61 -233.5 -61 ZM459 215 q53 0 92 36 q39 36 64 92.5 q25 56.5 37 119 q12 62.5 12 116.5 q0 68 -27.5 106 q-27.5 38 -80.5 38 q-43 0 -79.5 -22 q-36.5 -22 -61.5 -56.5 q-25 -34.5 -36 -71.5 q-11 -23 -18.5 -53 q-7.5 -30 -11.5 -63 q-4 -33 -4 -63 q0 -41 7.5 -74.5 q7.5 -33.5 22.5 -56.5 q15 -23 36 -35.5 q21 -12.5 48 -12.5 Z" /><glyph glyph-name="seven" unicode="7" d="M69 0 l682 1218 l-557 0 l51 243 l858 0 l-39 -184 l-691 -1277 l-304 0 Z" /><glyph glyph-name="eight" unicode="8" d="M437 -20 q-132 0 -223 43.5 q-91 43.5 -137.5 121.5 q-46.5 78 -46.5 182 q0 104 38.5 185.5 q38.5 81.5 112.5 145.5 q74 64 179 114 q-39 38 -71 84.5 q-32 46.5 -50.5 100 q-18.5 53.5 -18.5 114.5 q0 116 51.5 209.5 q51.5 93.5 151 148.5 q99.5 55 242.5 55 q115 0 194 -40 q79 -40 120.5 -110 q41.5 -70 41.5 -161 q0 -98 -39 -175 q-39 -77 -106.5 -134.5 q-67.5 -57.5 -152.5 -97.5 q55 -43 96.5 -95 q41.5 -52 65.5 -115.5 q24 -63.5 24 -142.5 q0 -111 -54.5 -210 q-54.5 -99 -160 -161 q-105.5 -62 -257.5 -62 ZM451 197 q65 0 107 29.5 q42 29.5 63 77 q21 47.5 21 101.5 q0 50 -16 91.5 q-16 41.5 -45 77.5 q-29 36 -68 67 q-66 -32 -113.5 -73.5 q-47.5 -41.5 -73.5 -94.5 q-26 -53 -26 -120 q0 -69 40.5 -112.5 q40.5 -43.5 110.5 -43.5 ZM579 894 q57 29 95.5 65.5 q38.5 36.5 58.5 80.5 q20 44 20 96 q0 64 -32.5 98 q-32.5 34 -85.5 34 q-48 0 -82 -23.5 q-34 -23.5 -52.5 -64 q-18.5 -40.5 -18.5 -93.5 q0 -63 27 -110.5 q27 -47.5 70 -82.5 Z" /><glyph glyph-name="nine" unicode="9" d="M269 -20 q-65 0 -121.5 8.5 q-56.5 8.5 -98.5 19.5 l0 239 q38 -13 93.5 -24 q55.5 -11 114.5 -11 q90 0 157.5 34 q67.5 34 117 94.5 q49.5 60.5 84.5 142.5 q35 82 60 179 l-7 0 q-31 -45 -71 -78.5 q-40 -33.5 -88 -52 q-48 -18.5 -106 -18.5 q-99 0 -161.5 46.5 q-62.5 46.5 -92 126 q-29.5 79.5 -29.5 179.5 q0 72 16.5 156 q16.5 84 52.5 166 q36 82 95.5 149 q59.5 67 145 107.5 q85.5 40.5 200.5 40.5 q112 0 192.5 -48.5 q80.5 -48.5 124 -147.5 q43.5 -99 43.5 -249 q0 -88 -13 -185.5 q-13 -97.5 -39 -195.5 q-26 -98 -64.5 -189 q-38.5 -91 -90.5 -167 q-40 -67 -91 -125 q-51 -58 -114 -102.5 q-63 -44.5 -140 -69.5 q-77 -25 -170 -25 ZM511 741 q43 0 76.5 21.5 q33.5 21.5 56.5 54.5 q23 33 34 69 q19 38 28.5 87.5 q9.5 49.5 9.5 99.5 q0 55 -12.5 94.5 q-12.5 39.5 -37.5 60.5 q-25 21 -63 21 q-51 0 -89.5 -35 q-38.5 -35 -63.5 -90 q-25 -55 -37.5 -115.5 q-12.5 -60.5 -12.5 -111.5 q0 -76 29 -116 q29 -40 82 -40 Z" /><glyph glyph-name="colon" unicode=":" d="M333 805 q-73 0 -106.5 36 q-33.5 36 -33.5 91 q0 51 20.5 97 q20.5 46 63.5 75.5 q43 29.5 110 29.5 q61 0 96.5 -35 q35.5 -35 35.5 -95 q0 -88 -52.5 -143.5 q-52.5 -55.5 -133.5 -55.5 ZM153 -23 q-73 0 -106.5 36 q-33.5 36 -33.5 92 q0 77 47 139 q47 62 147 62 q62 0 97.5 -34 q35.5 -34 35.5 -96 q0 -88 -53.5 -143.5 q-53.5 -55.5 -133.5 -55.5 Z" /><glyph glyph-name="semicolon" unicode=";" d="M-106 -270 q36 85 70 174.5 q34 89.5 65 178 q31 88.5 56 169.5 l265 0 l7 -22 q-34 -84 -74.5 -171 q-40.5 -87 -85.5 -170.5 q-45 -83.5 -91 -158.5 l-212 0 ZM336 805 q-73 0 -106.5 36 q-33.5 36 -33.5 91 q0 51 20.5 97 q20.5 46 63.5 75.5 q43 29.5 111 29.5 q60 0 95.5 -35 q35.5 -35 35.5 -95 q0 -88 -52.5 -143.5 q-52.5 -55.5 -133.5 -55.5 Z" /><glyph glyph-name="less" unicode="&lt;" d="M1012 225 l-917 428 l0 143 l917 456 l0 -242 l-607 -281 l607 -264 l0 -240 Z" /><glyph glyph-name="equal" unicode="=" d="M99 823 l0 217 l913 0 l0 -217 l-913 0 ZM99 403 l0 219 l913 0 l0 -219 l-913 0 Z" /><glyph glyph-name="greater" unicode="&gt;" d="M98 465 l607 264 l-607 281 l0 242 l917 -456 l0 -143 l-917 -428 l0 240 Z" /><glyph glyph-name="question" unicode="?" d="M209 474 q20 98 45 165.5 q25 67.5 66.5 121.5 q41.5 54 107.5 109 q60 52 103 91 q43 39 66.5 80 q23.5 41 23.5 97 q0 54 -28 82.5 q-28 28.5 -89 28.5 q-66 0 -131 -28 q-65 -28 -134 -68 l-65 207 q86 56 183 89.5 q97 33.5 202 33.5 q158 0 245 -79 q87 -79 87 -218 q0 -99 -36.5 -175 q-36.5 -76 -98.5 -139 q-62 -63 -138 -124 q-60 -50 -93 -87 q-33 -37 -50.5 -78.5 q-17.5 -41.5 -32.5 -108.5 l-233 0 ZM243 -23 q-73 0 -106.5 36 q-33.5 36 -33.5 92 q0 77 47 139 q47 62 148 62 q61 0 96.5 -34 q35.5 -34 35.5 -96 q0 -88 -53 -143.5 q-53 -55.5 -134 -55.5 Z" /><glyph glyph-name="at" unicode="@" d="M669 -175 q-147 0 -259 44 q-112 44 -188 124 q-76 80 -114 189 q-38 109 -38 238 q0 179 44 337.5 q44 158.5 125 289.5 q81 131 192.5 225.5 q111.5 94.5 246 146.5 q134.5 52 285.5 52 q174 0 300 -67.5 q126 -67.5 194.5 -193 q68.5 -125.5 68.5 -299.5 q0 -96 -19.5 -194 q-19.5 -98 -57.5 -187 q-38 -89 -92.5 -159 q-54.5 -70 -124 -111 q-69.5 -41 -152.5 -41 q-84 0 -131 37 q-47 37 -62 108 l-7 0 q-41 -67 -95.5 -106 q-54.5 -39 -126.5 -39 q-106 0 -168.5 65.5 q-62.5 65.5 -62.5 205.5 q0 76 20 158.5 q20 82.5 59 160 q39 77.5 96.5 139.5 q57.5 62 132.5 99 q75 37 166 37 q92 0 161 -15.5 q69 -15.5 123 -38.5 l-115 -464 q-9 -36 -14.5 -63.5 q-5.5 -27.5 -5.5 -50.5 q0 -34 12.5 -50 q12.5 -16 33.5 -16 q43 0 79.5 34.5 q36.5 34.5 65 91 q28.5 56.5 48.5 125 q20 68.5 30.5 137.5 q10.5 69 10.5 127 q0 127 -43 216 q-43 89 -129 135.5 q-86 46.5 -215 46.5 q-119 0 -223 -45 q-104 -45 -187 -125.5 q-83 -80.5 -142.5 -188.5 q-59.5 -108 -91.5 -235.5 q-32 -127.5 -32 -265.5 q0 -124 42.5 -224 q42.5 -100 133.5 -158.5 q91 -58.5 237 -58.5 q106 0 200 21 q94 21 193 62 l0 -169 q-89 -38 -192 -62.5 q-103 -24.5 -212 -24.5 ZM706 387 q62 0 106 71 q44 71 77 198 l64 251 q-15 5 -31 7 q-16 2 -38 2 q-62 0 -108.5 -42 q-46.5 -42 -78.5 -106.5 q-32 -64.5 -48.5 -134.5 q-16.5 -70 -16.5 -127 q0 -65 21 -92 q21 -27 53 -27 Z" /><glyph glyph-name="A" unicode="a" d="M-125 0 l695 1465 l349 0 l81 -1465 l-284 0 l-9 361 l-372 0 l-159 -361 l-301 0 ZM441 603 l265 0 l-7 411 q-1 55 -2 108 q-1 53 2 109 l-6 0 q-13 -50 -32 -99.5 q-19 -49.5 -43 -105.5 l-177 -423 Z" /><glyph glyph-name="B" unicode="b" d="M24 0 l309 1462 l381 0 q117 0 209 -31.5 q92 -31.5 145.5 -100 q53.5 -68.5 53.5 -181.5 q0 -93 -33 -171 q-33 -78 -98.5 -133 q-65.5 -55 -162.5 -80 l0 -8 q86 -26 136 -97 q50 -71 50 -174 q0 -148 -65.5 -257.5 q-65.5 -109.5 -185 -169 q-119.5 -59.5 -281.5 -59.5 l-458 0 ZM355 238 l136 0 q76 0 128.5 32 q52.5 32 80 89.5 q27.5 57.5 27.5 131.5 q0 76 -40 115.5 q-40 39.5 -117 39.5 l-128 0 l-87 -408 ZM490 874 l116 0 q69 0 119 28 q50 28 77.5 78 q27.5 50 27.5 116 q0 65 -37.5 98.5 q-37.5 33.5 -113.5 33.5 l-114 0 l-75 -354 Z" /><glyph glyph-name="C" unicode="c" d="M542 -20 q-146 0 -245 63 q-99 63 -149 180 q-50 117 -50 279 q0 132 28 269.5 q28 137.5 85 265 q57 127.5 142.5 228.5 q85.5 101 200.5 160 q115 59 260 59 q110 0 197 -23 q87 -23 167 -73 l-122 -228 q-56 38 -113.5 60 q-57.5 22 -125.5 22 q-89 0 -159 -49.5 q-70 -49.5 -120.5 -131 q-50.5 -81.5 -84 -178.5 q-33.5 -97 -49.5 -193 q-16 -96 -16 -173 q0 -151 53 -222 q53 -71 166 -71 q69 0 140.5 19.5 q71.5 19.5 142.5 50.5 l0 -245 q-64 -28 -154.5 -48.5 q-90.5 -20.5 -193.5 -20.5 Z" /><glyph glyph-name="D" unicode="d" d="M25 0 l309 1462 l342 0 q239 0 368 -129 q129 -129 129 -371 q0 -151 -30.5 -292.5 q-30.5 -141.5 -91 -263 q-60.5 -121.5 -152.5 -213 q-92 -91.5 -215 -142.5 q-123 -51 -278 -51 l-381 0 ZM356 243 l75 0 q95 0 168 42 q73 42 126.5 114.5 q53.5 72.5 88 163 q34.5 90.5 51 188.5 q16.5 98 16.5 190 q0 145 -60.5 213 q-60.5 68 -171.5 68 l-86 0 l-207 -979 Z" /><glyph glyph-name="E" unicode="e" d="M25 0 l309 1462 l709 0 l-51 -238 l-428 0 l-72 -345 l398 0 l-51 -239 l-398 0 l-86 -399 l429 0 l-51 -241 l-708 0 Z" /><glyph glyph-name="F" unicode="f" d="M25 0 l309 1462 l706 0 l-50 -238 l-426 0 l-84 -400 l396 0 l-53 -238 l-395 0 l-123 -586 l-280 0 Z" /><glyph glyph-name="G" unicode="g" d="M580 -20 q-235 0 -358 133.5 q-123 133.5 -123 386.5 q0 152 32.5 296 q32.5 144 96.5 268.5 q64 124.5 159 219 q95 94.5 219.5 147.5 q124.5 53 278.5 53 q107 0 199.5 -24.5 q92.5 -24.5 171.5 -70.5 l-115 -234 q-65 40 -132 62.5 q-67 22.5 -143 22.5 q-116 0 -205 -64.5 q-89 -64.5 -150 -170.5 q-61 -106 -92.5 -232 q-31.5 -126 -31.5 -250 q0 -99 25 -166 q25 -67 77.5 -100 q52.5 -33 134.5 -33 q41 0 75 5.5 q34 5.5 71 15.5 l72 335 l-213 0 l50 238 l489 0 l-161 -760 q-100 -36 -203 -57 q-103 -21 -224 -21 Z" /><glyph glyph-name="H" unicode="h" d="M25 0 l309 1462 l281 0 l-123 -579 l397 0 l123 579 l281 0 l-311 -1462 l-281 0 l136 640 l-396 0 l-136 -640 l-280 0 Z" /><glyph glyph-name="I" unicode="i" d="M23 0 l311 1462 l280 0 l-311 -1462 l-280 0 Z" /><glyph glyph-name="J" unicode="j" d="M-141 -428 q-59 0 -100 7 q-41 7 -76 19 l25 238 q31 -10 63.5 -16 q32.5 -6 69.5 -6 q59 0 99.5 32 q40.5 32 67.5 88.5 q27 56.5 42 131.5 l296 1396 l281 0 l-305 -1437 q-35 -162 -97 -261.5 q-62 -99.5 -153 -145.5 q-91 -46 -213 -46 Z" /><glyph glyph-name="K" unicode="k" d="M25 0 l309 1462 l281 0 l-147 -680 l124 182 l376 498 l321 0 l-528 -690 l224 -772 l-309 0 l-155 595 l-106 -73 l-110 -522 l-280 0 Z" /><glyph glyph-name="L" unicode="l" d="M25 0 l309 1462 l281 0 l-260 -1221 l432 0 l-50 -241 l-712 0 Z" /><glyph glyph-name="M" unicode="m" d="M25 0 l309 1462 l372 0 l48 -1053 l7 0 l498 1053 l393 0 l-310 -1462 l-265 0 l159 757 q11 48 24 101.5 q13 53.5 27 106.5 q14 53 25 97 l-6 0 l-508 -1062 l-252 0 l-45 1059 l-7 0 q-6 -43 -15 -99.5 q-9 -56.5 -20 -117.5 q-11 -61 -24 -120 l-152 -722 l-258 0 Z" /><glyph glyph-name="N" unicode="n" d="M25 0 l309 1462 l323 0 l256 -1035 l7 0 q9 53 19.5 117.5 q10.5 64.5 22 127.5 q11.5 63 20.5 111 l146 679 l257 0 l-309 -1462 l-315 0 l-264 1061 l-8 0 q-4 -31 -11.5 -80 q-7.5 -49 -16.5 -105 q-9 -56 -18.5 -109.5 q-9.5 -53.5 -17.5 -93.5 l-143 -673 l-257 0 Z" /><glyph glyph-name="O" unicode="o" d="M556 -20 q-152 0 -253.5 59.5 q-101.5 59.5 -153 173.5 q-51.5 114 -51.5 278 q0 113 19.5 230 q19.5 117 58 228.5 q38.5 111.5 97.5 208.5 q59 97 137.5 170.5 q78.5 73.5 177.5 115 q99 41.5 218 41.5 q229 0 340.5 -132 q111.5 -132 111.5 -370 q0 -108 -17.5 -223.5 q-17.5 -115.5 -54 -228 q-36.5 -112.5 -93.5 -211.5 q-57 -99 -134.5 -175.5 q-77.5 -76.5 -178 -120.5 q-100.5 -44 -224.5 -44 ZM578 225 q59 0 110.5 31.5 q51.5 31.5 95 87 q43.5 55.5 78 129 q34.5 73.5 58.5 158.5 q24 85 37 174.5 q13 89.5 13 176.5 q0 125 -47 192.5 q-47 67.5 -140 67.5 q-61 0 -115 -33.5 q-54 -33.5 -97.5 -92 q-43.5 -58.5 -78 -133.5 q-34.5 -75 -58 -159.5 q-23.5 -84.5 -35.5 -170 q-12 -85.5 -12 -163.5 q0 -93 22 -151.5 q22 -58.5 65 -86 q43 -27.5 104 -27.5 Z" /><glyph glyph-name="P" unicode="p" d="M25 0 l309 1462 l349 0 q152 0 246.5 -47.5 q94.5 -47.5 138 -133 q43.5 -85.5 43.5 -200.5 q0 -121 -39.5 -223 q-39.5 -102 -114.5 -177 q-75 -75 -181 -116 q-106 -41 -240 -41 l-121 0 l-110 -524 l-280 0 ZM466 763 l83 0 q85 0 146.5 36.5 q61.5 36.5 95 103.5 q33.5 67 33.5 158 q0 85 -42 124 q-42 39 -126 39 l-92 0 l-98 -461 Z" /><glyph glyph-name="Q" unicode="q" d="M685 -348 l-134 330 q-8 0 -15 0.5 q-7 0.5 -14 0.5 q-141 6 -235 67 q-94 61 -141.5 172.5 q-47.5 111.5 -47.5 268.5 q0 113 19.5 230 q19.5 117 58 228.5 q38.5 111.5 97.5 208.5 q59 97 137.5 170.5 q78.5 73.5 177.5 115 q99 41.5 218 41.5 q229 0 340.5 -132 q111.5 -132 111.5 -370 q0 -104 -16.5 -216 q-16.5 -112 -50 -221.5 q-33.5 -109.5 -85.5 -207 q-52 -97.5 -123.5 -174.5 q-71.5 -77 -162.5 -123 l192 -389 l-327 0 ZM578 225 q59 0 110.5 31.5 q51.5 31.5 95 87 q43.5 55.5 78 129 q34.5 73.5 58.5 158.5 q24 85 37 174.5 q13 89.5 13 176.5 q0 125 -47 192.5 q-47 67.5 -140 67.5 q-61 0 -115 -33.5 q-54 -33.5 -97.5 -92 q-43.5 -58.5 -78 -133.5 q-34.5 -75 -58 -159.5 q-23.5 -84.5 -35.5 -170 q-12 -85.5 -12 -163.5 q0 -93 22 -151.5 q22 -58.5 65 -86 q43 -27.5 104 -27.5 Z" /><glyph glyph-name="R" unicode="r" d="M25 0 l309 1462 l318 0 q207 0 319 -90 q112 -90 112 -276 q0 -120 -38.5 -214.5 q-38.5 -94.5 -107 -159.5 q-68.5 -65 -159.5 -97 l202 -625 l-307 0 l-155 570 l-93 0 l-120 -570 l-280 0 ZM474 800 l69 0 q61 0 107.5 20.5 q46.5 20.5 78 57.5 q31.5 37 47.5 86 q16 49 16 106 q0 78 -42 117 q-42 39 -128 39 l-58 0 l-90 -426 Z" /><glyph glyph-name="S" unicode="s" d="M336 -20 q-105 0 -190 21.5 q-85 21.5 -147 64.5 l26 269 q72 -46 152 -76 q80 -30 161 -30 q45 0 84.5 10.5 q39.5 10.5 69 32.5 q29.5 22 46 55.5 q16.5 33.5 16.5 80.5 q0 49 -16.5 86 q-16.5 37 -50.5 72.5 q-34 35.5 -87 79.5 q-60 50 -109 105 q-49 55 -77 124 q-28 69 -28 161 q0 98 32.5 179.5 q32.5 81.5 94.5 141.5 q62 60 151 93 q89 33 202 33 q96 0 186 -24 q90 -24 167 -72 l-113 -233 q-66 39 -127.5 60 q-61.5 21 -119.5 21 q-39 0 -72 -11.5 q-33 -11.5 -58 -34 q-25 -22.5 -39 -54.5 q-14 -32 -14 -74 q0 -47 18 -83.5 q18 -36.5 54.5 -71.5 q36.5 -35 93.5 -79 q69 -52 114 -109.5 q45 -57.5 67 -125.5 q22 -68 22 -151 q0 -105 -36.5 -190 q-36.5 -85 -103.5 -145.5 q-67 -60.5 -160.5 -93 q-93.5 -32.5 -208.5 -32.5 Z" /><glyph glyph-name="T" unicode="t" d="M205 0 l258 1220 l-298 0 l52 242 l877 0 l-52 -242 l-298 0 l-259 -1220 l-280 0 Z" /><glyph glyph-name="U" unicode="u" d="M506 -20 q-128 0 -217.5 45 q-89.5 45 -136 128.5 q-46.5 83.5 -46.5 197.5 q0 35 4.5 78 q4.5 43 12.5 83 l203 950 l280 0 l-201 -951 q-8 -35 -12.5 -67.5 q-4.5 -32.5 -4.5 -58.5 q0 -79 38 -119.5 q38 -40.5 113 -40.5 q72 0 120.5 31.5 q48.5 31.5 80 96 q31.5 64.5 52.5 164.5 l201 945 l281 0 l-208 -976 q-32 -153 -99.5 -267 q-67.5 -114 -179.5 -176.5 q-112 -62.5 -281 -62.5 Z" /><glyph glyph-name="V" unicode="v" d="M257 0 l-73 1462 l279 0 l19 -856 q1 -43 0.5 -90 q-0.5 -47 -3 -95.5 q-2.5 -48.5 -7.5 -96.5 l7 0 q12 42 27 86.5 q15 44.5 33.5 91.5 q18.5 47 39.5 94 l387 866 l295 0 l-689 -1462 l-315 0 Z" /><glyph glyph-name="W" unicode="w" d="M184 0 l0 1462 l268 0 l-12 -779 q-2 -80 -6 -160.5 q-4 -80.5 -11 -145.5 l6 0 q26 73 55.5 152 q29.5 79 57.5 144 l335 789 l244 0 l-4 -783 q-1 -69 -3.5 -148 q-2.5 -79 -8.5 -153 l6 0 q17 51 35.5 104 q18.5 53 39 106 q20.5 53 39.5 101 l308 773 l284 0 l-608 -1462 l-320 0 l3 690 q-1 59 -0.5 105 q0.5 46 2 88 q1.5 42 3.5 86 l-6 0 q-20 -65 -42 -125.5 q-22 -60.5 -47 -118.5 l-303 -725 l-315 0 Z" /><glyph glyph-name="X" unicode="x" d="M-118 0 l516 757 l-180 705 l293 0 l105 -483 l299 483 l309 0 l-482 -721 l203 -741 l-304 0 l-114 513 l-337 -513 l-308 0 Z" /><glyph glyph-name="Y" unicode="y" d="M243 0 l118 558 l-177 904 l290 0 l87 -580 l330 580 l308 0 l-557 -900 l-120 -562 l-279 0 Z" /><glyph glyph-name="Z" unicode="z" d="M-71 0 l38 193 l708 1030 l-474 0 l50 239 l816 0 l-40 -194 l-711 -1027 l512 0 l-50 -241 l-849 0 Z" /><glyph glyph-name="bracketleft" unicode="[" d="M-59 -331 l385 1807 l450 0 l-43 -203 l-210 0 l-298 -1401 l210 0 l-44 -203 l-450 0 Z" /><glyph glyph-name="backslash" unicode="\" d="M416 -7 l-204 1477 l239 0 l208 -1477 l-243 0 Z" /><glyph glyph-name="bracketright" unicode="]" d="M-143 -331 l43 203 l209 0 l299 1401 l-211 0 l43 203 l452 0 l-385 -1807 l-450 0 Z" /><glyph glyph-name="asciicircum" unicode="^" d="M12 552 l582 914 l146 0 l244 -914 l-223 0 l-150 579 l-361 -579 l-238 0 Z" /><glyph glyph-name="underscore" unicode="_" d="M-187 -331 l33 164 l768 0 l-35 -164 l-766 0 Z" /><glyph glyph-name="grave" unicode="`" d="M510 1241 q-33 38 -75 93.5 q-42 55.5 -79.5 113 q-37.5 57.5 -58.5 101.5 l0 20 l294 0 q11 -45 26 -94.5 q15 -49.5 34 -102 q19 -52.5 42 -106.5 l-2 -25 l-181 0 Z" /><glyph glyph-name="a" unicode="a" d="M335 -20 q-75 0 -136.5 39.5 q-61.5 39.5 -97.5 120 q-36 80.5 -36 204.5 q0 100 20 209.5 q20 109.5 59.5 213.5 q39.5 104 97.5 187.5 q58 83.5 134.5 133.5 q76.5 50 169.5 50 q58 0 103 -18.5 q45 -18.5 78.5 -54 q33.5 -35.5 54.5 -88.5 l7 0 l53 140 l222 0 l-237 -1117 l-212 0 l8 145 l-7 0 q-38 -49 -79.5 -86 q-41.5 -37 -90.5 -58 q-49 -21 -111 -21 ZM446 206 q58 0 104.5 50 q46.5 50 79.5 127.5 q33 77.5 50 157.5 q15 68 21 119 q6 51 6 99 q0 68 -30 109 q-30 41 -83 41 q-44 0 -82 -35 q-38 -35 -68.5 -93.5 q-30.5 -58.5 -53 -129.5 q-22.5 -71 -34.5 -145 q-12 -74 -12 -138 q0 -80 26.5 -121 q26.5 -41 75.5 -41 Z" /><glyph glyph-name="b" unicode="b" d="M525 -20 q-59 0 -104 19 q-45 19 -77.5 54 q-32.5 35 -53.5 82 l-7 0 l-57 -135 l-214 0 l329 1556 l274 0 l-74 -348 q-7 -29 -17 -68.5 q-10 -39.5 -21.5 -81 q-11.5 -41.5 -24.5 -76.5 l6 0 q35 48 73 83 q38 35 84 54 q46 19 104 19 q74 0 134.5 -39 q60.5 -39 96.5 -119.5 q36 -80.5 36 -205.5 q0 -101 -21 -211 q-21 -110 -61 -213.5 q-40 -103.5 -99 -187 q-59 -83.5 -135.5 -133 q-76.5 -49.5 -170.5 -49.5 ZM483 206 q42 0 79.5 35 q37.5 35 68.5 93.5 q31 58.5 53.5 130 q22.5 71.5 34.5 145 q12 73.5 12 138.5 q0 82 -25.5 121.5 q-25.5 39.5 -77.5 39.5 q-44 0 -81 -27.5 q-37 -27.5 -65.5 -74.5 q-28.5 -47 -50 -105 q-21.5 -58 -35.5 -119 q-14 -61 -20.5 -117.5 q-6.5 -56.5 -6.5 -100.5 q0 -75 29.5 -117 q29.5 -42 84.5 -42 Z" /><glyph glyph-name="c" unicode="c" d="M423 -20 q-105 0 -185.5 41.5 q-80.5 41.5 -125 126 q-44.5 84.5 -44.5 213.5 q0 110 21.5 221 q21.5 111 65 211 q43.5 100 109.5 177.5 q66 77.5 155.5 122.5 q89.5 45 202.5 45 q84 0 153 -18 q69 -18 130 -53 l-97 -213 q-41 23 -85 39 q-44 16 -94 16 q-71 0 -124 -50 q-53 -50 -88 -129.5 q-35 -79.5 -52.5 -169.5 q-17.5 -90 -17.5 -169 q0 -60 16 -101 q16 -41 47 -61.5 q31 -20.5 75 -20.5 q59 0 116.5 21.5 q57.5 21.5 119.5 59.5 l0 -230 q-58 -34 -133.5 -56.5 q-75.5 -22.5 -164.5 -22.5 Z" /><glyph glyph-name="d" unicode="d" d="M334 -20 q-75 0 -136 39.5 q-61 39.5 -97 120.5 q-36 81 -36 205 q0 98 20 207 q20 109 59.5 213 q39.5 104 97 188.5 q57.5 84.5 132.5 134.5 q75 50 166 50 q57 0 100.5 -18.5 q43.5 -18.5 76 -52.5 q32.5 -34 53.5 -81 l7 0 q3 22 7 58 q4 36 9.5 76 q5.5 40 12.5 72 l78 364 l273 0 l-330 -1556 l-214 0 l10 139 l-7 0 q-40 -49 -81 -84.5 q-41 -35.5 -89.5 -55 q-48.5 -19.5 -111.5 -19.5 ZM450 206 q44 0 80.5 28.5 q36.5 28.5 65 76.5 q28.5 48 49.5 107 q21 59 35 120.5 q14 61.5 20.5 117.5 q6.5 56 6.5 97 q0 74 -29.5 115 q-29.5 41 -83.5 41 q-45 0 -83.5 -36.5 q-38.5 -36.5 -69 -96.5 q-30.5 -60 -52.5 -132 q-22 -72 -33.5 -144.5 q-11.5 -72.5 -11.5 -132.5 q0 -80 27 -120.5 q27 -40.5 79 -40.5 Z" /><glyph glyph-name="e" unicode="e" d="M453 -20 q-117 0 -203.5 45 q-86.5 45 -134.5 133.5 q-48 88.5 -48 216.5 q0 144 37 280.5 q37 136.5 109.5 245 q72.5 108.5 180 172.5 q107.5 64 248.5 64 q156 0 240.5 -77 q84.5 -77 84.5 -206 q0 -92 -38 -165.5 q-38 -73.5 -113 -124 q-75 -50.5 -184.5 -77 q-109.5 -26.5 -251.5 -26.5 l-34 0 q-3 -20 -5 -39 q-2 -19 -2 -38 q0 -94 44.5 -142 q44.5 -48 128.5 -48 q77 0 140 18 q63 18 148 62 l0 -209 q-80 -45 -163.5 -65 q-83.5 -20 -183.5 -20 ZM380 651 l26 0 q110 0 176.5 25.5 q66.5 25.5 96.5 68.5 q30 43 30 95 q0 44 -24 67.5 q-24 23.5 -69 23.5 q-49 0 -95.5 -34.5 q-46.5 -34.5 -83 -97 q-36.5 -62.5 -57.5 -148.5 Z" /><glyph glyph-name="f" unicode="f" d="M-77 -492 q-41 0 -80.5 5.5 q-39.5 5.5 -71.5 16.5 l0 229 q25 -9 53 -14 q28 -5 53 -5 q65 0 99.5 46 q34.5 46 52.5 131 l209 982 l-139 0 l28 138 l156 78 l20 89 q19 85 48 152 q29 67 72 114.5 q43 47.5 104 72 q61 24.5 144 24.5 q60 0 114.5 -11.5 q54.5 -11.5 103.5 -35.5 l-83 -206 q-24 12 -51.5 20 q-27.5 8 -56.5 8 q-53 0 -82 -40.5 q-29 -40.5 -42 -107.5 l-16 -77 l188 0 l-45 -218 l-190 0 l-217 -1015 q-22 -108 -64 -193 q-42 -85 -115.5 -134 q-73.5 -49 -191.5 -49 Z" /><glyph glyph-name="g" unicode="g" d="M274 -492 q-195 0 -298.5 71.5 q-103.5 71.5 -102.5 201.5 q0 108 70 186.5 q70 78.5 204 123.5 q-34 19 -54.5 53.5 q-20.5 34.5 -20.5 80.5 q0 66 42.5 117.5 q42.5 51.5 129.5 100.5 q-52 38 -79 99 q-27 61 -27 144 q0 107 41.5 201.5 q41.5 94.5 119.5 154.5 q53 45 125.5 70 q72.5 25 157.5 25 q48 0 88 -8 q40 -8 72 -18 l353 0 l-33 -156 l-155 -39 q8 -23 12 -49.5 q4 -26.5 4 -56.5 q0 -89 -32 -173.5 q-32 -84.5 -87 -142.5 q-57 -59 -137.5 -90.5 q-80.5 -31.5 -181.5 -31.5 q-33 0 -54 0.5 q-21 0.5 -35 1.5 q-43 -16 -65 -41.5 q-22 -25.5 -22 -52.5 q0 -25 20 -36 q13 -9 34.5 -13.5 q21.5 -4.5 52.5 -7.5 l157 -9 q94 -7 154 -37 q60 -30 89 -83 q29 -53 29 -129 q0 -122 -51 -214 q-51 -92 -144 -149 q-71 -46 -166.5 -69.5 q-95.5 -23.5 -209.5 -24.5 ZM287 -297 q69 0 124.5 14 q55.5 14 93.5 41 q38 26 59 62.5 q21 36.5 21 82.5 q0 16 -4.5 29 q-4.5 13 -16.5 23 q-16 14 -44 21.5 q-28 7.5 -70 10.5 l-139 8 q-55 -5 -98 -33 q-43 -28 -67.5 -68.5 q-24.5 -40.5 -24.5 -83.5 q0 -57 42 -82 q42 -25 124 -25 ZM486 554 q48 0 85 35 q37 35 60 95.5 q23 60.5 28 138.5 q3 41 -2 68.5 q-5 27.5 -19 42.5 q-10 10 -24 15.5 q-14 5.5 -33 5.5 q-39 0 -70 -22.5 q-31 -22.5 -54 -60.5 q-23 -38 -36.5 -85.5 q-13.5 -47.5 -16.5 -98.5 q-2 -27 -1 -48.5 q1 -21.5 7 -37.5 q20 -48 76 -48 Z" /><glyph glyph-name="h" unicode="h" d="M13 0 l329 1556 l274 0 l-66 -307 q-8 -40 -21 -88 q-13 -48 -27 -95 q-14 -47 -27 -86 l6 0 q36 49 77 84.5 q41 35.5 90.5 54.5 q49.5 19 107.5 19 q82 0 138 -34 q56 -34 84.5 -97 q28.5 -63 28.5 -151 q0 -37 -7 -85.5 q-7 -48.5 -17 -97.5 l-141 -673 l-273 0 l137 651 q9 41 14.5 79 q5.5 38 5.5 71 q0 50 -22.5 76.5 q-22.5 26.5 -68.5 26.5 q-53 0 -97 -43 q-44 -43 -78 -124 q-34 -81 -59 -195 l-115 -542 l-273 0 Z" /><glyph glyph-name="i" unicode="i" d="M13 0 l237 1117 l272 0 l-236 -1117 l-273 0 ZM429 1260 q-61 0 -97.5 27 q-36.5 27 -36.5 86 q0 51 19.5 91.5 q19.5 40.5 58.5 64.5 q39 24 95 24 q58 0 95.5 -25 q37.5 -25 37.5 -86 q0 -78 -44.5 -130 q-44.5 -52 -127.5 -52 Z" /><glyph glyph-name="j" unicode="j" d="M-110 -492 q-41 0 -80.5 5.5 q-39.5 5.5 -71.5 16.5 l0 230 q25 -10 52.5 -15 q27.5 -5 51.5 -5 q41 0 71 18.5 q30 18.5 51 59 q21 40.5 34 105.5 l253 1194 l273 0 l-261 -1225 q-23 -113 -65.5 -199.5 q-42.5 -86.5 -116 -135.5 q-73.5 -49 -191.5 -49 ZM431 1260 q-61 0 -97.5 27 q-36.5 27 -36.5 86 q0 51 19.5 91.5 q19.5 40.5 58.5 64.5 q39 24 95 24 q58 0 95.5 -25 q37.5 -25 37.5 -86 q0 -78 -44.5 -130 q-44.5 -52 -127.5 -52 Z" /><glyph glyph-name="k" unicode="k" d="M12 0 l330 1556 l274 0 l-147 -683 q-7 -34 -17.5 -73.5 q-10.5 -39.5 -21.5 -78 q-11 -38.5 -20 -71.5 l6 0 l397 467 l306 0 l-428 -486 l214 -631 l-301 0 l-136 435 l-111 -88 l-72 -347 l-273 0 Z" /><glyph glyph-name="l" unicode="l" d="M12 0 l330 1556 l274 0 l-331 -1556 l-273 0 Z" /><glyph glyph-name="m" unicode="m" d="M12 0 l237 1117 l214 0 l-17 -171 l8 0 q37 58 82 101 q45 43 99 67 q54 24 118 24 q99 0 156 -47.5 q57 -47.5 77 -137.5 l7 0 q37 56 83.5 97.5 q46.5 41.5 102 64.5 q55.5 23 118.5 23 q119 0 181 -73 q62 -73 62 -203 q0 -35 -5.5 -79.5 q-5.5 -44.5 -15.5 -92.5 l-146 -690 l-273 0 l141 667 q8 37 13 71 q5 34 5 60 q0 55 -20.5 80.5 q-20.5 25.5 -62.5 25.5 q-44 0 -79.5 -28 q-35.5 -28 -64 -77 q-28.5 -49 -49.5 -110.5 q-21 -61.5 -34 -129.5 l-118 -559 l-273 0 l142 671 q8 37 12.5 70 q4.5 33 4.5 58 q0 54 -20.5 79.5 q-20.5 25.5 -61.5 25.5 q-45 0 -82.5 -30.5 q-37.5 -30.5 -66.5 -83.5 q-29 -53 -51 -120 q-22 -67 -37 -139 l-112 -531 l-274 0 Z" /><glyph glyph-name="n" unicode="n" d="M12 0 l237 1117 l213 0 l-15 -173 l7 0 q37 59 82 102.5 q45 43.5 98.5 67.5 q53.5 24 116.5 24 q77 0 135 -31 q58 -31 89.5 -93 q31.5 -62 31.5 -156 q0 -37 -6.5 -83.5 q-6.5 -46.5 -17.5 -99.5 l-142 -675 l-273 0 l138 654 q8 41 14 79 q6 38 6 68 q0 52 -21.5 77.5 q-21.5 25.5 -67.5 25.5 q-58 0 -103.5 -49.5 q-45.5 -49.5 -79.5 -135 q-34 -85.5 -58 -193.5 l-110 -526 l-274 0 Z" /><glyph glyph-name="o" unicode="o" d="M436 -20 q-112 0 -195 47.5 q-83 47.5 -128.5 136.5 q-45.5 89 -45.5 212 q0 103 20.5 210 q20.5 107 62.5 206 q42 99 108 177 q66 78 156.5 123.5 q90.5 45.5 207.5 45.5 q113 0 195 -48 q82 -48 126 -138.5 q44 -90.5 44 -217.5 q0 -106 -20.5 -213 q-20.5 -107 -63 -204.5 q-42.5 -97.5 -107.5 -173 q-65 -75.5 -155 -119.5 q-90 -44 -205 -44 ZM463 207 q47 0 86 32.5 q39 32.5 69 88.5 q30 56 51 125 q21 69 32 142 q11 73 11 140 q0 53 -11.5 92.5 q-11.5 39.5 -37.5 61.5 q-26 22 -69 22 q-50 0 -90.5 -36.5 q-40.5 -36.5 -71 -96 q-30.5 -59.5 -50.5 -130.5 q-20 -71 -30 -142.5 q-10 -71.5 -10 -130.5 q0 -81 30 -124.5 q30 -43.5 91 -43.5 Z" /><glyph glyph-name="p" unicode="p" d="M-91 -487 l340 1604 l215 0 l-14 -160 l8 0 q37 54 79.5 95 q42.5 41 93.5 63.5 q51 22.5 111 22.5 q75 0 136 -37.5 q61 -37.5 97 -118.5 q36 -81 36 -211 q0 -102 -21 -212 q-21 -110 -61 -213 q-40 -103 -98.5 -186 q-58.5 -83 -134.5 -131.5 q-76 -48.5 -168 -48.5 q-57 0 -99 19.5 q-42 19.5 -71.5 54.5 q-29.5 35 -51.5 81 l-7 0 q-6 -68 -15.5 -127 q-9.5 -59 -21.5 -115 l-81 -380 l-272 0 ZM481 209 q44 0 82 34.5 q38 34.5 69 92.5 q31 58 53.5 129 q22.5 71 34 145 q11.5 74 11.5 140 q0 82 -25.5 122 q-25.5 40 -75.5 40 q-44 0 -80.5 -28.5 q-36.5 -28.5 -65.5 -75.5 q-29 -47 -50.5 -105.5 q-21.5 -58.5 -36 -120.5 q-14.5 -62 -21.5 -118 q-7 -56 -7 -98 q0 -74 29.5 -115.5 q29.5 -41.5 82.5 -41.5 Z" /><glyph glyph-name="q" unicode="q" d="M449 -490 l84 389 q6 27 16.5 67.5 q10.5 40.5 23.5 85 q13 44.5 24 83.5 l-7 0 q-35 -48 -74.5 -83 q-39.5 -35 -86.5 -53.5 q-47 -18.5 -105 -18.5 q-70 0 -129.5 38 q-59.5 38 -95 117.5 q-35.5 79.5 -35.5 203.5 q0 100 20.5 209.5 q20.5 109.5 60 214 q39.5 104.5 98.5 189.5 q59 85 135.5 135.5 q76.5 50.5 170.5 50.5 q61 0 104.5 -18.5 q43.5 -18.5 75 -54.5 q31.5 -36 55.5 -89 l6 0 l51 141 l223 0 l-342 -1607 l-273 0 ZM452 209 q44 0 79.5 28 q35.5 28 63.5 75 q28 47 49.5 105 q21.5 58 35 120 q13.5 62 20.5 120 q7 58 7 102 q0 70 -30 110 q-30 40 -84 40 q-43 0 -81 -35 q-38 -35 -68.5 -92.5 q-30.5 -57.5 -53 -128.5 q-22.5 -71 -34.5 -145 q-12 -74 -12 -139 q0 -80 27.5 -120 q27.5 -40 80.5 -40 Z" /><glyph glyph-name="r" unicode="r" d="M12 0 l237 1117 l211 0 l-18 -189 l10 0 q40 69 84.5 115.5 q44.5 46.5 98 70.5 q53.5 24 117.5 24 q22 0 45.5 -3 q23.5 -3 44.5 -10 l-70 -278 q-18 7 -42 11.5 q-24 4.5 -52 4.5 q-52 0 -96.5 -24 q-44.5 -24 -80 -67.5 q-35.5 -43.5 -61.5 -103.5 q-26 -60 -42 -132 l-113 -536 l-273 0 Z" /><glyph glyph-name="s" unicode="s" d="M305 -20 q-99 0 -170 15.5 q-71 15.5 -129 46.5 l0 242 q62 -40 134.5 -62.5 q72.5 -22.5 141.5 -22.5 q44 0 80.5 14 q36.5 14 58 41.5 q21.5 27.5 21.5 68.5 q0 28 -10.5 52 q-10.5 24 -40.5 53 q-30 29 -87 69 q-61 43 -100.5 86.5 q-39.5 43.5 -58.5 93 q-19 49.5 -19 110.5 q0 106 45.5 185 q45.5 79 131.5 122.5 q86 43.5 209 43.5 q92 0 175.5 -23 q83.5 -23 153.5 -67 l-99 -202 q-51 36 -110 57 q-59 21 -111 21 q-49 0 -82.5 -26 q-33.5 -26 -33.5 -75 q0 -26 10.5 -48.5 q10.5 -22.5 38 -47.5 q27.5 -25 78.5 -59 q59 -41 102.5 -83.5 q43.5 -42.5 67 -96.5 q23.5 -54 23.5 -130 q0 -116 -50.5 -200.5 q-50.5 -84.5 -144.5 -131 q-94 -46.5 -225 -46.5 Z" /><glyph glyph-name="t" unicode="t" d="M338 -20 q-121 0 -183 59.5 q-62 59.5 -62 182.5 q0 29 4 63 q4 34 12 76 l115 538 l-127 0 l28 139 l167 77 l117 240 l184 0 l-50 -238 l229 0 l-47 -218 l-228 0 l-118 -554 q-4 -19 -6.5 -36.5 q-2.5 -17.5 -2.5 -29.5 q0 -37 19 -53 q19 -16 55 -16 q28 0 62 7.5 q34 7.5 73 22.5 l0 -212 q-47 -23 -111.5 -35.5 q-64.5 -12.5 -129.5 -12.5 Z" /><glyph glyph-name="u" unicode="u" d="M331 -20 q-84 0 -140 34 q-56 34 -84.5 97 q-28.5 63 -28.5 149 q0 37 6.5 89.5 q6.5 52.5 16.5 104.5 l141 663 l272 0 l-138 -658 q-9 -40 -14 -76.5 q-5 -36.5 -5 -65.5 q0 -52 21.5 -78.5 q21.5 -26.5 66.5 -26.5 q58 0 103.5 50 q45.5 50 80 136 q34.5 86 56.5 195 l113 524 l272 0 l-236 -1117 l-213 0 l14 171 l-8 0 q-38 -57 -82.5 -100 q-44.5 -43 -97.5 -67 q-53 -24 -116 -24 Z" /><glyph glyph-name="v" unicode="v" d="M198 0 l-85 1117 l270 0 l21 -555 q1 -29 1 -70 q0 -41 -0.5 -83.5 q-0.5 -42.5 -2.5 -77.5 l9 0 q10 30 22 64.5 q12 34.5 25.5 67.5 q13.5 33 24.5 57 l273 597 l291 0 l-555 -1117 l-294 0 Z" /><glyph glyph-name="w" unicode="w" d="M141 0 l-13 1117 l261 0 l-8 -490 q-2 -72 -5.5 -142.5 q-3.5 -70.5 -9.5 -145.5 l7 0 q12 42 29 92 q17 50 33.5 94.5 q16.5 44.5 26.5 70.5 l213 521 l303 0 l-11 -517 q-2 -64 -5 -131 q-3 -67 -8 -137 l7 0 q15 45 32.5 99 q17.5 54 36.5 107.5 q19 53.5 35 94.5 l199 484 l276 0 l-489 -1117 l-307 0 l12 556 q1 37 3 83.5 q2 46.5 4.5 94.5 q2.5 48 4.5 88 l-8 0 q-13 -38 -28 -81.5 q-15 -43.5 -30 -84.5 q-15 -41 -28 -74 l-234 -582 l-299 0 Z" /><glyph glyph-name="x" unicode="x" d="M-100 0 l422 574 l-172 543 l293 0 l82 -332 l215 332 l314 0 l-409 -555 l185 -562 l-295 0 l-91 349 l-235 -349 l-309 0 Z" /><glyph glyph-name="y" unicode="y" d="M-8 -492 q-48 0 -81.5 5.5 q-33.5 5.5 -58.5 13.5 l20 231 q25 -7 49.5 -11.5 q24.5 -4.5 51.5 -4.5 q73 0 119 45 q46 45 84 119 l47 101 l-106 1110 l271 0 l29 -522 q3 -40 4 -84.5 q1 -44.5 0.5 -88 q-0.5 -43.5 -1.5 -81.5 l7 0 q13 36 26.5 76.5 q13.5 40.5 29.5 82.5 q16 42 34 81 l242 536 l293 0 l-632 -1281 q-52 -104 -114 -177.5 q-62 -73.5 -138.5 -112 q-76.5 -38.5 -175.5 -38.5 Z" /><glyph glyph-name="z" unicode="z" d="M-63 0 l34 166 l529 730 l-350 0 l48 221 l666 0 l-39 -183 l-519 -713 l384 0 l-47 -221 l-706 0 Z" /><glyph glyph-name="braceleft" unicode="{" d="M469 -324 q-185 0 -265 69.5 q-80 69.5 -80 187.5 q0 30 4 60.5 q4 30.5 10 59.5 l42 201 q4 19 8.5 39.5 q4.5 20.5 4.5 39.5 q0 66 -43 98.5 q-43 32.5 -140 32.5 l45 220 q110 1 172.5 43.5 q62.5 42.5 83.5 139.5 l61 288 q26 117 77.5 184 q51.5 67 138 95 q86.5 28 217.5 28 l45 0 l-48 -217 q-82 -1 -126 -30.5 q-44 -29.5 -61 -118.5 l-63 -290 q-22 -104 -89.5 -163.5 q-67.5 -59.5 -183.5 -75.5 l-1 -7 q85 -25 125.5 -78 q40.5 -53 40.5 -126 q0 -25 -3.5 -53 q-3.5 -28 -10.5 -59 l-39 -191 q-4 -17 -5.5 -31.5 q-1.5 -14.5 -1.5 -26.5 q0 -54 29 -77 q29 -23 92 -24 l-1 -218 l-35 0 Z" /><glyph glyph-name="bar" unicode="|" d="M366 -471 l0 2032 l218 0 l0 -2032 l-218 0 Z" /><glyph glyph-name="braceright" unicode="}" d="M-110 -324 l0 218 q56 0 97 13 q41 13 67 46 q26 33 38 90 l63 290 q22 104 90 164 q68 60 183 74 l1 8 q-85 25 -126 78 q-41 53 -41 127 q0 25 4 52.5 q4 27.5 11 58.5 l40 191 q3 17 4.5 31.5 q1.5 14.5 1.5 26.5 q0 54 -34 77.5 q-34 23.5 -105 23.5 l43 217 l23 0 q122 0 194.5 -29.5 q72.5 -29.5 105 -85 q32.5 -55.5 32.5 -134.5 q0 -30 -3.5 -64 q-3.5 -34 -9.5 -64 l-42 -200 q-4 -20 -8.5 -39.5 q-4.5 -19.5 -4.5 -39.5 q0 -66 43 -98.5 q43 -32.5 140 -32.5 l-45 -220 q-72 0 -124.5 -20 q-52.5 -20 -85 -60 q-32.5 -40 -45.5 -104 l-62 -287 q-25 -114 -74 -181.5 q-49 -67.5 -132.5 -97 q-83.5 -29.5 -214.5 -29.5 l-24 0 Z" /><glyph glyph-name="asciitilde" unicode="~" d="M522 616 q-64 30 -115 43 q-51 13 -96 13 q-52 0 -109 -33 q-57 -33 -108 -88 l0 232 q47 54 106.5 81 q59.5 27 132.5 27 q61 0 118.5 -14.5 q57.5 -14.5 135.5 -49.5 q66 -29 117 -42 q51 -13 95 -13 q53 0 111 34 q58 34 106 87 l0 -232 q-48 -53 -107 -80 q-59 -27 -131 -27 q-62 0 -119 14 q-57 14 -137 48 Z" /><glyph glyph-name="nonbreakingspace" unicode=" " d="" /><glyph glyph-name="exclamdown" unicode="¡" d="M-78 -372 l255 1000 l227 0 l-170 -1000 l-312 0 ZM329 797 q-60 0 -96 33.5 q-36 33.5 -36 95.5 q0 88 53 144 q53 56 133 56 q73 0 107 -36.5 q34 -36.5 34 -91.5 q0 -51 -20.5 -97 q-20.5 -46 -63.5 -75 q-43 -29 -111 -29 Z" /><glyph glyph-name="cent" unicode="¢" d="M337 -20 l47 204 q-114 28 -176 118.5 q-62 90.5 -62 258.5 q0 98 19 200 q19 102 57 195.5 q38 93.5 95.5 171 q57.5 77.5 133.5 129 q76 51.5 172 65.5 l34 161 l168 0 l-34 -161 q55 -6 103 -23.5 q48 -17.5 88 -39.5 l-97 -215 q-40 23 -84 39 q-44 16 -90 16 q-68 0 -121 -48 q-53 -48 -90 -125.5 q-37 -77.5 -56 -168.5 q-19 -91 -19 -177 q0 -92 35 -136.5 q35 -44.5 102 -44.5 q58 0 111.5 19.5 q53.5 19.5 109.5 50.5 l32 -210 q-57 -38 -127 -58.5 q-70 -20.5 -140 -26.5 l-42 -194 l-169 0 Z" /><glyph glyph-name="sterling" unicode="£" d="M-24 0 l48 229 q53 21 94.5 54.5 q41.5 33.5 71 85.5 q29.5 52 45.5 126 l28 136 l-159 0 l43 206 l158 0 l53 259 q27 121 81.5 208 q54.5 87 140.5 133.5 q86 46.5 207 46.5 q92 0 174 -23.5 q82 -23.5 143 -61.5 l-109 -218 q-47 29 -97.5 46.5 q-50.5 17.5 -97.5 17.5 q-69 0 -109.5 -42 q-40.5 -42 -59.5 -133 l-49 -233 l266 0 l-43 -206 l-265 0 l-27 -126 q-20 -95 -70 -159.5 q-50 -64.5 -120 -102.5 l565 0 l-51 -243 l-861 0 Z" /><glyph glyph-name="currency" unicode="¤" d="M895 260 l-130 127 q-45 -26 -97 -41 q-52 -15 -106 -15 q-58 0 -110.5 14.5 q-52.5 14.5 -95.5 42.5 l-127 -126 l-129 130 l128 127 q-29 46 -44 97.5 q-15 51.5 -15 106.5 q0 55 15 106 q15 51 44 98 l-130 129 l131 131 l129 -129 q45 30 98 44.5 q53 14.5 106 14.5 q54 0 105 -15 q51 -15 98 -45 l130 130 l132 -128 l-130 -130 q28 -45 43.5 -97 q15.5 -52 15.5 -109 q0 -57 -15 -109 q-15 -52 -44 -98 l127 -126 l-129 -130 ZM562 516 q59 0 106.5 28 q47.5 28 76 75.5 q28.5 47.5 28.5 103.5 q0 58 -28.5 105.5 q-28.5 47.5 -76.5 76 q-48 28.5 -106 28.5 q-57 0 -104.5 -28.5 q-47.5 -28.5 -76 -76 q-28.5 -47.5 -28.5 -105.5 q0 -57 28.5 -104.5 q28.5 -47.5 76 -75 q47.5 -27.5 104.5 -27.5 Z" /><glyph glyph-name="yen" unicode="¥" d="M242 0 l49 231 l-233 0 l35 172 l234 0 l30 142 l-234 0 l38 171 l186 0 l-137 746 l278 0 l69 -570 l314 570 l287 0 l-452 -746 l192 0 l-37 -171 l-234 0 l-31 -142 l236 0 l-36 -172 l-236 0 l-48 -231 l-270 0 Z" /><glyph glyph-name="brokenbar" unicode="¦" d="M366 763 l0 798 l218 0 l0 -798 l-218 0 ZM366 -471 l0 798 l218 0 l0 -798 l-218 0 Z" /><glyph glyph-name="section" unicode="§" d="M324 -5 q-95 0 -170.5 19.5 q-75.5 19.5 -128.5 53.5 l0 212 q67 -47 144 -73.5 q77 -26.5 151 -26.5 q83 0 126.5 38.5 q43.5 38.5 43.5 100.5 q0 31 -16.5 55.5 q-16.5 24.5 -48 47.5 q-31.5 23 -77.5 49 q-64 37 -111 78.5 q-47 41.5 -72.5 93 q-25.5 51.5 -25.5 114.5 q0 69 24.5 122.5 q24.5 53.5 69.5 96 q45 42.5 106 77.5 q-41 38 -65 87 q-24 49 -24 111 q0 89 47.5 158.5 q47.5 69.5 133.5 111 q86 41.5 202 42.5 q93 0 171.5 -22.5 q78.5 -22.5 148.5 -61.5 l-87 -180 q-49 34 -109.5 56 q-60.5 22 -129.5 22 q-39 0 -69 -13.5 q-30 -13.5 -47.5 -38.5 q-17.5 -25 -17.5 -63 q0 -42 35 -74.5 q35 -32.5 104 -70.5 q74 -41 121.5 -84 q47.5 -43 70 -91 q22.5 -48 22.5 -105 q0 -72 -25 -127 q-25 -55 -67.5 -97.5 q-42.5 -42.5 -97.5 -78.5 q34 -34 57 -83 q23 -49 23 -111 q0 -103 -52 -180.5 q-52 -77.5 -144.5 -121 q-92.5 -43.5 -215.5 -43.5 ZM524 624 q36 26 63 69 q27 43 27 99 q0 34 -15.5 62.5 q-15.5 28.5 -47.5 55 q-32 26.5 -83 53.5 q-32 -16 -55 -41 q-23 -25 -35 -55.5 q-12 -30.5 -12 -64.5 q0 -34 16 -63.5 q16 -29.5 50.5 -57 q34.5 -27.5 91.5 -57.5 Z" /><glyph glyph-name="dieresis" unicode="¨" d="M843 1273 q-52 0 -83 24.5 q-31 24.5 -31 78.5 q0 71 39.5 116.5 q39.5 45.5 111.5 45.5 q47 0 78 -23.5 q31 -23.5 31 -76.5 q0 -74 -39 -119.5 q-39 -45.5 -107 -45.5 ZM478 1273 q-52 0 -83 24.5 q-31 24.5 -31 78.5 q0 71 39 116.5 q39 45.5 111 45.5 q32 0 56.5 -10 q24.5 -10 38.5 -32 q14 -22 14 -58 q0 -74 -39 -119.5 q-39 -45.5 -106 -45.5 Z" /><glyph glyph-name="copyright" unicode="©" d="M845 -20 q-166 0 -304 56.5 q-138 56.5 -238.5 157.5 q-100.5 101 -155 238 q-54.5 137 -54.5 298 q0 162 57.5 299.5 q57.5 137.5 161 239 q103.5 101.5 241 158 q137.5 56.5 297.5 56.5 q161 0 298.5 -56 q137.5 -56 240 -158 q102.5 -102 159.5 -239.5 q57 -137.5 57 -300.5 q0 -163 -56.5 -300.5 q-56.5 -137.5 -159 -238 q-102.5 -100.5 -241 -155.5 q-138.5 -55 -303.5 -55 ZM881 264 q-206 0 -314 125.5 q-108 125.5 -108 340.5 q0 142 49.5 246.5 q49.5 104.5 145 162.5 q95.5 58 230.5 58 q70 0 140 -17 q70 -17 135 -49 l-69 -147 q-51 26 -101 39.5 q-50 13.5 -95 13.5 q-115 0 -178 -79.5 q-63 -79.5 -63 -230.5 q0 -151 57.5 -227 q57.5 -76 183.5 -76 q52 0 112 14.5 q60 14.5 115 39.5 l0 -159 q-55 -25 -112 -40 q-57 -15 -128 -15 ZM852 113 q129 0 239 45 q110 45 192 127.5 q82 82.5 127 195.5 q45 113 45 248 q0 134 -45.5 247.5 q-45.5 113.5 -128 197.5 q-82.5 84 -193 130.5 q-110.5 46.5 -240.5 46.5 q-133 0 -244.5 -46.5 q-111.5 -46.5 -193 -130.5 q-81.5 -84 -126 -198 q-44.5 -114 -44.5 -248 q0 -137 46 -250 q46 -113 128.5 -194.5 q82.5 -81.5 194 -126 q111.5 -44.5 243.5 -44.5 Z" /><glyph glyph-name="ordfeminine" unicode="ª" d="M347 752 q-49 0 -96 24.5 q-47 24.5 -77 82 q-30 57.5 -30 154.5 q0 74 20 154.5 q20 80.5 61 151 q41 70.5 104.5 114 q63.5 43.5 150.5 43.5 q61 0 98.5 -27 q37.5 -27 59.5 -75 l7 0 l37 89 l139 0 l-153 -699 l-140 0 l10 92 l-8 0 q-32 -46 -76 -75 q-44 -29 -107 -29 ZM406 901 q33 0 59 21.5 q26 21.5 46 56.5 q20 35 33 76.5 q13 41.5 19 81.5 q6 40 6 72 q0 56 -18 87 q-18 31 -57 31 q-37 0 -66.5 -27.5 q-29.5 -27.5 -50.5 -73.5 q-21 -46 -32 -101 q-11 -55 -11 -110 q0 -57 18 -85.5 q18 -28.5 54 -28.5 Z" /><glyph glyph-name="guillemotleft" unicode="«" d="M263 91 l-205 456 l1 21 l376 455 l183 -132 l-277 -345 l145 -360 l-223 -95 ZM718 91 l-207 456 l2 21 l377 455 l182 -132 l-276 -345 l143 -360 l-221 -95 Z" /><glyph glyph-name="logicalnot" unicode="¬" d="M1006 831 l0 -586 l-220 0 l0 368 l-687 0 l0 218 l907 0 Z" /><glyph glyph-name="registered" unicode="®" d="M549 295 l0 891 l276 0 q169 0 252 -68.5 q83 -68.5 83 -201.5 q0 -92 -41.5 -150 q-41.5 -58 -109.5 -88 l217 -383 l-208 0 l-174 338 l-106 0 l0 -338 l-189 0 ZM738 776 l78 0 q74 0 113.5 34.5 q39.5 34.5 39.5 98.5 q0 66 -35 95 q-35 29 -118 29 l-78 0 l0 -257 ZM845 -20 q-166 0 -304 56.5 q-138 56.5 -238.5 157.5 q-100.5 101 -155 238 q-54.5 137 -54.5 298 q0 162 57.5 299.5 q57.5 137.5 161 239 q103.5 101.5 241 158 q137.5 56.5 297.5 56.5 q161 0 298.5 -56 q137.5 -56 240 -158 q102.5 -102 159.5 -239.5 q57 -137.5 57 -300.5 q0 -163 -56.5 -300.5 q-56.5 -137.5 -159 -238 q-102.5 -100.5 -241 -155.5 q-138.5 -55 -303.5 -55 ZM852 113 q129 0 239 45 q110 45 192 127.5 q82 82.5 127 195.5 q45 113 45 248 q0 134 -45.5 247.5 q-45.5 113.5 -128 197.5 q-82.5 84 -193 130.5 q-110.5 46.5 -240.5 46.5 q-133 0 -244.5 -46.5 q-111.5 -46.5 -193 -130.5 q-81.5 -84 -126 -198 q-44.5 -114 -44.5 -248 q0 -137 46 -250 q46 -113 128.5 -194.5 q82.5 -81.5 194 -126 q111.5 -44.5 243.5 -44.5 Z" /><glyph glyph-name="macron" unicode="¯" d="M189 1556 l43 195 l961 0 l-42 -195 l-962 0 Z" /><glyph glyph-name="degree" unicode="°" d="M404 838 q-96 0 -171.5 41 q-75.5 41 -118.5 114 q-43 73 -43 168 q0 94 43 167 q43 73 118.5 114 q75.5 41 171.5 41 q97 0 172 -41 q75 -41 118 -114 q43 -73 43 -167 q0 -96 -43.5 -169 q-43.5 -73 -118.5 -113.5 q-75 -40.5 -171 -40.5 ZM404 1013 q65 0 106 39.5 q41 39.5 41 108.5 q0 68 -41 108 q-41 40 -106 40 q-65 0 -106 -40.5 q-41 -40.5 -41 -107.5 q0 -69 41.5 -108.5 q41.5 -39.5 105.5 -39.5 Z" /><glyph glyph-name="plusminus" unicode="±" d="M99 0 l0 218 l913 0 l0 -218 l-913 0 ZM666 907 l346 0 l0 -218 l-346 0 l0 -383 l-220 0 l0 383 l-347 0 l0 218 l347 0 l0 388 l220 0 l0 -388 Z" /><glyph glyph-name="twosuperior" unicode="²" d="M110 851 l33 162 l248 230 q59 55 100 97 q41 42 63 79.5 q22 37.5 22 77.5 q0 37 -21 57 q-21 20 -55 20 q-40 0 -83 -24 q-43 -24 -85 -60 l-81 142 q63 57 139.5 87 q76.5 30 166.5 30 q113 0 176.5 -58.5 q63.5 -58.5 63.5 -151.5 q0 -78 -32.5 -140 q-32.5 -62 -89 -117.5 q-56.5 -55.5 -129.5 -114.5 l-148 -132 l319 0 l-38 -184 l-569 0 Z" /><glyph glyph-name="threesuperior" unicode="³" d="M371 835 q-71 0 -131 15.5 q-60 15.5 -103 41.5 l0 185 q48 -34 106 -53 q58 -19 124 -19 q68 0 111.5 33 q43.5 33 43.5 93 q0 41 -26 66 q-26 25 -81 25 l-104 0 l32 151 l80 0 q52 0 88.5 16 q36.5 16 56 44.5 q19.5 28.5 19.5 67.5 q0 40 -23 59.5 q-23 19.5 -62 19.5 q-41 0 -82.5 -17 q-41.5 -17 -85.5 -48 l-75 138 q65 48 136.5 71 q71.5 23 148.5 23 q91 0 146.5 -28 q55.5 -28 81 -74.5 q25.5 -46.5 25.5 -102.5 q0 -92 -54 -149 q-54 -57 -145 -85 l-1 -8 q65 -19 98 -63 q33 -44 33 -113 q0 -96 -48.5 -160 q-48.5 -64 -129.5 -96.5 q-81 -32.5 -179 -32.5 Z" /><glyph glyph-name="acute" unicode="´" d="M229 1241 l2 23 q38 45 77 97.5 q39 52.5 75.5 106 q36.5 53.5 67.5 101.5 l307 0 l-1 -17 q-22 -27 -64.5 -69.5 q-42.5 -42.5 -93 -89 q-50.5 -46.5 -98 -87 q-47.5 -40.5 -79.5 -65.5 l-193 0 Z" /><glyph glyph-name="paragraph" unicode="¶" d="M613 -260 l-1 839 q-22 -8 -48.5 -11.5 q-26.5 -3.5 -59.5 -3.5 q-90 0 -155.5 35 q-65.5 35 -108.5 101 q-43 66 -64 157.5 q-21 91.5 -21 204.5 q0 120 24.5 212 q24.5 92 73.5 155 q49 63 120.5 95 q71.5 32 165.5 32 l527 0 l0 -1816 l-155 0 l0 1650 l-144 0 l0 -1650 l-154 0 Z" /><glyph glyph-name="cedilla" unicode="¸" d="M-59 -492 q-43 0 -82 6.5 q-39 6.5 -69 14.5 l0 156 q22 -7 54 -13 q32 -6 66 -6 q35 0 58.5 10.5 q23.5 10.5 35.5 30 q12 19.5 12 46.5 q0 36 -30.5 58.5 q-30.5 22.5 -101.5 28.5 l100 160 l157 0 l-47 -79 q61 -15 101.5 -56.5 q40.5 -41.5 40.5 -113.5 q0 -77 -35 -131.5 q-35 -54.5 -100.5 -83 q-65.5 -28.5 -159.5 -28.5 Z" /><glyph glyph-name="onesuperior" unicode="¹" d="M339 851 l100 469 q11 48 22.5 87.5 q11.5 39.5 20.5 69.5 q-16 -14 -33.5 -28.5 q-17.5 -14.5 -28.5 -21.5 l-123 -83 l-90 140 l354 244 l182 0 l-187 -877 l-217 0 Z" /><glyph glyph-name="ordmasculine" unicode="º" d="M399 751 q-121 0 -182.5 73 q-61.5 73 -61.5 199 q0 87 22.5 168 q22.5 81 68 145.5 q45.5 64.5 112.5 102.5 q67 38 156 38 q118 0 180 -71 q62 -71 62 -199 q0 -75 -20.5 -155 q-20.5 -80 -63 -148 q-42.5 -68 -110.5 -110.5 q-68 -42.5 -163 -42.5 ZM421 909 q36 0 62.5 27 q26.5 27 44.5 71 q18 44 26.5 96.5 q8.5 52.5 8.5 102.5 q0 57 -17 85 q-17 28 -53 28 q-36 0 -63 -27 q-27 -27 -45.5 -71.5 q-18.5 -44.5 -28 -96.5 q-9.5 -52 -9.5 -102 q0 -59 19 -86 q19 -27 55 -27 Z" /><glyph glyph-name="guillemotright" unicode="»" d="M629 91 l-182 132 l276 346 l-144 359 l222 95 l207 -456 l-2 -21 l-377 -455 ZM174 91 l-182 132 l277 346 l-144 359 l221 95 l206 -456 l-1 -21 l-377 -455 Z" /><glyph glyph-name="questiondown" unicode="¿" d="M605 627 q-18 -97 -43.5 -165 q-25.5 -68 -67 -121.5 q-41.5 -53.5 -108.5 -108.5 q-59 -52 -102.5 -91.5 q-43.5 -39.5 -66.5 -80 q-23 -40.5 -23 -96.5 q0 -54 28.5 -82.5 q28.5 -28.5 87.5 -28.5 q67 0 131.5 28 q64.5 28 134.5 67 l64 -207 q-85 -55 -182.5 -89 q-97.5 -34 -201.5 -34 q-159 0 -246 79.5 q-87 79.5 -87 217.5 q0 100 37 176 q37 76 99 139.5 q62 63.5 138 123.5 q60 50 92.5 86.5 q32.5 36.5 50.5 79 q18 42.5 33 107.5 l232 0 ZM572 1125 q73 0 106.5 -36.5 q33.5 -36.5 33.5 -91.5 q0 -77 -47 -139.5 q-47 -62.5 -148 -62.5 q-61 0 -97 34.5 q-36 34.5 -36 95.5 q0 88 53.5 144 q53.5 56 134.5 56 Z" /><glyph glyph-name="AE" unicode="æ" d="M-128 0 l815 1462 l953 0 l-51 -238 l-428 0 l-72 -345 l398 0 l-51 -239 l-399 0 l-84 -399 l428 0 l-51 -241 l-707 0 l77 361 l-330 0 l-196 -361 l-302 0 ZM504 604 l248 0 l131 620 l-51 0 l-328 -620 Z" /><glyph glyph-name="Eth" unicode="ð" d="M25 0 l132 629 l-123 0 l48 225 l122 0 l130 608 l342 0 q239 0 368 -129 q129 -129 129 -371 q0 -152 -31 -294.5 q-31 -142.5 -92 -263.5 q-61 -121 -153 -212 q-92 -91 -215 -141.5 q-123 -50.5 -276 -50.5 l-381 0 ZM356 243 l75 0 q96 0 170 43.5 q74 43.5 127 117 q53 73.5 87 165 q34 91.5 50 188 q16 96.5 16 184.5 q0 145 -60.5 213 q-60.5 68 -171.5 68 l-86 0 l-77 -368 l193 0 l-48 -225 l-195 0 l-80 -386 Z" /><glyph glyph-name="multiply" unicode="×" d="M837 1158 l153 -150 l-285 -285 l280 -282 l-149 -151 l-284 280 l-282 -279 l-148 152 l278 280 l-279 281 l150 153 l281 -279 l285 280 Z" /><glyph glyph-name="Oslash" unicode="ø" d="M189 -97 l-137 92 l122 172 q-38 61 -57 143 q-19 82 -19 181 q0 113 19 230 q19 117 58 228.5 q39 111.5 97.5 208.5 q58.5 97 137.5 170.5 q79 73.5 177.5 115 q98.5 41.5 217.5 41.5 q82 0 149 -19 q67 -19 117 -56 l98 136 l135 -93 l-117 -164 q36 -60 53.5 -137 q17.5 -77 17.5 -169 q0 -108 -17.5 -223.5 q-17.5 -115.5 -54 -228 q-36.5 -112.5 -93.5 -211.5 q-57 -99 -135 -175.5 q-78 -76.5 -178 -120.5 q-100 -44 -225 -44 q-80 0 -145 17.5 q-65 17.5 -117 51.5 l-104 -146 ZM579 221 q56 0 106.5 27.5 q50.5 27.5 93 76 q42.5 48.5 76.5 114.5 q34 66 59 144.5 q25 78.5 39 164 q14 85.5 17 173.5 q2 17 1.5 36.5 q-0.5 19.5 -0.5 36.5 l-519 -722 q21 -25 54 -38 q33 -13 73 -13 ZM388 454 l526 731 q-23 29 -56 44.5 q-33 15.5 -77 15.5 q-60 0 -112 -29.5 q-52 -29.5 -94.5 -81 q-42.5 -51.5 -76.5 -120 q-34 -68.5 -57.5 -146 q-23.5 -77.5 -37.5 -159 q-14 -81.5 -17 -160.5 q0 -24 0.5 -48 q0.5 -24 1.5 -47 Z" /><glyph glyph-name="Thorn" unicode="þ" d="M25 0 l309 1462 l281 0 l-50 -230 l60 0 q152 0 246 -47.5 q94 -47.5 137.5 -133 q43.5 -85.5 43.5 -200.5 q0 -121 -40 -223 q-40 -102 -115 -176.5 q-75 -74.5 -181 -116 q-106 -41.5 -239 -41.5 l-110 0 l-62 -294 l-280 0 ZM417 533 l74 0 q84 0 145.5 36.5 q61.5 36.5 95 103.5 q33.5 67 33.5 157 q0 85 -41.5 124 q-41.5 39 -127.5 39 l-81 0 l-98 -460 Z" /><glyph glyph-name="germandbls" unicode="ß" d="M-118 -492 q-36 0 -74.5 6 q-38.5 6 -70.5 16 l0 230 q25 -9 52.5 -14.5 q27.5 -5.5 52.5 -5.5 q59 0 95 41.5 q36 41.5 56 139.5 l258 1219 q30 139 92 234 q62 95 163.5 144 q101.5 49 246.5 49 q185 0 289.5 -83 q104.5 -83 104.5 -217 q0 -75 -20.5 -131.5 q-20.5 -56.5 -61.5 -103 q-41 -46.5 -101 -91.5 q-55 -42 -91 -78.5 q-36 -36.5 -36 -89.5 q0 -18 8.5 -38.5 q8.5 -20.5 27 -44 q18.5 -23.5 48.5 -53.5 q63 -58 102.5 -122 q39.5 -64 39.5 -162 q0 -109 -50 -193.5 q-50 -84.5 -144 -132 q-94 -47.5 -227 -47.5 q-77 0 -142.5 14 q-65.5 14 -115.5 44 l21 236 q51 -37 107.5 -56 q56.5 -19 112.5 -19 q80 0 119 36 q39 36 39 91 q0 30 -10.5 54.5 q-10.5 24.5 -35 54.5 q-24.5 30 -67.5 73 q-61 61 -92 114.5 q-31 53.5 -31 122.5 q0 60 21.5 107.5 q21.5 47.5 61 88.5 q39.5 41 92.5 80 q43 33 74 63 q31 30 47.5 64 q16.5 34 16.5 78 q0 53 -31 85 q-31 32 -97 32 q-64 0 -105 -29 q-41 -29 -66 -81 q-25 -52 -40 -122 l-258 -1222 q-24 -113 -67 -199 q-43 -86 -118 -134 q-75 -48 -196 -48 Z" /><glyph glyph-name="ae" unicode="æ" d="M325 -20 q-78 0 -136.5 42.5 q-58.5 42.5 -91 124 q-32.5 81.5 -32.5 197.5 q0 114 21.5 228 q21.5 114 63 215.5 q41.5 101.5 100 180.5 q58.5 79 132.5 124.5 q74 45.5 161 45.5 q54 0 97 -16.5 q43 -16.5 76.5 -49.5 q33.5 -33 56.5 -82 l8 0 l43 127 l181 0 l-18 -90 q45 49 111 79.5 q66 30.5 147 30.5 q138 0 215.5 -78 q77.5 -78 77.5 -205 q0 -93 -38 -166 q-38 -73 -113 -124 q-75 -51 -184 -77 q-109 -26 -250 -26 l-35 0 q-4 -20 -5.5 -38 q-1.5 -18 -1.5 -37 q0 -86 41 -139 q41 -53 141 -53 q69 0 144 23 q75 23 148 63 l-21 -219 q-75 -39 -153 -60 q-78 -21 -166 -21 q-95 0 -154.5 28.5 q-59.5 28.5 -92.5 82.5 l-18 -91 l-180 0 l17 141 l-7 0 q-38 -48 -80 -84 q-42 -36 -92.5 -56.5 q-50.5 -20.5 -112.5 -20.5 ZM443 206 q42 0 77.5 27 q35.5 27 63.5 72.5 q28 45.5 49 102 q21 56.5 35 115.5 q16 70 23 126 q7 56 7 105 q0 73 -26.5 114 q-26.5 41 -80.5 41 q-42 0 -79.5 -33 q-37.5 -33 -68 -89 q-30.5 -56 -53 -126.5 q-22.5 -70.5 -34.5 -146.5 q-12 -76 -12 -147 q0 -84 28 -122.5 q28 -38.5 71 -38.5 ZM952 651 l26 0 q111 0 177.5 25.5 q66.5 25.5 96 68.5 q29.5 43 29.5 95 q0 44 -24.5 67.5 q-24.5 23.5 -69.5 23.5 q-53 0 -99.5 -38 q-46.5 -38 -81.5 -102 q-35 -64 -54 -140 Z" /><glyph glyph-name="eth" unicode="ð" d="M428 -20 q-115 0 -200.5 42.5 q-85.5 42.5 -132 128.5 q-46.5 86 -46.5 218 q0 109 31 219.5 q31 110.5 92 202 q61 91.5 151.5 147.5 q90.5 56 209.5 56 q77 0 125 -33 q48 -33 77 -78 l6 0 q-4 89 -25 166.5 q-21 77.5 -70 138.5 l-194 -120 l-85 131 l186 115 q-22 24 -52.5 47 q-30.5 23 -65.5 46 l121 162 q55 -28 104.5 -61.5 q49.5 -33.5 89.5 -69.5 l201 125 l80 -133 l-179 -112 q48 -68 77.5 -144.5 q29.5 -76.5 43 -160.5 q13.5 -84 13.5 -177 q0 -120 -18.5 -241.5 q-18.5 -121.5 -58.5 -232 q-40 -110.5 -105 -196.5 q-65 -86 -158.5 -136 q-93.5 -50 -217.5 -50 ZM449 197 q41 0 76.5 25.5 q35.5 25.5 64 69.5 q28.5 44 48.5 98.5 q20 54.5 30.5 113 q10.5 58.5 10.5 113.5 q0 36 -7.5 65 q-7.5 29 -22 50 q-14.5 21 -37 32.5 q-22.5 11.5 -53.5 11.5 q-56 0 -100 -38.5 q-44 -38.5 -74 -101.5 q-30 -63 -45 -135.5 q-15 -72.5 -15 -140.5 q0 -78 31.5 -120.5 q31.5 -42.5 92.5 -42.5 Z" /><glyph glyph-name="divide" unicode="÷" d="M99 613 l0 218 l913 0 l0 -218 l-913 0 ZM555 199 q-61 0 -100.5 38 q-39.5 38 -39.5 117 q0 79 38.5 116 q38.5 37 101.5 37 q61 0 99 -37 q38 -37 38 -116 q0 -79 -38.5 -117 q-38.5 -38 -98.5 -38 ZM555 937 q-61 0 -100.5 38.5 q-39.5 38.5 -39.5 115.5 q0 81 38.5 118 q38.5 37 101.5 37 q61 0 99 -37 q38 -37 38 -118 q0 -77 -38.5 -115.5 q-38.5 -38.5 -98.5 -38.5 Z" /><glyph glyph-name="oslash" unicode="ø" d="M140 -114 l-126 89 l115 162 q-30 47 -45.5 107.5 q-15.5 60.5 -15.5 131.5 q0 102 20 209 q20 107 62.5 205.5 q42.5 98.5 108 177 q65.5 78.5 156.5 124.5 q91 46 208 46 q56 0 105.5 -13.5 q49.5 -13.5 88.5 -39.5 l77 109 l130 -91 l-93 -131 q27 -48 42 -107.5 q15 -59.5 15 -130.5 q0 -102 -20 -208 q-20 -106 -62 -203.5 q-42 -97.5 -107.5 -175 q-65.5 -77.5 -155 -122.5 q-89.5 -45 -206.5 -45 q-55 0 -103.5 12.5 q-48.5 12.5 -89.5 35.5 l-104 -142 ZM462 198 q48 0 86.5 28.5 q38.5 28.5 68 77 q29.5 48.5 50.5 108.5 q21 60 33.5 122.5 q12.5 62.5 17.5 120.5 q2 12 2 24 q0 12 0 23 l-338 -472 q13 -14 34.5 -23 q21.5 -9 45.5 -9 ZM335 404 l344 480 q-13 16 -35 26 q-22 10 -49 10 q-49 0 -87.5 -29 q-38.5 -29 -68.5 -78 q-30 -49 -50.5 -109.5 q-20.5 -60.5 -33 -124 q-12.5 -63.5 -17.5 -121.5 q-1 -14 -2 -27.5 q-1 -13.5 -1 -26.5 Z" /><glyph glyph-name="thorn" unicode="þ" d="M-91 -487 l433 2045 l273 0 l-82 -385 q-10 -45 -24.5 -95 q-14.5 -50 -28.5 -90 l8 0 q35 48 75.5 81.5 q40.5 33.5 85 51 q44.5 17.5 93.5 17.5 q122 0 195.5 -90 q73.5 -90 73.5 -277 q0 -97 -19 -205.5 q-19 -108.5 -56.5 -212 q-37.5 -103.5 -94.5 -188 q-57 -84.5 -133 -135 q-76 -50.5 -171 -50.5 q-58 0 -102 20 q-44 20 -76 55 q-32 35 -53 80 l-7 0 q-6 -64 -14.5 -120.5 q-8.5 -56.5 -20.5 -108.5 l-83 -393 l-272 0 ZM481 209 q46 0 85 35.5 q39 35.5 70 94.5 q31 59 52 130 q21 71 32 144.5 q11 73.5 11 136.5 q0 82 -28 122 q-28 40 -78 40 q-57 0 -102 -48.5 q-45 -48.5 -77.5 -125 q-32.5 -76.5 -51.5 -160.5 q-12 -58 -18.5 -113.5 q-6.5 -55.5 -6.5 -98.5 q0 -74 27.5 -115.5 q27.5 -41.5 84.5 -41.5 Z" /><glyph glyph-name="dcroat" unicode="&#x111;" d="M339 -20 q-81 0 -143 41.5 q-62 41.5 -96.5 123 q-34.5 81.5 -34.5 200.5 q0 89 18.5 192 q18.5 103 55.5 203.5 q37 100.5 93 183.5 q56 83 131.5 133 q75.5 50 170.5 50 q58 0 102.5 -17 q44.5 -17 77 -49.5 q32.5 -32.5 52.5 -77.5 l7 0 q2 25 5.5 54.5 q3.5 29.5 8 60 q4.5 30.5 9.5 56.5 l13 70 l-231 0 l40 190 l231 0 l35 162 l273 0 l-34 -162 l134 0 l-40 -190 l-135 0 l-255 -1204 l-212 0 l8 139 l-7 0 q-38 -46 -78.5 -82 q-40.5 -36 -88 -56.5 q-47.5 -20.5 -110.5 -20.5 ZM452 206 q42 0 77 26.5 q35 26.5 63.5 71 q28.5 44.5 49.5 100 q21 55.5 35.5 114.5 q14.5 59 21.5 114 q7 55 7 98 q0 70 -27 109 q-27 39 -85 39 q-47 0 -85.5 -34.5 q-38.5 -34.5 -69 -91.5 q-30.5 -57 -52 -125 q-21.5 -68 -32.5 -136.5 q-11 -68.5 -11 -123.5 q0 -80 28.5 -120.5 q28.5 -40.5 79.5 -40.5 Z" /><glyph glyph-name="eogonek" unicode="&#x119;" d="M506 -473 q-94 0 -145 49.5 q-51 49.5 -51 127.5 q0 65 26.5 118 q26.5 53 74.5 99 q48 46 110 89 l229 35 q-74 -51 -123.5 -100.5 q-49.5 -49.5 -74.5 -95.5 q-25 -46 -26 -88 q0 -27 14.5 -42 q14.5 -15 39.5 -15 q22 0 45 5 q23 5 48 11 l-18 -170 q-35 -12 -71 -17.5 q-36 -5.5 -78 -5.5 ZM453 -20 q-117 0 -203.5 45 q-86.5 45 -134.5 133.5 q-48 88.5 -48 216.5 q0 144 37 280.5 q37 136.5 109.5 245 q72.5 108.5 180 172.5 q107.5 64 248.5 64 q156 0 240.5 -77 q84.5 -77 84.5 -206 q0 -92 -38 -165.5 q-38 -73.5 -113 -124 q-75 -50.5 -184.5 -77 q-109.5 -26.5 -251.5 -26.5 l-34 0 q-3 -20 -5 -39 q-2 -19 -2 -38 q0 -94 44.5 -142 q44.5 -48 128.5 -48 q77 0 140 18 q63 18 148 62 l0 -209 q-80 -45 -163.5 -65 q-83.5 -20 -183.5 -20 ZM380 651 l26 0 q110 0 176.5 25.5 q66.5 25.5 96.5 68.5 q30 43 30 95 q0 44 -24 67.5 q-24 23.5 -69 23.5 q-49 0 -95.5 -34.5 q-46.5 -34.5 -83 -97 q-36.5 -62.5 -57.5 -148.5 Z" /><glyph glyph-name="Hbar" unicode="&#x126;" d="M25 0 l226 1073 l-149 0 l40 191 l150 0 l42 198 l281 0 l-42 -198 l396 0 l43 198 l281 0 l-42 -198 l147 0 l-40 -191 l-148 0 l-228 -1073 l-281 0 l136 640 l-396 0 l-136 -640 l-280 0 ZM491 875 l396 0 l42 198 l-397 0 l-41 -198 Z" /><glyph glyph-name="hbar" unicode="&#x127;" d="M13 0 l255 1204 l-138 0 l40 190 l138 0 l34 162 l274 0 l-34 -162 l238 0 l-40 -190 l-239 0 q-15 -66 -28.5 -116.5 q-13.5 -50.5 -25 -87.5 q-11.5 -37 -21.5 -65 l7 0 q36 49 76.5 84 q40.5 35 89.5 54 q49 19 108 19 q82 0 137.5 -34.5 q55.5 -34.5 84 -97.5 q28.5 -63 28.5 -150 q0 -38 -6.5 -86.5 q-6.5 -48.5 -16.5 -96.5 l-132 -627 l-273 0 l127 605 q9 41 15 79 q6 38 6 71 q0 52 -22.5 78 q-22.5 26 -66.5 26 q-56 0 -101 -45 q-45 -45 -78 -126.5 q-33 -81.5 -57 -191.5 l-106 -496 l-273 0 Z" /><glyph glyph-name="kgreenlandic" unicode="&#x138;" d="M12 0 l237 1117 l273 0 l-53 -239 q-11 -53 -27 -112.5 q-16 -59.5 -34 -118.5 l6 0 l399 470 l306 0 l-428 -486 l214 -631 l-301 0 l-136 435 l-111 -88 l-72 -347 l-273 0 Z" /><glyph glyph-name="Lslash" unicode="&#x141;" d="M40 0 l105 496 l-72 -42 l-101 177 l231 142 l147 689 l279 0 l-105 -492 l151 91 l105 -174 l-315 -195 l-96 -451 l432 0 l-49 -241 l-712 0 Z" /><glyph glyph-name="lslash" unicode="&#x142;" d="M43 0 l116 545 l-80 -41 l-86 184 l219 111 l162 757 l271 0 l-131 -614 l88 47 l88 -184 l-229 -117 l-147 -688 l-271 0 Z" /><glyph glyph-name="Eng" unicode="&#x14a;" d="M612 -428 q-51 0 -93.5 6.5 q-42.5 6.5 -73.5 18.5 l23 234 q32 -10 66 -17 q34 -7 68 -7 q58 0 99 21 q41 21 68 63.5 q27 42.5 43 107.5 l-310 1083 l-8 0 q-3 -25 -9 -67 q-6 -42 -14 -93.5 q-8 -51.5 -17.5 -102.5 q-9.5 -51 -18.5 -93 l-153 -726 l-257 0 l309 1462 l314 0 l279 -958 l8 0 q7 46 16 104 q9 58 19.5 117.5 q10.5 59.5 20.5 111.5 l137 625 l257 0 l-304 -1438 q-31 -146 -91 -247 q-60 -101 -153 -153 q-93 -52 -225 -52 Z" /><glyph glyph-name="eng" unicode="&#x14b;" d="M443 -492 q-45 0 -84.5 6.5 q-39.5 6.5 -66.5 15.5 l0 230 q26 -10 53.5 -15 q27.5 -5 50.5 -5 q41 0 71 18 q30 18 50.5 58.5 q20.5 40.5 34.5 106.5 l154 731 q8 41 14 79 q6 38 6 68 q0 52 -21.5 77.5 q-21.5 25.5 -67.5 25.5 q-58 0 -103.5 -48.5 q-45.5 -48.5 -78.5 -131.5 q-33 -83 -54 -184 l-115 -540 l-274 0 l237 1117 l212 0 l-15 -173 l7 0 q37 59 82 102.5 q45 43.5 99 67.5 q54 24 117 24 q77 0 135 -31 q58 -31 89.5 -93 q31.5 -62 31.5 -156 q0 -37 -6.5 -84 q-6.5 -47 -17.5 -99 l-165 -781 q-26 -128 -71.5 -214 q-45.5 -86 -119 -129 q-73.5 -43 -184.5 -43 Z" /><glyph glyph-name="OE" unicode="&#x152;" d="M543 -18 q-149 0 -248 62 q-99 62 -148 173.5 q-49 111.5 -49 258.5 q0 131 25 271.5 q25 140.5 78 271.5 q53 131 135 235.5 q82 104.5 196 166 q114 61.5 263 61.5 q60 0 106.5 -4.5 q46.5 -4.5 81.5 -15.5 l681 0 l-50 -238 l-427 0 l-74 -345 l399 0 l-51 -239 l-399 0 l-85 -399 l428 0 l-50 -241 l-655 0 q-32 -6 -72.5 -12 q-40.5 -6 -84.5 -6 ZM580 228 q35 0 66 5.5 q31 5.5 56 15.5 l203 962 q-23 14 -54 21.5 q-31 7.5 -68 7.5 q-73 0 -134.5 -45.5 q-61.5 -45.5 -110 -123 q-48.5 -77.5 -82 -174.5 q-33.5 -97 -51.5 -202 q-18 -105 -18 -203 q0 -89 22 -148 q22 -59 65 -87.5 q43 -28.5 106 -28.5 Z" /><glyph glyph-name="oe" unicode="&#x153;" d="M416 -20 q-157 0 -253 105 q-96 105 -96 294 q0 98 19 203.5 q19 105.5 59.5 204.5 q40.5 99 104 178.5 q63.5 79.5 152 126 q88.5 46.5 205.5 46.5 q103 0 168.5 -43 q65.5 -43 104.5 -124 q65 78 156 122 q91 44 198 44 q155 0 240 -77 q85 -77 85 -206 q0 -92 -38.5 -165.5 q-38.5 -73.5 -113.5 -124 q-75 -50.5 -184 -77 q-109 -26.5 -251 -26.5 l-35 0 q-2 -20 -4 -39 q-2 -19 -2 -38 q0 -94 44.5 -142 q44.5 -48 128.5 -48 q76 0 143.5 20 q67.5 20 144.5 60 l0 -208 q-80 -43 -163.5 -64.5 q-83.5 -21.5 -183.5 -21.5 q-69 0 -127.5 18 q-58.5 18 -103 53.5 q-44.5 35.5 -71.5 88.5 q-59 -74 -138 -117 q-79 -43 -189 -43 ZM461 207 q46 0 83.5 33 q37.5 33 67 88.5 q29.5 55.5 50 124.5 q20.5 69 31 142.5 q10.5 73.5 10.5 140.5 q0 81 -27.5 127.5 q-27.5 46.5 -89.5 46.5 q-48 0 -86.5 -35.5 q-38.5 -35.5 -68 -93.5 q-29.5 -58 -49.5 -128.5 q-20 -70.5 -30 -142 q-10 -71.5 -10 -133.5 q0 -83 30 -126.5 q30 -43.5 89 -43.5 ZM973 651 l27 0 q110 0 176 25.5 q66 25.5 96 68.5 q30 43 30 95 q0 44 -25 67.5 q-25 23.5 -69 23.5 q-52 0 -101 -40 q-49 -40 -85 -104 q-36 -64 -49 -136 Z" /><glyph glyph-name="Tbar" unicode="&#x166;" d="M205 0 l129 614 l-194 0 l48 224 l193 0 l81 382 l-297 0 l51 242 l877 0 l-51 -242 l-300 0 l-80 -382 l201 0 l-47 -224 l-202 0 l-129 -614 l-280 0 Z" /><glyph glyph-name="tbar" unicode="&#x167;" d="M338 -20 q-121 0 -183 59.5 q-62 59.5 -62 181.5 q0 29 3.5 62.5 q3.5 33.5 12.5 75.5 l31 144 l-117 0 l40 188 l117 0 l44 208 l-127 0 l28 139 l167 77 l117 240 l184 0 l-50 -238 l229 0 l-47 -218 l-228 0 l-45 -208 l201 0 l-41 -188 l-200 0 l-33 -158 q-4 -19 -6.5 -36 q-2.5 -17 -2.5 -29 q0 -38 19 -54 q19 -16 56 -16 q28 0 61.5 7.5 q33.5 7.5 72.5 22.5 l0 -212 q-47 -23 -111.5 -35.5 q-64.5 -12.5 -129.5 -12.5 Z" /><glyph glyph-name="longs" unicode="&#x17f;" d="M-92 -492 q-41 0 -80.5 5.5 q-39.5 5.5 -71.5 16.5 l0 230 q25 -10 53 -15 q28 -5 52 -5 q64 0 99 44 q35 44 54 133 l274 1287 q24 118 69.5 198.5 q45.5 80.5 119 122.5 q73.5 42 179.5 42 q59 0 114 -11.5 q55 -11.5 104 -35.5 l-83 -207 q-24 13 -51.5 20.5 q-27.5 7.5 -57.5 7.5 q-36 0 -61.5 -22 q-25.5 -22 -41.5 -60.5 q-16 -38.5 -26 -88.5 l-273 -1286 q-23 -109 -66 -194 q-43 -85 -116.5 -133.5 q-73.5 -48.5 -189.5 -48.5 Z" /><glyph glyph-name="florin" unicode="&#x192;" d="M97 -492 q-48 0 -89.5 8 q-41.5 8 -69.5 18 l0 227 q30 -12 61.5 -18 q31.5 -6 54.5 -6 q54 0 87.5 39.5 q33.5 39.5 52.5 129.5 l190 895 l-146 0 l27 139 l165 76 l24 106 q31 135 79 214 q48 79 119.5 113 q71.5 34 171.5 34 q60 0 113.5 -12 q53.5 -12 105.5 -37 l-85 -206 q-30 14 -57 21.5 q-27 7.5 -57 7.5 q-52 0 -79.5 -41 q-27.5 -41 -42.5 -110 l-18 -87 l193 0 l-46 -218 l-194 0 l-194 -910 q-24 -119 -68 -205 q-44 -86 -116 -132 q-72 -46 -182 -46 Z" /><glyph glyph-name="Aringacute" unicode="&#x1fa;" d="M-124 0 l655 1345 q-16 22 -24 51 q-8 29 -8 62 q0 106 66 169 q66 63 174 63 q105 0 174 -63.5 q69 -63.5 69 -165.5 q0 -54 -19.5 -96 q-19.5 -42 -52.5 -69 l92 -1296 l-284 0 l-16 346 l-367 0 l-158 -346 l-301 0 ZM444 590 l258 0 l-9 359 q-2 39 -4 98.5 q-2 59.5 -1 116.5 l-8 0 q-16 -53 -36.5 -104.5 q-20.5 -51.5 -36.5 -91.5 l-163 -378 ZM739 1359 q44 0 71.5 26.5 q27.5 26.5 27.5 71.5 q0 45 -27 71.5 q-27 26.5 -72 26.5 q-44 0 -71 -26.5 q-27 -26.5 -27 -71.5 q0 -45 24.5 -71.5 q24.5 -26.5 73.5 -26.5 ZM673 1745 l1 13 q32 30 67.5 64.5 q35.5 34.5 69 70.5 q33.5 36 59.5 69 l317 0 l-1 -10 q-36 -32 -92 -72 q-56 -40 -114.5 -76 q-58.5 -36 -100.5 -59 l-206 0 Z" /><glyph glyph-name="aringacute" unicode="&#x1fb;" d="M336 -20 q-76 0 -137.5 39 q-61.5 39 -97.5 119.5 q-36 80.5 -36 203.5 q0 100 20 209.5 q20 109.5 59.5 213.5 q39.5 104 98 188.5 q58.5 84.5 134.5 134.5 q76 50 170 50 q57 0 102 -18 q45 -18 78.5 -53.5 q33.5 -35.5 54.5 -87.5 l7 0 l53 138 l222 0 l-237 -1117 l-212 0 l7 144 l-7 0 q-38 -49 -80 -85.5 q-42 -36.5 -90.5 -57.5 q-48.5 -21 -108.5 -21 ZM445 207 q59 0 105.5 50 q46.5 50 79.5 127 q33 77 50 157 q15 68 21.5 118.5 q6.5 50.5 6.5 99.5 q0 68 -30.5 109 q-30.5 41 -83.5 41 q-44 0 -82 -35 q-38 -35 -68.5 -94 q-30.5 -59 -53 -130.5 q-22.5 -71.5 -34.5 -145.5 q-12 -74 -12 -139 q0 -78 25.5 -118 q25.5 -40 75.5 -40 ZM684 1199 q-109 0 -174 62.5 q-65 62.5 -65 170.5 q0 107 65.5 169.5 q65.5 62.5 173.5 62.5 q104 0 172.5 -62 q68.5 -62 70.5 -167 q0 -107 -67.5 -171.5 q-67.5 -64.5 -175.5 -64.5 ZM685 1333 q43 0 71.5 26.5 q28.5 26.5 28.5 72.5 q0 44 -27.5 71.5 q-27.5 27.5 -72.5 27.5 q-44 0 -71 -27.5 q-27 -27.5 -27 -71.5 q0 -47 24.5 -73 q24.5 -26 73.5 -26 ZM628 1737 l1 14 q32 30 66.5 65.5 q34.5 35.5 68.5 72.5 q34 37 61 73 l319 0 l-1 -11 q-36 -33 -92.5 -74 q-56.5 -41 -115.5 -78.5 q-59 -37.5 -102 -61.5 l-205 0 Z" /><glyph glyph-name="circumflex" unicode="&#x2c6;" d="M229 1241 l2 24 q44 43 93 95 q49 52 95.5 106.5 q46.5 54.5 81.5 102.5 l279 0 q16 -43 40.5 -98.5 q24.5 -55.5 53 -110 q28.5 -54.5 51.5 -94.5 l-3 -25 l-173 0 q-20 22 -43 48.5 q-23 26.5 -46 57 q-23 30.5 -44 60.5 q-54 -50 -103.5 -91 q-49.5 -41 -97.5 -75 l-186 0 Z" /><glyph glyph-name="caron" unicode="&#x2c7;" d="M438 1241 q-15 44 -40 99.5 q-25 55.5 -52.5 109.5 q-27.5 54 -51.5 94 l3 25 l173 0 q20 -19 42 -45.5 q22 -26.5 46 -57 q24 -30.5 44 -63.5 q55 51 104.5 92 q49.5 41 96.5 74 l186 0 l-2 -24 q-36 -35 -88 -91 q-52 -56 -101.5 -113.5 q-49.5 -57.5 -79.5 -99.5 l-280 0 Z" /><glyph glyph-name="macron" unicode="&#x2c9;" d="M228 1243 l41 196 l577 0 l-41 -196 l-577 0 Z" /><glyph glyph-name="breve" unicode="&#x2d8;" d="M570 1241 q-102 0 -164 34.5 q-62 34.5 -89.5 91 q-27.5 56.5 -27.5 122.5 q0 22 2.5 43 q2.5 21 5.5 40 l163 0 q0 -44 12 -74 q12 -30 39.5 -45.5 q27.5 -15.5 71.5 -15.5 q66 0 108.5 30 q42.5 30 60.5 105 l172 0 q-27 -159 -115.5 -245 q-88.5 -86 -238.5 -86 Z" /><glyph glyph-name="dotaccent" unicode="&#x2d9;" d="M398 1260 q-62 0 -99.5 29.5 q-37.5 29.5 -37.5 88.5 q0 77 45 126 q45 49 127 49 q41 0 71 -12 q30 -12 47 -37.5 q17 -25.5 17 -67.5 q0 -75 -42.5 -125.5 q-42.5 -50.5 -127.5 -50.5 Z" /><glyph glyph-name="ring" unicode="&#x2da;" d="M523 1241 q-110 0 -175 63 q-65 63 -65 171 q0 106 66 168.5 q66 62.5 174 62.5 q104 0 173 -62 q69 -62 69 -166 q0 -107 -67.5 -172 q-67.5 -65 -174.5 -65 ZM523 1375 q43 0 71 26.5 q28 26.5 28 72.5 q0 44 -27 71.5 q-27 27.5 -71 27.5 q-46 0 -73 -27.5 q-27 -27.5 -27 -71.5 q0 -46 25 -72.5 q25 -26.5 74 -26.5 Z" /><glyph glyph-name="ogonek" unicode="&#x2db;" d="M102 -483 q-96 0 -147 49 q-51 49 -51 128 q0 64 26.5 117 q26.5 53 74 99.5 q47.5 46.5 110.5 89.5 l176 0 q-51 -45 -89.5 -86 q-38.5 -41 -60 -81 q-21.5 -40 -22.5 -83 q0 -27 15.5 -41.5 q15.5 -14.5 39.5 -14.5 q23 0 46 5 q23 5 48 11 l-18 -171 q-34 -11 -70 -16.5 q-36 -5.5 -78 -5.5 Z" /><glyph glyph-name="tilde" unicode="&#x2dc;" d="M227 1240 q20 97 53 165 q33 68 83 104 q50 36 119 36 q47 0 83.5 -16 q36.5 -16 65 -37 q28.5 -21 54 -37 q25.5 -16 52.5 -16 q32 0 53.5 24.5 q21.5 24.5 39.5 83.5 l157 0 q-21 -110 -59 -177.5 q-38 -67.5 -88 -97.5 q-50 -30 -109 -30 q-47 0 -82.5 16.5 q-35.5 16.5 -64 37.5 q-28.5 21 -54.5 37 q-26 16 -55 16 q-29 0 -52 -27 q-23 -27 -36 -82 l-160 0 Z" /><glyph glyph-name="hungarumlaut" unicode="&#x2dd;" d="M596 1241 l2 24 q43 53 83.5 108 q40.5 55 76 105.5 q35.5 50.5 59.5 90.5 l271 0 l-1 -17 q-22 -28 -62 -69 q-40 -41 -89 -86 q-49 -45 -97.5 -86 q-48.5 -41 -86.5 -70 l-156 0 ZM229 1241 l2 24 q43 54 84 109 q41 55 76 105.5 q35 50.5 60 89.5 l269 0 l-1 -17 q-20 -29 -59.5 -69.5 q-39.5 -40.5 -89 -85 q-49.5 -44.5 -99.5 -85.5 q-50 -41 -92 -71 l-150 0 Z" /><glyph glyph-name="tonos" unicode="&#x384;" d="M506 1241 l3 29 q16 30 35.5 74 q19.5 44 40 92.5 q20.5 48.5 38 93 q17.5 44.5 29.5 76.5 l255 0 l-2 -22 q-20 -34 -48 -77.5 q-28 -43.5 -59.5 -90.5 q-31.5 -47 -63 -92 q-31.5 -45 -61.5 -83 l-167 0 Z" /><glyph glyph-name="dieresistonos" unicode="&#x385;" d="M579 1399 l0 22 q17 37 39 92 q22 55 42 110.5 q20 55.5 31 92.5 l234 0 l-2 -18 q-22 -40 -58.5 -94 q-36.5 -54 -77 -108.5 q-40.5 -54.5 -76.5 -96.5 l-132 0 ZM400 1273 q-49 0 -78.5 24.5 q-29.5 24.5 -29.5 78.5 q0 71 37.5 116.5 q37.5 45.5 104.5 45.5 q45 0 75 -23.5 q30 -23.5 30 -76.5 q0 -74 -37.5 -119.5 q-37.5 -45.5 -101.5 -45.5 ZM915 1273 q-48 0 -77.5 24.5 q-29.5 24.5 -29.5 78.5 q0 71 37.5 116.5 q37.5 45.5 104.5 45.5 q44 0 74 -23.5 q30 -23.5 30 -76.5 q0 -74 -37 -119.5 q-37 -45.5 -102 -45.5 Z" /><glyph glyph-name="Gamma" unicode="&#x393;" d="M25 0 l309 1462 l712 0 l-51 -239 l-433 0 l-259 -1223 l-278 0 Z" /><glyph glyph-name="Theta" unicode="&#x398;" d="M576 -20 q-156 0 -262.5 60 q-106.5 60 -161 176 q-54.5 116 -54.5 284 q0 113 19.5 229 q19.5 116 59.5 226.5 q40 110.5 99.5 206.5 q59.5 96 139.5 168.5 q80 72.5 180.5 113.5 q100.5 41 221.5 41 q232 0 349.5 -135 q117.5 -135 117.5 -384 q0 -122 -20 -242.5 q-20 -120.5 -60 -230.5 q-40 -110 -99.5 -203.5 q-59.5 -93.5 -138 -163 q-78.5 -69.5 -176.5 -108 q-98 -38.5 -215 -38.5 ZM590 225 q71 0 129 35 q58 35 103.5 95.5 q45.5 60.5 79 137.5 q33.5 77 55.5 161.5 q22 84.5 33 167.5 q11 83 11 154 q0 126 -52 196 q-52 70 -149 70 q-72 0 -131 -35 q-59 -35 -105 -95.5 q-46 -60.5 -79.5 -137.5 q-33.5 -77 -55.5 -161 q-22 -84 -33 -166 q-11 -82 -11 -152 q0 -90 24 -150 q24 -60 70 -90 q46 -30 111 -30 ZM495 629 l49 233 l349 0 l-49 -233 l-349 0 Z" /><glyph glyph-name="Lambda" unicode="&#x39b;" d="M-124 0 l692 1468 l319 0 l78 -1468 l-283 0 l-23 841 q-2 58 -2.5 136.5 q-0.5 78.5 1.5 148.5 q-23 -79 -53.5 -152.5 q-30.5 -73.5 -54.5 -126.5 l-380 -847 l-294 0 Z" /><glyph glyph-name="Xi" unicode="&#x39e;" d="M-51 0 l49 241 l794 0 l-50 -241 l-793 0 ZM179 644 l51 239 l606 0 l-53 -239 l-604 0 ZM240 1224 l50 238 l731 0 l-50 -238 l-731 0 Z" /><glyph glyph-name="Pi" unicode="&#x3a0;" d="M25 0 l309 1462 l943 0 l-309 -1462 l-281 0 l259 1220 l-383 0 l-258 -1220 l-280 0 Z" /><glyph glyph-name="Sigma" unicode="&#x3a3;" d="M-54 0 l46 227 l478 530 l-249 485 l46 220 l791 0 l-50 -238 l-472 0 l241 -476 l-450 -507 l517 0 l-51 -241 l-847 0 Z" /><glyph glyph-name="Phi" unicode="&#x3a6;" d="M473 -20 l49 224 q-145 10 -237.5 68.5 q-92.5 58.5 -136.5 155 q-44 96.5 -44 218.5 q0 144 44.5 262.5 q44.5 118.5 129 205 q84.5 86.5 205.5 135.5 q121 49 272 54 l38 180 l266 0 l-37 -180 q140 -9 233 -68 q93 -59 139 -155 q46 -96 46 -217 q0 -140 -42.5 -259 q-42.5 -119 -125.5 -208 q-83 -89 -204.5 -139 q-121.5 -50 -278.5 -52 l-49 -225 l-267 0 ZM570 433 l137 640 q-77 -3 -137.5 -38 q-60.5 -35 -101.5 -93.5 q-41 -58.5 -62.5 -133 q-21.5 -74.5 -21.5 -156.5 q0 -66 20 -114.5 q20 -48.5 61.5 -75 q41.5 -26.5 104.5 -29.5 ZM837 433 q76 4 136 38 q60 34 101.5 92 q41.5 58 63 132.5 q21.5 74.5 21.5 157.5 q0 67 -20.5 115.5 q-20.5 48.5 -62 76 q-41.5 27.5 -103.5 28.5 l-136 -640 Z" /><glyph glyph-name="Psi" unicode="&#x3a8;" d="M486 0 l92 425 l-9 0 q-140 2 -229.5 48 q-89.5 46 -132.5 128 q-43 82 -43 189 q0 39 6 93 q6 54 20 118 l98 461 l276 0 l-106 -497 q-8 -39 -13.5 -74.5 q-5.5 -35.5 -5.5 -65.5 q0 -59 21 -94.5 q21 -35.5 61 -50.5 q40 -15 97 -15 l10 0 l168 797 l267 0 l-169 -797 l11 0 q81 0 136 32 q55 32 90.5 97.5 q35.5 65.5 56.5 165.5 l107 502 l276 0 l-112 -526 q-25 -120 -69 -215 q-44 -95 -114 -161 q-70 -66 -173 -100.5 q-103 -34.5 -245 -34.5 l-14 0 l-90 -425 l-268 0 Z" /><glyph glyph-name="alpha" unicode="&#x3b1;" d="M333 -20 q-119 0 -193.5 92 q-74.5 92 -74.5 272 q0 120 22 235 q22 115 64 216 q42 101 102 178 q60 77 135.5 121 q75.5 44 164.5 44 q89 0 147.5 -44.5 q58.5 -44.5 90.5 -123.5 l7 0 q12 26 26.5 53 q14.5 27 30.5 52 q16 25 32 42 l234 0 q-25 -52 -53 -120.5 q-28 -68.5 -53 -148.5 q-25 -80 -44 -166 l-70 -333 q-5 -21 -8 -41.5 q-3 -20.5 -3 -35.5 q0 -31 13.5 -43.5 q13.5 -12.5 36.5 -12.5 q13 0 30 4 q17 4 32 11 l0 -220 q-28 -11 -72.5 -21 q-44.5 -10 -86.5 -10 q-73 0 -118.5 22.5 q-45.5 22.5 -68.5 60 q-23 37.5 -30 82.5 l-7 0 q-36 -47 -77 -84.5 q-41 -37.5 -92 -59 q-51 -21.5 -117 -21.5 ZM448 206 q56 0 98 42.5 q42 42.5 71.5 110 q29.5 67.5 47.5 140.5 q18 75 28 138.5 q10 63.5 10 113.5 q0 75 -27 116.5 q-27 41.5 -82 41.5 q-46 0 -84.5 -36 q-38.5 -36 -69 -95 q-30.5 -59 -52 -130 q-21.5 -71 -33 -142 q-11.5 -71 -11.5 -130 q0 -86 26 -128 q26 -42 78 -42 Z" /><glyph glyph-name="beta" unicode="&#x3b2;" d="M-91 -492 l344 1632 q30 139 88.5 234 q58.5 95 154 144 q95.5 49 237.5 49 q118 0 200.5 -41 q82.5 -41 125.5 -115 q43 -74 43 -174 q0 -112 -36.5 -198.5 q-36.5 -86.5 -107.5 -142.5 q-71 -56 -177 -77 q107 -20 168.5 -102.5 q61.5 -82.5 61.5 -205.5 q0 -85 -25 -177.5 q-25 -92.5 -79.5 -173 q-54.5 -80.5 -143.5 -130.5 q-89 -50 -218 -50 q-85 0 -147.5 20.5 q-62.5 20.5 -101.5 44.5 l-114 -537 l-273 0 ZM497 210 q61 0 104.5 28 q43.5 28 71 74 q27.5 46 40.5 99.5 q13 53.5 13 104.5 q0 89 -43.5 132.5 q-43.5 43.5 -118.5 43.5 l-45 0 l48 227 l46 0 q49 0 87.5 24 q38.5 24 65 65 q26.5 41 40 93.5 q13.5 52.5 13.5 108.5 q0 64 -30 98.5 q-30 34.5 -84 34.5 q-43 0 -77 -22.5 q-34 -22.5 -59.5 -72 q-25.5 -49.5 -43.5 -130.5 l-182 -847 q25 -29 70.5 -45 q45.5 -16 83.5 -16 Z" /><glyph glyph-name="gamma" unicode="&#x3b3;" d="M30 -492 q18 84 43 167.5 q25 83.5 58 167 q33 83.5 72 166.5 l-88 1108 l271 0 l20 -471 q1 -37 1.5 -78 q0.5 -41 0.5 -81.5 q0 -40.5 -1 -78 q-1 -37.5 -2 -69.5 l8 0 q24 71 57 150.5 q33 79.5 69 156.5 l217 471 l293 0 l-521 -1044 q-51 -102 -91.5 -200 q-40.5 -98 -69.5 -190 q-29 -92 -47 -175 l-290 0 Z" /><glyph glyph-name="delta" unicode="&#x3b4;" d="M430 -20 q-135 0 -220.5 49.5 q-85.5 49.5 -126.5 134 q-41 84.5 -41 190.5 q0 138 54.5 251 q54.5 113 152 194 q97.5 81 228.5 123 q-60 62 -97.5 133 q-37.5 71 -37.5 157 q0 113 54.5 192.5 q54.5 79.5 148 121 q93.5 41.5 211.5 41.5 q117 0 208 -29 q91 -29 160 -77 l-118 -204 q-66 46 -128.5 69.5 q-62.5 23.5 -123.5 23.5 q-59 0 -98.5 -31.5 q-39.5 -31.5 -39.5 -93.5 q0 -40 19.5 -75.5 q19.5 -35.5 55.5 -72.5 q36 -37 83 -84 q60 -60 101 -126.5 q41 -66.5 62.5 -139.5 q21.5 -73 21.5 -155 q0 -128 -35 -236 q-35 -108 -102 -188 q-67 -80 -165.5 -124 q-98.5 -44 -226.5 -44 ZM457 207 q53 0 93 32.5 q40 32.5 67.5 85.5 q27.5 53 41.5 115 q14 62 14 120 q0 75 -22 133 q-22 58 -63 100 q-55 -23 -102.5 -67 q-47.5 -44 -82.5 -102 q-35 -58 -55 -122.5 q-20 -64.5 -20 -129.5 q0 -75 32 -120 q32 -45 97 -45 Z" /><glyph glyph-name="epsilon" unicode="&#x3b5;" d="M399 -20 q-118 0 -203.5 32 q-85.5 32 -131 95.5 q-45.5 63.5 -45.5 156.5 q0 85 35 151 q35 66 101 110 q66 44 160 60 l1 8 q-59 25 -98.5 78.5 q-39.5 53.5 -39.5 136.5 q0 107 55.5 181 q55.5 74 149.5 111.5 q94 37.5 209 37.5 q106 0 192.5 -21 q86.5 -21 156.5 -65 l-101 -203 q-56 34 -114 53.5 q-58 19.5 -124 19.5 q-75 0 -122 -35.5 q-47 -35.5 -47 -103.5 q0 -53 39.5 -78 q39.5 -25 119.5 -25 l105 0 l-42 -198 l-119 0 q-69 0 -121 -19.5 q-52 -19.5 -80.5 -56 q-28.5 -36.5 -28.5 -87.5 q0 -55 37.5 -86 q37.5 -31 113.5 -31 q86 0 155.5 22.5 q69.5 22.5 134.5 57.5 l0 -227 q-71 -37 -157.5 -56 q-86.5 -19 -190.5 -19 Z" /><glyph glyph-name="zeta" unicode="&#x3b6;" d="M240 -382 q42 45 81.5 93 q39.5 48 65.5 96.5 q26 48.5 26 91.5 q0 40 -30.5 69 q-30.5 29 -97.5 65 q-72 39 -122.5 86 q-50.5 47 -77 110.5 q-26.5 63.5 -26.5 151.5 q0 142 48 272 q48 130 132 250 q84 120 192.5 232 q108.5 112 230.5 217 q-39 -7 -80.5 -9 q-41.5 -2 -74.5 -2 l-209 0 l48 215 l682 0 l-37 -173 q-155 -137 -275.5 -263.5 q-120.5 -126.5 -203.5 -243 q-83 -116.5 -126 -224 q-43 -107.5 -43 -206.5 q0 -56 22 -95.5 q22 -39.5 58.5 -68 q36.5 -28.5 79.5 -54.5 q52 -28 98 -62 q46 -34 74.5 -80 q28.5 -46 28.5 -112 q0 -71 -23 -131.5 q-23 -60.5 -63.5 -115 q-40.5 -54.5 -94.5 -109.5 l-283 0 Z" /><glyph glyph-name="eta" unicode="&#x3b7;" d="M463 -492 l243 1146 q8 41 14 79 q6 38 6 68 q0 52 -21.5 77.5 q-21.5 25.5 -67.5 25.5 q-58 0 -103.5 -49.5 q-45.5 -49.5 -79.5 -135 q-34 -85.5 -58 -193.5 l-110 -526 l-274 0 l237 1117 l212 0 l-15 -173 l7 0 q37 59 82 102.5 q45 43.5 99 67.5 q54 24 117 24 q77 0 135 -31 q58 -31 89.5 -93 q31.5 -62 31.5 -156 q0 -37 -6.5 -83.5 q-6.5 -46.5 -17.5 -99.5 l-247 -1167 l-273 0 Z" /><glyph glyph-name="theta" unicode="&#x3b8;" d="M429 -20 q-122 0 -199 52 q-77 52 -112.5 148 q-35.5 96 -35.5 230 q0 60 6 132.5 q6 72.5 19 152.5 q13 80 32 162 q35 148 84 278 q49 130 117 228.5 q68 98.5 161 154 q93 55.5 215 55.5 q108 0 184 -46 q76 -46 116.5 -142.5 q40.5 -96.5 40.5 -246.5 q0 -81 -11.5 -181 q-11.5 -100 -34 -205 q-22.5 -105 -55.5 -203 q-35 -123 -82.5 -227 q-47.5 -104 -110.5 -180.5 q-63 -76.5 -145.5 -119 q-82.5 -42.5 -188.5 -42.5 ZM448 191 q43 0 81 35 q38 35 70.5 99.5 q32.5 64.5 61 154 q28.5 89.5 53.5 196.5 l-333 0 q-17 -94 -27 -171 q-10 -77 -10 -136 q0 -86 26 -132 q26 -46 78 -46 ZM428 890 l329 0 q15 90 23.5 162.5 q8.5 72.5 8.5 136.5 q0 83 -25 127.5 q-25 44.5 -73 44.5 q-42 0 -78.5 -33 q-36.5 -33 -69.5 -94.5 q-33 -61.5 -61.5 -148.5 q-28.5 -87 -53.5 -195 Z" /><glyph glyph-name="iota" unicode="&#x3b9;" d="M317 -20 q-115 0 -181 55 q-66 55 -66 176 q0 28 5 67 q5 39 16 91 l159 748 l273 0 l-162 -771 q-5 -22 -7.5 -40.5 q-2.5 -18.5 -2.5 -32.5 q0 -31 17 -47 q17 -16 48 -16 q30 0 61.5 9 q31.5 9 66.5 23 l0 -210 q-45 -24 -104.5 -38 q-59.5 -14 -122.5 -14 Z" /><glyph glyph-name="lambda" unicode="&#x3bb;" d="M778 -20 q-87 0 -138 34.5 q-51 34.5 -75 98.5 q-24 64 -31 154 l-14 228 q-3 47 -5 101.5 q-2 54.5 -3 97.5 q-8 -19 -16 -42 q-8 -23 -17.5 -47 q-9.5 -24 -19.5 -47.5 q-10 -23.5 -21 -46.5 l-247 -511 l-292 0 l565 1069 l-5 126 q-5 83 -31 113 q-26 30 -74 30 q-22 0 -42 -3.5 q-20 -3.5 -43 -10.5 l-18 224 q36 10 82 16 q46 6 89 6 q107 0 169.5 -42.5 q62.5 -42.5 93.5 -121.5 q31 -79 40 -189 l60 -842 q6 -61 16.5 -95 q10.5 -34 28 -47.5 q17.5 -13.5 43.5 -13.5 q14 0 29.5 2.5 q15.5 2.5 36.5 8.5 l0 -225 q-30 -10 -73 -17.5 q-43 -7.5 -88 -7.5 Z" /><glyph glyph-name="nu" unicode="&#x3bd;" d="M189 0 l-72 1117 l272 0 l27 -592 q3 -59 3 -121.5 q0 -62.5 -2 -112.5 q78 104 139 226 q61 122 109 270 q48 148 86 330 l282 0 q-42 -212 -114.5 -404 q-72.5 -192 -184.5 -369 q-112 -177 -275 -344 l-270 0 Z" /><glyph glyph-name="xi" unicode="&#x3be;" d="M239 -382 q43 45 84 96 q41 51 68.5 101 q27.5 50 27.5 92 q-1 36 -23 61 q-22 25 -93 58 q-81 40 -134.5 89 q-53.5 49 -79.5 113 q-26 64 -26 147 q0 113 40 201.5 q40 88.5 116 150 q76 61.5 184 90.5 l1 8 q-81 24 -123.5 79 q-42.5 55 -42.5 129 q0 61 20.5 112 q20.5 51 59 91 q38.5 40 90.5 69 q52 29 114 46 q-52 -4 -96.5 -7 q-44.5 -3 -87.5 -3 l-65 0 l47 215 l665 0 l-45 -208 l-55 0 q-55 0 -108 -11.5 q-53 -11.5 -100 -34.5 q-47 -23 -83 -57 q-36 -34 -56.5 -79.5 q-20.5 -45.5 -20.5 -102.5 q0 -73 47 -110.5 q47 -37.5 140 -37.5 l98 0 l-45 -210 l-84 0 q-109 0 -182 -36 q-73 -36 -109.5 -99 q-36.5 -63 -36.5 -144 q0 -52 18.5 -85 q18.5 -33 54 -57.5 q35.5 -24.5 85.5 -50.5 q57 -28 102 -60.5 q45 -32.5 71 -78.5 q26 -46 26 -115 q0 -65 -21.5 -126 q-21.5 -61 -61.5 -118.5 q-40 -57.5 -98 -116.5 l-282 0 Z" /><glyph glyph-name="pi" unicode="&#x3c0;" d="M886 -18 q-112 0 -174 58 q-62 58 -62 169 q0 31 5 66.5 q5 35.5 13 71.5 l114 551 l-231 0 l-191 -898 l-276 0 l193 898 l-196 0 l27 129 l167 90 l1022 0 l-46 -219 l-194 0 l-117 -563 q-3 -16 -5.5 -31.5 q-2.5 -15.5 -2.5 -30.5 q0 -32 16 -47.5 q16 -15.5 47 -15.5 q28 0 55 8 q27 8 52 21 l0 -206 q-41 -23 -95.5 -37 q-54.5 -14 -120.5 -14 Z" /><glyph glyph-name="rho" unicode="&#x3c1;" d="M-90 -492 l228 1085 q37 175 94 296.5 q57 121.5 154.5 185 q97.5 63.5 252.5 63.5 q123 0 205 -49 q82 -49 124 -138.5 q42 -89.5 42 -209.5 q0 -106 -20.5 -214 q-20.5 -108 -60 -206 q-39.5 -98 -98 -175 q-58.5 -77 -135 -121.5 q-76.5 -44.5 -171.5 -44.5 q-79 0 -137.5 28.5 q-58.5 28.5 -95.5 75.5 q-6 -58 -17 -118 q-11 -60 -24 -120 l-70 -338 l-271 0 ZM481 209 q51 0 91 39 q40 39 70 101 q30 62 50 134.5 q20 72.5 29.5 140.5 q9.5 68 9.5 118 q0 81 -29 125 q-29 44 -81 44 q-51 0 -89 -33.5 q-38 -33.5 -67 -108 q-29 -74.5 -54 -196.5 l-59 -281 q19 -37 52.5 -60 q33.5 -23 76.5 -23 Z" /><glyph glyph-name="uni03C2" unicode="&#x3c2;" d="M248 -382 q51 56 89 104 q38 48 59.5 90 q21.5 42 21.5 80 q0 26 -11 48 q-11 22 -37.5 44 q-26.5 22 -76.5 49 q-75 42 -125.5 92.5 q-50.5 50.5 -75.5 118.5 q-25 68 -25 164 q0 95 21 197 q21 102 64.5 197 q43.5 95 110.5 171 q67 76 158 120.5 q91 44.5 207 44.5 q86 0 156 -19 q70 -19 128 -52 l-95 -211 q-42 23 -88 38 q-46 15 -91 15 q-55 0 -100 -29.5 q-45 -29.5 -80 -79 q-35 -49.5 -59.5 -110 q-24.5 -60.5 -37 -123 q-12.5 -62.5 -12.5 -118.5 q0 -60 19 -100 q19 -40 53 -68 q34 -28 79 -54 q58 -33 105.5 -68.5 q47.5 -35.5 75.5 -83.5 q28 -48 28 -120 q0 -57 -20 -113 q-20 -56 -59.5 -111 q-39.5 -55 -98.5 -113 l-283 0 Z" /><glyph glyph-name="sigma" unicode="&#x3c3;" d="M441 -20 q-171 0 -272 105.5 q-101 105.5 -101 298.5 q0 111 23 218 q23 107 71 200 q48 93 122.5 164 q74.5 71 176 111 q101.5 40 232.5 40 l492 0 l-45 -216 l-231 0 q28 -42 47.5 -108 q19.5 -66 19.5 -154 q0 -72 -18.5 -160 q-18.5 -88 -58 -175.5 q-39.5 -87.5 -102 -161 q-62.5 -73.5 -151 -118 q-88.5 -44.5 -205.5 -44.5 ZM464 207 q47 0 85.5 31 q38.5 31 68.5 84.5 q30 53.5 50.5 120.5 q20.5 67 31 140.5 q10.5 73.5 10.5 142.5 q0 55 -7 98 q-7 43 -19 77 l-26 0 q-83 0 -142.5 -47.5 q-59.5 -47.5 -97.5 -124.5 q-38 -77 -56.5 -167.5 q-18.5 -90.5 -18.5 -175.5 q0 -86 30 -132.5 q30 -46.5 91 -46.5 Z" /><glyph glyph-name="tau" unicode="&#x3c4;" d="M439 -21 q-118 0 -185.5 56 q-67.5 56 -67.5 181 q0 30 4.5 66.5 q4.5 36.5 12.5 76.5 l116 539 l-240 0 l27 128 l164 91 l647 0 l-47 -219 l-278 0 l-118 -554 q-3 -18 -5.5 -35 q-2.5 -17 -2.5 -31 q0 -35 19 -52 q19 -17 54 -17 q30 0 62.5 9.5 q32.5 9.5 66.5 22.5 l0 -210 q-46 -24 -106 -38 q-60 -14 -123 -14 Z" /><glyph glyph-name="upsilon" unicode="&#x3c5;" d="M442 -19 q-184 0 -269 90.5 q-85 90.5 -85 243.5 q0 42 7 91.5 q7 49.5 17 102.5 l129 608 l272 0 l-133 -631 q-8 -39 -12.5 -75.5 q-4.5 -36.5 -4.5 -65.5 q0 -67 27.5 -99.5 q27.5 -32.5 79.5 -32.5 q48 0 88 33 q40 33 72 93 q32 60 56.5 143 q24.5 83 41.5 184 q17 101 26 215 q9 114 10 236 l272 0 q-1 -152 -14.5 -312 q-13.5 -160 -49.5 -307 q-36 -147 -102 -263.5 q-66 -116.5 -170.5 -185 q-104.5 -68.5 -257.5 -68.5 Z" /><glyph glyph-name="phi" unicode="&#x3c6;" d="M336 -492 l103 481 q-106 15 -190 67 q-84 52 -132.5 145 q-48.5 93 -48.5 227 q0 138 40 261.5 q40 123.5 115 235.5 q75 112 180 212 l185 -142 q-71 -81 -126 -171 q-55 -90 -85.5 -187 q-30.5 -97 -30.5 -201 q0 -64 17 -110.5 q17 -46.5 48.5 -74.5 q31.5 -28 74.5 -39 l113 539 q41 186 134.5 286 q93.5 100 265.5 100 q163 0 253.5 -103 q90.5 -103 90.5 -289 q0 -122 -28.5 -232.5 q-28.5 -110.5 -83 -204.5 q-54.5 -94 -133 -164.5 q-78.5 -70.5 -178.5 -111.5 q-100 -41 -220 -47 l-99 -477 l-265 0 ZM749 213 q70 12 122.5 51.5 q52.5 39.5 89.5 98 q37 58.5 60.5 127 q23.5 68.5 34 139 q10.5 70.5 10.5 132.5 q0 72 -20 115 q-20 43 -64 43 q-38 0 -68.5 -38.5 q-30.5 -38.5 -52.5 -141.5 l-112 -526 Z" /><glyph glyph-name="chi" unicode="&#x3c7;" d="M-256 -492 l570 880 l-35 381 q-7 67 -25 98 q-18 31 -56 31 q-20 0 -38.5 -4.5 q-18.5 -4.5 -38.5 -11.5 l-10 226 q35 13 81.5 20.5 q46.5 7.5 90.5 7.5 q117 0 173 -69 q56 -69 71 -209 l13 -174 l261 433 l298 0 l-509 -777 l46 -481 q7 -64 27 -89 q20 -25 56 -25 q18 0 42.5 5.5 q24.5 5.5 51.5 14.5 l0 -222 q-43 -16 -90 -25.5 q-47 -9.5 -97 -9.5 q-77 0 -127 30 q-50 30 -78 94.5 q-28 64.5 -39 168.5 l-21 252 l-322 -545 l-295 0 Z" /><glyph glyph-name="psi" unicode="&#x3c8;" d="M362 -492 l100 470 q-192 20 -283 117 q-91 97 -91 253 q0 43 6.5 90 q6.5 47 16.5 99 l124 580 l272 0 l-128 -604 q-9 -42 -13.5 -78 q-4.5 -36 -4.5 -67 q0 -75 36.5 -115 q36.5 -40 112.5 -46 l287 1348 l264 0 l-285 -1345 q74 6 130.5 56 q56.5 50 97 134.5 q40.5 84.5 65.5 196.5 q25 112 37 244.5 q12 132.5 13 275.5 l270 0 q-1 -164 -15.5 -325 q-14.5 -161 -53.5 -303.5 q-39 -142.5 -113 -254 q-74 -111.5 -191.5 -179.5 q-117.5 -68 -289.5 -77 l-99 -470 l-265 0 Z" /><glyph glyph-name="omega" unicode="&#x3c9;" d="M356 -20 q-150 0 -222 100 q-72 100 -72 266 q0 128 32.5 262 q32.5 134 88 264 q55.5 130 121.5 245 l275 0 q-71 -123 -127.5 -255.5 q-56.5 -132.5 -89 -262 q-32.5 -129.5 -32.5 -246.5 q0 -67 22 -104 q22 -37 65 -37 q66 0 100 67 q34 67 62 201 l60 280 l262 0 l-60 -280 q-7 -34 -12 -63.5 q-5 -29.5 -8 -54.5 q-3 -25 -3 -45 q0 -51 18.5 -78 q18.5 -27 58.5 -27 q47 0 85.5 44 q38.5 44 67 116 q28.5 72 47.5 159.5 q19 87.5 28.5 176 q9.5 88.5 9.5 163.5 q0 76 -5 134.5 q-5 58.5 -16 111.5 l268 0 q7 -44 12.5 -104.5 q5.5 -60.5 5.5 -130.5 q0 -128 -18 -257 q-18 -129 -55.5 -244.5 q-37.5 -115.5 -96.5 -206 q-59 -90.5 -142.5 -142.5 q-83.5 -52 -192.5 -52 q-79 0 -128.5 26.5 q-49.5 26.5 -76 70 q-26.5 43.5 -36.5 95.5 q-49 -90 -120.5 -141 q-71.5 -51 -175.5 -51 Z" /><glyph glyph-name="uni0402" unicode="&#x402;" d="M766 -20 q-42 0 -87 8 q-45 8 -80 23 l22 236 q32 -16 58.5 -22.5 q26.5 -6.5 48.5 -6.5 q39 0 65.5 17 q26.5 17 43.5 51.5 q17 34.5 28 86.5 l28 132 q4 20 7 42 q3 22 3 41 q0 49 -26.5 74 q-26.5 25 -89.5 25 l-165 0 l-147 -687 l-280 0 l259 1220 l-288 0 l51 242 l889 0 l-51 -242 l-321 0 l-61 -290 l179 0 q165 0 249 -80 q84 -80 84 -215 q0 -29 -3 -64.5 q-3 -35.5 -10 -70.5 l-37 -184 q-23 -116 -67 -190.5 q-44 -74.5 -117.5 -110 q-73.5 -35.5 -184.5 -35.5 Z" /><glyph glyph-name="uni0404" unicode="&#x404;" d="M551 -20 q-152 0 -252.5 63.5 q-100.5 63.5 -150.5 181.5 q-50 118 -50 283 q0 134 29.5 271.5 q29.5 137.5 87.5 264 q58 126.5 145.5 225.5 q87.5 99 203 157 q115.5 58 258.5 58 q111 0 201.5 -24 q90.5 -24 167.5 -72 l-120 -228 q-58 38 -118.5 60 q-60.5 22 -127.5 22 q-74 0 -134 -33 q-60 -33 -107.5 -87.5 q-47.5 -54.5 -81.5 -121 q-34 -66.5 -56 -135.5 l451 0 l-51 -239 l-450 0 q-3 -31 -5.5 -61 q-2.5 -30 -2.5 -58 q0 -91 22.5 -154.5 q22.5 -63.5 72.5 -96 q50 -32.5 131 -32.5 q43 0 91.5 9.5 q48.5 9.5 98.5 26.5 q50 17 97 38 l0 -245 q-53 -24 -113 -40 q-60 -16 -120.5 -24.5 q-60.5 -8.5 -116.5 -8.5 Z" /><glyph glyph-name="uni0409" unicode="&#x409;" d="M44 -18 q-34 0 -66.5 6 q-32.5 6 -58.5 15 l0 239 q22 -9 44.5 -14 q22.5 -5 44.5 -5 q37 0 68.5 15.5 q31.5 15.5 63.5 62 q32 46.5 67 139.5 q28 68 61 166 q33 98 71.5 226 q38.5 128 83 285.5 q44.5 157.5 94.5 344.5 l745 0 l-120 -563 l53 0 q144 0 237.5 -44.5 q93.5 -44.5 139 -127.5 q45.5 -83 45.5 -197 q0 -115 -36 -212 q-36 -97 -107.5 -168 q-71.5 -71 -178.5 -110.5 q-107 -39.5 -250 -39.5 l-372 0 l256 1213 l-210 0 q-33 -124 -69 -251 q-36 -127 -71.5 -244.5 q-35.5 -117.5 -67 -212 q-31.5 -94.5 -55.5 -153.5 q-57 -144 -114 -224.5 q-57 -80.5 -128 -113 q-71 -32.5 -170 -32.5 ZM1002 239 l86 0 q64 0 110 21 q46 21 75 58.5 q29 37.5 43 88 q14 50.5 14 108.5 q0 74 -42 110 q-42 36 -127 36 l-69 0 l-90 -422 Z" /><glyph glyph-name="uni040A" unicode="&#x40a;" d="M25 0 l309 1462 l281 0 l-121 -568 l328 0 l122 568 l281 0 l-119 -563 l60 0 q140 0 231.5 -44 q91.5 -44 136.5 -126 q45 -82 45 -198 q0 -120 -36.5 -218 q-36.5 -98 -109 -167.5 q-72.5 -69.5 -178.5 -107.5 q-106 -38 -244 -38 l-376 0 l139 656 l-330 0 l-139 -656 l-280 0 ZM966 239 l89 0 q81 0 133.5 35.5 q52.5 35.5 78 97 q25.5 61.5 25.5 139.5 q0 76 -43 113 q-43 37 -128 37 l-65 0 l-90 -422 Z" /><glyph glyph-name="uni040B" unicode="&#x40b;" d="M198 0 l259 1220 l-288 0 l51 242 l889 0 l-51 -242 l-321 0 l-61 -290 l172 0 q168 0 252.5 -81 q84.5 -81 84.5 -217 q0 -35 -6 -80 q-6 -45 -15 -92 l-96 -460 l-282 0 l109 508 q4 22 6.5 43.5 q2.5 21.5 2.5 33.5 q0 49 -26.5 75.5 q-26.5 26.5 -96.5 26.5 l-156 0 l-147 -687 l-280 0 Z" /><glyph glyph-name="uni040F" unicode="&#x40f;" d="M267 -425 l90 425 l-332 0 l309 1462 l282 0 l-260 -1220 l382 0 l259 1220 l280 0 l-309 -1462 l-333 0 l-91 -425 l-277 0 Z" /><glyph glyph-name="uni0411" unicode="&#x411;" d="M25 0 l309 1462 l737 0 l-50 -240 l-459 0 l-69 -323 l58 0 q144 0 237.5 -45 q93.5 -45 139 -129 q45.5 -84 45.5 -201 q0 -116 -36.5 -212 q-36.5 -96 -109 -166 q-72.5 -70 -180 -108 q-107.5 -38 -248.5 -38 l-374 0 ZM353 239 l82 0 q88 0 143.5 35 q55.5 35 82 96 q26.5 61 26.5 137 q0 79 -44 116.5 q-44 37.5 -130 37.5 l-70 0 l-90 -422 Z" /><glyph glyph-name="uni0414" unicode="&#x414;" d="M-198 -425 l141 667 l107 0 q74 119 144.5 255 q70.5 136 135.5 288.5 q65 152.5 124 322 q59 169.5 113 354.5 l702 0 l-260 -1220 l158 0 l-142 -667 l-276 0 l91 425 l-671 0 l-91 -425 l-276 0 ZM354 242 l371 0 l209 981 l-175 0 q-35 -120 -80 -248 q-45 -128 -96.5 -256.5 q-51.5 -128.5 -109.5 -250 q-58 -121.5 -119 -226.5 Z" /><glyph glyph-name="uni0416" unicode="&#x416;" d="M-131 0 l553 775 l-228 687 l282 0 l214 -692 l147 692 l271 0 l-147 -692 l489 692 l303 0 l-530 -717 l232 -745 l-293 0 l-209 732 l-155 -732 l-270 0 l154 731 l-502 -731 l-311 0 Z" /><glyph glyph-name="uni0417" unicode="&#x417;" d="M368 -20 q-125 0 -210 17.5 q-85 17.5 -151 52.5 l0 260 q74 -48 162.5 -71.5 q88.5 -23.5 177.5 -23.5 q72 0 128.5 16 q56.5 16 96.5 47.5 q40 31.5 60.5 79 q20.5 47.5 20.5 110.5 q0 95 -66.5 135.5 q-66.5 40.5 -190.5 40.5 l-132 0 l50 233 l123 0 q92 0 166 24.5 q74 24.5 117 75 q43 50.5 43 129.5 q0 63 -42 101.5 q-42 38.5 -123 38.5 q-81 0 -153 -29.5 q-72 -29.5 -142 -78.5 l-98 196 q104 71 212.5 110 q108.5 39 255.5 39 q117 0 201.5 -41.5 q84.5 -41.5 130.5 -115.5 q46 -74 47 -170 q0 -112 -46 -193 q-46 -81 -129.5 -130 q-83.5 -49 -194.5 -64 l-1 -7 q80 -12 138 -53 q58 -41 89.5 -105 q31.5 -64 31.5 -149 q0 -109 -38.5 -196.5 q-38.5 -87.5 -112 -149.5 q-73.5 -62 -180 -95.5 q-106.5 -33.5 -241.5 -33.5 Z" /><glyph glyph-name="uni0418" unicode="&#x418;" d="M25 0 l309 1462 l265 0 l-136 -635 q-11 -56 -25.5 -121 q-14.5 -65 -30.5 -130 q-16 -65 -33 -123 l9 0 l675 1009 l336 0 l-309 -1462 l-263 0 l134 633 q13 60 27.5 126 q14.5 66 31.5 134 q17 68 34 131 l-8 1 l-678 -1025 l-338 0 Z" /><glyph glyph-name="uni041A" unicode="&#x41a;" d="M25 0 l309 1462 l281 0 l-148 -692 l496 692 l311 0 l-533 -717 l238 -745 l-304 0 l-216 732 l-154 -732 l-280 0 Z" /><glyph glyph-name="uni041B" unicode="&#x41b;" d="M47 -18 q-34 0 -67 6 q-33 6 -59 15 l0 239 q22 -9 45 -14 q23 -5 46 -5 q35 0 66.5 16 q31.5 16 63.5 61 q32 45 65 133 q25 65 59 169 q34 104 75 239 q41 135 86 292.5 q45 157.5 92 328.5 l765 0 l-312 -1462 l-280 0 l258 1213 l-229 0 q-24 -91 -51.5 -191 q-27.5 -100 -57 -200 q-29.5 -100 -58.5 -192.5 q-29 -92.5 -56 -169.5 q-27 -77 -48 -131 q-54 -132 -110 -208 q-56 -76 -125.5 -107.5 q-69.5 -31.5 -167.5 -31.5 Z" /><glyph glyph-name="uni0423" unicode="&#x423;" d="M173 -19 q-51 0 -98 7.5 q-47 7.5 -86 21.5 l0 246 q38 -19 83.5 -26.5 q45.5 -7.5 81.5 -7.5 q40 0 70 13 q30 13 54 38.5 q24 25.5 46 62.5 q22 37 46 84 l-188 1042 l285 0 l89 -558 q3 -22 7 -57 q4 -35 7.5 -70 q3.5 -35 5.5 -61 q20 48 42 100 q22 52 43 97 l275 549 l304 0 l-567 -1059 q-69 -127 -137 -222 q-68 -95 -153.5 -147.5 q-85.5 -52.5 -209.5 -52.5 Z" /><glyph glyph-name="uni0426" unicode="&#x426;" d="M788 -425 l91 425 l-853 0 l310 1462 l282 0 l-260 -1220 l390 0 l260 1220 l280 0 l-261 -1226 l178 0 l-141 -661 l-276 0 Z" /><glyph glyph-name="uni0427" unicode="&#x427;" d="M642 0 l118 559 q-67 -31 -147 -56 q-80 -25 -156 -25 q-84 0 -151.5 31 q-67.5 31 -106.5 95 q-39 64 -39 161 q0 30 4 67.5 q4 37.5 13 74.5 l116 555 l280 0 l-110 -521 q-5 -30 -9 -54 q-4 -24 -4 -46 q0 -61 30.5 -90.5 q30.5 -29.5 88.5 -29.5 q63 0 123.5 21 q60.5 21 115.5 49 l143 671 l281 0 l-309 -1462 l-281 0 Z" /><glyph glyph-name="uni0428" unicode="&#x428;" d="M25 0 l309 1462 l285 0 l-260 -1220 l322 0 l260 1220 l286 0 l-260 -1220 l321 0 l259 1220 l285 0 l-309 -1462 l-1498 0 Z" /><glyph glyph-name="uni0429" unicode="&#x429;" d="M1334 -425 l92 425 l-1401 0 l309 1462 l285 0 l-260 -1220 l322 0 l260 1220 l286 0 l-260 -1220 l321 0 l260 1220 l285 0 l-261 -1226 l179 0 l-141 -661 l-276 0 Z" /><glyph glyph-name="uni042A" unicode="&#x42a;" d="M202 0 l257 1219 l-298 0 l51 243 l581 0 l-120 -563 l58 0 q144 0 237 -44.5 q93 -44.5 138.5 -128.5 q45.5 -84 45.5 -202 q0 -116 -36.5 -212 q-36.5 -96 -108.5 -165.5 q-72 -69.5 -178.5 -108 q-106.5 -38.5 -246.5 -38.5 l-380 0 ZM534 239 l82 0 q88 0 143 35 q55 35 81.5 96 q26.5 61 26.5 137 q0 79 -43 116.5 q-43 37.5 -126 37.5 l-74 0 l-90 -422 Z" /><glyph glyph-name="uni042B" unicode="&#x42b;" d="M25 0 l309 1462 l281 0 l-120 -563 l44 0 q144 0 237 -44.5 q93 -44.5 138.5 -128.5 q45.5 -84 45.5 -201 q0 -114 -36 -210 q-36 -96 -108 -166.5 q-72 -70.5 -179 -109.5 q-107 -39 -249 -39 l-363 0 ZM355 239 l66 0 q67 0 115 21 q48 21 78 58 q30 37 44.5 85.5 q14.5 48.5 14.5 103.5 q0 79 -43 116.5 q-43 37.5 -128 37.5 l-57 0 l-90 -422 ZM1045 0 l310 1462 l285 0 l-311 -1462 l-284 0 Z" /><glyph glyph-name="uni042C" unicode="&#x42c;" d="M25 0 l309 1462 l281 0 l-120 -563 l59 0 q145 0 238 -45 q93 -45 138 -128.5 q45 -83.5 45 -200.5 q0 -114 -36 -210 q-36 -96 -108 -166.5 q-72 -70.5 -178.5 -109.5 q-106.5 -39 -248.5 -39 l-379 0 ZM355 239 l81 0 q68 0 115.5 21 q47.5 21 78 58 q30.5 37 45 85.5 q14.5 48.5 14.5 103.5 q0 80 -43.5 117 q-43.5 37 -127.5 37 l-73 0 l-90 -422 Z" /><glyph glyph-name="uni042D" unicode="&#x42d;" d="M337 -20 q-103 0 -182.5 17 q-79.5 17 -145.5 55 l0 253 q54 -31 107.5 -49 q53.5 -18 104 -25.5 q50.5 -7.5 96.5 -7.5 q97 0 172.5 45.5 q75.5 45.5 131 135.5 q55.5 90 91.5 222 l-459 0 l50 239 l449 0 q4 19 5 41 q1 22 1 42 q0 97 -23.5 162 q-23.5 65 -70.5 98.5 q-47 33.5 -117 33.5 q-73 0 -132.5 -18.5 q-59.5 -18.5 -137.5 -53.5 l-72 222 q88 44 184 68 q96 24 198 24 q147 0 249.5 -61.5 q102.5 -61.5 155.5 -182 q53 -120.5 53 -295.5 q0 -130 -26 -266 q-26 -136 -80.5 -260.5 q-54.5 -124.5 -138 -223.5 q-83.5 -99 -199 -157 q-115.5 -58 -264.5 -58 Z" /><glyph glyph-name="uni042E" unicode="&#x42e;" d="M1068 -20 q-142 0 -237.5 58.5 q-95.5 58.5 -144 171 q-48.5 112.5 -48.5 274.5 q0 35 3 74.5 q3 39.5 8 80.5 l-208 0 l-136 -639 l-280 0 l309 1462 l281 0 l-123 -580 l199 0 q32 117 84.5 225.5 q52.5 108.5 128 193.5 q75.5 85 175 134.5 q99.5 49.5 225.5 49.5 q208 0 317 -128 q109 -128 109 -368 q0 -108 -17 -224 q-17 -116 -51 -229 q-34 -113 -87.5 -213 q-53.5 -100 -127 -177.5 q-73.5 -77.5 -168 -121.5 q-94.5 -44 -211.5 -44 ZM1084 225 q55 0 102.5 34.5 q47.5 34.5 87 95 q39.5 60.5 70.5 137.5 q31 77 52.5 163 q21.5 86 33 172 q11.5 86 11.5 163 q0 120 -41.5 186 q-41.5 66 -123.5 66 q-55 0 -103 -34.5 q-48 -34.5 -88 -95 q-40 -60.5 -71 -137.5 q-31 -77 -52.5 -162 q-21.5 -85 -32.5 -170 q-11 -85 -11 -160 q0 -91 19.5 -148 q19.5 -57 57 -83.5 q37.5 -26.5 89.5 -26.5 Z" /><glyph glyph-name="uni042F" unicode="&#x42f;" d="M-125 0 l464 649 q-74 49 -115.5 121 q-41.5 72 -41.5 184 q0 111 35 204 q35 93 105 161 q70 68 175 105.5 q105 37.5 244 37.5 l399 0 l-309 -1462 l-281 0 l120 567 l-86 0 l-385 -567 l-324 0 ZM640 800 l79 0 l90 426 l-95 0 q-60 0 -105.5 -20 q-45.5 -20 -75.5 -56.5 q-30 -36.5 -45.5 -84.5 q-15.5 -48 -15.5 -105 q0 -82 48.5 -121 q48.5 -39 119.5 -39 Z" /><glyph glyph-name="uni0431" unicode="&#x431;" d="M441 -20 q-108 0 -190 45 q-82 45 -128 141 q-46 96 -46 251 q0 114 17.5 241 q17.5 127 56 253 q38.5 126 101 238 q62.5 112 152.5 196.5 q90 84.5 211 127.5 q42 16 100 30.5 q58 14.5 125.5 26.5 q67.5 12 138.5 22 q71 10 140 18 l16 -242 q-61 -7 -126.5 -16 q-65.5 -9 -129.5 -19.5 q-64 -10.5 -122 -24.5 q-88 -21 -152.5 -69 q-64.5 -48 -108.5 -124 q-44 -76 -72 -184 l7 -1 q48 63 119 106.5 q71 43.5 160 43.5 q85 0 145 -39 q60 -39 91.5 -116 q31.5 -77 31.5 -192 q0 -126 -34 -252 q-34 -126 -101.5 -230.5 q-67.5 -104.5 -168 -167.5 q-100.5 -63 -233.5 -63 ZM462 208 q42 0 78.5 30 q36.5 30 65.5 80.5 q29 50.5 49.5 112.5 q20.5 62 31.5 126 q11 64 11 120 q0 64 -21.5 107 q-21.5 43 -76.5 43 q-39 0 -80.5 -26 q-41.5 -26 -76.5 -65 q-35 -39 -59 -77 q-14 -67 -22.5 -133 q-8.5 -66 -8.5 -121 q0 -62 11.5 -106.5 q11.5 -44.5 35.5 -67.5 q24 -23 62 -23 Z" /><glyph glyph-name="uni0432" unicode="&#x432;" d="M476 -20 q-124 0 -216 46.5 q-92 46.5 -142.5 137.5 q-50.5 91 -50.5 225 q0 106 21 213 q21 107 65.5 203.5 q44.5 96.5 114 171 q69.5 74.5 165.5 118 q96 43.5 220 43.5 q108 0 189 -33 q81 -33 126.5 -96.5 q45.5 -63.5 45.5 -155.5 q0 -77 -29.5 -132.5 q-29.5 -55.5 -84 -91 q-54.5 -35.5 -132.5 -54.5 l-1 -8 q69 -16 118.5 -71 q49.5 -55 49.5 -156 q0 -94 -50 -176 q-50 -82 -151.5 -133 q-101.5 -51 -257.5 -51 ZM495 179 q50 0 87 22 q37 22 58 59.5 q21 37.5 21 84.5 q0 43 -18 73 q-18 30 -56.5 45.5 q-38.5 15.5 -99.5 15.5 l-139 0 q-3 -26 -5 -49.5 q-2 -23.5 -2 -50.5 q0 -110 43.5 -155 q43.5 -45 110.5 -45 ZM389 674 l165 0 q59 0 99.5 18.5 q40.5 18.5 62 54 q21.5 35.5 21.5 85.5 q0 49 -27.5 76 q-27.5 27 -76.5 27 q-58 0 -104 -34 q-46 -34 -81 -93 q-35 -59 -59 -134 Z" /><glyph glyph-name="uni0433" unicode="&#x433;" d="M366 -20 q-96 0 -175.5 28 q-79.5 28 -127.5 93 q-48 65 -50 173 q0 83 27 143.5 q27 60.5 73 104.5 q46 44 104.5 77 q58.5 33 121.5 60 q80 33 125.5 60 q45.5 27 65 56 q19.5 29 19.5 68 q0 39 -26.5 59 q-26.5 20 -76.5 20 q-61 0 -114.5 -19.5 q-53.5 -19.5 -106.5 -47.5 l-67 197 q72 39 157 62.5 q85 23.5 179 23.5 q100 0 175 -31.5 q75 -31.5 116.5 -95 q41.5 -63.5 41.5 -161.5 q0 -81 -25.5 -140 q-25.5 -59 -71 -102 q-45.5 -43 -105.5 -76 q-60 -33 -128 -62 q-72 -32 -116 -58.5 q-44 -26.5 -64.5 -55 q-20.5 -28.5 -20.5 -67.5 q0 -44 31.5 -68.5 q31.5 -24.5 94.5 -24.5 q46 0 93.5 10.5 q47.5 10.5 93.5 28.5 q46 18 89 39 l0 -218 q-74 -38 -153.5 -57 q-79.5 -19 -178.5 -19 Z" /><glyph glyph-name="uni0434" unicode="&#x434;" d="M449 -20 q-128 0 -213 50 q-85 50 -126.5 138.5 q-41.5 88.5 -41.5 205.5 q0 97 19 194 q19 97 56 183.5 q37 86.5 93 153.5 q56 67 129.5 105.5 q73.5 38.5 164.5 38.5 q56 0 100.5 -17.5 q44.5 -17.5 78 -47 q33.5 -29.5 54.5 -65.5 l6 0 q4 28 4.5 57 q0.5 29 0.5 50 q0 169 -48.5 245 q-48.5 76 -155.5 76 q-47 0 -98.5 -14 q-51.5 -14 -100.5 -39 l-58 216 q66 31 145 46.5 q79 15.5 157 15.5 q150 0 246 -68 q96 -68 142.5 -192.5 q46.5 -124.5 46.5 -296.5 q0 -109 -13.5 -227.5 q-13.5 -118.5 -42.5 -234.5 q-29 -116 -75.5 -219 q-46.5 -103 -113 -183 q-66.5 -80 -155 -125.5 q-88.5 -45.5 -201.5 -45.5 ZM462 203 q48 0 87.5 32.5 q39.5 32.5 70 87 q30.5 54.5 53 121.5 q22.5 67 37.5 137 q15 70 23 133 q-11 34 -32.5 60.5 q-21.5 26.5 -51 42.5 q-29.5 16 -66.5 16 q-46 0 -84 -28 q-38 -28 -67 -75 q-29 -47 -49 -107 q-20 -60 -30 -125.5 q-10 -65.5 -10 -128.5 q0 -81 30.5 -123.5 q30.5 -42.5 88.5 -42.5 Z" /><glyph glyph-name="uni0436" unicode="&#x436;" d="M66 -19 q-34 0 -63.5 3.5 q-29.5 3.5 -54.5 8.5 l53 223 q15 -3 29.5 -5 q14.5 -2 34.5 -2 q56 0 100 34 q44 34 76.5 90.5 q32.5 56.5 54 125.5 q21.5 69 32 139.5 q10.5 70.5 10.5 131.5 q0 90 -31 134.5 q-31 44.5 -89 44.5 q-23 0 -45 -5.5 q-22 -5.5 -45 -13.5 l0 224 q28 10 65 16.5 q37 6.5 83 6.5 q153 0 242.5 -99.5 q89.5 -99.5 89.5 -287.5 q0 -21 -1 -43.5 q-1 -22.5 -5 -44.5 l148 0 l98 455 l263 0 l-97 -455 l138 0 q25 99 68.5 185 q43.5 86 106 151.5 q62.5 65.5 145.5 102 q83 36.5 186 36.5 q34 0 63 -3 q29 -3 54 -9 l-56 -224 q-14 4 -28.5 6 q-14.5 2 -33.5 2 q-53 0 -96.5 -32.5 q-43.5 -32.5 -76.5 -87 q-33 -54.5 -55.5 -122 q-22.5 -67.5 -33.5 -140 q-11 -72.5 -11 -140.5 q0 -88 31 -133 q31 -45 88 -45 q25 0 46.5 5.5 q21.5 5.5 45.5 13.5 l0 -225 q-28 -8 -65.5 -15 q-37.5 -7 -83.5 -7 q-102 0 -176.5 43.5 q-74.5 43.5 -115.5 129.5 q-41 86 -41 211 q0 24 2 49 q2 25 4 46 l-149 0 l-97 -460 l-263 0 l97 460 l-136 0 q-29 -113 -75.5 -202 q-46.5 -89 -110 -150.5 q-63.5 -61.5 -143.5 -94 q-80 -32.5 -176 -32.5 Z" /><glyph glyph-name="uni0437" unicode="&#x437;" d="M321 -20 q-96 0 -181.5 19 q-85.5 19 -144.5 50 l0 238 q66 -39 145 -62 q79 -23 162 -23 q65 0 114 17.5 q49 17.5 76.5 52.5 q27.5 35 27.5 89 q0 60 -38.5 90.5 q-38.5 30.5 -117.5 30.5 l-135 0 l42 198 l103 0 q68 0 117 15.5 q49 15.5 75 47 q26 31.5 26 79.5 q0 51 -29 76 q-29 25 -94 25 q-54 0 -116 -18 q-62 -18 -127 -48 l-67 198 q90 44 179.5 63.5 q89.5 19.5 187.5 19.5 q103 0 179.5 -29 q76.5 -29 119 -89 q42.5 -60 42.5 -152 q0 -76 -30.5 -131 q-30.5 -55 -83.5 -91 q-53 -36 -124 -57 l-1 -8 q78 -21 123.5 -79 q45.5 -58 45.5 -150 q0 -107 -53.5 -191 q-53.5 -84 -159 -132.5 q-105.5 -48.5 -263.5 -48.5 Z" /><glyph glyph-name="uni043A" unicode="&#x43a;" d="M13 0 l238 1117 l274 0 l-112 -522 l392 522 l307 0 l-429 -553 l222 -564 l-301 0 l-200 550 l-118 -550 l-273 0 Z" /><glyph glyph-name="uni043B" unicode="&#x43b;" d="M51 -18 q-40 0 -68 6 q-28 6 -58 18 l0 231 q18 -11 37 -14.5 q19 -3.5 39 -3.5 q34 0 61.5 23 q27.5 23 51.5 69.5 q24 46.5 46.5 117 q22.5 70.5 46.5 165.5 q38 138 82 239.5 q44 101.5 106 168.5 q62 67 153.5 100 q91.5 33 224.5 33 q91 0 167 -12 q76 -12 141 -27 l-230 -1096 l-273 0 l190 899 q-11 3 -24 4 q-13 1 -27 1 q-71 0 -116 -44 q-45 -44 -79 -135 q-34 -91 -72 -232 q-29 -106 -61 -198.5 q-32 -92.5 -76 -162.5 q-44 -70 -107 -110 q-63 -40 -155 -40 Z" /><glyph glyph-name="uni043C" unicode="&#x43c;" d="M16 0 l236 1117 l373 0 l21 -747 l5 0 l351 747 l385 0 l-238 -1117 l-256 0 l117 540 q16 67 31 129.5 q15 62.5 28 112.5 l-4 0 l-373 -782 l-237 0 l-28 782 l-3 0 q-10 -66 -20 -123 q-10 -57 -22 -116 l-112 -543 l-254 0 Z" /><glyph glyph-name="uni043D" unicode="&#x43d;" d="M12 0 l239 1117 l275 0 l-94 -433 l289 0 l91 433 l274 0 l-238 -1117 l-272 0 l98 465 l-289 0 l-98 -465 l-275 0 Z" /><glyph glyph-name="uni0444" unicode="&#x444;" d="M350 -492 l103 484 q-126 14 -212.5 71 q-86.5 57 -130.5 151 q-44 94 -44 219 q0 91 22 185.5 q22 94.5 68.5 182.5 q46.5 88 120.5 159 q74 71 177 115 q103 44 238 49 l90 432 l264 0 l-91 -434 q185 -24 283 -135.5 q98 -111.5 98 -304.5 q0 -87 -20.5 -180 q-20.5 -93 -65 -181 q-44.5 -88 -117 -160 q-72.5 -72 -176.5 -118.5 q-104 -46.5 -244 -55.5 l-99 -479 l-264 0 ZM497 214 l147 689 q-80 -5 -137 -51 q-57 -46 -93.5 -116 q-36.5 -70 -53.5 -149 q-17 -79 -17 -151 q0 -56 17 -103.5 q17 -47.5 51 -78.5 q34 -31 86 -40 ZM762 214 q68 6 118 41 q50 35 84.5 87.5 q34.5 52.5 55.5 114 q21 61.5 30.5 121.5 q9.5 60 9.5 108 q0 54 -17 99.5 q-17 45.5 -50.5 76 q-33.5 30.5 -85.5 39.5 l-145 -687 Z" /><glyph glyph-name="uni0446" unicode="&#x446;" d="M635 -400 l91 407 q-28 14 -47.5 35.5 q-19.5 21.5 -30.5 51 q-11 29.5 -17 65.5 l-7 0 q-38 -56 -83 -96 q-45 -40 -97.5 -61.5 q-52.5 -21.5 -113.5 -21.5 q-82 0 -139 33 q-57 33 -86 96 q-29 63 -29 151 q0 36 7.5 89.5 q7.5 53.5 18.5 106.5 l140 661 l272 0 l-138 -658 q-9 -40 -14 -76 q-5 -36 -5 -64 q0 -53 21 -80 q21 -27 67 -27 q58 0 103.5 50 q45.5 50 80 136 q34.5 86 56.5 195 l113 524 l272 0 l-160 -754 q-5 -25 -8.5 -47 q-3.5 -22 -3.5 -39 q0 -31 16 -44 q16 -13 40 -13 q17 0 35.5 3 q18.5 3 37.5 9 l-134 -632 l-258 0 Z" /><glyph glyph-name="uni0447" unicode="&#x447;" d="M544 0 l70 328 q7 36 17.5 74.5 q10.5 38.5 21.5 73.5 l-7 0 q-33 -40 -74 -69.5 q-41 -29.5 -88 -45.5 q-47 -16 -98 -16 q-78 0 -134 36.5 q-56 36.5 -85 99.5 q-29 63 -29 143 q0 45 7.5 103.5 q7.5 58.5 21.5 119.5 l58 270 l273 0 l-62 -292 q-8 -40 -14 -75.5 q-6 -35.5 -6 -68.5 q0 -49 24.5 -77 q24.5 -28 68.5 -28 q57 0 99.5 37 q42.5 37 75 113.5 q32.5 76.5 56.5 194.5 l42 196 l273 0 l-238 -1117 l-273 0 Z" /><glyph glyph-name="uni0448" unicode="&#x448;" d="M320 -20 q-120 0 -182 74 q-62 74 -62 203 q0 36 6 82 q6 46 17 95 l144 683 l273 0 l-139 -660 q-10 -41 -14.5 -75.5 q-4.5 -34.5 -4.5 -60.5 q0 -56 20.5 -82.5 q20.5 -26.5 62.5 -26.5 q59 0 103 51.5 q44 51.5 75.5 134 q31.5 82.5 50.5 172.5 l116 547 l273 0 l-140 -665 q-9 -39 -14 -73.5 q-5 -34.5 -5 -59.5 q0 -54 20.5 -80.5 q20.5 -26.5 60.5 -26.5 q45 0 82.5 31.5 q37.5 31.5 66 85 q28.5 53.5 50.5 120.5 q22 67 37 138 l113 530 l273 0 l-238 -1117 l-212 0 l16 168 l-9 0 q-36 -56 -80.5 -98.5 q-44.5 -42.5 -98 -66 q-53.5 -23.5 -116.5 -23.5 q-50 0 -89 12.5 q-39 12.5 -67.5 36 q-28.5 23.5 -47.5 57.5 q-19 34 -30 78 l-6 0 q-38 -54 -84.5 -95.5 q-46.5 -41.5 -102 -65 q-55.5 -23.5 -118.5 -23.5 Z" /><glyph glyph-name="uni0449" unicode="&#x449;" d="M1165 -400 l93 407 q-30 15 -49.5 36.5 q-19.5 21.5 -30.5 50 q-11 28.5 -16 63.5 l-8 0 q-36 -55 -80.5 -94 q-44.5 -39 -96.5 -61 q-52 -22 -112 -22 q-100 0 -156 48 q-56 48 -78 136 l-6 0 q-38 -54 -84.5 -95.5 q-46.5 -41.5 -102 -65 q-55.5 -23.5 -118.5 -23.5 q-120 0 -182 74 q-62 74 -62 203 q0 36 6 82 q6 46 17 95 l144 683 l273 0 l-139 -660 q-10 -41 -14.5 -75.5 q-4.5 -34.5 -4.5 -60.5 q0 -56 20.5 -82.5 q20.5 -26.5 62.5 -26.5 q59 0 103 51.5 q44 51.5 75.5 134 q31.5 82.5 50.5 172.5 l116 547 l273 0 l-140 -665 q-9 -39 -14 -73.5 q-5 -34.5 -5 -59.5 q0 -54 20.5 -80.5 q20.5 -26.5 60.5 -26.5 q45 0 82.5 31.5 q37.5 31.5 66 85 q28.5 53.5 50.5 120.5 q22 67 37 138 l113 530 l273 0 l-163 -769 q-5 -19 -7.5 -38.5 q-2.5 -19.5 -2.5 -32.5 q0 -31 15.5 -44 q15.5 -13 39.5 -13 q17 0 35 3 q18 3 39 9 l-134 -632 l-260 0 Z" /><glyph glyph-name="uni044A" unicode="&#x44a;" d="M597 -20 q-122 0 -198 37.5 q-76 37.5 -110.5 103.5 q-34.5 66 -34.5 154 q0 37 6.5 80 q6.5 43 17.5 92 l96 446 l-283 0 l48 224 l556 0 l-97 -448 q29 7 67.5 10.5 q38.5 3.5 84.5 3.5 q108 0 181 -35.5 q73 -35.5 110 -101.5 q37 -66 37 -158 q0 -110 -50.5 -203 q-50.5 -93 -157 -149 q-106.5 -56 -273.5 -56 ZM635 179 q40 0 70.5 15.5 q30.5 15.5 51.5 41 q21 25.5 32 59 q11 33.5 11 69.5 q0 38 -12.5 65 q-12.5 27 -39.5 41 q-27 14 -72 14 q-25 0 -55.5 -4 q-30.5 -4 -63.5 -10 q-17 -77 -24 -116.5 q-7 -39.5 -7 -65.5 q0 -43 23.5 -76 q23.5 -33 85.5 -33 Z" /><glyph glyph-name="uni044B" unicode="&#x44b;" d="M413 -20 q-115 0 -190 34.5 q-75 34.5 -111 100.5 q-36 66 -36 159 q0 27 4.5 70 q4.5 43 15.5 98 l146 675 l273 0 l-96 -448 q27 6 64.5 10 q37.5 4 80.5 4 q97 0 165.5 -34.5 q68.5 -34.5 105.5 -99.5 q37 -65 37 -158 q0 -118 -52 -211 q-52 -93 -154.5 -146.5 q-102.5 -53.5 -252.5 -53.5 ZM441 179 q35 0 63 14.5 q28 14.5 48.5 40 q20.5 25.5 31 59.5 q10.5 34 10.5 73 q0 40 -12.5 66 q-12.5 26 -37.5 39 q-25 13 -62 13 q-24 0 -50 -4 q-26 -4 -55 -10 q-17 -77 -23.5 -116 q-6.5 -39 -6.5 -68 q0 -49 24 -78 q24 -29 70 -29 ZM934 0 l238 1117 l273 0 l-238 -1117 l-273 0 Z" /><glyph glyph-name="uni044C" unicode="&#x44c;" d="M417 -20 q-115 0 -191 34.5 q-76 34.5 -113.5 100.5 q-37.5 66 -37.5 160 q0 32 5 72 q5 40 16 92 l146 678 l273 0 l-96 -449 q29 8 67 11.5 q38 3.5 85 3.5 q110 0 183 -36.5 q73 -36.5 109 -102.5 q36 -66 36 -156 q0 -116 -52.5 -208.5 q-52.5 -92.5 -159.5 -146 q-107 -53.5 -270 -53.5 ZM455 179 q40 0 71 15 q31 15 52 40.5 q21 25.5 32 58.5 q11 33 11 71 q0 38 -12.5 65 q-12.5 27 -39.5 41 q-27 14 -72 14 q-25 0 -56.5 -4 q-31.5 -4 -63.5 -10 q-17 -76 -24.5 -117 q-7.5 -41 -7.5 -65 q0 -41 23.5 -75 q23.5 -34 86.5 -34 Z" /><glyph glyph-name="uni044D" unicode="&#x44d;" d="M234 -20 q-70 0 -129.5 12.5 q-59.5 12.5 -104.5 37.5 l0 243 q48 -31 104.5 -50 q56.5 -19 117.5 -19 q70 0 122 31.5 q52 31.5 88 90.5 q36 59 57 141 l-318 0 l42 196 l307 0 q3 16 4.5 35.5 q1.5 19.5 1.5 36.5 q0 64 -18.5 103 q-18.5 39 -51 57.5 q-32.5 18.5 -74.5 18.5 q-46 0 -89 -13.5 q-43 -13.5 -90 -39.5 l-68 201 q63 34 143.5 55 q80.5 21 169.5 21 q104 0 184 -42.5 q80 -42.5 125.5 -130.5 q45.5 -88 45.5 -223 q0 -109 -20.5 -218 q-20.5 -109 -63.5 -206.5 q-43 -97.5 -110 -173.5 q-67 -76 -160.5 -120 q-93.5 -44 -214.5 -44 Z" /><glyph glyph-name="uni044E" unicode="&#x44e;" d="M909 -20 q-170 0 -263 103 q-93 103 -93 290 q0 23 1 45.5 q1 22.5 4 46.5 l-173 0 l-98 -465 l-275 0 l239 1117 l274 0 l-93 -433 l164 0 q27 94 70.5 176.5 q43.5 82.5 104.5 145 q61 62.5 140 97.5 q79 35 177 35 q114 0 193 -48 q79 -48 120 -138 q41 -90 41 -216 q0 -102 -19.5 -208 q-19.5 -106 -60.5 -204 q-41 -98 -104 -175.5 q-63 -77.5 -150 -123 q-87 -45.5 -199 -45.5 ZM931 207 q42 0 78.5 33.5 q36.5 33.5 65.5 90.5 q29 57 49.5 126.5 q20.5 69.5 31.5 142 q11 72.5 11 136.5 q0 81 -24.5 127.5 q-24.5 46.5 -83.5 46.5 q-45 0 -82.5 -36.5 q-37.5 -36.5 -66.5 -96 q-29 -59.5 -49 -130.5 q-20 -71 -30.5 -142.5 q-10.5 -71.5 -10.5 -131.5 q0 -82 27.5 -124 q27.5 -42 83.5 -42 Z" /><glyph glyph-name="uni044F" unicode="&#x44f;" d="M75 -17 q-40 0 -72 5.5 q-32 5.5 -55 13.5 l0 222 q13 -5 30 -8.5 q17 -3.5 34 -3.5 q27 0 48 10 q21 10 37.5 30.5 q16.5 20.5 29.5 51.5 q28 62 52.5 102.5 q24.5 40.5 53.5 65.5 q29 25 69 37 q-39 19 -69.5 47.5 q-30.5 28.5 -48 72.5 q-17.5 44 -17.5 107 q0 98 35 169.5 q35 71.5 97 118.5 q62 47 145 70 q83 23 180 23 l407 0 l-235 -1117 l-274 0 l92 430 l-51 0 q-51 0 -83 -28 q-32 -28 -60 -84.5 q-28 -56.5 -67 -142.5 q-29 -65 -68 -107.5 q-39 -42.5 -90.5 -63.5 q-51.5 -21 -119.5 -21 ZM578 617 l77 0 l63 303 l-97 0 q-55 0 -94 -25 q-39 -25 -59.5 -66.5 q-20.5 -41.5 -20.5 -91.5 q0 -54 30.5 -87 q30.5 -33 100.5 -33 Z" /><glyph glyph-name="uni0452" unicode="&#x452;" d="M445 -489 q-41 0 -80 5 q-39 5 -72 16 l0 230 q26 -10 53.5 -15 q27.5 -5 51.5 -5 q42 0 72 21 q30 21 50 62 q20 41 32 100 l147 694 q8 37 13 70.5 q5 33.5 5 63.5 q0 51 -21.5 78.5 q-21.5 27.5 -65.5 27.5 q-56 0 -101 -44 q-45 -44 -78.5 -125.5 q-33.5 -81.5 -57.5 -193.5 l-107 -496 l-273 0 l254 1203 l-135 0 l40 190 l136 0 l34 163 l274 0 l-35 -163 l242 0 l-40 -190 l-241 0 l-13 -61 q-14 -68 -30.5 -117.5 q-16.5 -49.5 -32.5 -89.5 l7 0 q36 49 76.5 84 q40.5 35 89.5 54 q49 19 108 19 q82 0 137.5 -34.5 q55.5 -34.5 84 -97.5 q28.5 -63 28.5 -150 q0 -35 -5.5 -80 q-5.5 -45 -15.5 -92 l-157 -743 q-24 -116 -67 -202.5 q-43 -86.5 -116.5 -134 q-73.5 -47.5 -190.5 -47.5 Z" /><glyph glyph-name="uni0454" unicode="&#x454;" d="M423 -20 q-105 0 -185.5 41.5 q-80.5 41.5 -126 126 q-45.5 84.5 -45.5 213.5 q0 106 20 216 q20 110 62 210.5 q42 100.5 108 179.5 q66 79 157 125 q91 46 210 46 q84 0 155 -18 q71 -18 131 -53 l-96 -208 q-41 23 -87.5 39 q-46.5 16 -96.5 16 q-58 0 -106 -35 q-48 -35 -83 -91.5 q-35 -56.5 -55 -124.5 l314 0 l-41 -196 l-310 0 q-2 -20 -3 -41 q-1 -21 -1 -41 q0 -63 17 -103 q17 -40 48.5 -59 q31.5 -19 74.5 -19 q61 0 120.5 21 q59.5 21 121.5 59 l0 -225 q-60 -35 -139 -57 q-79 -22 -164 -22 Z" /><glyph glyph-name="uni0459" unicode="&#x459;" d="M966 -20 q-123 0 -198 37 q-75 37 -108.5 103 q-33.5 66 -33.5 155 q0 35 5 76 q5 41 17 87 l101 463 q-9 2 -19.5 2.5 q-10.5 0.5 -20.5 0.5 q-72 0 -117 -46 q-45 -46 -77 -136.5 q-32 -90.5 -68 -223.5 q-29 -110 -60.5 -203.5 q-31.5 -93.5 -75 -164 q-43.5 -70.5 -107 -109.5 q-63.5 -39 -156.5 -39 q-40 0 -66.5 6 q-26.5 6 -56.5 18 l0 231 q18 -11 39 -14.5 q21 -3.5 37 -3.5 q36 0 63 23 q27 23 49 68 q22 45 42 111 q20 66 43 152 q38 146 82 252 q44 106 104.5 174.5 q60.5 68.5 148.5 102 q88 33.5 214 33.5 q86 0 164 -10.5 q78 -10.5 149 -28.5 l-92 -427 q29 6 67 10 q38 4 85 4 q107 0 180 -35.5 q73 -35.5 110 -101.5 q37 -66 37 -158 q0 -111 -51.5 -204 q-51.5 -93 -158 -148.5 q-106.5 -55.5 -271.5 -55.5 ZM1004 179 q41 0 71.5 16 q30.5 16 51.5 42 q21 26 31.5 59 q10.5 33 10.5 68 q0 38 -12.5 65 q-12.5 27 -39.5 41 q-27 14 -72 14 q-25 0 -55.5 -4 q-30.5 -4 -62.5 -10 q-18 -80 -25 -119 q-7 -39 -7 -63 q0 -47 25 -78 q25 -31 84 -31 Z" /><glyph glyph-name="uni045A" unicode="&#x45a;" d="M963 -20 q-123 0 -198.5 37.5 q-75.5 37.5 -109.5 103.5 q-34 66 -34 154 q0 24 3 52.5 q3 28.5 9 63.5 q6 35 15 77 l-255 0 l-100 -468 l-275 0 l239 1117 l275 0 l-92 -431 l256 0 l92 431 l272 0 l-95 -448 q28 7 66 11 q38 4 85 4 q107 0 180 -36 q73 -36 110.5 -102 q37.5 -66 37.5 -158 q0 -111 -51.5 -204 q-51.5 -93 -158 -148.5 q-106.5 -55.5 -271.5 -55.5 ZM1001 179 q41 0 72 16.5 q31 16.5 51.5 43 q20.5 26.5 31 59.5 q10.5 33 10.5 66 q0 38 -13 65 q-13 27 -40 41.5 q-27 14.5 -71 14.5 q-25 0 -55.5 -4 q-30.5 -4 -62.5 -11 q-19 -77 -26 -116 q-7 -39 -7 -66 q0 -47 25.5 -78 q25.5 -31 84.5 -31 Z" /><glyph glyph-name="uni045F" unicode="&#x45f;" d="M331 -20 q-84 0 -140.5 34 q-56.5 34 -85.5 97 q-29 63 -29 149 q0 37 7.5 89.5 q7.5 52.5 17.5 104.5 l141 663 l272 0 l-138 -658 q-9 -40 -14 -76.5 q-5 -36.5 -5 -65.5 q0 -52 21.5 -78.5 q21.5 -26.5 66.5 -26.5 q58 0 103.5 50 q45.5 50 80 136 q34.5 86 56.5 195 l113 524 l272 0 l-236 -1117 l-212 0 l14 171 l-7 0 q-37 -57 -82.5 -100 q-45.5 -43 -99 -67 q-53.5 -24 -116.5 -24 ZM190 -483 l86 346 l231 85 l43 0 l-101 -431 l-259 0 Z" /><glyph glyph-name="uni0490" unicode="&#x490;" d="M24 0 l310 1462 l465 0 l66 310 l261 0 l-116 -549 l-448 1 l-260 -1224 l-278 0 Z" /><glyph glyph-name="uni0491" unicode="&#x491;" d="M10 0 l237 1117 l382 0 l65 305 l257 0 l-113 -534 l-367 0 l-188 -888 l-273 0 Z" /><glyph glyph-name="endash" unicode="&#x2013;" d="M39 443 l47 218 l836 0 l-47 -218 l-836 0 Z" /><glyph glyph-name="emdash" unicode="&#x2014;" d="M39 443 l47 218 l1788 0 l-46 -218 l-1789 0 Z" /><glyph glyph-name="underscoredbl" unicode="&#x2017;" d="M-158 -215 l30 136 l855 0 l-29 -136 l-856 0 ZM-211 -476 l30 136 l855 0 l-30 -136 l-855 0 Z" /><glyph glyph-name="quoteleft" unicode="&#x2018;" d="M129 941 l-7 21 q34 85 74.5 171.5 q40.5 86.5 85.5 170.5 q45 84 91 158 l213 0 q-24 -56 -50.5 -124 q-26.5 -68 -53 -140 q-26.5 -72 -49.5 -138.5 q-23 -66.5 -39 -118.5 l-265 0 Z" /><glyph glyph-name="quoteright" unicode="&#x2019;" d="M115 941 q36 84 70 173.5 q34 89.5 65.5 178 q31.5 88.5 56.5 169.5 l265 0 l6 -21 q-33 -83 -73.5 -170 q-40.5 -87 -85.5 -170.5 q-45 -83.5 -91 -159.5 l-213 0 Z" /><glyph glyph-name="quotesinglbase" unicode="&#x201a;" d="M-105 -270 q33 80 68.5 172.5 q35.5 92.5 68 183.5 q32.5 91 55.5 166 l265 0 l6 -22 q-33 -83 -73.5 -170 q-40.5 -87 -85.5 -170.5 q-45 -83.5 -91 -159.5 l-213 0 Z" /><glyph glyph-name="quotereversed" unicode="&#x201b;" d="M281 941 q-15 73 -27.5 157 q-12.5 84 -20.5 171 q-8 87 -11 169 l16 24 l255 0 q-5 -60 -7.5 -129.5 q-2.5 -69.5 -2.5 -140.5 q0 -71 2 -135.5 q2 -64.5 6 -115.5 l-210 0 Z" /><glyph glyph-name="quotedblleft" unicode="&#x201c;" d="M558 941 l-7 21 q34 85 74.5 171.5 q40.5 86.5 85 170.5 q44.5 84 90.5 158 l214 0 q-35 -83 -70 -174 q-35 -91 -66.5 -180 q-31.5 -89 -57.5 -167 l-263 0 ZM131 941 l-7 21 q34 85 75 172 q41 87 86 171 q45 84 90 157 l213 0 q-24 -56 -51 -124.5 q-27 -68.5 -53 -140 q-26 -71.5 -49 -138 q-23 -66.5 -39 -118.5 l-265 0 Z" /><glyph glyph-name="quotedblright" unicode="&#x201d;" d="M541 941 q36 83 70.5 172 q34.5 89 66 178 q31.5 89 57.5 171 l263 0 l7 -21 q-33 -83 -73.5 -170 q-40.5 -87 -85.5 -170.5 q-45 -83.5 -91 -159.5 l-214 0 ZM114 941 q35 83 69.5 172 q34.5 89 66 178 q31.5 89 56.5 171 l265 0 l6 -21 q-33 -83 -73.5 -170 q-40.5 -87 -85.5 -170.5 q-45 -83.5 -91 -159.5 l-213 0 Z" /><glyph glyph-name="quotedblbase" unicode="&#x201e;" d="M314 -271 q33 79 68 172.5 q35 93.5 68 185 q33 91.5 56 165.5 l263 0 l8 -22 q-33 -83 -74 -170 q-41 -87 -85.5 -171 q-44.5 -84 -91.5 -160 l-212 0 ZM-115 -271 q34 82 69.5 174.5 q35.5 92.5 67 183.5 q31.5 91 55.5 165 l264 0 l6 -22 q-32 -83 -72.5 -170 q-40.5 -87 -85.5 -171 q-45 -84 -91 -160 l-213 0 Z" /><glyph glyph-name="dagger" unicode="&#x2020;" d="M209 0 l252 964 l-287 -29 l50 230 l275 -29 l42 420 l265 0 l-136 -420 l298 29 l-48 -230 l-287 30 l-159 -965 l-265 0 Z" /><glyph glyph-name="daggerdbl" unicode="&#x2021;" d="M214 0 l128 381 l-297 -30 l50 231 l283 -28 l12 231 l85 218 l-297 -28 l50 230 l284 -28 l34 379 l265 0 l-129 -379 l299 28 l-49 -230 l-287 28 l-7 -217 l-89 -232 l299 28 l-49 -231 l-286 30 l-34 -381 l-265 0 Z" /><glyph glyph-name="bullet" unicode="&#x2022;" d="M422 430 q-128 0 -208 78 q-80 78 -80 240 q0 109 36 179 q36 70 100.5 104 q64.5 34 151.5 34 q86 0 151 -34 q65 -34 101 -104 q36 -70 36 -179 q0 -107 -36.5 -177.5 q-36.5 -70.5 -101.5 -105.5 q-65 -35 -150 -35 Z" /><glyph glyph-name="perthousand" unicode="&#x2030;" d="M241 0 l940 1462 l215 0 l-938 -1462 l-217 0 ZM356 565 q-119 0 -182 75.5 q-63 75.5 -63 220.5 q0 70 13.5 153.5 q13.5 83.5 43 166 q29.5 82.5 76 151 q46.5 68.5 112.5 110 q66 41.5 153 41.5 q116 0 182 -73.5 q66 -73.5 66 -221.5 q0 -67 -13.5 -149.5 q-13.5 -82.5 -43 -165.5 q-29.5 -83 -76.5 -152.5 q-47 -69.5 -113 -112.5 q-66 -43 -155 -43 ZM377 756 q29 0 54.5 31 q25.5 31 45.5 81.5 q20 50.5 34 110 q14 59.5 21.5 117 q7.5 57.5 7.5 100.5 q0 49 -12.5 72 q-12.5 23 -38.5 23 q-29 0 -53.5 -30.5 q-24.5 -30.5 -45 -79.5 q-20.5 -49 -35 -108 q-14.5 -59 -22 -117 q-7.5 -58 -7.5 -105 q0 -48 13 -71.5 q13 -23.5 38 -23.5 ZM1137 -18 q-123 0 -186 73 q-63 73 -63 213 q0 84 15.5 172.5 q15.5 88.5 46.5 170.5 q31 82 78 147 q47 65 111.5 103 q64.5 38 146.5 38 q116 0 181.5 -72 q65.5 -72 65.5 -218 q0 -70 -13.5 -154 q-13.5 -84 -43 -167 q-29.5 -83 -76 -152.5 q-46.5 -69.5 -112 -111.5 q-65.5 -42 -151.5 -42 ZM1154 173 q30 0 55 31 q25 31 45 81 q20 50 34.5 109 q14.5 59 21.5 116.5 q7 57.5 7 102.5 q0 48 -13 71 q-13 23 -39 23 q-30 0 -55 -31.5 q-25 -31.5 -44.5 -82 q-19.5 -50.5 -33.5 -110 q-14 -59.5 -21.5 -116.5 q-7.5 -57 -7.5 -99 q0 -48 13 -71.5 q13 -23.5 38 -23.5 ZM1821 -18 q-123 0 -186 73 q-63 73 -63 213 q0 84 15.5 172.5 q15.5 88.5 46.5 170.5 q31 82 78 147 q47 65 111.5 103 q64.5 38 145.5 38 q116 0 182 -72 q66 -72 66 -218 q0 -70 -13.5 -154 q-13.5 -84 -43 -167 q-29.5 -83 -76 -152.5 q-46.5 -69.5 -112 -111.5 q-65.5 -42 -151.5 -42 ZM1838 173 q30 0 55 31 q25 31 45 81 q20 50 34 109 q14 59 21.5 116.5 q7.5 57.5 7.5 102.5 q0 48 -13 71 q-13 23 -39 23 q-29 0 -54.5 -31.5 q-25.5 -31.5 -45 -82 q-19.5 -50.5 -33.5 -110 q-14 -59.5 -21.5 -116.5 q-7.5 -57 -7.5 -99 q0 -48 13 -71.5 q13 -23.5 38 -23.5 Z" /><glyph glyph-name="minute" unicode="&#x2032;" d="M116 959 l268 503 l272 0 l-334 -503 l-206 0 Z" /><glyph glyph-name="guilsinglleft" unicode="&#x2039;" d="M263 91 l-205 456 l1 21 l376 455 l183 -132 l-277 -345 l145 -360 l-223 -95 Z" /><glyph glyph-name="guilsinglright" unicode="&#x203a;" d="M175 91 l-182 132 l276 346 l-144 359 l221 95 l207 -456 l-2 -21 l-376 -455 Z" /><glyph glyph-name="fraction" unicode="&#x2044;" d="M-503 0 l1050 1462 l216 0 l-1050 -1462 l-216 0 Z" /><glyph glyph-name="uni207F" unicode="&#x207f;" d="M117 588 l154 671 l139 0 l-10 -104 l4 0 q24 35 53 61 q29 26 64 40.5 q35 14.5 76 14.5 q75 0 121 -42 q46 -42 46 -126 q0 -22 -4.5 -50 q-4.5 -28 -11.5 -60 l-92 -405 l-178 0 l90 393 q5 24 9 47 q4 23 4 40 q0 32 -14 47.5 q-14 15.5 -44 15.5 q-38 0 -67.5 -30 q-29.5 -30 -51.5 -81 q-22 -51 -38 -116 l-71 -316 l-178 0 Z" /><glyph glyph-name="franc" unicode="&#x20a3;" d="M84 0 l53 254 l-138 0 l39 184 l138 0 l218 1024 l702 0 l-49 -238 l-426 0 l-76 -357 l395 0 l-51 -238 l-395 0 l-41 -191 l241 0 l-38 -184 l-242 0 l-52 -254 l-278 0 Z" /><glyph glyph-name="afii08941" unicode="&#x20a4;" d="M-24 0 l48 229 q56 22 95 52 q39 30 66 77.5 q27 47.5 44 118.5 l-163 0 l37 171 l161 0 l30 134 l-164 0 l37 169 l163 0 l28 145 q27 127 84 213.5 q57 86.5 144 130.5 q87 44 201 44 q92 0 174 -23.5 q82 -23.5 143 -61.5 l-109 -218 q-47 29 -96.5 46.5 q-49.5 17.5 -98.5 17.5 q-71 0 -111 -45 q-40 -45 -58 -130 l-24 -119 l284 0 l-37 -169 l-284 0 l-28 -134 l285 0 l-37 -171 l-285 0 q-16 -66 -41.5 -111 q-25.5 -45 -60.5 -74 q-35 -29 -81 -49 l566 0 l-51 -243 l-861 0 Z" /><glyph glyph-name="peseta" unicode="&#x20a7;" d="M20 0 l311 1462 l280 0 q136 0 228.5 -43.5 q92.5 -43.5 140 -126 q47.5 -82.5 47.5 -199.5 q0 -119 -37 -222 q-37 -103 -108.5 -181 q-71.5 -78 -177 -122 q-105.5 -44 -242.5 -44 l-64 0 l-111 -524 l-267 0 ZM448 763 l36 0 q64 0 114 22.5 q50 22.5 85 63.5 q35 41 53 98 q18 57 18 127 q0 73 -40.5 111.5 q-40.5 38.5 -121.5 38.5 l-46 0 l-98 -461 ZM1202 -20 q-113 0 -175.5 61 q-62.5 61 -62.5 172 q0 30 5.5 66 q5.5 36 14.5 83 l60 278 l-106 0 l23 102 l144 103 l118 245 l167 0 l-53 -247 l208 0 l-44 -203 l-208 0 l-65 -305 q-4 -17 -6 -34 q-2 -17 -2 -31 q0 -34 18 -52 q18 -18 53 -18 q28 0 58.5 8.5 q30.5 8.5 67.5 24.5 l0 -205 q-45 -22 -99 -35 q-54 -13 -116 -13 Z" /><glyph glyph-name="Euro" unicode="&#x20ac;" d="M560 -20 q-141 0 -227.5 55.5 q-86.5 55.5 -125.5 167.5 q-39 112 -39 280 l-137 0 l35 166 l118 0 q2 21 6 44.5 q4 23.5 8.5 47.5 q4.5 24 9.5 43 l-116 0 l36 164 l124 0 q55 167 136 287.5 q81 120.5 191 184.5 q110 64 251 64 q94 0 168.5 -24 q74.5 -24 139.5 -71 l-121 -213 q-50 33 -93.5 53 q-43.5 20 -101.5 20 q-68 0 -122.5 -39 q-54.5 -39 -96 -107 q-41.5 -68 -72.5 -155 l312 0 l-36 -164 l-321 0 q-6 -20 -10.5 -43 q-4.5 -23 -8.5 -46 q-4 -23 -7 -46 l270 0 l-35 -166 l-253 0 q0 -88 15 -146.5 q15 -58.5 50.5 -87 q35.5 -28.5 95.5 -28.5 q67 0 123 15.5 q56 15.5 119 44.5 l24 -232 q-60 -31 -140.5 -50 q-80.5 -19 -168.5 -19 Z" /><glyph glyph-name="uni2105" unicode="&#x2105;" d="M105 0 l981 1462 l210 0 l-980 -1462 l-211 0 ZM956 -19 q-115 0 -179 68 q-64 68 -64 192 q0 89 23 172.5 q23 83.5 68 150 q45 66.5 111 105.5 q66 39 152 39 q119 0 181 -72.5 q62 -72.5 62 -192.5 q0 -87 -23 -169 q-23 -82 -67 -148.5 q-44 -66.5 -110.5 -105.5 q-66.5 -39 -153.5 -39 ZM972 139 q36 0 63.5 32 q27.5 32 45.5 81.5 q18 49.5 27 103.5 q9 54 9 97 q0 48 -16.5 73 q-16.5 25 -48.5 25 q-36 0 -64 -32 q-28 -32 -46.5 -82 q-18.5 -50 -28 -103 q-9.5 -53 -9.5 -95 q0 -49 17.5 -74.5 q17.5 -25.5 50.5 -25.5 ZM389 753 q-115 0 -178.5 67 q-63.5 67 -63.5 192 q0 90 24 174 q24 84 70 150.5 q46 66.5 113 105 q67 38.5 154 38.5 q55 0 100 -11.5 q45 -11.5 86 -33.5 l-62 -154 q-32 17 -63 27.5 q-31 10.5 -63 10.5 q-41 0 -71.5 -30 q-30.5 -30 -50 -76 q-19.5 -46 -29.5 -96 q-10 -50 -10 -91 q0 -55 21.5 -84.5 q21.5 -29.5 63.5 -29.5 q40 0 75 12.5 q35 12.5 79 35.5 l-16 -160 q-41 -23 -84.5 -35 q-43.5 -12 -94.5 -12 Z" /><glyph glyph-name="uni2113" unicode="&#x2113;" d="M538 -17 q-105 0 -178 42.5 q-73 42.5 -111.5 130.5 q-38.5 88 -38.5 226 l0 132 q-35 -11 -76.5 -24 q-41.5 -13 -82.5 -24 l0 193 q42 12 82 24 q40 12 77 27 l0 394 q0 130 37 213 q37 83 111 123.5 q74 40.5 184 40.5 q101 0 169.5 -42 q68.5 -42 104 -118.5 q35.5 -76.5 35.5 -178.5 q0 -126 -42.5 -222.5 q-42.5 -96.5 -126 -170 q-83.5 -73.5 -207.5 -133.5 l0 -247 q0 -91 21.5 -139.5 q21.5 -48.5 75.5 -48.5 q48 0 75.5 51.5 q27.5 51.5 30.5 153.5 l203 0 q-5 -129 -38 -219 q-33 -90 -106.5 -137 q-73.5 -47 -198.5 -47 ZM475 824 q72 44 105 123.5 q33 79.5 33 191.5 q0 38 -7 73.5 q-7 35.5 -22 58 q-15 22.5 -40 22.5 q-38 0 -53.5 -38 q-15.5 -38 -15.5 -110 l0 -321 Z" /><glyph glyph-name="uni2116" unicode="&#x2116;" d="M8 0 l309 1462 l295 0 l173 -1005 q8 64 16.5 118 q8.5 54 17.5 104.5 q9 50.5 20 101.5 l142 681 l252 0 l-309 -1462 l-293 0 l-175 1009 q-3 -30 -8.5 -69 q-5.5 -39 -13 -82.5 q-7.5 -43.5 -15.5 -87.5 q-8 -44 -16 -83 l-144 -687 l-251 0 ZM1067 0 l37 177 l530 0 l-37 -177 l-530 0 ZM1401 285 q-117 0 -181 66.5 q-64 66.5 -64 190.5 q0 82 21.5 164.5 q21.5 82.5 65 151.5 q43.5 69 111 110.5 q67.5 41.5 159.5 41.5 q116 0 180.5 -72 q64.5 -72 64.5 -196 q0 -80 -22.5 -160.5 q-22.5 -80.5 -66.5 -147.5 q-44 -67 -111 -108 q-67 -41 -157 -41 ZM1414 442 q42 0 70.5 34 q28.5 34 46.5 84.5 q18 50.5 26.5 103 q8.5 52.5 8.5 89.5 q0 46 -16 72.5 q-16 26.5 -51 26.5 q-40 0 -68.5 -33.5 q-28.5 -33.5 -47 -84.5 q-18.5 -51 -27 -104.5 q-8.5 -53.5 -8.5 -92.5 q0 -46 16 -70.5 q16 -24.5 50 -24.5 Z" /><glyph glyph-name="trademark" unicode="&#x2122;" d="M617 741 l0 721 l212 0 l163 -505 l169 505 l205 0 l0 -721 l-147 0 l0 384 q0 27 2 68 q2 41 4 69 l-8 0 l-178 -521 l-107 0 l-170 522 l-7 0 q2 -34 3.5 -71.5 q1.5 -37.5 1.5 -60.5 l0 -390 l-143 0 ZM206 741 l0 587 l-183 0 l0 134 l521 0 l0 -134 l-185 0 l0 -587 l-153 0 Z" /><glyph glyph-name="uni03A9" unicode="&#x3a9;" d="M-60 0 l50 243 l310 0 q-50 41 -90.5 105.5 q-40.5 64.5 -63.5 148.5 q-23 84 -23 184 q0 107 24.5 220 q24.5 113 76.5 217.5 q52 104.5 131.5 187 q79.5 82.5 189.5 131 q110 48.5 251 48.5 q160 0 268 -61.5 q108 -61.5 163 -169.5 q55 -108 55 -247 q0 -140 -32 -258.5 q-32 -118.5 -87.5 -214.5 q-55.5 -96 -127 -169 q-71.5 -73 -150.5 -122 l312 0 l-52 -243 l-544 0 l55 259 q86 56 149 135.5 q63 79.5 104.5 174 q41.5 94.5 61.5 195.5 q20 101 20 200 q0 91 -24.5 153 q-24.5 62 -73 93.5 q-48.5 31.5 -119.5 31.5 q-81 0 -142.5 -42 q-61.5 -42 -105.5 -111 q-44 -69 -72 -154 q-28 -85 -41 -172 q-13 -87 -13 -163 q0 -111 27 -194.5 q27 -83.5 83 -146.5 l-55 -259 l-515 0 Z" /><glyph glyph-name="estimated" unicode="&#x212e;" d="M606 -35 q-162 0 -274.5 79 q-112.5 79 -170.5 208 q-58 129 -58 278 q0 135 40 240 q40 105 110 178 q70 73 161 110.5 q91 37.5 192 37.5 q145 1 258.5 -70 q113.5 -71 180 -198 q66.5 -127 65.5 -298 l-785 0 l0 -356 q44 -50 122 -86.5 q78 -36.5 159 -36.5 q139 0 224 60 q85 60 153 174 l67 -41 q-50 -84 -109.5 -147 q-59.5 -63 -139.5 -97.5 q-80 -34.5 -195 -34.5 ZM325 616 l566 0 l0 277 q-42 47 -117.5 83 q-75.5 36 -169.5 36 q-89 0 -158.5 -32 q-69.5 -32 -120.5 -85 l0 -279 Z" /><glyph glyph-name="partialdiff" unicode="&#x2202;" d="M456 -20 q-142 0 -229 54 q-87 54 -127 148 q-40 94 -40 214 q0 93 21 185 q21 92 63.5 173.5 q42.5 81.5 104.5 144 q62 62.5 144 98 q82 35.5 183 35.5 q73 0 130 -23 q57 -23 96 -61 q0 9 0 20 q0 11 0 20 q-8 135 -63.5 198 q-55.5 63 -157.5 63 q-62 0 -132.5 -20 q-70.5 -20 -133.5 -62 l0 243 q50 27 103.5 43 q53.5 16 108.5 23 q55 7 108 7 q124 0 210.5 -42.5 q86.5 -42.5 140 -119 q53.5 -76.5 78 -179 q24.5 -102.5 24.5 -223.5 q0 -131 -24 -264.5 q-24 -133.5 -73 -254.5 q-49 -121 -124 -215.5 q-75 -94.5 -177.5 -149.5 q-102.5 -55 -233.5 -55 ZM472 211 q53 0 100 34 q47 34 87 98.5 q40 64.5 71 156 q31 91.5 51 206.5 q-21 46 -63.5 76 q-42.5 30 -102.5 30 q-61 0 -109.5 -38.5 q-48.5 -38.5 -82.5 -101 q-34 -62.5 -52 -136 q-18 -73.5 -20 -143.5 q0 -47 10.5 -88.5 q10.5 -41.5 37 -67.5 q26.5 -26 73.5 -26 Z" /><glyph glyph-name="uni0394" unicode="&#x394;" d="M-61 0 l17 169 l612 1299 l337 0 l83 -1302 l-35 -166 l-1014 0 ZM273 243 l440 0 l-33 765 q0 18 0 39 q0 21 -0.5 44.5 q-0.5 23.5 -0.5 50 q0 26.5 0 55.5 q-7 -27 -17.5 -59 q-10.5 -32 -22.5 -64 q-12 -32 -24 -58 l-342 -773 Z" /><glyph glyph-name="product" unicode="&#x220f;" d="M189 -455 l0 1917 l1048 0 l0 -1917 l-286 0 l0 1675 l-476 0 l0 -1675 l-286 0 Z" /><glyph glyph-name="summation" unicode="&#x2211;" d="M127 -455 l0 163 l529 841 l-515 754 l0 159 l1034 0 l0 -239 l-669 0 l465 -669 l-487 -768 l746 0 l0 -241 l-1103 0 Z" /><glyph glyph-name="minus" unicode="&#x2212;" d="M99 619 l0 211 l862 0 l0 -211 l-862 0 Z" /><glyph glyph-name="radical" unicode="&#x221a;" d="M493 -14 l-238 739 l-164 0 l0 209 l304 0 l181 -565 l442 1385 l201 0 l-551 -1768 l-175 0 Z" /><glyph glyph-name="infinity" unicode="&#x221e;" d="M1038 381 q-87 0 -163 44 q-76 44 -139 134 q-59 -79 -133.5 -125.5 q-74.5 -46.5 -152.5 -46.5 q-96 0 -168 42.5 q-72 42.5 -112 118.5 q-40 76 -40 175 q0 94 40.5 170 q40.5 76 112.5 120 q72 44 168 44 q86 0 159.5 -42 q73.5 -42 132.5 -135 q61 82 133 127 q72 45 162 45 q95 0 166 -42.5 q71 -42.5 110.5 -118.5 q39.5 -76 39.5 -175 q0 -90 -40.5 -166.5 q-40.5 -76.5 -111.5 -122.5 q-71 -46 -164 -46 ZM461 584 q46 0 87.5 34 q41.5 34 82.5 104 q-40 71 -81 105 q-41 34 -91 34 q-59 0 -94.5 -40 q-35.5 -40 -35.5 -100 q0 -58 35 -97.5 q35 -39.5 97 -39.5 ZM1026 578 q60 0 94.5 42 q34.5 42 34.5 99 q0 59 -35.5 97.5 q-35.5 38.5 -95.5 38.5 q-48 0 -90.5 -36 q-42.5 -36 -82.5 -101 q40 -65 84.5 -102.5 q44.5 -37.5 90.5 -37.5 Z" /><glyph glyph-name="integral" unicode="&#x222b;" d="M198 -492 q-53 0 -100 11.5 q-47 11.5 -88 32.5 l0 245 q39 -17 77 -28.5 q38 -11.5 71 -11.5 q56 1 80.5 37 q24.5 36 24.5 116 l0 1276 q0 193 94.5 283 q94.5 90 259.5 90 q53 0 100.5 -11 q47.5 -11 89.5 -32 l0 -247 q-40 18 -80.5 29.5 q-40.5 11.5 -71.5 11.5 q-35 -1 -58.5 -17 q-23.5 -16 -35 -47.5 q-11.5 -31.5 -11.5 -79.5 l0 -1277 q0 -197 -92.5 -289 q-92.5 -92 -259.5 -92 Z" /><glyph glyph-name="approxequal" unicode="&#x2248;" d="M88 765 l0 224 q47 53 106.5 80.5 q59.5 27.5 131.5 27.5 q40 0 76 -7 q36 -7 76 -21 q40 -14 91 -37 q63 -28 107.5 -41 q44.5 -13 88.5 -13 q53 0 109.5 33 q56.5 33 105.5 87 l0 -224 q-47 -53 -106 -80 q-59 -27 -131 -27 q-39 0 -74.5 6 q-35.5 6 -74.5 20 q-39 14 -91 37 q-65 30 -109.5 42.5 q-44.5 12.5 -90.5 12.5 q-52 0 -108 -32.5 q-56 -32.5 -107 -87.5 ZM88 341 l0 224 q47 52 106.5 79.5 q59.5 27.5 131.5 27.5 q40 0 76 -6.5 q36 -6.5 76 -20 q40 -13.5 91 -36.5 q63 -29 107.5 -42 q44.5 -13 88.5 -13 q53 0 109.5 33.5 q56.5 33.5 105.5 86.5 l0 -224 q-47 -53 -106 -80 q-59 -27 -131 -27 q-39 0 -74.5 6 q-35.5 6 -74.5 19.5 q-39 13.5 -91 36.5 q-65 30 -109.5 43 q-44.5 13 -90.5 13 q-52 0 -108 -32 q-56 -32 -107 -88 Z" /><glyph glyph-name="notequal" unicode="&#x2260;" d="M406 139 l-194 78 l81 190 l-190 0 l0 212 l274 0 l88 207 l-362 0 l0 210 l445 0 l115 268 l192 -80 l-82 -188 l192 0 l0 -210 l-275 0 l-87 -207 l362 0 l0 -212 l-448 0 l-111 -268 Z" /><glyph glyph-name="lessequal" unicode="&#x2264;" d="M951 294 l-868 433 l0 137 l868 458 l0 -235 l-574 -286 l574 -272 l0 -235 ZM84 0 l0 211 l862 0 l0 -211 l-862 0 Z" /><glyph glyph-name="greaterequal" unicode="&#x2265;" d="M102 294 l0 235 l573 272 l-573 286 l0 235 l867 -458 l0 -137 l-867 -433 ZM100 0 l0 211 l862 0 l0 -211 l-862 0 Z" /><glyph glyph-name="lozenge" unicode="&#x25ca;" d="M560 0 l-449 735 l449 738 l113 0 l451 -737 l-451 -736 l-113 0 ZM617 314 l251 421 l-251 423 l-252 -423 l252 -421 Z" /><glyph glyph-name="uni2074" unicode="&#x2074;" d="M402 851 l35 159 l-335 0 l29 155 l441 569 l230 0 l-121 -566 l108 0 l-34 -158 l-106 0 l-35 -159 l-212 0 ZM314 1168 l156 0 l44 192 q9 36 16 62 q7 26 18 66 q-17 -28 -36.5 -56.5 q-19.5 -28.5 -37.5 -51.5 l-160 -212 Z" /><glyph glyph-name="uni2075" unicode="&#x2075;" d="M360 836 q-62 0 -121 12 q-59 12 -103 37 l15 175 q43 -31 96 -46.5 q53 -15.5 103 -15.5 q60 0 97.5 23.5 q37.5 23.5 55.5 61.5 q18 38 18 80 q0 51 -27 78 q-27 27 -84 27 q-23 0 -51 -5.5 q-28 -5.5 -52 -13.5 l-85 58 l122 424 l463 0 l-36 -173 l-307 0 l-46 -152 q19 4 41 7 q22 3 50 3 q106 0 167 -63.5 q61 -63.5 61 -166.5 q0 -74 -25.5 -138 q-25.5 -64 -74.5 -111.5 q-49 -47.5 -118.5 -74 q-69.5 -26.5 -158.5 -26.5 Z" /><glyph glyph-name="uni2077" unicode="&#x2077;" d="M184 851 l432 704 l-365 0 l37 173 l588 0 l-30 -142 l-428 -735 l-234 0 Z" /><glyph glyph-name="uni2078" unicode="&#x2078;" d="M421 832 q-136 0 -208 60.5 q-72 60.5 -72 162.5 q0 92 55 153 q55 61 156 103 q-45 37 -68.5 80.5 q-23.5 43.5 -23.5 102.5 q0 78 40 134.5 q40 56.5 107.5 86.5 q67.5 30 150.5 30 q128 0 193.5 -54 q65.5 -54 65.5 -147 q0 -81 -47.5 -136.5 q-47.5 -55.5 -135.5 -93.5 q59 -34 92.5 -81 q33.5 -47 33.5 -122 q0 -89 -44.5 -151.5 q-44.5 -62.5 -121 -95 q-76.5 -32.5 -173.5 -32.5 ZM435 982 q52 0 83.5 35 q31.5 35 31.5 87 q0 42 -21 70.5 q-21 28.5 -56 49.5 q-49 -19 -87 -56 q-38 -37 -38 -95 q0 -39 23 -65 q23 -26 64 -26 ZM519 1391 q43 20 71.5 52.5 q28.5 32.5 28.5 81.5 q0 31 -17 51 q-17 20 -54 20 q-40 0 -64 -29.5 q-24 -29.5 -24 -73.5 q0 -32 16 -57 q16 -25 43 -45 Z" /><glyph glyph-name="uni2000" unicode="&#x2000;" d="" /><glyph glyph-name="uni2001" unicode="&#x2001;" d="" /><glyph glyph-name="uni2002" unicode="&#x2002;" d="" /><glyph glyph-name="uni2003" unicode="&#x2003;" d="" /><glyph glyph-name="uni2004" unicode="&#x2004;" d="" /><glyph glyph-name="uni2005" unicode="&#x2005;" d="" /><glyph glyph-name="uni2006" unicode="&#x2006;" d="" /><glyph glyph-name="uni2007" unicode="&#x2007;" d="" /><glyph glyph-name="uni2008" unicode="&#x2008;" d="" /><glyph glyph-name="uni2009" unicode="&#x2009;" d="" /><glyph glyph-name="uni200A" unicode="&#x200a;" d="" /><glyph glyph-name="uni200B" unicode="&#x200b;" d="" /><glyph glyph-name="uniFEFF" unicode="&#xfeff;" d="" /><glyph glyph-name="uniFFFC" unicode="&#xfffc;" d="M602 328 q-135 0 -198.5 83 q-63.5 83 -63.5 218 q0 137 63.5 219 q63.5 82 198.5 82 q135 0 198.5 -82 q63.5 -82 63.5 -219 q0 -135 -63.5 -218 q-63.5 -83 -198.5 -83 ZM84 -383 l0 303 l111 0 l0 -194 l192 0 l0 -109 l-303 0 ZM84 39 l0 270 l111 0 l0 -270 l-111 0 ZM508 -383 l0 109 l270 0 l0 -109 l-270 0 ZM84 430 l0 272 l111 0 l0 -272 l-111 0 ZM899 -383 l0 109 l272 0 l0 -109 l-272 0 ZM1290 -383 l0 109 l273 0 l0 -109 l-273 0 ZM84 823 l0 271 l111 0 l0 -271 l-111 0 ZM602 432 q71 0 103 52.5 q32 52.5 32 144.5 q0 92 -32 144 q-32 52 -103 52 q-69 0 -102 -52 q-33 -52 -33 -144 q0 -92 33 -144.5 q33 -52.5 102 -52.5 ZM84 1214 l0 304 l303 0 l0 -111 l-192 0 l0 -193 l-111 0 ZM1681 -383 l0 109 l195 0 l0 194 l109 0 l0 -303 l-304 0 ZM1071 438 l74 0 q49 0 67.5 21.5 q18.5 21.5 18.5 58.5 q0 32 -19 53 q-19 21 -71 21 l-70 0 l0 -154 ZM948 336 l0 586 l172 0 q110 0 165.5 -33.5 q55.5 -33.5 55.5 -116.5 q0 -49 -23 -81.5 q-23 -32.5 -67 -40.5 l0 -8 q45 -9 76 -38 q31 -29 31 -98 q0 -80 -54.5 -125 q-54.5 -45 -148.5 -45 l-207 0 ZM1071 690 l66 0 q46 0 64 17 q18 17 18 49 q0 63 -89 63 l-59 0 l0 -129 ZM1876 39 l0 270 l109 0 l0 -270 l-109 0 ZM508 1407 l0 111 l270 0 l0 -111 l-270 0 ZM1491 330 q-48 0 -80 10 l0 102 q16 -3 32 -5.5 q16 -2.5 36 -2.5 q37 0 61.5 18 q24.5 18 24.5 68 l0 402 l125 0 l0 -398 q0 -101 -55.5 -147.5 q-55.5 -46.5 -143.5 -46.5 ZM1876 430 l0 272 l109 0 l0 -272 l-109 0 ZM899 1407 l0 111 l272 0 l0 -111 l-272 0 ZM1876 823 l0 271 l109 0 l0 -271 l-109 0 ZM1290 1407 l0 111 l273 0 l0 -111 l-273 0 ZM1876 1214 l0 193 l-195 0 l0 111 l304 0 l0 -304 l-109 0 Z" /><glyph glyph-name="uniFFFD" unicode="&#xfffd;" d="M1022 -319 l-938 937 l938 938 l940 -938 l-940 -937 ZM991 -43 q56 0 97.5 31.5 q41.5 31.5 41.5 103.5 q0 76 -41.5 106.5 q-41.5 30.5 -97.5 30.5 q-60 0 -100.5 -30.5 q-40.5 -30.5 -40.5 -106.5 q0 -72 40.5 -103.5 q40.5 -31.5 100.5 -31.5 ZM877 367 l210 0 l0 47 q0 50 21 80.5 q21 30.5 88 83.5 q88 70 132 132.5 q44 62.5 44 163.5 q0 137 -94.5 213 q-94.5 76 -257.5 76 q-86 0 -176.5 -29 q-90.5 -29 -159.5 -69 l82 -178 q68 34 131.5 57 q63.5 23 118.5 23 q63 0 94 -29 q31 -29 31 -76 q0 -58 -26.5 -93.5 q-26.5 -35.5 -94.5 -88.5 q-76 -61 -109.5 -118 q-33.5 -57 -33.5 -136 l0 -59 Z" /><glyph glyph-name="uni03D1" unicode="&#x3d1;" d="M481 -20 q-109 0 -187 31 q-78 31 -119.5 90 q-41.5 59 -41.5 142 q0 45 11 88 q11 43 25 86 q11 34 20 64.5 q9 30.5 9 55.5 q0 24 -11 37.5 q-11 13.5 -35 13.5 q-15 0 -35.5 -5.5 q-20.5 -5.5 -40.5 -15.5 l0 211 q32 13 84.5 24.5 q52.5 11.5 110.5 11.5 q94 0 147 -48.5 q53 -48.5 53 -135.5 q0 -44 -11 -89 q-11 -45 -25 -87 q-12 -43 -22.5 -83.5 q-10.5 -40.5 -10.5 -75.5 q0 -45 24 -70 q24 -25 77 -25 q40 0 77.5 20 q37.5 20 72.5 62 q35 42 67 108.5 q32 66.5 61.5 158.5 q29.5 92 55.5 212 q-159 6 -262.5 60 q-103.5 54 -154 142.5 q-50.5 88.5 -50.5 199.5 q0 117 49 209.5 q49 92.5 140.5 146.5 q91.5 54 220.5 54 q137 0 219.5 -57.5 q82.5 -57.5 120 -159 q37.5 -101.5 37.5 -234.5 q0 -34 -2.5 -68 q-2.5 -34 -6.5 -72 l127 0 l-47 -219 l-117 0 q-29 -144 -68 -265.5 q-39 -121.5 -90.5 -217 q-51.5 -95.5 -119 -162.5 q-67.5 -67 -155 -102.5 q-87.5 -35.5 -197.5 -35.5 ZM873 982 q6 43 9 82.5 q3 39.5 3 71.5 q0 100 -28 161 q-28 61 -88 61 q-42 0 -70.5 -27 q-28.5 -27 -42.5 -70 q-14 -43 -14 -89 q0 -56 24 -98 q24 -42 75.5 -65.5 q51.5 -23.5 131.5 -26.5 Z" /><glyph glyph-name="uni03D2" unicode="&#x3d2;" d="M242 0 l118 558 l-177 904 l287 0 l87 -580 q34 67 68 132 q34 65 68 125.5 q34 60.5 68 113 q34 52.5 67 94.5 q51 65 107.5 96.5 q56.5 31.5 128.5 31.5 q43 0 78 -7 q35 -7 66 -20 l-49 -223 q-11 7 -26.5 11 q-15.5 4 -34.5 4 q-32 0 -60.5 -24.5 q-28.5 -24.5 -69.5 -84.5 q-29 -43 -63.5 -100 q-34.5 -57 -75 -128 q-40.5 -71 -88 -159 q-47.5 -88 -103.5 -194 l-117 -550 l-279 0 Z" /><glyph glyph-name="uni03D6" unicode="&#x3d6;" d="M436 -20 q-150 0 -222 100 q-72 100 -72 266 q0 90 20.5 188 q20.5 98 56 192.5 q35.5 94.5 77.5 171.5 l-212 0 l27 128 l168 91 l1416 0 l-46 -219 l-196 0 q4 -28 8 -66 q4 -38 4 -87 q0 -104 -19.5 -212 q-19.5 -108 -58.5 -207 q-39 -99 -98 -177 q-59 -78 -138 -123.5 q-79 -45.5 -178 -45.5 q-109 0 -167.5 52 q-58.5 52 -71.5 145 q-52 -94 -122 -145.5 q-70 -51.5 -176 -51.5 ZM497 212 q47 0 76.5 34.5 q29.5 34.5 49.5 95 q20 60.5 36 138.5 l34 154 l263 0 l-34 -154 q-7 -34 -12.5 -63.5 q-5.5 -29.5 -8.5 -54.5 q-3 -25 -3 -45 q0 -51 19 -78 q19 -27 59 -27 q46 0 82 36 q36 36 63 97 q27 61 44.5 136 q17.5 75 26 153.5 q8.5 78.5 8.5 149.5 q0 39 -1 65.5 q-1 26.5 -4 48.5 l-638 0 q-42 -89 -74.5 -182.5 q-32.5 -93.5 -52 -185 q-19.5 -91.5 -19.5 -177.5 q0 -67 21.5 -104 q21.5 -37 64.5 -37 Z" /><glyph glyph-name="uni02F3" unicode="&#x2f3;" d="M172 -581 q-109 0 -174 62.5 q-65 62.5 -65 169.5 q0 107 65.5 169.5 q65.5 62.5 173.5 62.5 q101 0 172 -62 q71 -62 71 -167 q0 -106 -67.5 -170.5 q-67.5 -64.5 -175.5 -64.5 ZM171 -447 q45 0 72.5 27 q27.5 27 27.5 71 q0 45 -27.5 72.5 q-27.5 27.5 -72.5 27.5 q-44 0 -71 -27.5 q-27 -27.5 -27 -72.5 q0 -45 24.5 -71.5 q24.5 -26.5 73.5 -26.5 Z" /><glyph glyph-name="Ohorn" unicode="&#x1a0;" d="M556 -20 q-152 0 -253.5 59.5 q-101.5 59.5 -153 173.5 q-51.5 114 -51.5 278 q0 115 19.5 233 q19.5 118 59 229.5 q39.5 111.5 98.5 208 q59 96.5 137.5 169 q78.5 72.5 177 113.5 q98.5 41 216.5 41 q137 0 231.5 -50.5 q94.5 -50.5 148.5 -145.5 q53 38 86.5 107 q33.5 69 47.5 160 l264 0 l10 -22 q-39 -159 -124 -264 q-85 -105 -223 -162 q6 -29 8.5 -60.5 q2.5 -31.5 2.5 -64.5 q0 -119 -19 -239 q-19 -120 -57.5 -232.5 q-38.5 -112.5 -97 -208.5 q-58.5 -96 -136.5 -168.5 q-78 -72.5 -175.5 -113.5 q-97.5 -41 -216.5 -41 ZM578 225 q58 0 110 31.5 q52 31.5 95.5 87.5 q43.5 56 78 130.5 q34.5 74.5 58.5 159 q24 84.5 37 173.5 q13 89 13 175 q0 125 -47 192.5 q-47 67.5 -140 67.5 q-59 0 -111.5 -32 q-52.5 -32 -96.5 -88.5 q-44 -56.5 -79 -130.5 q-35 -74 -59.5 -158 q-24.5 -84 -37 -172 q-12.5 -88 -12.5 -171 q0 -93 22 -151.5 q22 -58.5 65 -86 q43 -27.5 104 -27.5 Z" /><glyph glyph-name="ohorn" unicode="&#x1a1;" d="M434 -20 q-111 0 -194 47.5 q-83 47.5 -129 136.5 q-46 89 -46 212 q0 114 22.5 225 q22.5 111 67 208 q44.5 97 111.5 171 q67 74 155.5 116 q88.5 42 198.5 42 q99 0 174 -38 q75 -38 122 -111 q50 26 82.5 70 q32.5 44 51.5 102 q19 58 28 122 l260 0 l8 -22 q-26 -112 -70.5 -197 q-44.5 -85 -116.5 -144 q-72 -59 -182 -94 q5 -22 6.5 -45 q1.5 -23 1.5 -47 q0 -112 -22 -221.5 q-22 -109.5 -66 -205.5 q-44 -96 -110 -169.5 q-66 -73.5 -154.5 -115.5 q-88.5 -42 -198.5 -42 ZM461 207 q47 0 85.5 33 q38.5 33 69 88.5 q30.5 55.5 51.5 124.5 q21 69 32 142.5 q11 73.5 11 140.5 q0 54 -11.5 93 q-11.5 39 -37.5 60 q-26 21 -69 21 q-49 0 -89 -36.5 q-40 -36.5 -70.5 -96.5 q-30.5 -60 -51 -131 q-20.5 -71 -31 -142.5 q-10.5 -71.5 -10.5 -129.5 q0 -82 30 -124.5 q30 -42.5 91 -42.5 Z" /><glyph glyph-name="Uhorn" unicode="&#x1af;" d="M502 -20 q-126 0 -214.5 46.5 q-88.5 46.5 -135 131.5 q-46.5 85 -46.5 198 q0 35 4.5 75.5 q4.5 40.5 12.5 80.5 l203 950 l280 0 l-201 -951 q-8 -35 -12.5 -67.5 q-4.5 -32.5 -4.5 -58.5 q0 -79 38 -119.5 q38 -40.5 113 -40.5 q68 0 117 31.5 q49 31.5 82 96 q33 64.5 54 164.5 l201 945 l281 0 l-42 -196 q53 14 87.5 54.5 q34.5 40.5 55.5 101.5 q21 61 31 134 l265 0 l8 -22 q-22 -92 -61.5 -171 q-39.5 -79 -98.5 -138.5 q-59 -59.5 -140 -95 q-81 -35.5 -186 -42.5 l-127 -601 q-32 -153 -100.5 -267 q-68.5 -114 -182.5 -176.5 q-114 -62.5 -281 -62.5 Z" /><glyph glyph-name="uhorn" unicode="&#x1b0;" d="M329 -20 q-83 0 -139.5 34 q-56.5 34 -85.5 97 q-29 63 -29 149 q0 38 7.5 90 q7.5 52 18.5 106 l139 661 l273 0 l-139 -658 q-8 -40 -13 -76 q-5 -36 -5 -64 q0 -53 21.5 -79.5 q21.5 -26.5 66.5 -26.5 q58 0 103.5 49.5 q45.5 49.5 80 135.5 q34.5 86 56.5 195 l112 524 l273 0 l-26 -124 q57 15 91 57 q34 42 53 102.5 q19 60.5 30 129.5 l264 0 l8 -22 q-21 -88 -59 -165.5 q-38 -77.5 -96 -138.5 q-58 -61 -139.5 -98.5 q-81.5 -37.5 -189.5 -45.5 l-172 -812 l-212 0 l14 171 l-7 0 q-37 -57 -82.5 -100 q-45.5 -43 -99.5 -67 q-54 -24 -117 -24 Z" /><glyph glyph-name="uni0460" unicode="&#x460;" d="M285 0 q-52 176 -82.5 357 q-30.5 181 -38 365 q-7.5 184 9 369 q16.5 185 57.5 370 l282 0 q-31 -150 -48.5 -297 q-17.5 -147 -21.5 -286.5 q-4 -139.5 5 -266.5 q9 -127 30 -237 l7 0 q16 45 37 96.5 q21 51.5 44.5 104 q23.5 52.5 45.5 99.5 l191 409 q6 67 13.5 127 q7.5 60 18 121 q10.5 61 24.5 131 l263 0 q-29 -138 -47 -281.5 q-18 -143.5 -24 -285 q-6 -141.5 1.5 -276 q7.5 -134.5 28.5 -255.5 l9 0 q99 158 179 333 q80 175 141 366.5 q61 191.5 100 397.5 l284 0 q-52 -263 -135.5 -509 q-83.5 -246 -207.5 -482 q-124 -236 -301 -470 l-262 0 q-23 95 -39.5 194 q-16.5 99 -28 196 q-11.5 97 -17.5 187 l-249 -577 l-269 0 Z" /><glyph glyph-name="uni0461" unicode="&#x461;" d="M234 0 q-36 120 -62.5 256.5 q-26.5 136.5 -39.5 281.5 q-13 145 -9 291.5 q4 146.5 29 287.5 l271 0 q-29 -153 -36 -294 q-7 -141 2.5 -268 q9.5 -127 26.5 -239 l6 0 q19 48 46.5 94.5 q27.5 46.5 54.5 94.5 l134 231 q1 91 10.5 185 q9.5 94 27.5 196 l269 0 q-29 -145 -40.5 -280.5 q-11.5 -135.5 -7.5 -265 q4 -129.5 21 -257.5 l6 0 q70 112 127 235 q57 123 105 264 q48 141 90 304 l271 0 q-49 -209 -122 -397.5 q-73 -188.5 -179 -366 q-106 -177.5 -254 -353.5 l-221 0 q-18 63 -33 129.5 q-15 66.5 -26 134 q-11 67.5 -19 129.5 l-223 -393 l-225 0 Z" /><glyph glyph-name="uni0462" unicode="&#x462;" d="M72 0 l231 1090 l-180 0 l45 212 l179 0 l44 209 l281 0 l-44 -209 l302 0 l-45 -212 l-302 0 l-41 -191 l59 0 q152 0 244.5 -48 q92.5 -48 135 -132.5 q42.5 -84.5 42.5 -193.5 q0 -114 -36 -209.5 q-36 -95.5 -108 -166.5 q-72 -71 -179 -110 q-107 -39 -249 -39 l-379 0 ZM402 239 l83 0 q67 0 114.5 21 q47.5 21 78 58 q30.5 37 44.5 85.5 q14 48.5 14 103.5 q0 80 -43 117 q-43 37 -127 37 l-73 0 l-91 -422 Z" /><glyph glyph-name="uni0463" unicode="&#x463;" d="M487 -20 q-123 0 -198.5 37.5 q-75.5 37.5 -110 103.5 q-34.5 66 -34.5 154 q0 35 6 77 q6 42 15 89 l102 472 l-197 0 l43 204 l198 0 l44 202 l274 0 l-45 -202 l239 0 l-43 -204 l-240 0 l-52 -244 q28 7 66.5 10.5 q38.5 3.5 85.5 3.5 q108 0 181 -35.5 q73 -35.5 110 -101.5 q37 -66 37 -158 q0 -110 -52 -203 q-52 -93 -158 -149 q-106 -56 -271 -56 ZM526 179 q42 0 72.5 17 q30.5 17 50.5 44 q20 27 30.5 59.5 q10.5 32.5 10.5 64.5 q0 58 -28 89 q-28 31 -94 31 q-26 0 -57.5 -4 q-31.5 -4 -63.5 -10 q-16 -63 -24 -107 q-8 -44 -8 -74 q0 -47 26 -78.5 q26 -31.5 85 -31.5 Z" /><glyph glyph-name="uni0464" unicode="&#x464;" d="M1045 -20 q-148 0 -247.5 63 q-99.5 63 -150 180.5 q-50.5 117.5 -50.5 280.5 q0 31 2.5 64.5 q2.5 33.5 6.5 67.5 l-166 0 l-135 -636 l-280 0 l309 1462 l281 0 l-124 -584 l162 0 q36 122 96 231.5 q60 109.5 143.5 194 q83.5 84.5 191 132.5 q107.5 48 238.5 48 q111 0 198 -24 q87 -24 163 -72 l-120 -228 q-57 38 -118.5 60 q-61.5 22 -126.5 22 q-73 0 -133 -31.5 q-60 -31.5 -106 -84 q-46 -52.5 -80.5 -117.5 q-34.5 -65 -56.5 -131 l450 0 l-50 -240 l-451 0 q-5 -33 -7.5 -65.5 q-2.5 -32.5 -2.5 -65.5 q0 -146 54.5 -214.5 q54.5 -68.5 156.5 -68.5 q46 0 93.5 9 q47.5 9 99 26 q51.5 17 107.5 39 l2 -245 q-82 -36 -171.5 -54.5 q-89.5 -18.5 -177.5 -18.5 Z" /><glyph glyph-name="uni0465" unicode="&#x465;" d="M906 -20 q-105 0 -186 41.5 q-81 41.5 -126.5 126 q-45.5 84.5 -45.5 213.5 q0 25 2 52 q2 27 5 54 l-169 0 l-99 -467 l-275 0 l239 1117 l275 0 l-96 -443 l161 0 q34 130 104.5 235 q70.5 105 174 167 q103.5 62 234.5 62 q86 0 155 -18 q69 -18 128 -53 l-96 -208 q-41 23 -87 39 q-46 16 -96 16 q-54 0 -100.5 -32.5 q-46.5 -32.5 -81.5 -87 q-35 -54.5 -56 -120.5 l309 0 l-43 -207 l-308 0 q-3 -20 -4 -41 q-1 -21 -1 -41 q0 -61 17 -101 q17 -40 48.5 -60 q31.5 -20 75.5 -20 q59 0 119 21.5 q60 21.5 122 58.5 l0 -225 q-62 -37 -139.5 -58 q-77.5 -21 -159.5 -21 Z" /><glyph glyph-name="uni0466" unicode="&#x466;" d="M-126 0 l763 1465 l355 0 l144 -1465 l-276 0 l-48 621 l-40 0 l-128 -621 l-261 0 l132 623 l-40 0 l-306 -623 l-295 0 ZM592 847 l202 0 l-10 196 q-2 20 -4 43 q-2 23 -3.5 47.5 q-1.5 24.5 -3 50.5 q-1.5 26 -2.5 50 q-14 -33 -29.5 -68 q-15.5 -35 -30.5 -67.5 q-15 -32.5 -29 -60.5 l-90 -191 Z" /><glyph glyph-name="uni0467" unicode="&#x467;" d="M-121 0 l613 1117 l331 0 l140 -1117 l-261 0 l-38 417 l-30 0 l-83 -417 l-243 0 l92 417 l-32 0 l-214 -417 l-275 0 ZM482 626 l162 0 q-6 79 -11 134 q-5 55 -8 94 q-3 39 -4 69 q-13 -28 -26 -57.5 q-13 -29.5 -29 -63.5 q-16 -34 -36.5 -77 q-20.5 -43 -47.5 -99 Z" /><glyph glyph-name="uni0468" unicode="&#x468;" d="M25 0 l309 1462 l276 0 l-122 -580 l336 0 l301 583 l354 0 l144 -1465 l-276 0 l-47 623 l-40 0 l-128 -623 l-261 0 l132 623 l-39 0 l-307 -623 l-294 0 l330 640 l-257 0 l-135 -640 l-276 0 ZM1079 847 l201 0 l-11 196 q-3 39 -6.5 90.5 q-3.5 51.5 -5.5 100.5 q-14 -33 -29.5 -68 q-15.5 -35 -30.5 -67 q-15 -32 -26 -56 l-92 -196 Z" /><glyph glyph-name="uni0469" unicode="&#x469;" d="M12 0 l238 1117 l259 0 l-92 -430 l303 0 l235 430 l331 0 l141 -1117 l-262 0 l-41 437 l-24 0 l-86 -437 l-243 0 l96 436 l-26 0 l-224 -436 l-273 0 l255 469 l-229 0 l-100 -469 l-258 0 ZM960 656 l143 0 l-21 263 l-122 -263 Z" /><glyph glyph-name="uni046A" unicode="&#x46a;" d="M-101 0 l232 506 q48 105 95.5 174.5 q47.5 69.5 109.5 110.5 q62 41 153 59 l-183 474 l28 138 l1060 0 l-29 -141 l-396 -478 q75 -19 119.5 -68 q44.5 -49 67 -127.5 q22.5 -78.5 27.5 -187.5 l22 -460 l-284 0 l-11 462 q-1 57 -8.5 95.5 q-7.5 38.5 -24.5 59 q-17 20.5 -48 20.5 l-6 0 l-130 -637 l-274 0 l134 637 l-8 0 q-32 0 -58 -18 q-26 -18 -50 -56.5 q-24 -38.5 -50 -99.5 l-194 -463 l-294 0 ZM735 886 l250 342 l-366 0 l116 -342 Z" /><glyph glyph-name="uni046B" unicode="&#x46b;" d="M-104 0 l173 372 q40 87 82 142.5 q42 55.5 95 87 q53 31.5 126 44.5 l-168 359 l23 112 l901 0 l-23 -111 l-318 -362 q63 -19 98.5 -61 q35.5 -42 52 -103.5 q16.5 -61.5 22.5 -141.5 l24 -338 l-246 0 l-12 334 q-3 50 -10.5 77 q-7.5 27 -20.5 38.5 q-13 11.5 -35 13.5 l-96 -463 l-241 0 l101 464 q-27 -1 -47 -12 q-20 -11 -36 -33.5 q-16 -22.5 -31 -58.5 l-160 -360 l-254 0 ZM582 682 l187 242 l-282 0 l95 -242 Z" /><glyph glyph-name="uni046C" unicode="&#x46c;" d="M25 0 l309 1462 l281 0 l-122 -578 l473 0 l-171 440 l29 138 l1056 0 l-28 -141 l-397 -480 q76 -27 120.5 -71 q44.5 -44 66 -118 q21.5 -74 27.5 -194 l22 -458 l-284 0 l-11 439 q-2 72 -9 115.5 q-7 43.5 -23.5 62.5 q-16.5 19 -48.5 19 l-6 0 l-130 -636 l-272 0 l133 636 l-8 0 q-33 0 -58.5 -16.5 q-25.5 -16.5 -52.5 -63 q-27 -46.5 -65 -137.5 l-177 -419 l-290 0 l213 464 q26 58 51 101.5 q25 43.5 52 75.5 l-264 0 l-136 -641 l-280 0 ZM1222 884 l249 344 l-366 0 l117 -344 Z" /><glyph glyph-name="uni046D" unicode="&#x46d;" d="M12 0 l238 1117 l259 0 l-91 -429 l398 0 l-146 317 l24 112 l896 0 l-22 -111 l-318 -364 q60 -19 95 -58.5 q35 -39.5 53 -100 q18 -60.5 25 -146.5 l23 -337 l-246 0 l-11 346 q-3 42 -10 66.5 q-7 24.5 -20.5 35.5 q-13.5 11 -35.5 13 l-97 -461 l-240 0 l101 462 q-28 -1 -47.5 -11 q-19.5 -10 -35.5 -33.5 q-16 -23.5 -35 -63.5 l-156 -354 l-253 0 l159 344 q21 44 39.5 74 q18.5 30 41.5 52 l-229 0 l-101 -470 l-258 0 ZM1043 680 l189 244 l-283 0 l94 -244 Z" /><glyph glyph-name="uni046E" unicode="&#x46e;" d="M649 -459 q-17 16 -54 27 q-37 11 -84 11 q-42 0 -92.5 -2 q-50.5 -2 -100 -4.5 q-49.5 -2.5 -89.5 -2.5 q-164 0 -248 75.5 q-84 75.5 -84 196.5 q0 120 48.5 194 q48.5 74 150.5 116.5 q102 42.5 261 68.5 q87 14 144.5 35.5 q57.5 21.5 91 51 q33.5 29.5 47 70 q13.5 40.5 13.5 93.5 q0 95 -67 134 q-67 39 -191 39 l-130 0 l49 233 l120 0 q68 0 127.5 14 q59.5 14 105 42 q45.5 28 71 71 q25.5 43 25.5 100 q0 65 -40.5 103.5 q-40.5 38.5 -123.5 38.5 q-82 0 -154 -30 q-72 -30 -142 -79 l-98 197 q74 51 151.5 86.5 q77.5 35.5 169.5 49.5 q-23 61 -54 120.5 q-31 59.5 -73 127.5 l2 24 l160 0 q35 -39 64.5 -79 q29.5 -40 57.5 -90 q64 83 131 137 q67 54 156 54 q26 0 46.5 -3.5 q20.5 -3.5 39.5 -10.5 l0 -150 q-13 5 -28.5 7.5 q-15.5 2.5 -33.5 2.5 q-26 0 -54 -17 q-28 -17 -59.5 -49.5 q-31.5 -32.5 -70.5 -78.5 q78 -20 132 -65.5 q54 -45.5 82 -108 q28 -62.5 28 -135.5 q0 -114 -46 -195.5 q-46 -81.5 -129 -130 q-83 -48.5 -194 -63.5 l-1 -7 q79 -12 137 -51.5 q58 -39.5 90 -103 q32 -63.5 32 -150.5 q0 -112 -38 -193 q-38 -81 -107.5 -135.5 q-69.5 -54.5 -164.5 -88 q-95 -33.5 -209 -51.5 q-81 -12 -136 -26 q-55 -14 -82.5 -36 q-27.5 -22 -27.5 -60 q0 -41 26.5 -58.5 q26.5 -17.5 81.5 -17.5 q45 0 82 3 q37 3 73 5.5 q36 2.5 77 2.5 q53 0 85 -9.5 q32 -9.5 48 -24.5 l0 -225 Z" /><glyph glyph-name="uni046F" unicode="&#x46f;" d="M590 -442 q-19 14 -50.5 23 q-31.5 9 -72.5 9 q-66 0 -131.5 -6 q-65.5 -6 -138.5 -6 q-95 0 -162.5 31 q-67.5 31 -103.5 92.5 q-36 61.5 -36 152.5 q0 74 22.5 131 q22.5 57 68.5 99 q46 42 114.5 70 q68.5 28 159.5 43 q97 17 152.5 36 q55.5 19 79 51 q23.5 32 23.5 84 q0 54 -40.5 84 q-40.5 30 -115.5 30 l-136 0 l43 198 l106 0 q66 0 114.5 15 q48.5 15 75 46.5 q26.5 31.5 26.5 80.5 q0 51 -29.5 75.5 q-29.5 24.5 -95.5 24.5 q-54 0 -116 -17.5 q-62 -17.5 -128 -47.5 l-64 198 q50 23 100.5 40.5 q50.5 17.5 103.5 26.5 q-21 52 -46 102 q-25 50 -56 103 l2 25 l157 0 q35 -40 64 -83.5 q29 -43.5 55 -91.5 q68 91 135 143 q67 52 153 52 q25 0 46.5 -3.5 q21.5 -3.5 40.5 -11.5 l0 -148 q-16 7 -31 10.5 q-15 3.5 -31 3.5 q-32 0 -68 -24.5 q-36 -24.5 -87 -86.5 q77 -28 122.5 -88 q45.5 -60 45.5 -156 q0 -76 -30.5 -130.5 q-30.5 -54.5 -83.5 -90 q-53 -35.5 -123 -56.5 l-1 -10 q78 -21 123 -79 q45 -58 45 -150 q0 -124 -61.5 -198 q-61.5 -74 -167.5 -113.5 q-106 -39.5 -242 -59.5 q-81 -13 -128 -36 q-47 -23 -47 -77 q0 -39 28 -55 q28 -16 76 -16 q55 0 109 6 q54 6 107 6 q47 0 77.5 -8 q30.5 -8 47.5 -23 l0 -220 Z" /><glyph glyph-name="uni0472" unicode="&#x472;" d="M548 -20 q-154 0 -256.5 59.5 q-102.5 59.5 -154.5 173.5 q-52 114 -52 278 q0 115 20 233 q20 118 60 229.5 q40 111.5 99.5 208 q59.5 96.5 139 169 q79.5 72.5 179 113.5 q99.5 41 218.5 41 q231 0 344 -132 q113 -132 113 -370 q0 -117 -19 -237 q-19 -120 -58 -232 q-39 -112 -97.5 -208.5 q-58.5 -96.5 -137.5 -170 q-79 -73.5 -178 -114.5 q-99 -41 -220 -41 ZM569 224 q64 0 118.5 31.5 q54.5 31.5 99.5 87.5 q45 56 79 129.5 q34 73.5 57 157.5 l-541 0 q-5 -35 -8 -72 q-3 -37 -3 -68 q0 -93 23.5 -152 q23.5 -59 68 -86.5 q44.5 -27.5 106.5 -27.5 ZM430 865 l534 0 q4 29 6.5 60 q2.5 31 2.5 59 q0 125 -50 193 q-50 68 -144 68 q-62 0 -115 -30.5 q-53 -30.5 -97 -83 q-44 -52.5 -78.5 -121.5 q-34.5 -69 -58.5 -145 Z" /><glyph glyph-name="uni0473" unicode="&#x473;" d="M444 -20 q-115 0 -199.5 47.5 q-84.5 47.5 -131 136.5 q-46.5 89 -46.5 212 q0 116 23 227 q23 111 68.5 208 q45.5 97 113.5 170.5 q68 73.5 158 115 q90 41.5 201 41.5 q115 0 198.5 -48 q83.5 -48 128.5 -138.5 q45 -90.5 45 -217.5 q0 -114 -22.5 -223.5 q-22.5 -109.5 -67 -205.5 q-44.5 -96 -111.5 -169 q-67 -73 -156.5 -114.5 q-89.5 -41.5 -201.5 -41.5 ZM468 201 q41 0 76 22 q35 22 63.5 59 q28.5 37 50.5 85 q22 48 35 99 l-350 0 q-3 -27 -5 -52 q-2 -25 -2 -45 q0 -82 34 -125 q34 -43 98 -43 ZM382 659 l347 0 q3 21 4 42 q1 21 1 38 q0 84 -30.5 131.5 q-30.5 47.5 -97.5 47.5 q-54 0 -97 -37 q-43 -37 -74.5 -96 q-31.5 -59 -52.5 -126 Z" /><glyph glyph-name="uni0474" unicode="&#x474;" d="M257 0 l-73 1462 l279 0 l18 -840 q2 -47 1.5 -95 q-0.5 -48 -2.5 -96 q-2 -48 -6 -96 l8 0 q12 42 29.5 91 q17.5 49 35.5 94.5 q18 45.5 31 75.5 l217 489 q52 117 102.5 204.5 q50.5 87.5 118 136.5 q67.5 49 168.5 49 q38 0 71 -6.5 q33 -6.5 60 -20.5 l0 -231 q-18 8 -39 12 q-21 4 -40 4 q-35 0 -63 -20.5 q-28 -20.5 -54.5 -62 q-26.5 -41.5 -55.5 -102.5 l-491 -1048 l-315 0 Z" /><glyph glyph-name="uni0475" unicode="&#x475;" d="M198 0 l-85 1117 l270 0 l21 -549 q0 -61 -0.5 -119.5 q-0.5 -58.5 -3.5 -113.5 l9 0 q15 46 36.5 98 q21.5 52 38.5 90 l140 314 q46 104 90.5 168.5 q44.5 64.5 100.5 95 q56 30.5 136 30.5 q33 0 65 -6 q32 -6 55 -19 l0 -220 q-16 8 -33.5 13 q-17.5 5 -35.5 5 q-26 0 -47 -13 q-21 -13 -38 -38.5 q-17 -25.5 -36 -66.5 l-389 -786 l-294 0 Z" /><glyph glyph-name="uni047A" unicode="&#x47a;" d="M560 -126 q-57 0 -86 31.5 q-29 31.5 -29 88.5 q-117 25 -194.5 96 q-77.5 71 -115.5 181 q-38 110 -38 253 q0 160 38.5 318.5 q38.5 158.5 115.5 293 q77 134.5 192.5 225.5 q115.5 91 268.5 114 q11 50 44.5 81 q33.5 31 96.5 31 q56 0 86 -30 q30 -30 30 -87 q117 -26 193.5 -96 q76.5 -70 113.5 -176.5 q37 -106.5 37 -244.5 q0 -131 -24 -261.5 q-24 -130.5 -72.5 -248.5 q-48.5 -118 -122 -213 q-73.5 -95 -171.5 -158 q-98 -63 -221 -82 q-13 -51 -45.5 -83.5 q-32.5 -32.5 -96.5 -32.5 ZM732 268 q52 23 97 72 q45 49 80.5 115.5 q35.5 66.5 61.5 145 q26 78.5 40.5 162 q14.5 83.5 16.5 166.5 q0 67 -12.5 120 q-12.5 53 -37.5 91 q-25 38 -63 60 q-24 -37 -56.5 -56.5 q-32.5 -19.5 -73.5 -19.5 q-36 0 -66.5 18 q-30.5 18 -40.5 56 q-51 -22 -95.5 -70 q-44.5 -48 -80.5 -113.5 q-36 -65.5 -61.5 -142.5 q-25.5 -77 -40 -159.5 q-14.5 -82.5 -16.5 -163.5 q0 -72 13 -129 q13 -57 39 -96 q26 -39 64 -61 q23 35 55.5 55 q32.5 20 72.5 20 q35 0 64 -17.5 q29 -17.5 40 -52.5 Z" /><glyph glyph-name="uni047B" unicode="&#x47b;" d="M462 -115 q-53 0 -78.5 29 q-25.5 29 -26.5 80 q-135 32 -213 136 q-78 104 -78 267 q0 104 19 203.5 q19 99.5 58 188 q39 88.5 97 160 q58 71.5 136 118 q78 46.5 175 62.5 q12 41 41.5 64.5 q29.5 23.5 79.5 23.5 q47 0 72 -24.5 q25 -24.5 30 -67.5 q138 -31 215.5 -139 q77.5 -108 77.5 -271 q0 -102 -18.5 -200 q-18.5 -98 -56 -185.5 q-37.5 -87.5 -95 -158.5 q-57.5 -71 -134.5 -118 q-77 -47 -175 -63 q-11 -47 -40.5 -76 q-29.5 -29 -85.5 -29 ZM402 246 q21 36 51 55 q30 19 66 19 q46 0 66.5 -21 q20.5 -21 34.5 -55 q33 22 61 60.5 q28 38.5 49 87.5 q21 49 36 103.5 q15 54.5 22.5 110.5 q7.5 56 7.5 108 q0 54 -15 95 q-15 41 -47 58 q-20 -41 -50.5 -62.5 q-30.5 -21.5 -68.5 -21.5 q-42 0 -67 21.5 q-25 21.5 -36 60.5 q-34 -27 -61.5 -66.5 q-27.5 -39.5 -48 -86.5 q-20.5 -47 -34.5 -99.5 q-14 -52.5 -21 -106 q-7 -53.5 -8 -105.5 q0 -57 16 -95 q16 -38 47 -60 Z" /><glyph glyph-name="uni047C" unicode="&#x47c;" d="M845 1893 q17 80 49.5 141 q32.5 61 86.5 94.5 q54 33.5 132 33.5 q55 0 101.5 -18 q46.5 -18 90 -41 q43.5 -23 91.5 -41 q48 -18 105 -18 l30 0 l-31 -151 l-21 0 q-65 0 -119 17 q-54 17 -99 39 q-45 22 -85 39 q-40 17 -78 17 q-38 0 -65 -28 q-27 -28 -40 -84 l-148 0 ZM989 1525 l8 83 q35 11 65 23.5 q30 12.5 48.5 29.5 q18.5 17 18.5 39 q0 21 -14.5 30 q-14.5 9 -30.5 20 q-16 9 -29.5 23 q-13.5 14 -13.5 40 q0 37 28 62.5 q28 25.5 81 25.5 q55 0 89.5 -35.5 q34.5 -35.5 34.5 -97.5 q0 -62 -34 -111.5 q-34 -49.5 -97.5 -83 q-63.5 -33.5 -153.5 -48.5 ZM517 -20 q-136 0 -226.5 64.5 q-90.5 64.5 -135 183 q-44.5 118.5 -44.5 279.5 q0 120 18 238 q18 118 53.5 227 q35.5 109 88 202 q52.5 93 121.5 162 q69 69 154.5 107.5 q85.5 38.5 185.5 38.5 q85 0 155 -24.5 q70 -24.5 114 -66.5 l-116 -216 q-29 29 -68 46.5 q-39 17.5 -87 17.5 q-49 0 -93 -32 q-44 -32 -81.5 -88.5 q-37.5 -56.5 -67 -129 q-29.5 -72.5 -50.5 -154.5 q-21 -82 -32.5 -165 q-11.5 -83 -11.5 -160 q0 -138 46 -208.5 q46 -70.5 129 -70.5 q45 0 80 17 q35 17 61 41 l89 418 l273 0 l-88 -416 q16 -27 52.5 -43.5 q36.5 -16.5 81.5 -16.5 q73 0 133 49.5 q60 49.5 105.5 132 q45.5 82.5 76.5 183.5 q31 101 47 205.5 q16 104.5 16 196.5 q0 82 -18 135 q-18 53 -49.5 79 q-31.5 26 -73.5 26 q-40 0 -82.5 -15.5 q-42.5 -15.5 -77.5 -42.5 l-53 215 q55 45 128.5 66 q73.5 21 136.5 21 q118 0 202 -56.5 q84 -56.5 129 -164 q45 -107.5 45 -260.5 q0 -120 -19.5 -242 q-19.5 -122 -57.5 -236.5 q-38 -114.5 -94 -212.5 q-56 -98 -129.5 -172.5 q-73.5 -74.5 -163.5 -116 q-90 -41.5 -196 -41.5 q-74 0 -132 17 q-58 17 -100.5 48 q-42.5 31 -71.5 72 q-64 -64 -137.5 -100.5 q-73.5 -36.5 -164.5 -36.5 Z" /><glyph glyph-name="uni047D" unicode="&#x47d;" d="M632 1588 q15 80 48 140 q33 60 85.5 94.5 q52.5 34.5 125.5 34.5 q55 0 102 -18 q47 -18 92.5 -41 q45.5 -23 96 -41 q50.5 -18 112.5 -18 l25 0 l-34 -151 l-25 0 q-66 0 -119 16.5 q-53 16.5 -97.5 39 q-44.5 22.5 -83.5 39.5 q-39 17 -76 17 q-37 0 -64 -28.5 q-27 -28.5 -38 -83.5 l-150 0 ZM778 1219 l10 84 q35 9 65.5 21.5 q30.5 12.5 49 29.5 q18.5 17 18.5 40 q0 18 -13 28 q-13 10 -29 20 q-18 11 -32.5 24 q-14.5 13 -14.5 40 q0 37 28 63.5 q28 26.5 80 26.5 q56 0 90 -36 q34 -36 34 -97 q0 -61 -33 -110.5 q-33 -49.5 -97 -83.5 q-64 -34 -156 -50 ZM386 -20 q-100 0 -172 40.5 q-72 40.5 -110.5 120 q-38.5 79.5 -37.5 194.5 q-1 130 21.5 249.5 q22.5 119.5 65.5 220 q43 100.5 106 175.5 q63 75 144.5 116.5 q81.5 41.5 180.5 41.5 q74 0 130 -17 q56 -17 93 -43 l-97 -211 q-33 23 -60.5 32.5 q-27.5 9.5 -53.5 9.5 q-54 0 -95.5 -36.5 q-41.5 -36.5 -72 -95.5 q-30.5 -59 -49.5 -128.5 q-19 -69.5 -28.5 -136.5 q-9.5 -67 -9.5 -119 q0 -93 30 -140 q30 -47 82 -47 q29 0 60 18.5 q31 18.5 56 56.5 l70 328 l270 0 l-71 -332 q11 -32 40 -49.5 q29 -17.5 63 -17.5 q43 0 80 33.5 q37 33.5 67 90.5 q30 57 51.5 127.5 q21.5 70.5 32.5 144 q11 73.5 12 139.5 q0 81 -29.5 122.5 q-29.5 41.5 -79.5 41.5 q-28 0 -56.5 -9 q-28.5 -9 -68.5 -33 l-37 204 q52 32 105 49.5 q53 17.5 116 17.5 q101 0 174 -39 q73 -39 113 -121.5 q40 -82.5 40 -212.5 q0 -123 -22 -239 q-22 -116 -65.5 -215 q-43.5 -99 -105.5 -173.5 q-62 -74.5 -141 -116 q-79 -41.5 -174 -41.5 q-106 0 -176.5 40 q-70.5 40 -102.5 98 q-67 -76 -133.5 -107 q-66.5 -31 -154.5 -31 Z" /><glyph glyph-name="uni0480" unicode="&#x480;" d="M414 -479 l99 461 q-141 5 -233 70 q-92 65 -137 180 q-45 115 -45 266 q0 133 28.5 272 q28.5 139 85 267 q56.5 128 142.5 228.5 q86 100.5 201 159.5 q115 59 259 59 q110 0 199 -24 q89 -24 165 -72 l-122 -228 q-56 38 -115 60 q-59 22 -124 22 q-85 0 -154 -46.5 q-69 -46.5 -120 -124 q-51 -77.5 -85.5 -174 q-34.5 -96.5 -52 -197.5 q-17.5 -101 -17.5 -193 q0 -146 54 -214.5 q54 -68.5 165 -68.5 q40 0 79 5 q39 5 80 15 q41 10 84 25 l-159 -748 l-277 0 Z" /><glyph glyph-name="uni0481" unicode="&#x481;" d="M262 -466 l99 449 q-89 10 -155.5 55 q-66.5 45 -103 125.5 q-36.5 80.5 -36.5 196.5 q0 118 23 231.5 q23 113.5 68 212.5 q45 99 112 174 q67 75 154.5 117.5 q87.5 42.5 195.5 42.5 q85 0 154 -18 q69 -18 129 -53 l-97 -213 q-41 23 -85 39 q-44 16 -94 16 q-68 0 -120 -48.5 q-52 -48.5 -88 -126.5 q-36 -78 -54.5 -169 q-18.5 -91 -18.5 -176 q0 -62 16.5 -102.5 q16.5 -40.5 47.5 -59.5 q31 -19 75 -19 q50 0 100.5 12.5 q50.5 12.5 103.5 37.5 l-155 -724 l-271 0 Z" /><glyph glyph-name="uni0482" unicode="&#x482;" d="M284 -8 l-153 87 l168 298 l-239 134 l84 147 l240 -135 l187 333 l-239 137 l84 146 l240 -136 l166 294 l152 -86 l-167 -295 l241 -136 l-84 -146 l-240 135 l-188 -334 l239 -137 l-82 -145 l-242 135 l-167 -296 Z" /><glyph glyph-name="uni0488" unicode="&#x488;" d="M1285 942 q5 91 62 145 q57 54 156 54 q95 0 154 -53 q59 -53 66 -146 l-90 0 q-5 49 -38 67 q-33 18 -93 18 q-59 0 -91 -17 q-32 -17 -38 -68 l-88 0 ZM188 -41 q5 91 62 145 q57 54 157 54 q99 0 156 -54 q57 -54 62 -145 l-89 0 q-5 49 -38.5 67 q-33.5 18 -91.5 18 q-60 0 -92.5 -17 q-32.5 -17 -37.5 -68 l-88 0 ZM732 -319 q5 91 61.5 144.5 q56.5 53.5 155.5 53.5 q96 0 154.5 -53 q58.5 -53 64.5 -145 l-88 0 q-6 49 -39 67 q-33 18 -93 18 q-59 0 -91.5 -17.5 q-32.5 -17.5 -37.5 -67.5 l-87 0 ZM25 457 q5 91 62.5 144.5 q57.5 53.5 156.5 53.5 q100 0 156.5 -54 q56.5 -54 61.5 -144 l-89 0 q-5 49 -38.5 66.5 q-33.5 17.5 -91.5 17.5 q-60 0 -92.5 -16.5 q-32.5 -16.5 -37.5 -67.5 l-88 0 ZM188 942 q5 92 63 145.5 q58 53.5 156 53.5 q99 0 156 -54 q57 -54 62 -145 l-89 0 q-5 49 -38.5 67 q-33.5 18 -91.5 18 q-61 0 -93.5 -17 q-32.5 -17 -36.5 -68 l-88 0 ZM1285 -41 q5 91 62 145 q57 54 156 54 q95 0 154 -53 q59 -53 66 -146 l-90 0 q-5 49 -38 67 q-33 18 -93 18 q-58 0 -90.5 -17 q-32.5 -17 -38.5 -68 l-88 0 ZM1456 457 q5 91 62.5 144.5 q57.5 53.5 156.5 53.5 q99 0 155.5 -54 q56.5 -54 62.5 -144 l-89 0 q-6 49 -39 66.5 q-33 17.5 -91 17.5 q-61 0 -93.5 -16.5 q-32.5 -16.5 -37.5 -67.5 l-87 0 ZM732 1227 q6 92 63 145 q57 53 154 53 q99 0 156.5 -53 q57.5 -53 62.5 -145 l-88 0 q-6 49 -39 67 q-33 18 -93 18 q-59 0 -91 -17 q-32 -17 -38 -68 l-87 0 Z" /><glyph glyph-name="uni0489" unicode="&#x489;" d="M1393 925 l-110 111 l4 16 q45 27 99.5 54 q54.5 27 111.5 51 q57 24 110 42 l76 -73 q-33 -20 -71 -45.5 q-38 -25.5 -77.5 -52.5 q-39.5 -27 -76 -53.5 q-36.5 -26.5 -66.5 -49.5 ZM287 -116 l-77 77 q73 45 150.5 96.5 q77.5 51.5 141.5 101.5 l110 -110 l-4 -17 q-45 -26 -99 -53 q-54 -27 -111 -51 q-57 -24 -111 -44 ZM367 434 q-51 13 -109 32.5 q-58 19.5 -115 43.5 q-57 24 -108 47 l0 110 q89 -24 180 -41.5 q91 -17.5 166 -27.5 l0 -155 l-14 -9 ZM836 -381 q22 101 39.5 192.5 q17.5 91.5 25.5 153.5 l157 0 l8 -15 q-9 -38 -23 -80 q-14 -42 -30 -85.5 q-16 -43.5 -34 -85.5 q-18 -42 -36 -80 l-107 0 ZM1524 -197 q-34 55 -69.5 108 q-35.5 53 -68 100 q-32.5 47 -60.5 82 l110 110 l16 -4 q20 -33 40.5 -73 q20.5 -40 40 -82.5 q19.5 -42.5 36.5 -84 q17 -41.5 31 -80.5 l-76 -76 ZM456 880 l-17 5 q-19 34 -39 73 q-20 39 -39.5 81.5 q-19.5 42.5 -37 84.5 q-17.5 42 -31.5 81 l76 76 q30 -50 65 -104 q35 -54 70 -102.5 q35 -48.5 63 -83.5 l-110 -111 ZM1858 440 q-70 17 -132.5 29.5 q-62.5 12.5 -116.5 22 q-54 9.5 -97 14.5 l0 156 l15 9 q38 -10 80.5 -24 q42.5 -14 86 -30 q43.5 -16 85.5 -33.5 q42 -17.5 79 -35.5 l0 -108 ZM838 1141 l-9 15 q14 51 33.5 109 q19.5 58 43 115.5 q23.5 57.5 46.5 106.5 l109 0 q-23 -96 -40 -182.5 q-17 -86.5 -27 -163.5 l-156 0 Z" /><glyph glyph-name="uni048A" unicode="&#x48a;" d="M777 -425 l240 425 l-195 0 l145 686 q11 52 24 108 q13 56 27.5 114 q14.5 58 30.5 116 l-8 1 l-678 -1025 l-338 0 l309 1462 l265 0 l-147 -691 q-9 -45 -22 -100 q-13 -55 -27 -111.5 q-14 -56.5 -29 -106.5 l9 0 l675 1009 l336 0 l-256 -1208 l240 0 l-290 -679 l-311 0 ZM877 1578 q-132 0 -206.5 38 q-74.5 38 -105.5 101.5 q-31 63.5 -31 140.5 q0 15 2 33.5 q2 18.5 4 34.5 l232 0 q-2 -19 -3.5 -35 q-1.5 -16 -1.5 -30 q0 -61 33 -91 q33 -30 96 -30 q74 0 120.5 44 q46.5 44 69.5 142 l235 0 q-26 -113 -80 -190.5 q-54 -77.5 -143 -117.5 q-89 -40 -221 -40 Z" /><glyph glyph-name="uni048B" unicode="&#x48b;" d="M557 -399 l201 399 l-143 0 l14 158 l-7 0 q-37 -54 -81.5 -94 q-44.5 -40 -97 -62 q-52.5 -22 -112.5 -22 q-83 0 -140 34 q-57 34 -86 97 q-29 63 -29 149 q0 39 8 94 q8 55 19 110 l139 653 l272 0 l-134 -638 q-10 -45 -16.5 -86.5 q-6.5 -41.5 -6.5 -75.5 q0 -52 21.5 -78.5 q21.5 -26.5 66.5 -26.5 q58 0 103.5 50 q45.5 50 80 136 q34.5 86 56.5 195 l113 524 l272 0 l-191 -901 l204 0 l-256 -615 l-270 0 ZM679 1238 q-131 0 -206 38 q-75 38 -106 101.5 q-31 63.5 -31 140.5 q0 15 2 33.5 q2 18.5 5 34.5 l232 0 q-3 -19 -4 -35 q-1 -16 -1 -30 q0 -61 33 -91 q33 -30 96 -30 q74 0 120.5 44 q46.5 44 68.5 142 l235 0 q-26 -113 -80 -190.5 q-54 -77.5 -142.5 -117.5 q-88.5 -40 -221.5 -40 Z" /><glyph glyph-name="uni048C" unicode="&#x48c;" d="M26 0 l227 1072 l-134 0 l48 226 l132 0 l35 164 l281 0 l-35 -164 l244 0 l-50 -226 l-241 0 l-37 -173 l58 0 q145 0 238 -45 q93 -45 138.5 -128.5 q45.5 -83.5 45.5 -200.5 q0 -113 -36 -209 q-36 -96 -107.5 -166.5 q-71.5 -70.5 -178.5 -110 q-107 -39.5 -249 -39.5 l-379 0 ZM356 239 l81 0 q68 0 115.5 21 q47.5 21 78 58 q30.5 37 45 85.5 q14.5 48.5 14.5 103.5 q0 80 -43.5 117 q-43.5 37 -128.5 37 l-72 0 l-90 -422 Z" /><glyph glyph-name="uni048D" unicode="&#x48d;" d="M419 -20 q-122 0 -197.5 37.5 q-75.5 37.5 -110 103.5 q-34.5 66 -34.5 154 q0 35 5.5 76 q5.5 41 15.5 87 l151 710 l-157 0 l39 189 l159 0 l47 218 l274 0 l-48 -218 l246 0 l-40 -189 l-246 0 l-102 -479 q29 7 67 10.5 q38 3.5 85 3.5 q108 0 181 -35.5 q73 -35.5 110.5 -101.5 q37.5 -66 37.5 -158 q0 -111 -52.5 -204 q-52.5 -93 -159 -148.5 q-106.5 -55.5 -271.5 -55.5 ZM458 179 q41 0 72 16 q31 16 51.5 42.5 q20.5 26.5 31.5 59.5 q11 33 11 67 q0 38 -12.5 65 q-12.5 27 -40 41 q-27.5 14 -71.5 14 q-25 0 -56 -4 q-31 -4 -64 -10 q-9 -42 -16.5 -76 q-7.5 -34 -11 -60.5 q-3.5 -26.5 -3.5 -45.5 q0 -47 25.5 -78 q25.5 -31 83.5 -31 Z" /><glyph glyph-name="uni048E" unicode="&#x48e;" d="M25 0 l309 1462 l363 0 q149 0 247 -45 q98 -45 146 -130 q48 -85 48 -206 q0 -160 -70.5 -286 q-70.5 -126 -196.5 -195 l59 -154 l-154 -61 l-62 158 q-40 -9 -84 -14 q-44 -5 -91 -5 l-124 0 l-110 -524 l-280 0 ZM466 759 l88 0 q20 0 38.5 2 q18.5 2 36.5 6 l-55 150 l153 60 l51 -127 q36 37 55 90 q19 53 19 121 q0 82 -45 124 q-45 42 -137 42 l-106 0 l-98 -468 Z" /><glyph glyph-name="uni048F" unicode="&#x48f;" d="M694 -167 l-254 565 l143 71 l253 -565 l-142 -71 ZM-91 -487 l340 1604 l215 0 l-14 -160 l8 0 q37 54 79.5 95 q42.5 41 93.5 63.5 q51 22.5 111 22.5 q75 0 136 -37.5 q61 -37.5 97 -118.5 q36 -81 36 -211 q0 -102 -21 -212 q-21 -110 -61 -213 q-40 -103 -98.5 -186 q-58.5 -83 -134.5 -131.5 q-76 -48.5 -168 -48.5 q-57 0 -99 19.5 q-42 19.5 -71.5 54.5 q-29.5 35 -51.5 81 l-7 0 q-6 -68 -15.5 -127 q-9.5 -59 -21.5 -115 l-81 -380 l-272 0 ZM481 209 q44 0 82 34.5 q38 34.5 69 92.5 q31 58 53.5 129 q22.5 71 34 145 q11.5 74 11.5 140 q0 82 -25.5 122 q-25.5 40 -75.5 40 q-44 0 -80.5 -28.5 q-36.5 -28.5 -65.5 -75.5 q-29 -47 -50.5 -105.5 q-21.5 -58.5 -36 -120.5 q-14.5 -62 -21.5 -118 q-7 -56 -7 -98 q0 -74 29.5 -115.5 q29.5 -41.5 82.5 -41.5 Z" /><glyph glyph-name="uni0492" unicode="&#x492;" d="M25 0 l128 607 l-122 0 l51 236 l121 0 l131 619 l718 0 l-50 -238 l-440 0 l-80 -381 l266 0 l-51 -236 l-266 0 l-128 -607 l-278 0 Z" /><glyph glyph-name="uni0493" unicode="&#x493;" d="M12 0 l91 423 l-120 0 l46 220 l120 0 l101 474 l641 0 l-49 -229 l-368 0 l-53 -245 l218 0 l-46 -220 l-218 0 l-89 -423 l-274 0 Z" /><glyph glyph-name="uni0494" unicode="&#x494;" d="M415 -504 q-66 0 -125.5 11 q-59.5 11 -106.5 31 l0 247 q50 -22 106.5 -34.5 q56.5 -12.5 111.5 -12.5 q65 0 118.5 31.5 q53.5 31.5 94 87 q40.5 55.5 68 127.5 q27.5 72 41.5 153.5 q14 81.5 14 164.5 q0 131 -53.5 200 q-53.5 69 -157.5 69 q-29 0 -57.5 -3.5 q-28.5 -3.5 -47.5 -9.5 l-118 -558 l-278 0 l309 1462 l718 0 l-50 -238 l-439 0 l-91 -429 q31 8 70 13 q39 5 77 5 q83 0 156.5 -28 q73.5 -28 130 -88 q56.5 -60 88 -154.5 q31.5 -94.5 31.5 -227.5 q0 -119 -24 -237 q-24 -118 -72.5 -222.5 q-48.5 -104.5 -121 -185.5 q-72.5 -81 -171 -127.5 q-98.5 -46.5 -221.5 -46.5 Z" /><glyph glyph-name="uni0495" unicode="&#x495;" d="M328 -497 q-55 0 -112.5 10.5 q-57.5 10.5 -96.5 30.5 l0 243 q42 -25 88.5 -36.5 q46.5 -11.5 90.5 -11.5 q60 0 105.5 27.5 q45.5 27.5 78.5 76 q33 48.5 54 109.5 q21 61 31 127.5 q10 66.5 10 131.5 q0 95 -34 146 q-34 51 -104 51 q-19 0 -38 -4 q-19 -4 -32 -11 l-83 -393 l-274 0 l238 1117 l641 0 l-49 -229 l-368 0 l-57 -269 q19 6 47.5 10.5 q28.5 4.5 61.5 4.5 q107 0 180.5 -48.5 q73.5 -48.5 111 -140 q37.5 -91.5 37.5 -219.5 q0 -98 -18.5 -200 q-18.5 -102 -57.5 -195.5 q-39 -93.5 -101 -167.5 q-62 -74 -149 -117 q-87 -43 -201 -43 Z" /><glyph glyph-name="uni0496" unicode="&#x496;" d="M1141 -425 l91 425 l-70 0 l-209 732 l-155 -732 l-270 0 l154 731 l-502 -731 l-311 0 l553 775 l-228 687 l282 0 l214 -692 l147 692 l271 0 l-147 -692 l489 692 l303 0 l-530 -717 l158 -509 l178 0 l-143 -661 l-275 0 Z" /><glyph glyph-name="uni0497" unicode="&#x497;" d="M1241 -400 l91 402 q-101 30 -160 121 q-59 91 -59 242 q0 23 1.5 47 q1.5 24 3.5 48 l-148 0 l-97 -460 l-263 0 l97 460 l-136 0 q-29 -113 -75.5 -202 q-46.5 -89 -110 -150.5 q-63.5 -61.5 -143.5 -94 q-80 -32.5 -176 -32.5 q-34 0 -63.5 3.5 q-29.5 3.5 -54.5 8.5 l53 223 q15 -3 29.5 -5 q14.5 -2 34.5 -2 q53 0 96 32 q43 32 76 86 q33 54 56 121.5 q23 67.5 34 140.5 q11 73 11 141 q0 90 -31 134.5 q-31 44.5 -89 44.5 q-23 0 -45 -5.5 q-22 -5.5 -45 -13.5 l0 224 q28 10 65 16.5 q37 6.5 83 6.5 q102 0 176.5 -44.5 q74.5 -44.5 115 -130.5 q40.5 -86 40.5 -212 q0 -21 -1 -43.5 q-1 -22.5 -5 -44.5 l148 0 l98 455 l263 0 l-97 -455 l138 0 q26 102 70.5 188.5 q44.5 86.5 107.5 151 q63 64.5 145 100 q82 35.5 183 35.5 q34 0 63 -3 q29 -3 54 -9 l-56 -224 q-14 4 -29 6 q-15 2 -33 2 q-54 0 -97.5 -32.5 q-43.5 -32.5 -76 -87 q-32.5 -54.5 -55 -122 q-22.5 -67.5 -33.5 -140 q-11 -72.5 -11 -140.5 q0 -88 32.5 -133 q32.5 -45 91.5 -45 q38 0 66.5 6.5 q28.5 6.5 60.5 20.5 l-133 -636 l-261 0 Z" /><glyph glyph-name="uni049A" unicode="&#x49a;" d="M707 -425 l91 425 l-123 0 l-216 732 l-154 -732 l-280 0 l309 1462 l281 0 l-148 -692 l496 692 l311 0 l-533 -717 l165 -509 l219 0 l-142 -661 l-276 0 Z" /><glyph glyph-name="uni049B" unicode="&#x49b;" d="M612 -399 l91 399 l-99 0 l-200 550 l-118 -550 l-273 0 l238 1117 l274 0 l-112 -522 l392 522 l307 0 l-429 -553 l129 -333 l192 0 l-133 -630 l-259 0 Z" /><glyph glyph-name="uni049C" unicode="&#x49c;" d="M440 160 l249 1177 l132 0 l-251 -1177 l-130 0 ZM25 0 l309 1462 l281 0 l-148 -692 l521 692 l310 0 l-570 -717 l275 -745 l-302 0 l-242 732 l-154 -732 l-280 0 Z" /><glyph glyph-name="uni049D" unicode="&#x49d;" d="M39 0 l239 1117 l273 0 l-113 -527 l449 527 l308 0 l-483 -554 l274 -563 l-302 0 l-254 556 l-118 -556 l-273 0 ZM405 98 l194 917 l123 0 l-195 -917 l-122 0 Z" /><glyph glyph-name="uni049E" unicode="&#x49e;" d="M25 0 l232 1102 l-114 0 l47 225 l115 0 l29 135 l281 0 l-29 -135 l123 0 l-48 -225 l-123 0 l-71 -332 l496 692 l311 0 l-533 -717 l238 -745 l-304 0 l-216 732 l-154 -732 l-280 0 Z" /><glyph glyph-name="uni049F" unicode="&#x49f;" d="M13 0 l258 1209 l-135 0 l40 189 l135 0 l34 162 l274 0 l-35 -162 l254 0 l-41 -189 l-254 0 l-130 -614 l392 522 l307 0 l-429 -553 l222 -564 l-301 0 l-200 550 l-118 -550 l-273 0 Z" /><glyph glyph-name="uni04A0" unicode="&#x4a0;" d="M192 0 l258 1220 l-278 0 l50 242 l561 0 l-148 -692 l496 692 l310 0 l-532 -717 l237 -745 l-303 0 l-216 732 l-155 -732 l-280 0 Z" /><glyph glyph-name="uni04A1" unicode="&#x4a1;" d="M158 0 l191 898 l-264 0 l46 219 l538 1 l-111 -523 l393 522 l306 0 l-428 -553 l221 -564 l-302 0 l-199 550 l-118 -550 l-273 0 Z" /><glyph glyph-name="uni04A2" unicode="&#x4a2;" d="M832 -425 l92 425 l-223 0 l136 640 l-396 0 l-136 -640 l-280 0 l309 1462 l281 0 l-123 -579 l397 0 l123 579 l281 0 l-261 -1226 l217 0 l-141 -661 l-276 0 Z" /><glyph glyph-name="uni04A3" unicode="&#x4a3;" d="M677 -399 l90 399 l-191 0 l98 465 l-289 0 l-98 -465 l-275 0 l239 1117 l275 0 l-94 -433 l289 0 l91 433 l274 0 l-189 -886 l172 0 l-133 -630 l-259 0 Z" /><glyph glyph-name="uni04A4" unicode="&#x4a4;" d="M25 0 l309 1462 l281 0 l-123 -579 l397 0 l123 579 l550 0 l-50 -242 l-271 0 l-259 -1220 l-281 0 l136 640 l-396 0 l-136 -640 l-280 0 Z" /><glyph glyph-name="uni04A5" unicode="&#x4a5;" d="M12 0 l239 1117 l275 0 l-94 -433 l289 0 l91 433 l545 0 l-47 -219 l-270 0 l-192 -898 l-272 0 l98 465 l-289 0 l-98 -465 l-275 0 Z" /><glyph glyph-name="uni04A6" unicode="&#x4a6;" d="M1061 -504 q-65 0 -123 10 q-58 10 -112 32 l0 247 q51 -22 107 -34.5 q56 -12.5 112 -12.5 q66 0 119.5 32.5 q53.5 32.5 94 88 q40.5 55.5 68 128 q27.5 72.5 41.5 153.5 q14 81 14 162 q0 91 -25.5 150.5 q-25.5 59.5 -73 89 q-47.5 29.5 -113.5 29.5 q-31 0 -57.5 -3.5 q-26.5 -3.5 -46.5 -9.5 l-118 -558 l-280 0 l259 1220 l-363 0 l-259 -1220 l-280 0 l309 1462 l924 0 l-142 -667 q30 8 69.5 13 q39.5 5 78.5 5 q82 0 155 -28 q73 -28 129.5 -88 q56.5 -60 88.5 -154.5 q32 -94.5 32 -227.5 q0 -100 -17 -199.5 q-17 -99.5 -51 -191 q-34 -91.5 -85 -169.5 q-51 -78 -118.5 -136 q-67.5 -58 -151.5 -90.5 q-84 -32.5 -185 -32.5 Z" /><glyph glyph-name="uni04A7" unicode="&#x4a7;" d="M881 -497 q-55 0 -113 10.5 q-58 10.5 -97 30.5 l0 243 q42 -25 88.5 -36.5 q46.5 -11.5 90.5 -11.5 q60 0 105.5 28 q45.5 28 78.5 77 q33 49 54 110 q21 61 31 127.5 q10 66.5 10 129.5 q0 95 -33.5 146 q-33.5 51 -104.5 51 q-18 0 -36.5 -4 q-18.5 -4 -33.5 -9 l-83 -395 l-272 0 l188 898 l-277 0 l-190 -898 l-275 0 l239 1117 l824 0 l-106 -498 q20 6 48 10.5 q28 4.5 60 4.5 q81 0 142 -28 q61 -28 103 -80.5 q42 -52.5 63 -128 q21 -75.5 21 -171.5 q0 -98 -18 -200 q-18 -102 -57 -195.5 q-39 -93.5 -101 -167.5 q-62 -74 -148.5 -117 q-86.5 -43 -200.5 -43 Z" /><glyph glyph-name="uni04A8" unicode="&#x4a8;" d="M1024 -84 q-82 0 -151 25 q-69 25 -119 72 q-33 -11 -68 -18 q-35 -7 -70.5 -11 q-35.5 -4 -72.5 -4 q-139 0 -239 60.5 q-100 60.5 -152.5 175 q-52.5 114.5 -52.5 276.5 q0 139 28.5 280.5 q28.5 141.5 85.5 269 q57 127.5 142.5 227.5 q85.5 100 198 157.5 q112.5 57.5 252.5 57.5 q70 0 127 -11 q57 -11 109 -34 l-92 -226 q-30 14 -64.5 22.5 q-34.5 8.5 -75.5 8.5 q-81 0 -148 -45.5 q-67 -45.5 -118.5 -123.5 q-51.5 -78 -87 -175 q-35.5 -97 -53.5 -200 q-18 -103 -18 -198 q0 -86 19 -149.5 q19 -63.5 57.5 -99 q38.5 -35.5 95.5 -37.5 q16 0 32 2.5 q16 2.5 32 6.5 q-24 51 -37 117.5 q-13 66.5 -13 144.5 q0 138 31 256 q31 118 88.5 205.5 q57.5 87.5 137 136 q79.5 48.5 177.5 48.5 q100 0 168 -37 q68 -37 103 -108.5 q35 -71.5 35 -174.5 q0 -92 -22 -183 q-22 -91 -63 -175.5 q-41 -84.5 -99 -158 q-58 -73.5 -131 -130.5 q18 -11 40 -16.5 q22 -5.5 51 -5.5 q31 0 64.5 7 q33.5 7 69.5 20 l-21 -228 q-36 -15 -85.5 -21 q-49.5 -6 -90.5 -6 ZM852 323 q45 40 82 97.5 q37 57.5 63.5 124.5 q26.5 67 41 135.5 q14.5 68.5 14.5 130.5 q0 33 -7 55.5 q-7 22.5 -20 34 q-13 11.5 -32 11.5 q-38 0 -69.5 -38 q-31.5 -38 -53.5 -100.5 q-22 -62.5 -34 -137.5 q-12 -75 -12 -149 q0 -49 8.5 -92.5 q8.5 -43.5 18.5 -71.5 Z" /><glyph glyph-name="uni04A9" unicode="&#x4a9;" d="M869 -67 q-71 0 -130 23 q-59 23 -103 62 q-41 -16 -94 -27 q-53 -11 -111 -11 q-118 0 -199.5 48.5 q-81.5 48.5 -123 140.5 q-41.5 92 -41.5 222 q0 109 21.5 217 q21.5 108 65 203.5 q43.5 95.5 110 169 q66.5 73.5 157 115.5 q90.5 42 205.5 42 q50 0 101.5 -9 q51.5 -9 89.5 -27 l-79 -209 q-26 10 -54 16 q-28 6 -55 6 q-60 0 -107 -33.5 q-47 -33.5 -81 -89 q-34 -55.5 -56 -123.5 q-22 -68 -33 -137.5 q-11 -69.5 -11 -130.5 q0 -73 15 -119 q15 -46 42.5 -68.5 q27.5 -22.5 66.5 -23.5 q16 -1 29.5 2 q13.5 3 25.5 8 q-15 31 -27 80.5 q-12 49.5 -12 103.5 q0 95 22 179.5 q22 84.5 66.5 149 q44.5 64.5 111 101.5 q66.5 37 155.5 37 q114 0 187.5 -65.5 q73.5 -65.5 73.5 -199.5 q0 -91 -29 -174 q-29 -83 -79.5 -151.5 q-50.5 -68.5 -117.5 -116.5 q11 -5 24 -8 q13 -3 31 -3 q29 0 59.5 7 q30.5 7 54.5 17 l0 -197 q-21 -8 -49.5 -14 q-28.5 -6 -59.5 -9.5 q-31 -3.5 -62 -3.5 ZM731 268 q40 31 71 83 q31 52 49 111.5 q18 59.5 18 113.5 q0 37 -12.5 58 q-12.5 21 -39.5 21 q-27 0 -48 -23.5 q-21 -23.5 -35 -61 q-14 -37.5 -21.5 -81 q-7.5 -43.5 -7.5 -84.5 q0 -36 6.5 -74 q6.5 -38 19.5 -63 Z" /><glyph glyph-name="uni04AC" unicode="&#x4ac;" d="M336 -425 l91 425 l-222 0 l258 1220 l-298 0 l52 242 l877 0 l-52 -242 l-298 0 l-208 -984 l218 0 l-142 -661 l-276 0 Z" /><glyph glyph-name="uni04AD" unicode="&#x4ad;" d="M1171 -400 l91 400 q-51 10 -85 50 q-34 40 -34 105 q0 28 4.5 57.5 q4.5 29.5 9.5 62.5 l85 395 q8 37 12.5 69.5 q4.5 32.5 4.5 58.5 q0 55 -20.5 80.5 q-20.5 25.5 -62.5 25.5 q-42 0 -78 -28 q-36 -28 -65 -77 q-29 -49 -50 -111 q-21 -62 -34 -129 l-118 -559 l-273 0 l142 671 q8 37 12.5 70 q4.5 33 4.5 58 q0 54 -20.5 79.5 q-20.5 25.5 -61.5 25.5 q-45 0 -82 -31 q-37 -31 -66.5 -84 q-29.5 -53 -51.5 -120 q-22 -67 -37 -138 l-112 -531 l-274 0 l237 1117 l213 0 l-17 -171 l8 0 q36 58 81.5 101 q45.5 43 100 67 q54.5 24 118.5 24 q100 0 156 -48 q56 -48 75 -139 l7 0 q37 56 84 98 q47 42 103 65.5 q56 23.5 119 23.5 q119 0 181 -73 q62 -73 62 -203 q0 -35 -5.5 -79 q-5.5 -44 -15.5 -92 l-76 -363 q-4 -19 -6 -33 q-2 -14 -2 -26 q0 -23 12.5 -34 q12.5 -11 35.5 -11 q21 0 42.5 5 q21.5 5 40.5 13 l-136 -642 l-259 0 Z" /><glyph glyph-name="uni04AF" unicode="&#x4af;" d="M100 -492 l104 491 l-91 1118 l270 0 l21 -556 q0 -44 1 -103.5 q1 -59.5 0 -120.5 l8 0 q15 49 37 105.5 q22 56.5 46 109.5 l260 565 l291 0 l-563 -1117 l-105 -492 l-279 0 Z" /><glyph glyph-name="uni04B0" unicode="&#x4b0;" d="M243 0 l61 290 l-241 0 l50 237 l242 0 l7 33 l-178 902 l290 0 l87 -580 l330 580 l308 0 l-558 -900 l-7 -35 l248 0 l-49 -237 l-249 0 l-62 -290 l-279 0 Z" /><glyph glyph-name="uni04B1" unicode="&#x4b1;" d="M100 -492 l59 277 l-224 0 l45 215 l224 0 l-91 1117 l270 0 l21 -556 q0 -46 0 -104.5 q0 -58.5 -2 -121.5 l9 0 q15 46 35.5 99.5 q20.5 53.5 44.5 105.5 l265 577 l291 0 l-563 -1117 l232 0 l-46 -215 l-232 0 l-59 -277 l-279 0 Z" /><glyph glyph-name="uni04B2" unicode="&#x4b2;" d="M672 -425 l92 425 l-124 0 l-114 513 l-336 -513 l-308 0 l516 757 l-180 705 l294 0 l104 -483 l299 483 l309 0 l-481 -721 l133 -505 l214 0 l-142 -661 l-276 0 Z" /><glyph glyph-name="uni04B3" unicode="&#x4b3;" d="M561 -399 l90 399 l-119 0 l-90 348 l-235 -348 l-307 0 l422 574 l-172 543 l295 0 l82 -332 l216 332 l311 0 l-409 -555 l105 -331 l202 0 l-133 -630 l-258 0 Z" /><glyph glyph-name="uni04B4" unicode="&#x4b4;" d="M965 -425 l91 425 l-854 0 l258 1220 l-296 0 l51 242 l844 0 l-51 -242 l-268 0 l-205 -978 l392 0 l259 1220 l280 0 l-258 -1216 l177 0 l-144 -671 l-276 0 Z" /><glyph glyph-name="uni04B5" unicode="&#x4b5;" d="M781 -400 l92 407 q-30 14 -50 35.5 q-20 21.5 -31.5 51 q-11.5 29.5 -17.5 65.5 l-8 0 q-38 -54 -84.5 -94.5 q-46.5 -40.5 -101 -62.5 q-54.5 -22 -117.5 -22 q-87 0 -146.5 33.5 q-59.5 33.5 -89 95 q-29.5 61.5 -29.5 144.5 q0 47 8 102 q8 55 19 108 l93 435 l-228 0 l46 219 l707 0 l-47 -219 l-206 0 l-88 -422 q-10 -43 -16.5 -86.5 q-6.5 -43.5 -6.5 -73.5 q0 -51 21.5 -77.5 q21.5 -26.5 67.5 -26.5 q64 0 114.5 47 q50.5 47 88 133 q37.5 86 61.5 201 l111 524 l274 0 l-160 -754 q-5 -25 -8.5 -47 q-3.5 -22 -3.5 -39 q0 -31 15.5 -44 q15.5 -13 39.5 -13 q18 0 36 3 q18 3 38 9 l-134 -632 l-259 0 Z" /><glyph glyph-name="uni04B6" unicode="&#x4b6;" d="M770 -425 l93 425 l-221 0 l118 559 q-68 -32 -147.5 -56.5 q-79.5 -24.5 -155.5 -24.5 q-84 0 -151.5 31 q-67.5 31 -106.5 95 q-39 64 -39 162 q0 29 4.5 66.5 q4.5 37.5 13.5 75.5 l115 554 l280 0 l-110 -521 q-5 -30 -9 -54 q-4 -24 -4 -46 q0 -60 31 -90 q31 -30 88 -30 q64 0 123.5 20.5 q59.5 20.5 115.5 49.5 l143 671 l281 0 l-260 -1226 l216 0 l-141 -661 l-277 0 Z" /><glyph glyph-name="uni04B7" unicode="&#x4b7;" d="M645 -399 l91 399 l-192 0 l65 303 q8 42 19 85.5 q11 43.5 23 85.5 l-7 0 q-50 -60 -113.5 -94.5 q-63.5 -34.5 -144.5 -34.5 q-78 0 -134.5 34.5 q-56.5 34.5 -86.5 97.5 q-30 63 -30 149 q0 38 8 89.5 q8 51.5 19 104.5 l63 297 l273 0 l-62 -292 q-8 -39 -14 -75 q-6 -36 -6 -67 q0 -50 24.5 -78.5 q24.5 -28.5 68.5 -28.5 q57 0 99.5 37 q42.5 37 75 113.5 q32.5 76.5 56.5 194.5 l42 196 l273 0 l-189 -886 l173 0 l-135 -630 l-259 0 Z" /><glyph glyph-name="uni04B8" unicode="&#x4b8;" d="M678 0 l118 559 q-36 -18 -76 -34 q-40 -16 -79 -25 l-67 -317 l-132 0 l63 298 q-107 1 -184.5 33.5 q-77.5 32.5 -118.5 97 q-41 64.5 -41 162.5 q0 30 4.5 67.5 q4.5 37.5 13.5 76.5 l113 544 l280 0 l-109 -521 q-5 -30 -9 -54 q-4 -24 -4 -46 q0 -54 27 -83 q27 -29 81 -34 l71 340 l132 0 l-71 -330 q40 9 78.5 24 q38.5 15 75.5 33 l143 671 l281 0 l-309 -1462 l-281 0 Z" /><glyph glyph-name="uni04B9" unicode="&#x4b9;" d="M597 0 l66 311 q8 42 17.5 79.5 q9.5 37.5 21.5 75.5 l-6 0 q-18 -20 -39 -37.5 q-21 -17.5 -43.5 -30.5 q-22.5 -13 -47.5 -23 l-53 -245 l-125 0 l47 215 q-145 2 -222.5 75.5 q-77.5 73.5 -77.5 205.5 q0 36 7.5 87 q7.5 51 18.5 101 l65 303 l272 0 l-71 -332 q-5 -29 -9.5 -60 q-4.5 -31 -4.5 -53 q0 -42 17.5 -67.5 q17.5 -25.5 52.5 -33.5 l55 254 l125 0 l-52 -242 q35 15 64 47 q29 32 53 82 q24 50 45 118 l62 287 l273 0 l-237 -1117 l-274 0 Z" /><glyph glyph-name="uni04BA" unicode="&#x4ba;" d="M25 0 l309 1462 l281 0 l-119 -560 q68 33 146.5 57.5 q78.5 24.5 156.5 24.5 q84 0 151.5 -31 q67.5 -31 107 -94 q39.5 -63 39.5 -161 q0 -29 -5 -67 q-5 -38 -14 -78 l-114 -553 l-282 0 l111 521 q5 25 9 52 q4 27 4 49 q0 60 -30.5 90 q-30.5 30 -88.5 30 q-63 0 -123.5 -21 q-60.5 -21 -115.5 -49 l-143 -672 l-280 0 Z" /><glyph glyph-name="uni04BC" unicode="&#x4bc;" d="M831 -20 q-167 0 -272.5 66 q-105.5 66 -155.5 182.5 q-50 116.5 -50 266.5 q0 34 2.5 68.5 q2.5 34.5 6.5 70.5 q-101 3 -168.5 29 q-67.5 26 -102 75.5 q-34.5 49.5 -34.5 124.5 q0 55 20 110 q20 55 54 102 l228 0 q-19 -33 -34.5 -71 q-15.5 -38 -15.5 -75 q0 -32 18 -53 q18 -21 62 -21 l12 0 q39 139 101 254.5 q62 115.5 146 199.5 q84 84 191 129.5 q107 45.5 238 45.5 q118 0 201.5 -43 q83.5 -43 128 -122.5 q44.5 -79.5 44.5 -189.5 q0 -124 -48.5 -218 q-48.5 -94 -143.5 -156.5 q-95 -62.5 -232 -94.5 q-137 -32 -314 -32 l-61 0 q-4 -30 -5.5 -58 q-1.5 -28 -1.5 -59 q0 -143 55.5 -215 q55.5 -72 178.5 -72 q93 0 176.5 28 q83.5 28 162.5 69 l0 -244 q-83 -49 -181 -73 q-98 -24 -206 -24 ZM698 855 l54 0 q88 1 165.5 14 q77.5 13 136.5 43 q59 30 92.5 80 q33.5 50 33.5 122 q0 43 -15.5 73.5 q-15.5 30.5 -44 46.5 q-28.5 16 -67.5 16 q-62 0 -117 -32.5 q-55 -32.5 -102 -88.5 q-47 -56 -81.5 -127 q-34.5 -71 -54.5 -147 Z" /><glyph glyph-name="uni04BD" unicode="&#x4bd;" d="M685 -20 q-117 0 -203.5 45 q-86.5 45 -134.5 133.5 q-48 88.5 -48 216.5 q0 24 1.5 48.5 q1.5 24.5 3.5 41.5 q-95 4 -155 31 q-60 27 -88.5 74 q-28.5 47 -28.5 109 q0 50 17 99.5 q17 49.5 48 91.5 l200 0 q-20 -34 -33 -69.5 q-13 -35.5 -13 -70.5 q0 -39 24 -57 q24 -18 61 -20 q36 135 108 245 q72 110 179.5 174.5 q107.5 64.5 251.5 64.5 q154 0 239.5 -76.5 q85.5 -76.5 85.5 -206.5 q0 -91 -38 -164 q-38 -73 -112.5 -124 q-74.5 -51 -184 -78 q-109.5 -27 -253.5 -27 l-34 0 q-3 -20 -4.5 -39 q-1.5 -19 -1.5 -38 q0 -90 43 -140 q43 -50 129 -50 q75 0 140.5 19 q65.5 19 146.5 60 l0 -209 q-80 -42 -162.5 -63 q-82.5 -21 -183.5 -21 ZM613 651 l28 0 q110 0 175.5 25.5 q65.5 25.5 95 68.5 q29.5 43 29.5 95 q0 44 -24.5 67.5 q-24.5 23.5 -68.5 23.5 q-48 0 -94.5 -34.5 q-46.5 -34.5 -83.5 -97 q-37 -62.5 -57 -148.5 Z" /><glyph glyph-name="uni04BE" unicode="&#x4be;" d="M572 -425 l93 427 q-108 31 -177 99.5 q-69 68.5 -102 169 q-33 100.5 -33 224.5 q0 34 2.5 68.5 q2.5 34.5 6.5 70.5 q-101 3 -169 29 q-68 26 -102 75.5 q-34 49.5 -34 124.5 q0 55 20 110 q20 55 54 102 l228 0 q-19 -33 -34.5 -71 q-15.5 -38 -15.5 -75 q0 -31 18.5 -52.5 q18.5 -21.5 62.5 -21.5 l11 0 q40 139 102 254.5 q62 115.5 145.5 199.5 q83.5 84 190.5 129.5 q107 45.5 238 45.5 q118 0 201.5 -43 q83.5 -43 128 -122.5 q44.5 -79.5 44.5 -189.5 q0 -124 -49 -218 q-49 -94 -143 -157 q-94 -63 -231 -94.5 q-137 -31.5 -312 -31.5 l-64 0 q-4 -30 -5.5 -58.5 q-1.5 -28.5 -1.5 -58.5 q0 -143 55.5 -215 q55.5 -72 178.5 -72 q93 0 176.5 28 q83.5 28 162.5 69 l0 -244 q-61 -36 -132 -57.5 q-71 -21.5 -150 -30.5 l-88 -414 l-276 0 ZM698 855 l54 0 q88 0 165.5 13.5 q77.5 13.5 136.5 43.5 q59 30 92.5 80 q33.5 50 33.5 122 q0 43 -15.5 73.5 q-15.5 30.5 -44 46.5 q-28.5 16 -67.5 16 q-62 0 -117 -32.5 q-55 -32.5 -102 -88.5 q-47 -56 -81.5 -127 q-34.5 -71 -54.5 -147 Z" /><glyph glyph-name="uni04BF" unicode="&#x4bf;" d="M445 -400 l87 403 q-72 24 -124.5 73.5 q-52.5 49.5 -80.5 124.5 q-28 75 -28 174 q0 24 1 46 q1 22 3 44 q-96 7 -156 34 q-60 27 -87.5 72.5 q-27.5 45.5 -27.5 107.5 q0 50 17 99.5 q17 49.5 48 91.5 l200 0 q-20 -34 -33 -69.5 q-13 -35.5 -13 -70.5 q0 -43 23 -60 q23 -17 62 -17 q36 135 108 245 q72 110 179.5 174.5 q107.5 64.5 251.5 64.5 q153 0 239 -76.5 q86 -76.5 86 -207.5 q0 -89 -37.5 -161.5 q-37.5 -72.5 -111.5 -124 q-74 -51.5 -183.5 -79 q-109.5 -27.5 -255.5 -27.5 l-34 0 q-3 -20 -4.5 -39 q-1.5 -19 -1.5 -38 q0 -90 43 -140 q43 -50 129 -50 q75 0 140.5 19 q65.5 19 146.5 60 l0 -209 q-59 -31 -118.5 -50 q-59.5 -19 -128.5 -27 l-80 -387 l-259 0 ZM613 651 l25 0 q111 0 177.5 25.5 q66.5 25.5 96 68.5 q29.5 43 29.5 95 q0 44 -24.5 67.5 q-24.5 23.5 -68.5 23.5 q-48 0 -94.5 -34.5 q-46.5 -34.5 -83.5 -97 q-37 -62.5 -57 -148.5 Z" /><glyph glyph-name="uni04C3" unicode="&#x4c3;" d="M469 -504 q-60 0 -119.5 10 q-59.5 10 -112.5 32 l0 247 q50 -22 104.5 -34.5 q54.5 -12.5 114.5 -12.5 q65 0 118 32 q53 32 94 87.5 q41 55.5 68.5 127.5 q27.5 72 42 153 q14.5 81 14.5 162 q0 90 -25.5 149.5 q-25.5 59.5 -77 90 q-51.5 30.5 -133.5 30.5 q-33 0 -69 -6 q-36 -6 -68 -16 l-115 -548 l-280 0 l309 1462 l281 0 l-144 -674 l494 674 l311 0 l-517 -678 q98 -24 170 -81.5 q72 -57.5 112 -153.5 q40 -96 40 -238 q0 -115 -23.5 -231 q-23.5 -116 -71 -220.5 q-47.5 -104.5 -120.5 -186.5 q-73 -82 -172 -129.5 q-99 -47.5 -225 -47.5 Z" /><glyph glyph-name="uni04C4" unicode="&#x4c4;" d="M424 -497 q-53 0 -108 9.5 q-55 9.5 -102 31.5 l0 243 q42 -25 89 -37 q47 -12 91 -12 q54 0 97.5 24.5 q43.5 24.5 77 68.5 q33.5 44 56.5 102 q23 58 35 125 q12 67 12 138 q0 98 -45.5 152.5 q-45.5 54.5 -134.5 54.5 q-32 0 -66.5 -6.5 q-34.5 -6.5 -58.5 -17.5 l-81 -379 l-273 0 l237 1117 l273 0 l-108 -507 l390 507 l307 0 l-420 -524 q86 -19 143 -69 q57 -50 86 -129 q29 -79 29 -187 q0 -105 -21 -207 q-21 -102 -62.5 -191.5 q-41.5 -89.5 -105 -158.5 q-63.5 -69 -147.5 -108.5 q-84 -39.5 -190 -39.5 Z" /><glyph glyph-name="uni04C5" unicode="&#x4c5;" d="M666 -425 l238 425 l-212 0 l258 1213 l-229 0 q-35 -133 -70.5 -257 q-35.5 -124 -68.5 -234.5 q-33 -110.5 -63 -201.5 q-30 -91 -55 -157 q-55 -145 -114 -228.5 q-59 -83.5 -132 -118 q-73 -34.5 -171 -34.5 q-34 0 -67 6 q-33 6 -59 15 l0 239 q22 -9 44.5 -14 q22.5 -5 45.5 -5 q36 0 68 16.5 q32 16.5 64.5 63.5 q32.5 47 67.5 139 q21 52 45 123 q24 71 52 162 q28 91 60.5 202.5 q32.5 111.5 70 244.5 q37.5 133 80.5 288 l765 0 l-259 -1208 l239 0 l-288 -679 l-310 0 Z" /><glyph glyph-name="uni04C6" unicode="&#x4c6;" d="M575 -399 l201 399 l-198 0 l190 899 q-11 3 -24 4 q-13 1 -27 1 q-52 0 -89 -24 q-37 -24 -66 -76.5 q-29 -52.5 -56.5 -135.5 q-27.5 -83 -62.5 -200 q-32 -110 -66 -199.5 q-34 -89.5 -77.5 -153.5 q-43.5 -64 -103.5 -98.5 q-60 -34.5 -145 -34.5 q-40 0 -68 5 q-28 5 -58 17 l0 231 q18 -9 37.5 -12.5 q19.5 -3.5 38.5 -3.5 q35 0 62 23.5 q27 23.5 49.5 68 q22.5 44.5 43.5 108 q21 63.5 44 144.5 q47 155 92 264 q45 109 105 177 q60 68 150 99.5 q90 31.5 226 31.5 q91 0 168.5 -11.5 q77.5 -11.5 139.5 -27.5 l-185 -880 l205 0 l-256 -615 l-270 0 Z" /><glyph glyph-name="uni04C7" unicode="&#x4c7;" d="M461 -493 q-67 0 -121.5 8.5 q-54.5 8.5 -102.5 27.5 l0 252 q30 -13 64 -22.5 q34 -9.5 71 -14.5 q37 -5 75 -5 q73 0 124.5 33.5 q51.5 33.5 86.5 102.5 q35 69 57 177 l122 574 l-396 0 l-136 -640 l-280 0 l309 1462 l281 0 l-123 -579 l397 0 l123 579 l281 0 l-304 -1427 q-36 -176 -103.5 -293.5 q-67.5 -117.5 -172 -176 q-104.5 -58.5 -252.5 -58.5 Z" /><glyph glyph-name="uni04C8" unicode="&#x4c8;" d="M397 -499 q-58 0 -108.5 10.5 q-50.5 10.5 -95.5 33.5 l0 241 q38 -21 82.5 -33.5 q44.5 -12.5 90.5 -12.5 q60 0 100 28.5 q40 28.5 66.5 89 q26.5 60.5 45.5 154.5 l96 453 l-289 0 l-98 -465 l-275 0 l239 1117 l275 0 l-94 -433 l289 0 l91 433 l274 0 l-244 -1148 q-24 -111 -60 -197.5 q-36 -86.5 -89 -147 q-53 -60.5 -126 -92 q-73 -31.5 -170 -31.5 Z" /><glyph glyph-name="uni04C9" unicode="&#x4c9;" d="M676 -425 l239 425 l-214 0 l136 640 l-396 0 l-136 -640 l-280 0 l309 1462 l281 0 l-123 -579 l397 0 l123 579 l281 0 l-257 -1208 l239 0 l-289 -679 l-310 0 Z" /><glyph glyph-name="uni04CA" unicode="&#x4ca;" d="M573 -399 l200 399 l-197 0 l98 465 l-289 0 l-98 -465 l-275 0 l239 1117 l275 0 l-94 -433 l289 0 l91 433 l274 0 l-192 -901 l204 0 l-256 -615 l-269 0 Z" /><glyph glyph-name="uni04CB" unicode="&#x4cb;" d="M338 -425 l143 661 l210 0 l69 323 q-68 -32 -147.5 -56.5 q-79.5 -24.5 -155.5 -24.5 q-84 0 -151.5 31 q-67.5 31 -106.5 95 q-39 64 -39 161 q0 30 4.5 67.5 q4.5 37.5 13.5 75.5 l115 554 l280 0 l-110 -521 q-5 -30 -9 -54 q-4 -24 -4 -46 q0 -40 14 -66.5 q14 -26.5 40.5 -40 q26.5 -13.5 64.5 -13.5 q64 0 123.5 20.5 q59.5 20.5 115.5 49.5 l143 671 l281 0 l-309 -1462 l-218 0 l-91 -425 l-276 0 Z" /><glyph glyph-name="uni04CC" unicode="&#x4cc;" d="M272 -399 l140 630 l178 0 l24 109 q7 37 17 77.5 q10 40.5 19 70.5 l-7 0 q-50 -61 -113 -95.5 q-63 -34.5 -144 -34.5 q-78 0 -134.5 34 q-56.5 34 -86.5 97.5 q-30 63.5 -30 149.5 q0 36 7.5 86 q7.5 50 17.5 100 l63 292 l273 0 l-61 -288 q-8 -37 -13.5 -71 q-5.5 -34 -5.5 -63 q0 -49 24.5 -77.5 q24.5 -28.5 68.5 -28.5 q57 0 99.5 37.5 q42.5 37.5 75 114 q32.5 76.5 56.5 193.5 l40 183 l273 0 l-238 -1117 l-200 0 l-84 -399 l-259 0 Z" /><glyph glyph-name="uni04CD" unicode="&#x4cd;" d="M1035 -425 l239 425 l-197 0 l159 757 q8 36 18 80 q10 44 21.5 87.5 q11.5 43.5 21 80 q9.5 36.5 15.5 57.5 l-6 0 l-508 -1062 l-252 0 l-45 1059 l-7 0 q-5 -29 -11.5 -71 q-6.5 -42 -14 -88.5 q-7.5 -46.5 -16 -93 q-8.5 -46.5 -17.5 -84.5 l-152 -722 l-258 0 l309 1462 l372 0 l47 -1050 l7 0 l499 1050 l393 0 l-257 -1208 l240 0 l-290 -679 l-310 0 Z" /><glyph glyph-name="uni04CE" unicode="&#x4ce;" d="M881 -399 l200 399 l-188 0 l117 539 q13 61 29 126.5 q16 65.5 30 116.5 l-5 0 l-372 -782 l-237 0 l-28 781 l-3 0 q-9 -63 -20 -124.5 q-11 -61.5 -23 -117.5 l-111 -539 l-254 0 l236 1118 l373 0 l21 -746 l4 0 l352 746 l385 0 l-194 -902 l213 0 l-256 -615 l-269 0 Z" /><glyph glyph-name="uni04D8" unicode="&#x4d8;" d="M436 -20 q-123 0 -210 43 q-87 43 -132 123 q-45 80 -45 190 q0 117 46 210 q46 93 138.5 158 q92.5 65 233 99 q140.5 34 329.5 34 l63 0 q5 30 7 61.5 q2 31.5 2 63.5 q0 138 -59 208.5 q-59 70.5 -175 70.5 q-100 0 -182.5 -28.5 q-82.5 -28.5 -164.5 -69.5 l0 244 q83 49 182 73 q99 24 205 24 q167 0 273.5 -64.5 q106.5 -64.5 157.5 -181.5 q51 -117 51 -273 q0 -141 -28.5 -281.5 q-28.5 -140.5 -85.5 -267 q-57 -126.5 -143.5 -225 q-86.5 -98.5 -202 -155 q-115.5 -56.5 -260.5 -56.5 ZM448 214 q69 0 126 32 q57 32 102 87 q45 55 79.5 126 q34.5 71 57.5 151 l-85 0 q-94 0 -169 -17.5 q-75 -17.5 -128.5 -50.5 q-53.5 -33 -81.5 -81 q-28 -48 -28 -109 q0 -46 17.5 -76.5 q17.5 -30.5 46 -46 q28.5 -15.5 63.5 -15.5 Z" /><glyph glyph-name="uni04D9" unicode="&#x4d9;" d="M358 -20 q-156 0 -241 77 q-85 77 -85 206 q0 93 38.5 165.5 q38.5 72.5 113.5 123.5 q75 51 184.5 77.5 q109.5 26.5 251.5 26.5 l33 0 q4 20 5.5 39 q1.5 19 1.5 38 q0 95 -44.5 142.5 q-44.5 47.5 -128.5 47.5 q-76 0 -143 -20 q-67 -20 -156 -66 l20 221 q79 42 158.5 60.5 q79.5 18.5 179.5 18.5 q117 0 204 -44.5 q87 -44.5 134.5 -133 q47.5 -88.5 47.5 -217.5 q0 -145 -37 -281 q-37 -136 -110 -244.5 q-73 -108.5 -180 -172.5 q-107 -64 -247 -64 ZM385 187 q49 0 95 34 q46 34 83 96.5 q37 62.5 57 147.5 l-29 0 q-109 0 -175 -25 q-66 -25 -95.5 -68 q-29.5 -43 -29.5 -95 q0 -44 25 -67 q25 -23 69 -23 Z" /><glyph glyph-name="uni04E0" unicode="&#x4e0;" d="M332 -20 q-101 0 -188.5 17 q-87.5 17 -160.5 56 l0 261 q42 -29 99 -51 q57 -22 117 -35 q60 -13 112 -13 q73 0 129.5 18.5 q56.5 18.5 96 53 q39.5 34.5 60 84.5 q20.5 50 20.5 113 q0 89 -55.5 134 q-55.5 45 -175.5 45 l-135 0 l41 190 l355 370 l-415 0 l51 239 l771 0 l-41 -191 l-426 -428 q157 -22 238 -113 q81 -91 81 -247 q0 -116 -41 -209 q-41 -93 -117 -158.5 q-76 -65.5 -181.5 -100.5 q-105.5 -35 -234.5 -35 Z" /><glyph glyph-name="uni04E1" unicode="&#x4e1;" d="M211 -494 q-105 0 -185 19.5 q-80 19.5 -143 54.5 l0 260 q45 -30 97.5 -52 q52.5 -22 104.5 -34 q52 -12 96 -12 q84 0 145 27.5 q61 27.5 100.5 75 q39.5 47.5 59 109 q19.5 61.5 19.5 130.5 q0 68 -24.5 116 q-24.5 48 -74.5 73 q-50 25 -128 25 l-124 0 l42 198 l368 401 l-412 0 l47 220 l750 0 l-37 -181 l-438 -457 q104 -14 172.5 -65.5 q68.5 -51.5 103 -131 q34.5 -79.5 34.5 -178.5 q0 -129 -40 -238.5 q-40 -109.5 -115.5 -190 q-75.5 -80.5 -181 -125 q-105.5 -44.5 -236.5 -44.5 Z" /><glyph glyph-name="uni04F6" unicode="&#x4f6;" d="M152 -425 l91 425 l-218 0 l309 1462 l718 0 l-50 -239 l-440 0 l-210 -987 l216 0 l-141 -661 l-275 0 Z" /><glyph glyph-name="uni04F7" unicode="&#x4f7;" d="M111 -399 l91 399 l-192 0 l237 1117 l641 0 l-48 -229 l-369 0 l-139 -657 l171 0 l-133 -630 l-259 0 Z" /><glyph glyph-name="uni04FB" unicode="&#x4fb;" d="M170 -469 q-49 0 -89 8 q-40 8 -68 19 l0 225 q26 -11 53.5 -16 q27.5 -5 51.5 -5 q37 0 63.5 17.5 q26.5 17.5 44 52.5 q17.5 35 28.5 86 l18 82 l-260 0 l91 423 l-120 0 l46 220 l120 0 l101 474 l641 0 l-49 -229 l-368 0 l-53 -245 l218 0 l-46 -220 l-218 0 l-41 -188 l256 0 l-72 -341 q-22 -113 -65.5 -194 q-43.5 -81 -112.5 -125 q-69 -44 -170 -44 Z" /><glyph glyph-name="uni04FC" unicode="&#x4fc;" d="M694 -469 q-49 0 -87 8 q-38 8 -66 19 l0 228 q26 -11 53.5 -16 q27.5 -5 51.5 -5 q38 0 64.5 17 q26.5 17 44.5 51.5 q18 34.5 29 85.5 l16 81 l-159 0 l-114 513 l-336 -513 l-309 0 l516 757 l-180 705 l293 0 l105 -483 l299 483 l309 0 l-482 -721 l122 -464 l269 0 l-81 -384 q-23 -111 -68 -192.5 q-45 -81.5 -116 -125.5 q-71 -44 -174 -44 Z" /><glyph glyph-name="uni04FD" unicode="&#x4fd;" d="M585 -469 q-50 0 -89 8 q-39 8 -68 19 l0 225 q26 -11 53.5 -16 q27.5 -5 51.5 -5 q37 0 63.5 17.5 q26.5 17.5 44.5 52.5 q18 35 29 86 l18 82 l-153 0 l-91 349 l-235 -349 l-309 0 l422 574 l-172 543 l293 0 l82 -332 l215 332 l314 0 l-409 -555 l104 -327 l256 0 l-71 -341 q-23 -113 -66.5 -194 q-43.5 -81 -112.5 -125 q-69 -44 -170 -44 Z" /><glyph glyph-name="uni04FE" unicode="&#x4fe;" d="M-118 0 l426 627 l-199 0 l49 235 l213 0 l-153 600 l294 0 l104 -483 l299 483 l309 0 l-402 -600 l218 0 l-51 -235 l-214 0 l170 -627 l-305 0 l-114 513 l-336 -513 l-308 0 Z" /><glyph glyph-name="uni04FF" unicode="&#x4ff;" d="M-100 0 l337 459 l-170 0 l46 215 l176 0 l-139 443 l295 0 l82 -332 l215 332 l312 0 l-327 -443 l177 0 l-46 -215 l-179 0 l151 -459 l-298 0 l-90 348 l-235 -348 l-307 0 Z" /><glyph glyph-name="uni0500" unicode="&#x500;" d="M467 0 q-130 0 -226 40 q-96 40 -149 123.5 q-53 83.5 -54 212.5 q0 163 70 281.5 q70 118.5 195.5 183.5 q125.5 65 292.5 65 l95 0 l117 556 l281 0 l-309 -1462 l-313 0 ZM491 239 l58 0 l92 429 l-63 0 q-77 0 -134 -33 q-57 -33 -88.5 -93.5 q-31.5 -60.5 -31.5 -143.5 q0 -81 41.5 -120 q41.5 -39 125.5 -39 Z" /><glyph glyph-name="uni0502" unicode="&#x502;" d="M945 -20 q-99 0 -170 34.5 q-71 34.5 -103 95.5 q-58 -62 -127 -95.5 q-69 -33.5 -166 -33.5 q-106 0 -182 42 q-76 42 -116.5 122 q-40.5 80 -40.5 194 q0 168 70.5 295.5 q70.5 127.5 197.5 199.5 q127 72 296 72 l90 0 l118 556 l280 0 l-223 -1049 q-5 -26 -8.5 -46.5 q-3.5 -20.5 -3.5 -38.5 q0 -52 27 -79 q27 -27 75 -27 q70 0 106 53.5 q36 53.5 58 154.5 l90 418 l281 0 l-97 -462 q-29 -137 -86.5 -227 q-57.5 -90 -148 -134.5 q-90.5 -44.5 -217.5 -44.5 ZM438 222 q36 0 64 16.5 q28 16.5 49 53.5 q21 37 34 98 l58 278 l-49 0 q-84 0 -144 -39 q-60 -39 -92.5 -107 q-32.5 -68 -32.5 -154 q0 -49 13.5 -81.5 q13.5 -32.5 38.5 -48.5 q25 -16 61 -16 Z" /><glyph glyph-name="uni0503" unicode="&#x503;" d="M369 -20 q-145 0 -224.5 98 q-79.5 98 -79.5 273 q0 100 19.5 209 q19.5 109 58 212 q38.5 103 95.5 185.5 q57 82.5 131 131.5 q74 49 165 49 q59 0 103.5 -19.5 q44.5 -19.5 77 -54 q32.5 -34.5 52.5 -80.5 l7 0 q2 22 6 53.5 q4 31.5 10 67 q6 35.5 13 69.5 l81 382 l273 0 l-244 -1151 q-6 -30 -9.5 -53.5 q-3.5 -23.5 -3.5 -41.5 q0 -49 25.5 -76.5 q25.5 -27.5 69.5 -27.5 q67 0 101 52.5 q34 52.5 58 165.5 l59 276 l275 0 l-66 -315 q-43 -204 -146 -304.5 q-103 -100.5 -281 -100.5 q-110 0 -184 43.5 q-74 43.5 -105 125.5 l-8 0 q-44 -58 -96.5 -95.5 q-52.5 -37.5 -111 -55.5 q-58.5 -18 -121.5 -18 ZM452 206 q41 0 75.5 26 q34.5 26 62.5 70.5 q28 44.5 50 101 q22 56.5 36.5 118 q14.5 61.5 22.5 121 q8 59.5 8 110.5 q0 74 -27.5 115 q-27.5 41 -85.5 41 q-45 0 -84 -36 q-39 -36 -69.5 -95.5 q-30.5 -59.5 -52 -131 q-21.5 -71.5 -33 -144.5 q-11.5 -73 -11.5 -135 q0 -80 28.5 -120.5 q28.5 -40.5 79.5 -40.5 Z" /><glyph glyph-name="uni0504" unicode="&#x504;" d="M919 -20 q-121 0 -201.5 38 q-80.5 38 -120 108 q-39.5 70 -39.5 166 q0 31 4.5 67.5 q4.5 36.5 9.5 71.5 q5 35 5 61 q0 46 -21 80.5 q-21 34.5 -65 53 q-44 18.5 -115 18.5 l-175 0 l47 221 l135 0 q93 0 161.5 28 q68.5 28 106 83 q37.5 55 37.5 135 q0 60 -36 97 q-36 37 -109 37 q-79 0 -147 -30 q-68 -30 -120 -69 l-100 197 q89 65 196.5 102.5 q107.5 37.5 239.5 37.5 q117 0 199.5 -41 q82.5 -41 126.5 -115 q44 -74 44 -173 q0 -103 -41 -183 q-41 -80 -117 -133.5 q-76 -53.5 -180 -77.5 l0 -7 q95 -24 151 -86 q56 -62 56 -170 q0 -29 -4 -60 q-4 -31 -8 -59.5 q-4 -28.5 -4 -51.5 q0 -51 25.5 -77.5 q25.5 -26.5 78.5 -26.5 q70 0 105 54.5 q35 54.5 55 154.5 l88 417 l283 0 l-99 -462 q-28 -137 -85 -227 q-57 -90 -147.5 -134.5 q-90.5 -44.5 -219.5 -44.5 Z" /><glyph glyph-name="uni0505" unicode="&#x505;" d="M833 -20 q-117 0 -195 32 q-78 32 -117.5 95 q-39.5 63 -39.5 153 q0 20 3 47.5 q3 27.5 3 47.5 q0 71 -43.5 99 q-43.5 28 -134.5 28 l-119 0 l43 198 l106 0 q67 0 116 15 q49 15 75.5 46.5 q26.5 31.5 26.5 80.5 q0 51 -28 75.5 q-28 24.5 -96 24.5 q-54 0 -117.5 -17.5 q-63.5 -17.5 -128.5 -47.5 l-66 198 q90 43 178 63 q88 20 186 20 q104 0 180 -29 q76 -29 118 -88.5 q42 -59.5 42 -150.5 q0 -77 -29.5 -132.5 q-29.5 -55.5 -82 -91.5 q-52.5 -36 -123.5 -57 l-1 -9 q86 -18 125.5 -71 q39.5 -53 39.5 -131 q0 -17 -2.5 -40.5 q-2.5 -23.5 -2.5 -40.5 q0 -44 25.5 -67.5 q25.5 -23.5 67.5 -23.5 q65 0 99 49 q34 49 56 151 l63 294 l275 0 l-67 -316 q-29 -141 -86.5 -230.5 q-57.5 -89.5 -144 -131.5 q-86.5 -42 -204.5 -42 Z" /><glyph glyph-name="uni0506" unicode="&#x506;" d="M621 -425 l92 425 l-225 0 l84 396 q6 22 10 45 q4 23 4 43 q0 80 -52.5 120.5 q-52.5 40.5 -157.5 40.5 l-175 0 l49 232 l120 0 q91 0 164.5 24 q73.5 24 117 74.5 q43.5 50.5 43.5 130.5 q0 63 -39 101.5 q-39 38.5 -120 38.5 q-55 0 -105.5 -13.5 q-50.5 -13.5 -97.5 -37.5 q-47 -24 -93 -57 l-97 196 q103 71 211.5 110 q108.5 39 255.5 39 q120 0 204.5 -42 q84.5 -42 129.5 -115.5 q45 -73.5 45 -169.5 q0 -112 -45.5 -193 q-45.5 -81 -129 -130 q-83.5 -49 -195.5 -64 l0 -7 q75 -11 130 -46.5 q55 -35.5 85 -91.5 q30 -56 30 -129 q0 -31 -3 -59 q-3 -28 -9 -61 l-29 -139 l215 0 l-141 -661 l-276 0 Z" /><glyph glyph-name="uni0507" unicode="&#x507;" d="M527 -399 l92 399 l-184 0 l60 284 q5 22 8.5 42.5 q3.5 20.5 3.5 34.5 q0 64 -40.5 92.5 q-40.5 28.5 -123.5 28.5 l-135 0 l43 198 l104 0 q64 0 113 15.5 q49 15.5 77 46.5 q28 31 28 80 q0 51 -29.5 75.5 q-29.5 24.5 -94.5 24.5 q-55 0 -117 -17.5 q-62 -17.5 -127 -47.5 l-66 198 q91 43 180 63 q89 20 188 20 q102 0 178.5 -29 q76.5 -29 118.5 -89 q42 -60 42 -152 q0 -76 -29 -130.5 q-29 -54.5 -82 -90 q-53 -35.5 -126 -56.5 l-1 -10 q77 -21 120 -74.5 q43 -53.5 43 -132.5 q0 -16 -2 -35.5 q-2 -19.5 -7 -45.5 l-14 -62 l172 0 l-133 -630 l-260 0 Z" /><glyph glyph-name="uni0508" unicode="&#x508;" d="M51 -18 q-34 0 -67 6 q-33 6 -59 15 l0 239 q23 -10 45.5 -14.5 q22.5 -4.5 44.5 -4.5 q36 0 69 17.5 q33 17.5 65.5 64.5 q32.5 47 65.5 137 q27 70 58.5 165.5 q31.5 95.5 69 221 q37.5 125.5 83 283 q45.5 157.5 98.5 350.5 l756 0 l-219 -1032 q-7 -32 -10 -56.5 q-3 -24.5 -3 -47.5 q0 -49 25.5 -76.5 q25.5 -27.5 76.5 -27.5 q65 0 102.5 50 q37.5 50 60.5 159 l88 417 l283 0 l-99 -462 q-29 -140 -87 -230 q-58 -90 -148 -133 q-90 -43 -215 -43 q-120 0 -202 37.5 q-82 37.5 -124 108 q-42 70.5 -42 169.5 q0 38 6 79.5 q6 41.5 18 93.5 l156 745 l-222 0 q-21 -84 -48.5 -182 q-27.5 -98 -57 -198.5 q-29.5 -100.5 -59.5 -194.5 q-30 -94 -56 -171.5 q-26 -77.5 -46 -126.5 q-55 -137 -111 -215 q-56 -78 -126.5 -110.5 q-70.5 -32.5 -169.5 -32.5 Z" /><glyph glyph-name="uni0509" unicode="&#x509;" d="M1007 -20 q-126 0 -205 37.5 q-79 37.5 -115.5 105.5 q-36.5 68 -36.5 159 q0 29 4 65.5 q4 36.5 12 71.5 l101 480 q-11 2 -24 3.5 q-13 1.5 -27 1.5 q-75 0 -120 -49 q-45 -49 -76 -138 q-31 -89 -66 -209 q-34 -124 -68 -221.5 q-34 -97.5 -77.5 -165.5 q-43.5 -68 -105.5 -103.5 q-62 -35.5 -153 -35.5 q-40 0 -68 6 q-28 6 -58 18 l0 231 q18 -11 39 -14.5 q21 -3.5 38 -3.5 q38 0 66.5 27.5 q28.5 27.5 51.5 77 q23 49.5 43.5 117 q20.5 67.5 42.5 146.5 q40 139 83.5 242 q43.5 103 105 170.5 q61.5 67.5 152.5 101.5 q91 34 226 34 q91 0 167.5 -12 q76.5 -12 141.5 -27 l-144 -682 q-6 -32 -9.5 -57.5 q-3.5 -25.5 -3.5 -45.5 q0 -50 25 -77.5 q25 -27.5 69 -27.5 q68 0 101.5 51.5 q33.5 51.5 57.5 163.5 l60 279 l275 0 l-67 -317 q-29 -137 -86 -226 q-57 -89 -144 -133 q-87 -44 -208 -44 Z" /><glyph glyph-name="uni050A" unicode="&#x50a;" d="M1147 -20 q-121 0 -202 38.5 q-81 38.5 -122.5 109.5 q-41.5 71 -41.5 170 q0 41 6.5 86.5 q6.5 45.5 18.5 103.5 l31 152 l-396 0 l-136 -640 l-280 0 l309 1462 l281 0 l-123 -579 l397 0 l123 579 l281 0 l-218 -1029 q-8 -33 -12 -58 q-4 -25 -4 -48 q0 -49 26 -77 q26 -28 77 -28 q65 0 103 50.5 q38 50.5 60 158.5 l88 417 l283 0 l-97 -462 q-29 -136 -86.5 -226 q-57.5 -90 -147.5 -135 q-90 -45 -218 -45 Z" /><glyph glyph-name="uni050B" unicode="&#x50b;" d="M1008 -20 q-121 0 -201.5 36 q-80.5 36 -120.5 102 q-40 66 -40 155 q0 27 4.5 53.5 q4.5 26.5 9.5 54.5 l15 84 l-290 0 l-98 -465 l-275 0 l239 1117 l275 0 l-94 -433 l289 0 l91 433 l274 0 l-149 -699 q-7 -33 -10 -58.5 q-3 -25.5 -3 -45.5 q0 -50 26 -76 q26 -26 72 -26 q63 0 97 51 q34 51 58 157 l60 280 l274 0 l-65 -309 q-30 -144 -87 -234.5 q-57 -90.5 -144 -133.5 q-87 -43 -207 -43 Z" /><glyph glyph-name="uni050C" unicode="&#x50c;" d="M592 -20 q-240 0 -366.5 136 q-126.5 136 -126.5 401 q0 149 32.5 290 q32.5 141 96 264 q63.5 123 157.5 215.5 q94 92.5 216.5 145 q122.5 52.5 273.5 52.5 q123 0 213.5 -28 q90.5 -28 159.5 -71 l-114 -232 q-58 39 -121.5 63 q-63.5 24 -147.5 24 q-93 0 -169 -43 q-76 -43 -134 -116.5 q-58 -73.5 -96.5 -167 q-38.5 -93.5 -58.5 -195.5 q-20 -102 -20 -201 q0 -141 53.5 -217.5 q53.5 -76.5 167.5 -76.5 q88 0 149 44 q61 44 101 124 q40 80 62 189 l-281 0 l52 238 l568 0 l-34 -170 q-33 -164 -84 -289 q-51 -125 -126.5 -209.5 q-75.5 -84.5 -180 -127 q-104.5 -42.5 -242.5 -42.5 Z" /><glyph glyph-name="uni050D" unicode="&#x50d;" d="M477 -20 q-129 0 -221 46.5 q-92 46.5 -141 138.5 q-49 92 -49 228 q0 120 26 231 q26 111 76.5 204.5 q50.5 93.5 125 163 q74.5 69.5 171.5 108 q97 38.5 215 38.5 q94 0 179.5 -23 q85.5 -23 146.5 -60 l-106 -213 q-45 30 -99 49 q-54 19 -121 19 q-67 0 -121.5 -29.5 q-54.5 -29.5 -95.5 -81 q-41 -51.5 -68.5 -117.5 q-27.5 -66 -41.5 -140 q-14 -74 -14 -148 q0 -91 39 -141 q39 -50 115 -50 q95 0 147 62.5 q52 62.5 77 173.5 l-208 0 l45 211 l481 0 l-31 -145 q-37 -177 -107 -293.5 q-70 -116.5 -174.5 -174 q-104.5 -57.5 -245.5 -57.5 Z" /><glyph glyph-name="uni050E" unicode="&#x50e;" d="M650 -20 q-121 0 -203 37.5 q-82 37.5 -123.5 108.5 q-41.5 71 -41.5 170 q0 39 6 81 q6 42 18 96 l158 747 l-299 0 l51 242 l884 0 l-52 -242 l-305 0 l-166 -786 q-8 -33 -12 -60 q-4 -27 -4 -47 q0 -49 26 -77 q26 -28 77 -28 q64 0 101.5 50.5 q37.5 50.5 61.5 158.5 l89 417 l281 0 l-98 -465 q-28 -136 -86 -225.5 q-58 -89.5 -147.5 -133.5 q-89.5 -44 -215.5 -44 Z" /><glyph glyph-name="uni050F" unicode="&#x50f;" d="M606 -20 q-123 0 -202.5 38 q-79.5 38 -117 106.5 q-37.5 68.5 -37.5 161.5 q0 38 7 82.5 q7 44.5 19 99.5 l92 430 l-272 0 l45 219 l819 0 l-46 -219 l-276 0 l-98 -473 q-8 -38 -12 -65 q-4 -27 -4 -48 q0 -51 25 -78.5 q25 -27.5 69 -27.5 q68 0 101 51 q33 51 57 163 l60 280 l275 0 l-67 -318 q-23 -109 -62.5 -186 q-39.5 -77 -95 -124.5 q-55.5 -47.5 -125.5 -69.5 q-70 -22 -154 -22 Z" /><glyph glyph-name="uni0510" unicode="&#x510;" d="M492 -20 q-136 0 -236 40.5 q-100 40.5 -154.5 122 q-54.5 81.5 -54.5 203.5 q0 125 49 211.5 q49 86.5 138 137.5 q89 51 208 69 l0 8 q-100 32 -152 103.5 q-52 71.5 -52 185.5 q0 98 38 176 q38 78 105 133 q67 55 154 84 q87 29 185 29 q95 0 167 -17 q72 -17 131 -47 q59 -30 114 -68 l-135 -210 q-55 47 -123 74 q-68 27 -146 27 q-50 0 -89.5 -14.5 q-39.5 -14.5 -67 -41.5 q-27.5 -27 -42.5 -63 q-15 -36 -15 -78 q0 -86 53 -127 q53 -41 179 -41 l118 0 l-50 -233 l-119 0 q-73 0 -137.5 -15 q-64.5 -15 -113 -46 q-48.5 -31 -76 -79.5 q-27.5 -48.5 -27.5 -116.5 q0 -87 55.5 -125.5 q55.5 -38.5 153.5 -38.5 q91 0 178.5 25.5 q87.5 25.5 151.5 60.5 l0 -251 q-49 -23 -110.5 -40.5 q-61.5 -17.5 -131.5 -27.5 q-70 -10 -146 -10 Z" /><glyph glyph-name="uni0512" unicode="&#x512;" d="M864 -469 q-50 0 -88 8 q-38 8 -67 19 l0 227 q27 -11 54 -16 q27 -5 51 -5 q38 0 65 17 q27 17 45 51 q18 34 28 85 l17 83 l-277 0 l258 1213 l-229 0 q-41 -152 -76 -276 q-35 -124 -64.5 -223 q-29.5 -99 -55 -177 q-25.5 -78 -49.5 -138 q-55 -147 -114 -239 q-59 -92 -134 -135 q-75 -43 -181 -43 q-34 0 -67 6 q-33 6 -59 15 l0 239 q22 -9 44.5 -14 q22.5 -5 45.5 -5 q44 0 79 28 q35 28 66.5 84.5 q31.5 56.5 64.5 142.5 q19 48 39.5 106 q20.5 58 44.5 135.5 q24 77.5 54.5 182 q30.5 104.5 70 242.5 q39.5 138 89.5 318 l765 0 l-254 -1185 l271 0 l-80 -384 q-23 -112 -67.5 -193 q-44.5 -81 -115.5 -125 q-71 -44 -174 -44 Z" /><glyph glyph-name="uni0513" unicode="&#x513;" d="M728 -469 q-49 0 -88.5 8 q-39.5 8 -66.5 19 l0 225 q25 -11 52.5 -16 q27.5 -5 51.5 -5 q38 0 64.5 17.5 q26.5 17.5 44 52.5 q17.5 35 28.5 86 l17 82 l-250 0 l189 899 q-11 2 -23.5 3.5 q-12.5 1.5 -26.5 1.5 q-70 0 -113.5 -41.5 q-43.5 -41.5 -77.5 -132.5 q-34 -91 -76 -238 q-32 -114 -66 -207.5 q-34 -93.5 -77.5 -161 q-43.5 -67.5 -105.5 -104.5 q-62 -37 -151 -37 q-40 0 -68 6 q-28 6 -58 18 l0 231 q19 -11 39.5 -14.5 q20.5 -3.5 38.5 -3.5 q35 0 62 24 q27 24 50 69 q23 45 44 109 q21 64 43 144 q41 144 84.5 251.5 q43.5 107.5 104.5 178 q61 70.5 153 105.5 q92 35 229 35 q91 0 167.5 -12 q76.5 -12 141.5 -27 l-181 -861 l245 0 l-70 -341 q-23 -113 -66.5 -194 q-43.5 -81 -112.5 -125 q-69 -44 -171 -44 Z" /><glyph glyph-name="uni1FDE" unicode="&#x1fde;" d="M647 1240 l0 26 q19 41 40 91.5 q21 50.5 41 103 q20 52.5 34 99.5 l234 0 l0 -21 q-27 -45 -65 -99 q-38 -54 -79 -106.5 q-41 -52.5 -77 -93.5 l-128 0 ZM594 1225 q-95 2 -143 53 q-48 51 -48 126 q0 50 18.5 89 q18.5 39 52 62 q33.5 23 76.5 23 q42 0 65 -21 q23 -21 23 -56 q0 -35 -15.5 -59.5 q-15.5 -24.5 -42.5 -38 q-27 -13.5 -62 -15.5 q-1 -4 -1.5 -7.5 q-0.5 -3.5 -0.5 -6.5 q0 -29 26 -46.5 q26 -17.5 68 -21.5 l-16 -81 Z" /><glyph glyph-name="uni2070" unicode="&#x2070;" d="M422 830 q-80 0 -136.5 33 q-56.5 33 -86.5 95.5 q-30 62.5 -30 151.5 q0 87 14 177 q14 90 43.5 172.5 q29.5 82.5 76.5 148 q47 65.5 112.5 103.5 q65.5 38 151.5 38 q123 0 189.5 -72.5 q66.5 -72.5 66.5 -211.5 q0 -95 -16.5 -187 q-16.5 -92 -48.5 -173 q-32 -81 -80.5 -143 q-48.5 -62 -112 -97 q-63.5 -35 -143.5 -35 ZM440 1014 q36 0 66 47 q30 47 52.5 118.5 q22.5 71.5 35 148 q12.5 76.5 12.5 134.5 q0 52 -13.5 76.5 q-13.5 24.5 -40.5 24.5 q-35 0 -65 -46 q-30 -46 -52.5 -116.5 q-22.5 -70.5 -35.5 -147 q-13 -76.5 -13 -138.5 q0 -51 13.5 -76 q13.5 -25 40.5 -25 Z" /><glyph glyph-name="uni2076" unicode="&#x2076;" d="M436 833 q-126 0 -197.5 78 q-71.5 78 -71.5 231 q0 101 27.5 207 q27.5 106 87 196.5 q59.5 90.5 155.5 146 q96 55.5 234 55.5 q41 0 88.5 -5 q47.5 -5 73.5 -12 l-39 -176 q-23 8 -59 14.5 q-36 6.5 -77 6.5 q-77 0 -128.5 -33 q-51.5 -33 -82.5 -87 q-31 -54 -48 -118 l6 0 q28 35 73 58 q45 23 102 23 q98 0 147 -58 q49 -58 49 -156 q0 -75 -24 -142 q-24 -67 -68.5 -118.5 q-44.5 -51.5 -107.5 -81 q-63 -29.5 -140 -29.5 ZM441 998 q42 0 71 28.5 q29 28.5 43.5 71 q14.5 42.5 14.5 84.5 q0 46 -20.5 70.5 q-20.5 24.5 -54.5 24.5 q-45 0 -73 -29 q-28 -29 -41 -69 q-13 -40 -13 -75 q0 -49 18.5 -77.5 q18.5 -28.5 54.5 -28.5 Z" /></font>
</defs>
</svg>
