<?xml version="1.0" standalone="no"?><!DOCTYPE svg PUBLIC "-//W3C//DTD SVG 1.1//EN" "http://www.w3.org/Graphics/SVG/1.1/DTD/svg11.dtd" ><svg xmlns="http://www.w3.org/2000/svg"><metadata></metadata><defs><font id="3.000;GOOG;OpenSans-ExtraBoldItalic" horiz-adv-x="2697"><font-face font-family="Open Sans ExtraBold" font-weight="800" font-stretch="normal" units-per-em="2048" panose-1="0 0 0 0 0 0 0 0 0 0" ascent="2189" descent="-600" x-height="0" bbox="-1092 -651 2738 2302" underline-thickness="50" underline-position="-100" unicode-range="U+0000-fffd" /><missing-glyph horiz-adv-x="1229"  /><glyph glyph-name=".null" unicode="" d="" /><glyph glyph-name="nonmarkingreturn" unicode="" d="" /><glyph glyph-name="space" unicode=" " d="" /><glyph glyph-name="exclam" unicode="!" d="M125 516 l156 946 l426 0 l-254 -946 l-328 0 ZM199 -25 q-106 0 -146.5 47 q-40.5 47 -40.5 105 q0 98 60.5 165.5 q60.5 67.5 183.5 67.5 q86 0 133 -40.5 q47 -40.5 47 -114.5 q0 -115 -66.5 -172.5 q-66.5 -57.5 -170.5 -57.5 Z" /><glyph glyph-name="quotedbl" unicode="&quot;" d="M623 934 l73 528 l342 0 l-157 -528 l-258 0 ZM182 934 l72 528 l342 0 l-158 -528 l-256 0 Z" /><glyph glyph-name="numbersign" unicode="#" d="M121 0 l112 393 l-219 0 l21 238 l266 0 l57 200 l-235 0 l20 242 l285 0 l111 389 l270 0 l-111 -389 l168 0 l111 389 l270 0 l-110 -389 l221 0 l-21 -242 l-270 0 l-57 -200 l243 0 l-20 -238 l-293 0 l-111 -393 l-270 0 l113 393 l-168 0 l-113 -393 l-270 0 ZM571 631 l168 0 l58 200 l-168 0 l-58 -200 Z" /><glyph glyph-name="dollar" unicode="$" d="M367 -121 l41 191 q-124 9 -209 34.5 q-85 25.5 -138 57.5 l-6 305 q107 -49 214.5 -78 q107.5 -29 199.5 -37 l59 279 q-104 40 -180.5 91.5 q-76.5 51.5 -118 121.5 q-41.5 70 -41.5 164 q0 127 62 216.5 q62 89.5 176.5 139.5 q114.5 50 269.5 59 l29 133 l168 0 l-31 -137 q83 -7 160.5 -29 q77.5 -22 153.5 -59 l-101 -268 q-55 29 -129 48.5 q-74 19.5 -143 27.5 l-60 -277 q119 -53 192 -106.5 q73 -53.5 106.5 -117 q33.5 -63.5 33.5 -146.5 q0 -128 -65.5 -220.5 q-65.5 -92.5 -179 -145 q-113.5 -52.5 -257.5 -60.5 l-38 -187 l-168 0 ZM635 358 q41 10 66 25.5 q25 15.5 36 36.5 q11 21 11 45 q0 25 -8.5 43.5 q-8.5 18.5 -23.5 33.5 q-15 15 -36 27 l-45 -211 ZM592 932 l45 203 q-39 -8 -60 -25 q-21 -17 -29.5 -39 q-8.5 -22 -8.5 -49 q0 -22 6 -38.5 q6 -16.5 18 -29 q12 -12.5 29 -22.5 Z" /><glyph glyph-name="percent" unicode="%" d="M293 0 l1089 1462 l289 0 l-1081 -1462 l-297 0 ZM438 565 q-157 0 -240 87 q-83 87 -83 257 q0 72 14.5 151 q14.5 79 46.5 154.5 q32 75.5 83.5 136 q51.5 60.5 124.5 96.5 q73 36 171 36 q160 0 239.5 -90 q79.5 -90 79.5 -254 q0 -71 -13.5 -150 q-13.5 -79 -44 -154 q-30.5 -75 -81 -136 q-50.5 -61 -124 -97.5 q-73.5 -36.5 -173.5 -36.5 ZM457 807 q24 0 44.5 23 q20.5 23 37 61.5 q16.5 38.5 28 85 q11.5 46.5 17.5 93.5 q6 47 6 87 q0 43 -12 63.5 q-12 20.5 -41 20.5 q-22 0 -42 -22 q-20 -22 -37 -59 q-17 -37 -29 -83 q-12 -46 -19 -94 q-7 -48 -7 -92 q0 -41 13 -62.5 q13 -21.5 41 -21.5 ZM1421 -20 q-157 0 -240 86.5 q-83 86.5 -83 257.5 q0 72 14.5 151 q14.5 79 46.5 154 q32 75 83.5 135.5 q51.5 60.5 124.5 96.5 q73 36 171 36 q160 0 240 -90 q80 -90 80 -254 q0 -71 -13.5 -149.5 q-13.5 -78.5 -44 -154 q-30.5 -75.5 -81 -136 q-50.5 -60.5 -124.5 -97 q-74 -36.5 -174 -36.5 ZM1440 221 q24 0 44.5 23 q20.5 23 37 61.5 q16.5 38.5 28 85 q11.5 46.5 17.5 93.5 q6 47 6 87 q0 44 -12 64 q-12 20 -41 20 q-22 0 -42 -22 q-20 -22 -37 -59 q-17 -37 -29 -83 q-12 -46 -19 -94 q-7 -48 -7 -92 q0 -41 13 -62.5 q13 -21.5 41 -21.5 Z" /><glyph glyph-name="ampersand" unicode="&amp;" d="M528 -20 q-238 0 -379 104.5 q-141 104.5 -141 300.5 q0 112 42 194.5 q42 82.5 122 140.5 q80 58 195 95 q-42 53 -63 127.5 q-21 74.5 -21 122.5 q0 133 57.5 227 q57.5 94 165.5 143.5 q108 49.5 258 49.5 q118 0 212 -37 q94 -37 149 -109 q55 -72 55 -178 q0 -96 -40.5 -172.5 q-40.5 -76.5 -117 -139 q-76.5 -62.5 -184.5 -118.5 l129 -186 q41 43 79 122 q38 79 60 154 l383 0 q-33 -115 -83 -218 q-50 -103 -110 -189 q-60 -86 -125 -152 l191 -262 l-442 0 l-43 61 q-67 -35 -156 -58 q-89 -23 -193 -23 ZM571 287 q28 0 53 3.5 q25 3.5 46.5 9.5 q21.5 6 38.5 13 l-193 279 q-45 -19 -70.5 -46 q-25.5 -27 -36 -58 q-10.5 -31 -10.5 -64 q0 -34 18 -65.5 q18 -31.5 56 -51.5 q38 -20 98 -20 ZM686 948 q29 12 54 29 q25 17 45 40.5 q20 23.5 31 52.5 q11 29 11 65 q0 35 -22 60.5 q-22 25.5 -60 25.5 q-32 0 -57 -16 q-25 -16 -39 -44.5 q-14 -28.5 -14 -68.5 q0 -22 10 -63 q10 -41 41 -81 Z" /><glyph glyph-name="quotesingle" unicode="&#39;" d="M182 934 l72 528 l342 0 l-158 -528 l-256 0 Z" /><glyph glyph-name="parenleft" unicode="(" d="M219 -324 q-48 85 -81.5 196 q-33.5 111 -51.5 229.5 q-18 118.5 -18 224.5 q0 174 33 332 q33 158 98.5 302.5 q65.5 144.5 161 279.5 q95.5 135 219.5 263 l323 0 q-109 -118 -201.5 -249.5 q-92.5 -131.5 -161.5 -279 q-69 -147.5 -107 -313 q-38 -165.5 -38 -352.5 q0 -95 14 -206 q14 -111 40 -221.5 q26 -110.5 63 -205.5 l-293 0 Z" /><glyph glyph-name="parenright" unicode=")" d="M-133 -324 q109 119 200.5 250.5 q91.5 131.5 158.5 279 q67 147.5 104 313 q37 165.5 37 351.5 q0 96 -14.5 207 q-14.5 111 -41 221.5 q-26.5 110.5 -63.5 204.5 l295 0 q52 -91 85.5 -201.5 q33.5 -110.5 49.5 -225.5 q16 -115 16 -222 q0 -174 -31.5 -332 q-31.5 -158 -94.5 -303 q-63 -145 -157 -280 q-94 -135 -218 -263 l-326 0 Z" /><glyph glyph-name="asterisk" unicode="*" d="M692 551 l-80 303 l-166 -244 l-249 185 l254 229 l-299 84 l100 278 l319 -165 l31 350 l307 -62 l-116 -331 l368 30 l-22 -301 l-310 41 l148 -311 l-285 -86 Z" /><glyph glyph-name="plus" unicode="+" d="M733 856 l373 0 l0 -268 l-373 0 l0 -361 l-268 0 l0 361 l-373 0 l0 268 l373 0 l0 367 l268 0 l0 -367 Z" /><glyph glyph-name="comma" unicode="," d="M-104 -264 q36 81 69 170 q33 89 63.5 175 q30.5 86 55.5 157 l348 0 l8 -23 q-31 -72 -72.5 -155 q-41.5 -83 -88 -166 q-46.5 -83 -95.5 -158 l-288 0 Z" /><glyph glyph-name="hyphen" unicode="-" d="M23 393 l63 312 l553 0 l-64 -312 l-552 0 Z" /><glyph glyph-name="period" unicode="." d="M174 -25 q-78 0 -126 37 q-48 37 -48 115 q0 122 73 177.5 q73 55.5 171 55.5 q80 0 130 -37.5 q50 -37.5 50 -117.5 q0 -132 -68 -181 q-68 -49 -182 -49 Z" /><glyph glyph-name="slash" unicode="/" d="M-90 -20 l838 1503 l344 0 l-838 -1503 l-344 0 Z" /><glyph glyph-name="zero" unicode="0" d="M489 -20 q-201 0 -313.5 121 q-112.5 121 -112.5 364 q0 124 17 247.5 q17 123.5 52 237.5 q35 114 89 211 q54 97 128 170 q74 73 169.5 113.5 q95.5 40.5 212.5 40.5 q117 0 198.5 -42.5 q81.5 -42.5 131.5 -114.5 q50 -72 73 -161.5 q23 -89.5 23 -183.5 q0 -132 -18 -257.5 q-18 -125.5 -55 -237.5 q-37 -112 -92 -205 q-55 -93 -129.5 -161 q-74.5 -68 -167.5 -105 q-93 -37 -206 -37 ZM528 295 q35 0 66 31.5 q31 31.5 57.5 86 q26.5 54.5 48 124.5 q21.5 70 37 148 q15.5 78 23.5 156.5 q8 78.5 8 149.5 q0 85 -19 131.5 q-19 46.5 -63 46.5 q-30 0 -59 -32 q-29 -32 -55 -87 q-26 -55 -48 -126.5 q-22 -71.5 -37.5 -151 q-15.5 -79.5 -24.5 -160.5 q-9 -81 -9 -155 q0 -83 15.5 -122.5 q15.5 -39.5 59.5 -39.5 Z" /><glyph glyph-name="one" unicode="1" d="M385 0 l174 799 q8 38 20.5 84.5 q12.5 46.5 27.5 92 q15 45.5 28 79.5 q-29 -26 -67.5 -56.5 q-38.5 -30.5 -63.5 -46.5 l-203 -125 l-151 252 l620 383 l311 0 l-307 -1462 l-389 0 Z" /><glyph glyph-name="two" unicode="2" d="M-57 0 l53 256 l483 436 q73 65 121 119.5 q48 54.5 76 98.5 q28 44 39.5 79.5 q11.5 35.5 11.5 63.5 q0 49 -26 73.5 q-26 24.5 -66 24.5 q-43 0 -88 -16.5 q-45 -16.5 -92.5 -49.5 q-47.5 -33 -100.5 -81 l-186 258 q107 101 241 161 q134 60 300 60 q121 0 212.5 -44.5 q91.5 -44.5 143 -127 q51.5 -82.5 51.5 -197.5 q0 -95 -34 -183.5 q-34 -88.5 -117.5 -188 q-83.5 -99.5 -233.5 -228.5 l-205 -176 l0 -12 l490 0 l-68 -326 l-1005 0 Z" /><glyph glyph-name="three" unicode="3" d="M399 -20 q-109 0 -214 20.5 q-105 20.5 -171 58.5 l0 332 q89 -54 184.5 -77 q95.5 -23 192.5 -23 q59 0 109.5 10 q50.5 10 87.5 31 q37 21 57.5 55.5 q20.5 34.5 20.5 83.5 q0 43 -21 72.5 q-21 29.5 -81 45 q-60 15.5 -177 15.5 l-84 0 l53 291 l78 0 q72 0 129 11.5 q57 11.5 98 34 q41 22.5 62.5 54.5 q21.5 32 21.5 74 q0 35 -29.5 68.5 q-29.5 33.5 -105.5 33.5 q-67 0 -134 -23 q-67 -23 -136 -61 l-158 248 q107 68 220 108 q113 40 282 40 q131 0 230.5 -41.5 q99.5 -41.5 155.5 -118.5 q56 -77 56 -186 q0 -107 -44 -183.5 q-44 -76.5 -121 -123.5 q-77 -47 -177 -68 l0 -8 q136 -26 205.5 -115 q69.5 -89 69.5 -209 q0 -119 -52 -204 q-52 -85 -143.5 -139.5 q-91.5 -54.5 -210.5 -80.5 q-119 -26 -254 -26 Z" /><glyph glyph-name="four" unicode="4" d="M479 0 l60 283 l-549 0 l51 256 l762 923 l360 0 l-186 -884 l149 0 l-61 -295 l-150 0 l-59 -283 l-377 0 ZM391 578 l209 0 l49 194 q10 35 22 79 q12 44 23 81.5 q11 37.5 15 50.5 l-9 0 q-18 -34 -50.5 -85.5 q-32.5 -51.5 -63.5 -86.5 l-195 -233 Z" /><glyph glyph-name="five" unicode="5" d="M434 -20 q-74 0 -155.5 9 q-81.5 9 -150.5 27.5 q-69 18.5 -108 46.5 l0 324 q74 -43 176.5 -69.5 q102.5 -26.5 188.5 -26.5 q66 0 117.5 11 q51.5 11 87 34.5 q35.5 23.5 54 59.5 q18.5 36 18.5 87 q0 69 -46.5 119.5 q-46.5 50.5 -140.5 50.5 q-52 0 -108.5 -9 q-56.5 -9 -94.5 -23 l-122 92 l215 749 l813 0 l-68 -323 l-471 0 l-59 -185 q26 3 44.5 3.5 q18.5 0.5 30.5 0.5 q113 0 205 -50 q92 -50 146.5 -146.5 q54.5 -96.5 54.5 -237.5 q0 -138 -44 -240.5 q-44 -102.5 -126.5 -169.5 q-82.5 -67 -198 -100.5 q-115.5 -33.5 -258.5 -33.5 Z" /><glyph glyph-name="six" unicode="6" d="M557 -20 q-167 0 -272.5 67 q-105.5 67 -155 186.5 q-49.5 119.5 -49.5 276.5 q0 105 18.5 215.5 q18.5 110.5 54 215.5 q35.5 105 88 194 q52.5 89 119.5 151 q89 82 177.5 124.5 q88.5 42.5 193 57.5 q104.5 15 240.5 15 q57 0 116 -8.5 q59 -8.5 117 -22.5 l-63 -303 q-38 11 -90 18 q-52 7 -93 7 q-157 0 -251 -39 q-94 -39 -149 -120.5 q-55 -81.5 -95 -207.5 l8 0 q27 43 66.5 82 q39.5 39 98 63.5 q58.5 24.5 142.5 24.5 q151 0 239.5 -98 q88.5 -98 88.5 -304 q0 -127 -36.5 -235.5 q-36.5 -108.5 -107 -189 q-70.5 -80.5 -172.5 -125.5 q-102 -45 -233 -45 ZM561 287 q38 0 66.5 22 q28.5 22 47.5 59 q19 37 28.5 83 q9.5 46 9.5 94 q0 60 -22.5 94.5 q-22.5 34.5 -69.5 34.5 q-32 0 -59 -16.5 q-27 -16.5 -48 -47 q-21 -30.5 -35 -71.5 q-5 -17 -8.5 -36.5 q-3.5 -19.5 -5.5 -40 q-2 -20.5 -2 -42.5 q0 -33 7 -58 q7 -25 20 -41.5 q13 -16.5 31 -25 q18 -8.5 40 -8.5 Z" /><glyph glyph-name="seven" unicode="7" d="M35 0 l717 1135 l-574 0 l70 327 l1030 0 l-51 -231 l-744 -1231 l-448 0 Z" /><glyph glyph-name="eight" unicode="8" d="M537 -20 q-160 0 -268.5 48.5 q-108.5 48.5 -164 129.5 q-55.5 81 -55.5 180 q0 102 38 182 q38 80 112.5 139 q74.5 59 181.5 97 q-41 33 -76.5 74.5 q-35.5 41.5 -57.5 98.5 q-22 57 -22 136 q0 113 56.5 208.5 q56.5 95.5 167.5 153.5 q111 58 276 58 q140 0 236 -44 q96 -44 146 -119.5 q50 -75.5 50 -170.5 q0 -78 -32 -151 q-32 -73 -94.5 -130.5 q-62.5 -57.5 -153.5 -87.5 q61 -47 103 -101.5 q42 -54.5 63.5 -118.5 q21.5 -64 21.5 -142 q0 -138 -64 -236.5 q-64 -98.5 -182 -151 q-118 -52.5 -282 -52.5 ZM547 262 q43 0 78 18 q35 18 56 52 q21 34 21 82 q0 40 -14.5 75 q-14.5 35 -40.5 65 q-26 30 -63 54 q-48 -25 -86.5 -58.5 q-38.5 -33.5 -61 -74.5 q-22.5 -41 -22.5 -90 q0 -61 42 -92 q42 -31 91 -31 ZM674 930 q43 17 71 45.5 q28 28.5 42 62.5 q14 34 14 66 q0 49 -28.5 73.5 q-28.5 24.5 -65.5 24.5 q-32 0 -59 -18 q-27 -18 -43.5 -49 q-16.5 -31 -16.5 -70 q0 -40 24 -78.5 q24 -38.5 62 -56.5 Z" /><glyph glyph-name="nine" unicode="9" d="M317 -20 q-63 0 -114.5 8.5 q-51.5 8.5 -96.5 21.5 l0 314 q50 -20 98 -30 q48 -10 105 -7 q95 5 167.5 28.5 q72.5 23.5 125.5 68.5 q53 45 88 112.5 q35 67.5 55 158.5 l-8 0 q-26 -43 -64.5 -83 q-38.5 -40 -95.5 -65.5 q-57 -25.5 -141 -25.5 q-102 0 -175.5 50.5 q-73.5 50.5 -112.5 141.5 q-39 91 -39 214 q0 95 21 183 q21 88 63.5 163 q42.5 75 108.5 131 q66 56 155.5 87.5 q89.5 31.5 204.5 31.5 q167 0 271.5 -68 q104.5 -68 154 -188 q49.5 -120 49.5 -275 q0 -105 -15.5 -212 q-15.5 -107 -49 -208.5 q-33.5 -101.5 -87 -192.5 q-53.5 -91 -129.5 -163 q-48 -45 -105 -81.5 q-57 -36.5 -124 -62 q-67 -25.5 -144 -39 q-77 -13.5 -166 -13.5 ZM594 788 q31 0 57.5 16 q26.5 16 47.5 44.5 q21 28.5 34 64.5 q9 26 15 55.5 q6 29.5 6 61.5 q0 41 -11.5 74 q-11.5 33 -33.5 52.5 q-22 19.5 -54 19.5 q-33 0 -61 -19.5 q-28 -19.5 -48.5 -53.5 q-20.5 -34 -32 -78 q-11.5 -44 -11.5 -93 q0 -72 23 -108 q23 -36 69 -36 Z" /><glyph glyph-name="colon" unicode=":" d="M369 762 q-79 0 -126.5 37.5 q-47.5 37.5 -47.5 115.5 q0 81 33 132.5 q33 51.5 88 75.5 q55 24 120 24 q82 0 132 -37.5 q50 -37.5 50 -116.5 q0 -133 -68 -182 q-68 -49 -181 -49 ZM174 -25 q-78 0 -126 37 q-48 37 -48 115 q0 122 73 177.5 q73 55.5 171 55.5 q80 0 130 -37.5 q50 -37.5 50 -117.5 q0 -132 -68 -181 q-68 -49 -182 -49 Z" /><glyph glyph-name="semicolon" unicode=";" d="M-117 -264 q36 81 69.5 170 q33.5 89 63.5 175 q30 86 56 157 l348 0 l8 -23 q-31 -72 -72.5 -155 q-41.5 -83 -88.5 -166 q-47 -83 -95 -158 l-289 0 ZM369 762 q-79 0 -126.5 37.5 q-47.5 37.5 -47.5 115.5 q0 81 33 132.5 q33 51.5 88 75.5 q55 24 120 24 q82 0 132 -37.5 q50 -37.5 50 -116.5 q0 -133 -68 -182 q-68 -49 -181 -49 Z" /><glyph glyph-name="less" unicode="&lt;" d="M1104 178 l-1012 449 l0 172 l1012 506 l0 -297 l-621 -283 l621 -252 l0 -295 Z" /><glyph glyph-name="equal" unicode="=" d="M92 815 l0 268 l1016 0 l0 -268 l-1016 0 ZM92 358 l0 271 l1016 0 l0 -271 l-1016 0 Z" /><glyph glyph-name="greater" unicode="&gt;" d="M92 473 l621 252 l-621 283 l0 297 l1012 -506 l0 -172 l-1012 -449 l0 295 Z" /><glyph glyph-name="question" unicode="?" d="M250 516 q21 112 51 181.5 q30 69.5 82 122.5 q52 53 139 112 q67 44 101.5 73.5 q34.5 29.5 47.5 52.5 q13 23 13 46 q0 31 -18.5 50.5 q-18.5 19.5 -71.5 19.5 q-55 0 -136.5 -26.5 q-81.5 -26.5 -176.5 -82.5 l-119 283 q95 56 213.5 95.5 q118.5 39.5 247.5 39.5 q203 0 320.5 -90.5 q117.5 -90.5 117.5 -247.5 q0 -112 -39.5 -185.5 q-39.5 -73.5 -103 -123.5 q-63.5 -50 -134.5 -93 q-77 -47 -115 -78 q-38 -31 -56 -63.5 q-18 -32.5 -35 -85.5 l-328 0 ZM334 -25 q-106 0 -146.5 47 q-40.5 47 -40.5 105 q0 98 60.5 165.5 q60.5 67.5 183.5 67.5 q86 0 133 -40.5 q47 -40.5 47 -114.5 q0 -115 -66.5 -172.5 q-66.5 -57.5 -170.5 -57.5 Z" /><glyph glyph-name="at" unicode="@" d="M780 -186 q-155 0 -283 46.5 q-128 46.5 -221 135 q-93 88.5 -143.5 216 q-50.5 127.5 -50.5 288.5 q0 192 49 347.5 q49 155.5 137.5 274.5 q88.5 119 206.5 199 q118 80 257 121 q139 41 288 41 q234 0 403 -77.5 q169 -77.5 260 -224 q91 -146.5 91 -354.5 q0 -104 -25.5 -197 q-25.5 -93 -73 -170.5 q-47.5 -77.5 -113 -134 q-65.5 -56.5 -145.5 -87.5 q-80 -31 -170 -31 q-79 0 -136 31 q-57 31 -83 98 l-10 0 q-48 -64 -111.5 -96.5 q-63.5 -32.5 -156.5 -32.5 q-117 0 -191 83.5 q-74 83.5 -74 221.5 q0 77 21 158.5 q21 81.5 64 156.5 q43 75 108.5 134 q65.5 59 153.5 94 q88 35 200 35 q83 0 170 -19.5 q87 -19.5 166 -50.5 l-100 -414 q-11 -44 -17 -76 q-6 -32 -6 -61 q0 -19 9.5 -30 q9.5 -11 29.5 -11 q33 0 66 15 q33 15 62 45.5 q29 30.5 51 77.5 q22 47 35 110.5 q13 63.5 13 144.5 q0 132 -55 229 q-55 97 -169 150 q-114 53 -292 53 q-112 0 -211 -33 q-99 -33 -179.5 -95.5 q-80.5 -62.5 -139 -151.5 q-58.5 -89 -90 -202 q-31.5 -113 -31.5 -247 q0 -161 61 -268 q61 -107 160 -160 q99 -53 211 -53 q98 0 229 23.5 q131 23.5 250 70.5 l0 -225 q-84 -40 -213.5 -69 q-129.5 -29 -261.5 -29 ZM842 428 q59 0 99 50.5 q40 50.5 75 189.5 l47 190 q-10 5 -23 7.5 q-13 2.5 -28 2.5 q-64 0 -111 -33.5 q-47 -33.5 -77.5 -86 q-30.5 -52.5 -45 -110 q-14.5 -57.5 -14.5 -106.5 q0 -55 20.5 -79.5 q20.5 -24.5 57.5 -24.5 Z" /><glyph glyph-name="A" unicode="a" d="M-121 0 l744 1462 l503 0 l123 -1462 l-381 0 l-10 274 l-448 0 l-125 -274 l-406 0 ZM553 586 l293 0 l-15 420 q-1 49 -2 97 q-1 48 0 91 l-6 0 q-15 -46 -32.5 -90 q-17.5 -44 -38.5 -90 l-199 -428 Z" /><glyph glyph-name="B" unicode="b" d="M33 0 l309 1462 l487 0 q157 0 254 -41 q97 -41 142 -113 q45 -72 45 -165 q0 -99 -34.5 -173.5 q-34.5 -74.5 -101 -124.5 q-66.5 -50 -161.5 -79 l0 -8 q88 -29 140 -102 q52 -73 52 -177 q0 -171 -78.5 -276.5 q-78.5 -105.5 -211 -154 q-132.5 -48.5 -295.5 -48.5 l-547 0 ZM489 305 l82 0 q60 0 105 23 q45 23 70.5 61.5 q25.5 38.5 25.5 85.5 q0 69 -33 103 q-33 34 -116 34 l-68 0 l-66 -307 ZM614 901 l72 0 q69 0 107.5 20.5 q38.5 20.5 54.5 56.5 q16 36 16 83 q0 49 -31 75.5 q-31 26.5 -96 26.5 l-63 0 l-60 -262 Z" /><glyph glyph-name="C" unicode="c" d="M645 -20 q-183 0 -303 71.5 q-120 71.5 -179 199.5 q-59 128 -59 298 q0 131 28 264 q28 133 87 253.5 q59 120.5 151 215 q92 94.5 219 149 q127 54.5 292 54.5 q146 0 262 -34.5 q116 -34.5 219 -96.5 l-148 -305 q-93 55 -171 82.5 q-78 27.5 -162 27.5 q-71 0 -130.5 -32 q-59.5 -32 -106 -89 q-46.5 -57 -79 -131.5 q-32.5 -74.5 -49 -161 q-16.5 -86.5 -16.5 -176.5 q0 -133 56.5 -199.5 q56.5 -66.5 160.5 -66.5 q89 0 174 22 q85 22 194 68 l0 -323 q-107 -48 -216.5 -69 q-109.5 -21 -223.5 -21 Z" /><glyph glyph-name="D" unicode="d" d="M33 0 l309 1462 l416 0 q269 0 424 -141 q155 -141 155 -412 q0 -170 -36.5 -312 q-36.5 -142 -106.5 -253 q-70 -111 -171.5 -187.5 q-101.5 -76.5 -231.5 -116.5 q-130 -40 -287 -40 l-471 0 ZM494 324 l69 0 q67 0 125.5 26 q58.5 26 105 75.5 q46.5 49.5 80 119 q33.5 69.5 51 156.5 q17.5 87 17.5 188 q0 125 -54 189.5 q-54 64.5 -151 64.5 l-71 0 l-172 -819 Z" /><glyph glyph-name="E" unicode="e" d="M33 0 l309 1462 l868 0 l-65 -317 l-477 0 l-47 -230 l444 0 l-72 -317 l-444 0 l-57 -276 l477 0 l-68 -322 l-868 0 Z" /><glyph glyph-name="F" unicode="f" d="M33 0 l309 1462 l862 0 l-67 -317 l-471 0 l-58 -279 l436 0 l-69 -319 l-438 0 l-113 -547 l-391 0 Z" /><glyph glyph-name="G" unicode="g" d="M653 -20 q-248 0 -398.5 146.5 q-150.5 146.5 -150.5 436.5 q0 141 33.5 275.5 q33.5 134.5 101 251.5 q67.5 117 169.5 206 q102 89 240 139 q138 50 313 50 q127 0 243 -27 q116 -27 205 -80 l-147 -309 q-63 37 -140.5 63.5 q-77.5 26.5 -165.5 26.5 q-128 0 -215.5 -59 q-87.5 -59 -140.5 -150.5 q-53 -91.5 -76.5 -193 q-23.5 -101.5 -23.5 -187.5 q0 -92 24 -150.5 q24 -58.5 70.5 -86 q46.5 -27.5 114.5 -27.5 q40 0 66.5 3.5 q26.5 3.5 66.5 10.5 l51 232 l-229 0 l67 305 l610 0 l-167 -795 q-105 -34 -231 -57.5 q-126 -23.5 -290 -23.5 Z" /><glyph glyph-name="H" unicode="h" d="M33 0 l309 1462 l391 0 l-112 -542 l348 0 l112 542 l392 0 l-310 -1462 l-391 0 l125 596 l-346 0 l-127 -596 l-391 0 Z" /><glyph glyph-name="I" unicode="i" d="M33 0 l309 1462 l391 0 l-309 -1462 l-391 0 Z" /><glyph glyph-name="J" unicode="j" d="M-115 -461 q-52 0 -108.5 8 q-56.5 8 -104.5 21 l0 319 q37 -9 79 -16.5 q42 -7.5 95 -7.5 q63 0 110 21 q47 21 81 76.5 q34 55.5 55 156.5 l289 1345 l391 0 l-299 -1394 q-41 -192 -111 -308.5 q-70 -116.5 -185 -168.5 q-115 -52 -292 -52 Z" /><glyph glyph-name="K" unicode="k" d="M33 0 l309 1462 l391 0 l-135 -624 l145 204 l320 420 l459 0 l-551 -674 l270 -788 l-438 0 l-174 578 l-97 -56 l-108 -522 l-391 0 Z" /><glyph glyph-name="L" unicode="l" d="M33 0 l309 1462 l391 0 l-241 -1143 l477 0 l-68 -319 l-868 0 Z" /><glyph glyph-name="M" unicode="m" d="M33 0 l309 1462 l518 0 l0 -1038 l8 0 l478 1038 l526 0 l-313 -1462 l-351 0 l117 549 q33 153 58 251 q25 98 41.5 156.5 q16.5 58.5 23.5 92.5 l-8 0 l-482 -1049 l-370 0 l0 1049 l-8 0 q-16 -103 -31 -195.5 q-15 -92.5 -28.5 -171.5 q-13.5 -79 -26.5 -145 l-113 -537 l-348 0 Z" /><glyph glyph-name="N" unicode="n" d="M33 0 l309 1462 l455 0 l286 -983 l9 0 q5 44 14.5 112 q9.5 68 21 138 q11.5 70 21.5 121 l131 612 l348 0 l-309 -1462 l-455 0 l-289 1028 l-8 0 q-1 -20 -6 -68.5 q-5 -48.5 -13 -110.5 q-8 -62 -17.5 -125.5 q-9.5 -63.5 -20.5 -113.5 l-129 -610 l-348 0 Z" /><glyph glyph-name="O" unicode="o" d="M666 -20 q-187 0 -311.5 70 q-124.5 70 -187.5 196.5 q-63 126.5 -63 296.5 q0 114 21 227 q21 113 64 218.5 q43 105.5 108 195.5 q65 90 153 157.5 q88 67.5 199.5 105.5 q111.5 38 247.5 38 q270 0 409.5 -154 q139.5 -154 139.5 -409 q0 -114 -20.5 -227.5 q-20.5 -113.5 -62 -219 q-41.5 -105.5 -105.5 -195.5 q-64 -90 -150.5 -157.5 q-86.5 -67.5 -196.5 -105 q-110 -37.5 -245 -37.5 ZM700 303 q49 0 94 22 q45 22 84.5 62.5 q39.5 40.5 71 97 q31.5 56.5 54.5 125 q23 68.5 35 146.5 q12 78 12 162 q0 113 -48 178 q-48 65 -139 65 q-55 0 -103 -25 q-48 -25 -88.5 -69 q-40.5 -44 -72.5 -103 q-32 -59 -54.5 -128 q-22.5 -69 -34 -143 q-11.5 -74 -11.5 -148 q0 -79 22.5 -133 q22.5 -54 67 -81.5 q44.5 -27.5 110.5 -27.5 Z" /><glyph glyph-name="P" unicode="p" d="M33 0 l309 1462 l373 0 q194 0 311.5 -58 q117.5 -58 171 -157.5 q53.5 -99.5 53.5 -222.5 q0 -131 -46.5 -231.5 q-46.5 -100.5 -132 -169 q-85.5 -68.5 -203 -103.5 q-117.5 -35 -259.5 -35 l-86 0 l-100 -485 l-391 0 ZM594 805 l63 0 q62 0 107.5 27 q45.5 27 70.5 74 q25 47 25 106 q0 50 -31.5 90.5 q-31.5 40.5 -103.5 40.5 l-59 0 l-72 -338 Z" /><glyph glyph-name="Q" unicode="q" d="M821 -348 l-162 328 q-6 0 -11 0 q-5 0 -11 0 q-172 0 -291 70 q-119 70 -180.5 196.5 q-61.5 126.5 -61.5 296.5 q0 114 21 227 q21 113 64 218.5 q43 105.5 108.5 195.5 q65.5 90 154.5 157.5 q89 67.5 201.5 105.5 q112.5 38 249.5 38 q266 0 404.5 -154 q138.5 -154 138.5 -409 q0 -100 -16.5 -200.5 q-16.5 -100.5 -49.5 -195 q-33 -94.5 -83.5 -179.5 q-50.5 -85 -119 -154.5 q-68.5 -69.5 -155.5 -118.5 l238 -422 l-439 0 ZM682 309 q54 0 102 22 q48 22 89 63 q41 41 74 97 q33 56 56 124 q23 68 35.5 145.5 q12.5 77.5 12.5 159.5 q0 118 -47.5 177.5 q-47.5 59.5 -133.5 59.5 q-54 0 -102 -22.5 q-48 -22.5 -89.5 -63.5 q-41.5 -41 -74.5 -97.5 q-33 -56.5 -56 -125.5 q-23 -69 -35.5 -147 q-12.5 -78 -12.5 -162 q0 -76 21.5 -127 q21.5 -51 62.5 -77 q41 -26 98 -26 Z" /><glyph glyph-name="R" unicode="r" d="M33 0 l309 1462 l387 0 q252 0 386 -100 q134 -100 134 -301 q0 -134 -44 -223.5 q-44 -89.5 -109 -143.5 q-65 -54 -129 -82 l264 -612 l-426 0 l-195 532 l-73 0 l-113 -532 l-391 0 ZM600 829 l51 0 q39 0 76 11.5 q37 11.5 66.5 36 q29.5 24.5 47 64 q17.5 39.5 17.5 95.5 q0 53 -30 90 q-30 37 -105 37 l-53 0 l-70 -334 Z" /><glyph glyph-name="S" unicode="s" d="M420 -20 q-109 0 -207.5 25 q-98.5 25 -169.5 71 l0 350 q80 -49 188.5 -87 q108.5 -38 200.5 -38 q37 0 65 8 q28 8 47 23 q19 15 28.5 37.5 q9.5 22.5 9.5 50.5 q0 37 -22 69 q-22 32 -59.5 63.5 q-37.5 31.5 -82.5 68.5 q-67 55 -117.5 115 q-50.5 60 -78 131.5 q-27.5 71.5 -27.5 160.5 q0 99 37 182 q37 83 105.5 144.5 q68.5 61.5 164 95 q95.5 33.5 211.5 33.5 q118 0 228.5 -28 q110.5 -28 201.5 -79 l-135 -297 q-70 35 -146.5 61.5 q-76.5 26.5 -144.5 26.5 q-42 0 -68 -10.5 q-26 -10.5 -40 -27 q-14 -16.5 -19.5 -35.5 q-5.5 -19 -5.5 -37 q0 -31 13.5 -59.5 q13.5 -28.5 48.5 -63 q35 -34.5 99 -82.5 q81 -60 132.5 -122 q51.5 -62 75.5 -130.5 q24 -68.5 24 -150.5 q0 -109 -37 -196 q-37 -87 -108 -148 q-71 -61 -174.5 -93 q-103.5 -32 -237.5 -32 Z" /><glyph glyph-name="T" unicode="t" d="M236 0 l237 1139 l-317 0 l69 323 l1028 0 l-71 -323 l-318 0 l-237 -1139 l-391 0 Z" /><glyph glyph-name="U" unicode="u" d="M610 -20 q-152 0 -261 54.5 q-109 54.5 -166.5 150.5 q-57.5 96 -57.5 218 q0 31 3 67.5 q3 36.5 9 68.5 l199 923 l391 0 l-195 -913 q-6 -29 -10 -59 q-4 -30 -4 -56 q0 -60 33 -93.5 q33 -33.5 96 -33.5 q59 0 100.5 26 q41.5 26 71 83.5 q29.5 57.5 49.5 152.5 l191 893 l391 0 l-199 -932 q-37 -178 -113 -300.5 q-76 -122.5 -204 -186 q-128 -63.5 -324 -63.5 Z" /><glyph glyph-name="V" unicode="v" d="M254 0 l-104 1462 l382 0 l25 -737 q2 -53 1.5 -124.5 q-0.5 -71.5 -4.5 -138.5 q-4 -67 -11 -108 l8 0 q12 54 30 112.5 q18 58.5 37 109.5 q19 51 33 81 l350 805 l414 0 l-725 -1462 l-436 0 Z" /><glyph glyph-name="W" unicode="w" d="M201 0 l-49 1462 l370 0 l-10 -733 q-1 -88 -5.5 -182 q-4.5 -94 -12.5 -162 l8 0 q21 68 54 150 q33 82 65 155 l335 772 l336 0 l0 -792 q0 -51 -2 -140 q-2 -89 -8 -161 l8 0 q16 53 39 123 q23 70 48.5 141.5 q25.5 71.5 47.5 128.5 l277 700 l387 0 l-635 -1462 l-461 0 l0 561 q0 53 1.5 109 q1.5 56 4.5 113 q3 57 7 112 l-9 0 q-31 -95 -65 -185.5 q-34 -90.5 -72 -179.5 l-225 -530 l-434 0 Z" /><glyph glyph-name="X" unicode="x" d="M-125 0 l563 776 l-223 686 l416 0 l123 -469 l309 469 l448 0 l-538 -725 l262 -737 l-432 0 l-146 498 l-338 -498 l-444 0 Z" /><glyph glyph-name="Y" unicode="y" d="M281 0 l120 567 l-237 895 l403 0 l90 -542 l312 542 l436 0 l-612 -895 l-121 -567 l-391 0 Z" /><glyph glyph-name="Z" unicode="z" d="M-92 0 l47 242 l690 901 l-479 0 l67 319 l986 0 l-52 -245 l-700 -898 l543 0 l-68 -319 l-1034 0 Z" /><glyph glyph-name="bracketleft" unicode="[" d="M-53 -344 l393 1847 l530 0 l-55 -254 l-215 0 l-285 -1339 l215 0 l-53 -254 l-530 0 Z" /><glyph glyph-name="backslash" unicode="\" d="M459 -20 l-238 1503 l309 0 l248 -1503 l-319 0 Z" /><glyph glyph-name="bracketright" unicode="]" d="M-133 -344 l53 254 l213 0 l285 1339 l-215 0 l55 254 l528 0 l-393 -1847 l-526 0 Z" /><glyph glyph-name="asciicircum" unicode="^" d="M-6 502 l631 960 l172 0 l284 -960 l-274 0 l-156 569 l-360 -569 l-297 0 Z" /><glyph glyph-name="underscore" unicode="_" d="M-184 -379 l57 246 l930 0 l-58 -246 l-929 0 Z" /><glyph glyph-name="grave" unicode="`" d="M549 1241 q-45 42 -94.5 94.5 q-49.5 52.5 -92 107.5 q-42.5 55 -67.5 105 l0 21 l395 0 q9 -44 21.5 -94.5 q12.5 -50.5 31 -103.5 q18.5 -53 41.5 -105 l0 -25 l-235 0 Z" /><glyph glyph-name="a" unicode="a" d="M406 -20 q-87 0 -160.5 41 q-73.5 41 -117.5 135.5 q-44 94.5 -44 255.5 q0 83 19.5 182 q19.5 99 59 197.5 q39.5 98.5 99.5 180.5 q60 82 141.5 131.5 q81.5 49.5 184.5 49.5 q65 0 113.5 -20 q48.5 -20 85 -55.5 q36.5 -35.5 63.5 -84.5 l8 0 l53 140 l310 0 l-240 -1133 l-309 0 l10 123 l-8 0 q-30 -42 -67 -74 q-37 -32 -85.5 -50.5 q-48.5 -18.5 -115.5 -18.5 ZM565 291 q44 0 81 40.5 q37 40.5 63.5 104.5 q26.5 64 38.5 137 q6 31 9 62.5 q3 31.5 3 62.5 q0 65 -20.5 104.5 q-20.5 39.5 -61.5 39.5 q-32 0 -61.5 -23.5 q-29.5 -23.5 -54.5 -64 q-25 -40.5 -43.5 -93 q-18.5 -52.5 -29 -110.5 q-10.5 -58 -10.5 -117 q0 -69 21.5 -106 q21.5 -37 64.5 -37 Z" /><glyph glyph-name="b" unicode="b" d="M657 -20 q-57 0 -103 14.5 q-46 14.5 -86.5 46.5 q-40.5 32 -80.5 84 l-8 0 l-49 -125 l-307 0 l329 1556 l387 0 l-49 -231 q-12 -62 -28.5 -120.5 q-16.5 -58.5 -32.5 -105 q-16 -46.5 -29 -75.5 l8 0 q27 33 56 62.5 q29 29.5 70 48 q41 18.5 104 18.5 q87 0 160 -41 q73 -41 117 -135.5 q44 -94.5 44 -255.5 q0 -83 -19 -182.5 q-19 -99.5 -58.5 -198 q-39.5 -98.5 -99.5 -180 q-60 -81.5 -141 -131 q-81 -49.5 -184 -49.5 ZM563 291 q32 0 62 23.5 q30 23.5 55 64 q25 40.5 44 92.5 q19 52 29.5 110.5 q10.5 58.5 10.5 116.5 q0 70 -21.5 107 q-21.5 37 -64.5 37 q-30 0 -56 -18.5 q-26 -18.5 -47.5 -50 q-21.5 -31.5 -38 -72.5 q-16.5 -41 -28 -86.5 q-11.5 -45.5 -17.5 -92 q-6 -46.5 -6 -88.5 q0 -64 19 -103.5 q19 -39.5 59 -39.5 Z" /><glyph glyph-name="c" unicode="c" d="M506 -20 q-115 0 -211 47 q-96 47 -153.5 149 q-57.5 102 -57.5 266 q0 120 27.5 227 q27.5 107 79.5 196 q52 89 126.5 153.5 q74.5 64.5 168.5 99.5 q94 35 204 35 q106 0 193.5 -20 q87.5 -20 173.5 -60 l-123 -287 q-51 23 -110.5 41.5 q-59.5 18.5 -114.5 18.5 q-60 0 -104.5 -37.5 q-44.5 -37.5 -73.5 -96.5 q-29 -59 -43.5 -124.5 q-14.5 -65.5 -14.5 -120.5 q0 -66 15 -104.5 q15 -38.5 43 -55 q28 -16.5 67 -16.5 q72 0 139.5 23 q67.5 23 143.5 63 l0 -307 q-80 -43 -168 -66.5 q-88 -23.5 -207 -23.5 Z" /><glyph glyph-name="d" unicode="d" d="M406 -20 q-87 0 -160.5 41 q-73.5 41 -117.5 135.5 q-44 94.5 -44 255.5 q0 83 19 182 q19 99 58.5 197.5 q39.5 98.5 99.5 180.5 q60 82 141 131.5 q81 49.5 184 49.5 q62 0 103 -18.5 q41 -18.5 72.5 -52.5 q31.5 -34 61.5 -81 l8 0 q0 13 2.5 55.5 q2.5 42.5 8.5 97 q6 54.5 16 101.5 l62 301 l391 0 l-330 -1556 l-309 0 l10 123 l-8 0 q-28 -39 -63 -71.5 q-35 -32.5 -84 -52 q-49 -19.5 -121 -19.5 ZM565 291 q30 0 56 18.5 q26 18.5 47.5 50 q21.5 31.5 38.5 72.5 q17 41 29 87 q12 46 18 92 q6 46 6 87 q0 65 -19.5 104.5 q-19.5 39.5 -60.5 39.5 q-32 0 -62 -23.5 q-30 -23.5 -55 -64 q-25 -40.5 -44 -93 q-19 -52.5 -29.5 -110.5 q-10.5 -58 -10.5 -117 q0 -69 21.5 -106 q21.5 -37 64.5 -37 Z" /><glyph glyph-name="e" unicode="e" d="M532 -20 q-143 0 -243 54 q-100 54 -152.5 154.5 q-52.5 100.5 -52.5 239.5 q0 139 39.5 269 q39.5 130 120 233 q80.5 103 202.5 163 q122 60 287 60 q191 0 299.5 -86 q108.5 -86 108.5 -229 q0 -94 -36 -170.5 q-36 -76.5 -110.5 -131.5 q-74.5 -55 -189.5 -84.5 q-115 -29.5 -273 -29.5 l-59 0 q0 -4 0 -7.5 q0 -3.5 0 -8.5 q0 -76 41 -112 q41 -36 123 -36 q86 0 163 26 q77 26 165 72 l0 -274 q-91 -46 -188 -74 q-97 -28 -245 -28 ZM512 664 l29 0 q87 0 138 23 q51 23 73 58 q22 35 22 70 q0 32 -20 54 q-20 22 -64 22 q-45 0 -83 -35 q-38 -35 -63 -87.5 q-25 -52.5 -32 -104.5 Z" /><glyph glyph-name="f" unicode="f" d="M-2 -492 q-54 0 -113 8.5 q-59 8.5 -94 18.5 l0 303 q28 -7 58.5 -12.5 q30.5 -5.5 58.5 -5.5 q74 0 112 30.5 q38 30.5 52 94.5 l190 897 l-166 0 l43 190 l189 96 l16 74 q21 96 57.5 165 q36.5 69 89 113.5 q52.5 44.5 121 65.5 q68.5 21 154.5 21 q80 0 155.5 -16 q75.5 -16 127.5 -42 l-99 -264 q-29 14 -63 22.5 q-34 8.5 -66 8.5 q-35 0 -59.5 -18.5 q-24.5 -18.5 -32.5 -53.5 l-16 -71 l211 0 l-66 -291 l-209 0 l-205 -959 q-23 -108 -75.5 -193 q-52.5 -85 -142.5 -133.5 q-90 -48.5 -228 -48.5 Z" /><glyph glyph-name="g" unicode="g" d="M347 -492 q-212 0 -337.5 75.5 q-125.5 75.5 -125.5 209.5 q0 98 68 169 q68 71 212 118 q-37 23 -60.5 60 q-23.5 37 -23.5 79 q0 71 51 126 q51 55 152 101 q-65 52 -98 122 q-33 70 -33 159 q0 89 29 162 q29 73 84 128 q66 65 165 100.5 q99 35.5 226 35.5 q51 0 107.5 -6 q56.5 -6 89.5 -14 l399 0 l-41 -207 l-160 -52 q5 -20 7.5 -43.5 q2.5 -23.5 2.5 -50.5 q0 -93 -32 -169.5 q-32 -76.5 -91 -132.5 q-61 -59 -149.5 -91.5 q-88.5 -32.5 -196.5 -32.5 q-38 0 -69 3 q-31 3 -55 10 q-20 -11 -34 -22 q-14 -11 -14 -30 q0 -14 12 -26 q11 -10 36.5 -19 q25.5 -9 62.5 -14 l137 -18 q116 -15 188 -50 q72 -35 105 -92 q33 -57 33 -139 q0 -110 -45.5 -195.5 q-45.5 -85.5 -132.5 -142.5 q-82 -55 -200 -83 q-118 -28 -269 -28 ZM384 -238 q57 0 111 7.5 q54 7.5 91 26.5 q25 13 39.5 32 q14.5 19 14.5 45 q0 14 -4.5 24.5 q-4.5 10.5 -12.5 18.5 q-19 19 -54 27 q-35 8 -77 12 l-115 12 q-52 -7 -88.5 -23 q-36.5 -16 -55.5 -40 q-19 -24 -19 -56 q0 -43 42.5 -64.5 q42.5 -21.5 127.5 -21.5 ZM584 598 q35 0 61.5 31.5 q26.5 31.5 42 83.5 q15.5 52 15.5 112 q0 23 -3.5 41 q-3.5 18 -11.5 30 q-7 12 -18.5 18 q-11.5 6 -27.5 6 q-32 0 -55.5 -22 q-23.5 -22 -39 -57 q-15.5 -35 -23 -74.5 q-7.5 -39.5 -7.5 -74.5 q0 -22 3.5 -38.5 q3.5 -16.5 10.5 -28.5 q17 -27 53 -27 Z" /><glyph glyph-name="h" unicode="h" d="M23 0 l329 1556 l387 0 l-53 -249 q-10 -48 -25 -100.5 q-15 -52.5 -31.5 -100 q-16.5 -47.5 -31.5 -82.5 l8 0 q35 45 77 73.5 q42 28.5 91 42 q49 13.5 105 13.5 q106 0 171.5 -44 q65.5 -44 96.5 -117 q31 -73 31 -161 q0 -56 -7 -115.5 q-7 -59.5 -18 -113.5 l-127 -602 l-387 0 l129 618 q6 26 12 66.5 q6 40.5 6 75.5 q0 43 -22 64.5 q-22 21.5 -53 21.5 q-38 0 -72 -29.5 q-34 -29.5 -62.5 -94 q-28.5 -64.5 -50.5 -169.5 l-116 -553 l-387 0 Z" /><glyph glyph-name="i" unicode="i" d="M23 0 l239 1133 l389 0 l-241 -1133 l-387 0 ZM500 1241 q-82 0 -136.5 31.5 q-54.5 31.5 -54.5 109.5 q0 68 27 114.5 q27 46.5 77.5 70.5 q50.5 24 121.5 24 q77 0 133.5 -31.5 q56.5 -31.5 56.5 -109.5 q0 -94 -55 -151.5 q-55 -57.5 -170 -57.5 Z" /><glyph glyph-name="j" unicode="j" d="M-57 -492 q-54 0 -113 8.5 q-59 8.5 -94 18.5 l0 303 q37 -12 62 -15 q25 -3 50 -3 q41 0 76.5 14.5 q35.5 14.5 61.5 47 q26 32.5 37 85.5 l247 1166 l387 0 l-260 -1227 q-21 -102 -73.5 -193 q-52.5 -91 -145 -148 q-92.5 -57 -235.5 -57 ZM508 1241 q-82 0 -136.5 31.5 q-54.5 31.5 -54.5 109.5 q0 68 27 114.5 q27 46.5 77.5 70.5 q50.5 24 121.5 24 q77 0 133.5 -31.5 q56.5 -31.5 56.5 -109.5 q0 -94 -54.5 -151.5 q-54.5 -57.5 -170.5 -57.5 Z" /><glyph glyph-name="k" unicode="k" d="M23 0 l325 1556 l387 0 l-139 -663 q-8 -37 -20 -81 q-12 -44 -23.5 -82.5 q-11.5 -38.5 -20.5 -61.5 l9 0 l391 465 l442 0 l-491 -512 l274 -621 l-438 0 l-139 391 l-101 -53 l-69 -338 l-387 0 Z" /><glyph glyph-name="l" unicode="l" d="M23 0 l329 1556 l387 0 l-329 -1556 l-387 0 Z" /><glyph glyph-name="m" unicode="m" d="M23 0 l239 1133 l309 0 l-16 -187 l8 0 q40 75 86 120.5 q46 45.5 105 66 q59 20.5 137 20.5 q117 0 180.5 -53.5 q63.5 -53.5 89.5 -153.5 l8 0 q43 71 95 116.5 q52 45.5 114 68 q62 22.5 135 22.5 q140 0 213.5 -85 q73.5 -85 73.5 -249 q0 -46 -5.5 -98.5 q-5.5 -52.5 -16.5 -106.5 l-125 -614 l-387 0 l129 631 q5 20 9.5 55 q4.5 35 4.5 78 q0 40 -19 61 q-19 21 -51 21 q-37 0 -66.5 -19 q-29.5 -19 -53 -57.5 q-23.5 -38.5 -42.5 -95 q-19 -56.5 -34 -131.5 l-111 -543 l-387 0 l131 631 q5 23 10 59.5 q5 36.5 5 61.5 q0 50 -20.5 72 q-20.5 22 -51.5 22 q-28 0 -54.5 -13.5 q-26.5 -13.5 -50 -46.5 q-23.5 -33 -45 -90.5 q-21.5 -57.5 -41.5 -144.5 l-118 -551 l-387 0 Z" /><glyph glyph-name="n" unicode="n" d="M23 0 l239 1133 l309 0 l-12 -158 l8 0 q37 64 82 103 q45 39 101.5 57 q56.5 18 128.5 18 q106 0 171.5 -44 q65.5 -44 96.5 -117 q31 -73 31 -161 q0 -56 -7 -115.5 q-7 -59.5 -18 -113.5 l-127 -602 l-387 0 l129 618 q6 26 12 66.5 q6 40.5 6 75.5 q0 43 -22 64.5 q-22 21.5 -53 21.5 q-38 0 -72.5 -31.5 q-34.5 -31.5 -63 -96 q-28.5 -64.5 -49.5 -165.5 l-116 -553 l-387 0 Z" /><glyph glyph-name="o" unicode="o" d="M520 -20 q-139 0 -236.5 51 q-97.5 51 -148.5 148.5 q-51 97.5 -51 236.5 q0 116 26 224.5 q26 108.5 78 201.5 q52 93 129 163 q77 70 178.5 109 q101.5 39 227.5 39 q139 0 236.5 -51 q97.5 -51 148.5 -148.5 q51 -97.5 51 -236.5 q0 -116 -26 -224.5 q-26 -108.5 -78 -201.5 q-52 -93 -129 -163 q-77 -70 -178.5 -109 q-101.5 -39 -227.5 -39 ZM563 270 q34 0 64.5 26 q30.5 26 55.5 71.5 q25 45.5 43 104 q18 58.5 28 124.5 q10 66 10 133 q0 44 -10.5 73.5 q-10.5 29.5 -29.5 44.5 q-19 15 -46 15 q-34 0 -64.5 -26 q-30.5 -26 -55 -71 q-24.5 -45 -42.5 -103.5 q-18 -58.5 -27.5 -125 q-9.5 -66.5 -9.5 -133.5 q0 -66 22 -99.5 q22 -33.5 62 -33.5 Z" /><glyph glyph-name="p" unicode="p" d="M-82 -492 l344 1625 l309 0 l-12 -127 l8 0 q31 48 69 81 q38 33 85 49.5 q47 16.5 104 16.5 q102 0 177 -49 q75 -49 116 -142.5 q41 -93.5 41 -226.5 q0 -112 -23 -221.5 q-23 -109.5 -66 -206 q-43 -96.5 -105.5 -170 q-62.5 -73.5 -141 -115.5 q-78.5 -42 -172.5 -42 q-51 0 -93.5 18 q-42.5 18 -76.5 50.5 q-34 32.5 -61 76.5 l-8 0 q-7 -80 -17.5 -159.5 q-10.5 -79.5 -38.5 -211.5 l-51 -246 l-387 0 ZM573 291 q32 0 61 23.5 q29 23.5 52.5 64 q23.5 40.5 41 92.5 q17.5 52 27 110.5 q9.5 58.5 9.5 116.5 q0 70 -21.5 107 q-21.5 37 -64.5 37 q-30 0 -55.5 -18 q-25.5 -18 -47 -49 q-21.5 -31 -38.5 -71.5 q-17 -40.5 -28.5 -86.5 q-11.5 -46 -17.5 -92.5 q-6 -46.5 -6 -90.5 q0 -64 23.5 -103.5 q23.5 -39.5 64.5 -39.5 Z" /><glyph glyph-name="q" unicode="q" d="M485 -492 l68 293 q15 63 31.5 122.5 q16.5 59.5 32 108.5 q15.5 49 26.5 79 l-8 0 q-26 -36 -59 -65.5 q-33 -29.5 -78.5 -47.5 q-45.5 -18 -110.5 -18 q-74 0 -144 42.5 q-70 42.5 -114.5 136.5 q-44.5 94 -44.5 249 q0 84 19 184 q19 100 58.5 199 q39.5 99 99.5 181 q60 82 141 131.5 q81 49.5 184 49.5 q65 0 110 -16.5 q45 -16.5 81 -51.5 q36 -35 73 -92 l8 0 l53 140 l310 0 l-344 -1625 l-392 0 ZM565 291 q30 0 56 18.5 q26 18.5 47.5 50 q21.5 31.5 38.5 72.5 q17 41 29 87 q12 46 18 92 q6 46 6 87 q0 65 -19.5 104.5 q-19.5 39.5 -60.5 39.5 q-32 0 -62 -23.5 q-30 -23.5 -55 -64 q-25 -40.5 -44 -93 q-19 -52.5 -29.5 -110.5 q-10.5 -58 -10.5 -117 q0 -69 21.5 -106 q21.5 -37 64.5 -37 Z" /><glyph glyph-name="r" unicode="r" d="M23 0 l239 1133 l309 0 l-18 -189 l8 0 q47 80 96 125.5 q49 45.5 108.5 64.5 q59.5 19 135.5 19 q22 0 46.5 -2.5 q24.5 -2.5 33.5 -5.5 l-84 -383 q-22 9 -54 15.5 q-32 6.5 -69 6.5 q-45 0 -84.5 -14.5 q-39.5 -14.5 -72 -47 q-32.5 -32.5 -58 -88 q-25.5 -55.5 -43.5 -136.5 l-106 -498 l-387 0 Z" /><glyph glyph-name="s" unicode="s" d="M387 -20 q-113 0 -201.5 16 q-88.5 16 -154.5 47 l0 311 q92 -50 171 -70 q79 -20 160 -20 q24 0 56 4.5 q32 4.5 56 19.5 q24 15 24 46 q0 23 -10.5 41.5 q-10.5 18.5 -43.5 42 q-33 23.5 -102 61.5 q-70 39 -115 85 q-45 46 -66.5 102.5 q-21.5 56.5 -21.5 128.5 q0 107 50 187.5 q50 80.5 153.5 125.5 q103.5 45 261.5 45 q111 0 204 -26.5 q93 -26.5 179 -79.5 l-121 -252 q-56 37 -127.5 65.5 q-71.5 28.5 -130.5 28.5 q-35 0 -55.5 -17 q-20.5 -17 -20.5 -51 q0 -19 13.5 -35 q13.5 -16 43.5 -32.5 q30 -16.5 77 -40.5 q77 -38 126.5 -86 q49.5 -48 74 -106 q24.5 -58 24.5 -128 q0 -140 -62 -231.5 q-62 -91.5 -175 -136.5 q-113 -45 -267 -45 Z" /><glyph glyph-name="t" unicode="t" d="M410 -20 q-148 0 -224.5 63.5 q-76.5 63.5 -76.5 208.5 q0 41 7.5 94 q7.5 53 16.5 94 l84 402 l-154 0 l41 190 l218 88 l137 240 l258 0 l-49 -227 l288 0 l-63 -291 l-289 0 l-84 -383 q-6 -29 -11 -58.5 q-5 -29.5 -5 -46.5 q0 -34 17.5 -48.5 q17.5 -14.5 45.5 -14.5 q38 0 86 13.5 q48 13.5 97 33.5 l0 -291 q-63 -31 -146.5 -49 q-83.5 -18 -193.5 -18 Z" /><glyph glyph-name="u" unicode="u" d="M395 -20 q-105 0 -171 44 q-66 44 -97 117 q-31 73 -31 160 q0 57 7 116.5 q7 59.5 18 112.5 l127 603 l387 0 l-129 -617 q-6 -26 -12.5 -66 q-6.5 -40 -6.5 -75 q0 -43 22.5 -64.5 q22.5 -21.5 53.5 -21.5 q34 0 68.5 31 q34.5 31 65 96 q30.5 65 51.5 166 l116 551 l387 0 l-239 -1133 l-310 0 l13 158 l-8 0 q-37 -63 -82 -102.5 q-45 -39.5 -101.5 -57.5 q-56.5 -18 -128.5 -18 Z" /><glyph glyph-name="v" unicode="v" d="M233 0 l-145 1133 l385 0 l21 -570 q1 -26 1.5 -53 q0.5 -27 -0.5 -51.5 q-1 -24.5 -3 -46.5 l8 0 q5 20 14 44.5 q9 24.5 19 49 q10 24.5 18 41.5 l268 586 l414 0 l-612 -1133 l-388 0 Z" /><glyph glyph-name="w" unicode="w" d="M168 0 l-66 1133 l365 0 l0 -553 q0 -55 -3.5 -112.5 q-3.5 -57.5 -8.5 -105.5 l8 0 q8 33 18 66.5 q10 33.5 20.5 66 q10.5 32.5 20.5 60.5 l217 578 l408 0 l-29 -558 q-1 -30 -3.5 -87.5 q-2.5 -57.5 -10.5 -125.5 l8 0 q13 41 24.5 77 q11.5 36 24 70.5 q12.5 34.5 27.5 72.5 l227 551 l385 0 l-538 -1133 l-422 0 l14 449 q2 52 5.5 117.5 q3.5 65.5 8.5 132 q5 66.5 11 120.5 l-9 0 q-14 -56 -33.5 -117.5 q-19.5 -61.5 -39 -118.5 q-19.5 -57 -35.5 -98 l-187 -485 l-407 0 Z" /><glyph glyph-name="x" unicode="x" d="M-119 0 l473 578 l-207 555 l422 0 l76 -314 l186 314 l459 0 l-465 -576 l228 -557 l-428 0 l-80 328 l-211 -328 l-453 0 Z" /><glyph glyph-name="y" unicode="y" d="M25 -492 q-58 0 -95 5.5 q-37 5.5 -59 11.5 l0 307 q19 -4 47 -8 q28 -4 62 -4 q89 0 143.5 37.5 q54.5 37.5 97.5 113.5 l23 41 l-162 1121 l389 0 l39 -521 q3 -34 3.5 -66.5 q0.5 -32.5 0 -63 q-0.5 -30.5 -1.5 -60.5 l8 0 q10 31 22 66.5 q12 35.5 25 69.5 q13 34 23 58 l223 517 l416 0 l-670 -1276 q-61 -118 -136 -195.5 q-75 -77.5 -172 -115.5 q-97 -38 -226 -38 Z" /><glyph glyph-name="z" unicode="z" d="M-41 0 l43 221 l502 613 l-348 0 l67 299 l811 0 l-53 -242 l-496 -592 l383 0 l-65 -299 l-844 0 Z" /><glyph glyph-name="braceleft" unicode="{" d="M463 -324 q-196 0 -278.5 74 q-82.5 74 -82.5 203 q0 32 3.5 62.5 q3.5 30.5 11.5 64.5 l37 174 q3 12 4.5 23 q1.5 11 1.5 20 q0 66 -36.5 101.5 q-36.5 35.5 -139.5 35.5 l53 287 q123 0 177.5 40 q54.5 40 74.5 132 l55 246 q23 100 66.5 172.5 q43.5 72.5 125.5 111.5 q82 39 218 39 l129 0 l-62 -280 q-73 -1 -116 -26.5 q-43 -25.5 -60 -102.5 l-53 -258 q-25 -115 -100 -163 q-75 -48 -179 -59 l0 -8 q89 -29 129.5 -87 q40.5 -58 40.5 -146 q0 -19 -3.5 -38 q-3.5 -19 -6.5 -36 l-35 -164 q-3 -15 -4.5 -26.5 q-1.5 -11.5 -1.5 -22.5 q0 -47 29.5 -67.5 q29.5 -20.5 83.5 -20.5 l0 -281 l-82 0 Z" /><glyph glyph-name="bar" unicode="|" d="M442 -465 l0 2013 l271 0 l0 -2013 l-271 0 Z" /><glyph glyph-name="braceright" unicode="}" d="M-123 -324 l0 281 q73 3 111 14 q38 11 55 38 q17 27 27 77 l53 258 q25 116 99.5 163.5 q74.5 47.5 178.5 57.5 l0 8 q-88 29 -129 87.5 q-41 58.5 -41 146.5 q0 18 4 37.5 q4 19.5 7 36.5 l34 163 q4 16 5.5 27.5 q1.5 11.5 1.5 22.5 q0 43 -32.5 65.5 q-32.5 22.5 -103.5 22.5 l54 280 l61 0 q130 0 206.5 -37.5 q76.5 -37.5 110 -99.5 q33.5 -62 33.5 -137 q0 -32 -3 -63.5 q-3 -31.5 -11 -65.5 l-37 -174 q-3 -13 -4.5 -23.5 q-1.5 -10.5 -1.5 -19.5 q0 -66 45 -100.5 q45 -34.5 148 -34.5 l-58 -287 q-82 0 -135.5 -18 q-53.5 -18 -84 -56 q-30.5 -38 -44.5 -100 l-55 -246 q-21 -100 -68 -173 q-47 -73 -131.5 -112 q-84.5 -39 -220.5 -39 l-74 0 Z" /><glyph glyph-name="asciitilde" unicode="~" d="M561 592 q-75 32 -131.5 43.5 q-56.5 11.5 -103.5 11.5 q-60 0 -120.5 -35 q-60.5 -35 -113.5 -86 l0 281 q53 54 117.5 81 q64.5 27 146.5 27 q60 0 120.5 -11.5 q60.5 -11.5 160.5 -51.5 q75 -32 133 -43.5 q58 -11.5 104 -11.5 q57 0 118.5 35 q61.5 35 113.5 86 l0 -281 q-52 -54 -117.5 -81.5 q-65.5 -27.5 -146.5 -27.5 q-60 0 -120.5 12 q-60.5 12 -160.5 52 Z" /><glyph glyph-name="nonbreakingspace" unicode=" " d="" /><glyph glyph-name="exclamdown" unicode="¡" d="M-109 -338 l254 946 l328 0 l-156 -946 l-426 0 ZM342 768 q-86 0 -133 41 q-47 41 -47 115 q0 115 66.5 172 q66.5 57 170.5 57 q107 0 147 -46.5 q40 -46.5 40 -105.5 q0 -65 -27 -118 q-27 -53 -81 -84 q-54 -31 -136 -31 Z" /><glyph glyph-name="cent" unicode="¢" d="M373 -20 l51 208 q-115 32 -192.5 124.5 q-77.5 92.5 -77.5 273.5 q0 122 23 229 q23 107 67 195.5 q44 88.5 107 156 q63 67.5 142 110.5 q79 43 173 58 l32 148 l230 0 l-33 -150 q69 -10 123.5 -29 q54.5 -19 107.5 -47 l-122 -286 q-64 31 -115 45 q-51 14 -111 14 q-60 0 -103.5 -38 q-43.5 -38 -72 -98.5 q-28.5 -60.5 -42 -131 q-13.5 -70.5 -13.5 -135.5 q0 -79 31.5 -113.5 q31.5 -34.5 89.5 -34.5 q72 0 140.5 25 q68.5 25 141.5 65 l0 -311 q-69 -37 -142 -59.5 q-73 -22.5 -165 -30.5 l-41 -188 l-229 0 Z" /><glyph glyph-name="sterling" unicode="£" d="M-18 0 l63 313 q78 22 123.5 51 q45.5 29 69.5 75 q24 46 38 116 l21 96 l-188 0 l57 279 l188 0 l23 129 q30 171 97 263 q67 92 163 126.5 q96 34.5 213 34.5 q116 0 203.5 -25.5 q87.5 -25.5 169.5 -60.5 l-144 -299 q-66 31 -114 47 q-48 16 -99 16 q-35 0 -56.5 -24.5 q-21.5 -24.5 -35.5 -92.5 l-24 -114 l251 0 l-57 -279 l-252 0 l-20 -94 q-20 -92 -81.5 -146.5 q-61.5 -54.5 -121.5 -80.5 l604 0 l-72 -330 l-1019 0 Z" /><glyph glyph-name="currency" unicode="¤" d="M909 231 l-125 123 q-40 -16 -87 -28.5 q-47 -12.5 -97 -12.5 q-52 0 -98.5 9 q-46.5 9 -87.5 30 l-123 -119 l-182 183 l127 123 q-23 44 -34.5 89.5 q-11.5 45.5 -11.5 94.5 q0 51 13 97.5 q13 46.5 33 86.5 l-130 125 l185 185 l127 -125 q40 18 89.5 30.5 q49.5 12.5 92.5 12.5 q50 0 94 -11.5 q44 -11.5 90 -36.5 l125 130 l189 -179 l-129 -129 q20 -38 31.5 -87.5 q11.5 -49.5 11.5 -98.5 q0 -52 -11 -97 q-11 -45 -32 -89 l123 -123 l-183 -183 ZM600 571 q43 0 78.5 20.5 q35.5 20.5 56.5 55 q21 34.5 21 76.5 q0 43 -21 77 q-21 34 -56.5 54 q-35.5 20 -78.5 20 q-42 0 -75.5 -20 q-33.5 -20 -53.5 -54 q-20 -34 -20 -77 q0 -42 20 -76.5 q20 -34.5 53.5 -55 q33.5 -20.5 75.5 -20.5 Z" /><glyph glyph-name="yen" unicode="¥" d="M262 0 l41 190 l-227 0 l43 205 l227 0 l25 129 l-226 0 l45 205 l179 0 l-187 733 l385 0 l72 -487 l293 487 l393 0 l-489 -733 l184 0 l-45 -205 l-223 0 l-27 -129 l223 0 l-43 -205 l-223 0 l-41 -190 l-379 0 Z" /><glyph glyph-name="brokenbar" unicode="¦" d="M444 705 l0 841 l271 0 l0 -841 l-271 0 ZM444 -444 l0 839 l271 0 l0 -839 l-271 0 Z" /><glyph glyph-name="section" unicode="§" d="M377 -25 q-109 0 -196.5 26 q-87.5 26 -143.5 69 l0 249 q85 -52 173 -86 q88 -34 185 -34 q86 0 118 35 q32 35 32 69 q0 26 -13.5 48.5 q-13.5 22.5 -43 45.5 q-29.5 23 -78.5 49 q-76 42 -132.5 90.5 q-56.5 48.5 -88 107.5 q-31.5 59 -31.5 132 q0 48 17.5 98 q17.5 50 57 97 q39.5 47 103.5 86 q-38 38 -59 90 q-21 52 -21 102 q0 115 56.5 187.5 q56.5 72.5 159 106.5 q102.5 34 239.5 34 q103 0 190.5 -27.5 q87.5 -27.5 169.5 -74.5 l-100 -224 q-55 37 -128 69 q-73 32 -165 32 q-40 0 -64.5 -10.5 q-24.5 -10.5 -35.5 -27 q-11 -16.5 -11 -36.5 q0 -35 25 -67 q25 -32 125 -78 q92 -43 145.5 -92 q53.5 -49 76 -104 q22.5 -55 22.5 -116 q0 -84 -23 -140 q-23 -56 -61 -92.5 q-38 -36.5 -84 -62.5 q32 -38 50.5 -91 q18.5 -53 18.5 -109 q0 -110 -55 -188.5 q-55 -78.5 -163 -120.5 q-108 -42 -267 -42 ZM604 643 q29 20 51.5 51.5 q22.5 31.5 22.5 75.5 q0 36 -16 66 q-16 30 -50 56 q-34 26 -88 48 q-24 -12 -42.5 -32.5 q-18.5 -20.5 -29 -44 q-10.5 -23.5 -10.5 -46.5 q0 -36 22.5 -66.5 q22.5 -30.5 59.5 -56.5 q37 -26 80 -51 Z" /><glyph glyph-name="dieresis" unicode="¨" d="M993 1257 q-73 0 -121.5 26 q-48.5 26 -48.5 101 q0 99 53 143 q53 44 148 44 q62 0 115 -23.5 q53 -23.5 53 -101.5 q0 -85 -43 -137 q-43 -52 -156 -52 ZM506 1257 q-73 0 -121.5 26 q-48.5 26 -48.5 101 q0 99 53 143 q53 44 148 44 q41 0 80 -9.5 q39 -9.5 64.5 -36.5 q25.5 -27 25.5 -79 q0 -85 -44.5 -137 q-44.5 -52 -156.5 -52 Z" /><glyph glyph-name="copyright" unicode="©" d="M844 -20 q-163 0 -300.5 55.5 q-137.5 55.5 -239 156.5 q-101.5 101 -157 238.5 q-55.5 137.5 -55.5 300.5 q0 164 55.5 301 q55.5 137 157 238.5 q101.5 101.5 239 157 q137.5 55.5 300.5 55.5 q164 0 301 -55.5 q137 -55.5 238 -157 q101 -101.5 156.5 -238.5 q55.5 -137 55.5 -301 q0 -163 -55.5 -300.5 q-55.5 -137.5 -156.5 -238.5 q-101 -101 -238 -156.5 q-137 -55.5 -301 -55.5 ZM846 262 q-221 0 -333 129.5 q-112 129.5 -112 343.5 q0 140 48.5 244 q48.5 104 145.5 161.5 q97 57.5 241 57.5 q92 0 170 -20.5 q78 -20.5 151 -57.5 l-92 -205 q-52 28 -102 42 q-50 14 -109 14 q-79 0 -125.5 -61.5 q-46.5 -61.5 -46.5 -178.5 q0 -127 43.5 -184.5 q43.5 -57.5 134.5 -57.5 q65 0 131 16.5 q66 16.5 127 51.5 l0 -231 q-63 -32 -127.5 -48 q-64.5 -16 -144.5 -16 ZM844 143 q125 0 229 43 q104 43 179.5 121.5 q75.5 78.5 117 186 q41.5 107.5 41.5 237.5 q0 130 -41.5 237.5 q-41.5 107.5 -117 186 q-75.5 78.5 -179.5 121.5 q-104 43 -229 43 q-127 0 -232 -43 q-105 -43 -181 -121.5 q-76 -78.5 -117.5 -186 q-41.5 -107.5 -41.5 -237.5 q0 -130 41.5 -237.5 q41.5 -107.5 117.5 -186 q76 -78.5 181 -121.5 q105 -43 232 -43 Z" /><glyph glyph-name="ordfeminine" unicode="ª" d="M352 729 q-44 0 -93.5 24.5 q-49.5 24.5 -84.5 83.5 q-35 59 -35 164 q0 80 22.5 163 q22.5 83 66 153.5 q43.5 70.5 107.5 114 q64 43.5 148 43.5 q80 0 126.5 -27 q46.5 -27 86.5 -72 l9 0 l36 86 l199 0 l-170 -721 l-195 0 l9 86 l-9 0 q-38 -41 -92.5 -69.5 q-54.5 -28.5 -130.5 -28.5 ZM481 911 q34 0 59 19 q25 19 42 50 q17 31 27.5 67 q10.5 36 15 70.5 q4.5 34.5 4.5 60.5 q0 44 -17 79 q-17 35 -55 35 q-34 0 -60.5 -27 q-26.5 -27 -45.5 -69.5 q-19 -42.5 -29 -91 q-10 -48.5 -10 -92.5 q0 -48 19 -74.5 q19 -26.5 50 -26.5 Z" /><glyph glyph-name="guillemotleft" unicode="«" d="M244 76 l-183 477 l0 10 l408 518 l264 -204 l-266 -334 l111 -330 l-334 -137 ZM803 76 l-195 506 l0 10 l424 495 l260 -210 l-278 -306 l123 -358 l-334 -137 Z" /><glyph glyph-name="logicalnot" unicode="¬" d="M1106 856 l0 -618 l-270 0 l0 350 l-744 0 l0 268 l1014 0 Z" /><glyph glyph-name="registered" unicode="®" d="M518 313 l0 875 l279 0 q213 0 304 -70.5 q91 -70.5 91 -199.5 q0 -105 -41 -159.5 q-41 -54.5 -100 -82.5 l194 -363 l-278 0 l-146 320 l-35 0 l0 -320 l-268 0 ZM786 809 l11 0 q58 0 91.5 21.5 q33.5 21.5 33.5 76.5 q0 54 -33.5 70 q-33.5 16 -89.5 16 l-13 0 l0 -184 ZM844 -20 q-163 0 -300.5 55.5 q-137.5 55.5 -239 156.5 q-101.5 101 -157 238.5 q-55.5 137.5 -55.5 300.5 q0 164 55.5 301 q55.5 137 157 238.5 q101.5 101.5 239 157 q137.5 55.5 300.5 55.5 q164 0 301 -55.5 q137 -55.5 238 -157 q101 -101.5 156.5 -238.5 q55.5 -137 55.5 -301 q0 -163 -55.5 -300.5 q-55.5 -137.5 -156.5 -238.5 q-101 -101 -238 -156.5 q-137 -55.5 -301 -55.5 ZM844 143 q125 0 229 43 q104 43 179.5 121.5 q75.5 78.5 117 186 q41.5 107.5 41.5 237.5 q0 130 -41.5 237.5 q-41.5 107.5 -117 186 q-75.5 78.5 -179.5 121.5 q-104 43 -229 43 q-127 0 -232 -43 q-105 -43 -181 -121.5 q-76 -78.5 -117.5 -186 q-41.5 -107.5 -41.5 -237.5 q0 -130 41.5 -237.5 q41.5 -107.5 117.5 -186 q76 -78.5 181 -121.5 q105 -43 232 -43 Z" /><glyph glyph-name="macron" unicode="¯" d="M207 1554 l57 246 l930 0 l-57 -246 l-930 0 Z" /><glyph glyph-name="degree" unicode="°" d="M432 750 q-107 0 -190.5 46 q-83.5 46 -131 128 q-47.5 82 -47.5 190 q0 107 47.5 190 q47.5 83 131 131 q83.5 48 190.5 48 q108 0 191 -48 q83 -48 130.5 -131 q47.5 -83 47.5 -190 q0 -108 -47.5 -190 q-47.5 -82 -130.5 -128 q-83 -46 -191 -46 ZM432 987 q60 0 95.5 35 q35.5 35 35.5 92 q0 60 -35.5 96.5 q-35.5 36.5 -95.5 36.5 q-60 0 -95.5 -36.5 q-35.5 -36.5 -35.5 -96.5 q0 -57 35.5 -92 q35.5 -35 95.5 -35 Z" /><glyph glyph-name="plusminus" unicode="±" d="M92 0 l0 268 l1014 0 l0 -268 l-1014 0 ZM733 944 l373 0 l0 -268 l-373 0 l0 -361 l-268 0 l0 361 l-373 0 l0 268 l373 0 l0 367 l268 0 l0 -367 Z" /><glyph glyph-name="twosuperior" unicode="²" d="M125 850 l43 205 l276 211 q68 51 107.5 86.5 q39.5 35.5 56.5 62 q17 26.5 17 49.5 q0 28 -19 40 q-19 12 -45 12 q-35 0 -85 -18.5 q-50 -18.5 -103 -61.5 l-119 190 q81 62 168.5 92.5 q87.5 30.5 220.5 30.5 q128 0 215.5 -58.5 q87.5 -58.5 87.5 -158.5 q0 -74 -33.5 -134.5 q-33.5 -60.5 -101.5 -118 q-68 -57.5 -172 -124.5 l-78 -49 l320 0 l-52 -256 l-704 0 Z" /><glyph glyph-name="threesuperior" unicode="³" d="M483 838 q-107 0 -178 16 q-71 16 -133 53 l0 226 q63 -43 132 -62.5 q69 -19.5 124 -19.5 q75 0 113.5 19.5 q38.5 19.5 38.5 59.5 q0 25 -22.5 46.5 q-22.5 21.5 -90.5 21.5 l-121 0 l43 195 l96 0 q48 0 83.5 9.5 q35.5 9.5 55 29 q19.5 19.5 19.5 49.5 q0 28 -22 42.5 q-22 14.5 -54 14.5 q-38 0 -78.5 -12.5 q-40.5 -12.5 -105.5 -52.5 l-100 182 q80 49 157 71.5 q77 22.5 185 22.5 q83 0 152 -23.5 q69 -23.5 110 -69.5 q41 -46 41 -116 q0 -104 -65.5 -154.5 q-65.5 -50.5 -166.5 -74.5 l0 -8 q92 -23 129 -70 q37 -47 37 -113 q0 -76 -43.5 -140.5 q-43.5 -64.5 -128 -103 q-84.5 -38.5 -207.5 -38.5 Z" /><glyph glyph-name="acute" unicode="´" d="M229 1241 l0 23 q48 39 98.5 91 q50.5 52 98.5 108.5 q48 56.5 86 105.5 l438 0 l0 -15 q-22 -27 -74.5 -69.5 q-52.5 -42.5 -118 -89 q-65.5 -46.5 -130.5 -87.5 q-65 -41 -113 -67 l-285 0 Z" /><glyph glyph-name="paragraph" unicode="¶" d="M647 -260 l0 819 q-31 -9 -56 -13.5 q-25 -4.5 -69 -4.5 q-95 0 -172.5 26 q-77.5 26 -133 84.5 q-55.5 58.5 -85 154.5 q-29.5 96 -29.5 236 q0 147 32.5 246 q32.5 99 92.5 158 q60 59 143 84.5 q83 25.5 183 25.5 l633 0 l0 -1816 l-191 0 l0 1587 l-157 0 l0 -1587 l-191 0 Z" /><glyph glyph-name="cedilla" unicode="¸" d="M-29 -492 q-61 0 -108 8 q-47 8 -84 21 l0 205 q34 -10 83.5 -18.5 q49.5 -8.5 67.5 -8.5 q22 0 37 5 q15 5 23 15.5 q8 10.5 8 28.5 q0 28 -26.5 55 q-26.5 27 -118.5 46 l75 135 l205 0 l-24 -41 q78 -16 128 -61 q50 -45 50 -134 q0 -80 -37 -137.5 q-37 -57.5 -107.5 -88 q-70.5 -30.5 -171.5 -30.5 Z" /><glyph glyph-name="onesuperior" unicode="¹" d="M365 850 l81 364 q16 73 31 126 q15 53 25 81 q-20 -16 -44 -36 q-24 -20 -30 -23 l-119 -78 l-119 184 l426 261 l252 0 l-186 -879 l-317 0 Z" /><glyph glyph-name="ordmasculine" unicode="º" d="M465 727 q-145 0 -227 78 q-82 78 -82 219 q0 89 26 171 q26 82 79 146 q53 64 133.5 101 q80.5 37 189.5 37 q138 0 222.5 -79 q84.5 -79 84.5 -231 q0 -85 -25 -164 q-25 -79 -76.5 -142 q-51.5 -63 -132.5 -99.5 q-81 -36.5 -192 -36.5 ZM489 932 q33 0 58 22.5 q25 22.5 41.5 59 q16.5 36.5 24.5 79.5 q8 43 8 83 q0 44 -15 71 q-15 27 -47 27 q-34 0 -58.5 -25.5 q-24.5 -25.5 -40.5 -64.5 q-16 -39 -24 -81 q-8 -42 -8 -75 q0 -52 16.5 -74 q16.5 -22 44.5 -22 Z" /><glyph glyph-name="guillemotright" unicode="»" d="M807 43 l-264 205 l266 334 l-111 329 l334 138 l182 -478 l0 -10 l-407 -518 ZM244 35 l-258 213 l276 305 l-121 358 l332 138 l195 -506 l0 -11 l-424 -497 Z" /><glyph glyph-name="questiondown" unicode="¿" d="M743 617 q-20 -112 -50.5 -181.5 q-30.5 -69.5 -82.5 -122 q-52 -52.5 -139 -112.5 q-66 -44 -101 -73.5 q-35 -29.5 -48 -52 q-13 -22.5 -13 -46.5 q0 -31 19 -50.5 q19 -19.5 71 -19.5 q56 0 137 27 q81 27 176 82 l119 -283 q-95 -56 -213.5 -95.5 q-118.5 -39.5 -247.5 -39.5 q-202 0 -320 90.5 q-118 90.5 -118 247.5 q0 113 39.5 186 q39.5 73 103 123 q63.5 50 134.5 93 q78 47 115.5 78 q37.5 31 55.5 64 q18 33 35 85 l328 0 ZM659 1158 q106 0 146.5 -46.5 q40.5 -46.5 40.5 -105.5 q0 -98 -60.5 -165.5 q-60.5 -67.5 -183.5 -67.5 q-86 0 -133 41 q-47 41 -47 114 q0 116 66.5 173 q66.5 57 170.5 57 Z" /><glyph glyph-name="AE" unicode="æ" d="M-125 0 l909 1462 l1213 0 l-66 -317 l-477 0 l-47 -230 l444 0 l-71 -317 l-445 0 l-57 -276 l477 0 l-67 -322 l-869 0 l58 274 l-418 0 l-170 -274 l-414 0 ZM662 602 l286 0 l113 543 l-68 0 l-331 -543 Z" /><glyph glyph-name="Eth" unicode="ð" d="M33 0 l119 563 l-142 0 l70 320 l139 0 l123 579 l430 0 q271 0 418 -143.5 q147 -143.5 147 -409.5 q0 -170 -34 -312 q-34 -142 -101 -253 q-67 -111 -165 -187.5 q-98 -76.5 -226 -116.5 q-128 -40 -285 -40 l-493 0 ZM494 324 l69 0 q67 0 125.5 26.5 q58.5 26.5 105 76 q46.5 49.5 80 120 q33.5 70.5 51 160 q17.5 89.5 17.5 194.5 q0 116 -54 179 q-54 63 -151 63 l-71 0 l-56 -260 l178 0 l-69 -320 l-176 0 l-49 -239 Z" /><glyph glyph-name="multiply" unicode="×" d="M868 1180 l189 -183 l-275 -274 l271 -272 l-185 -185 l-274 271 l-270 -269 l-181 187 l265 268 l-267 268 l183 189 l270 -267 l274 267 Z" /><glyph glyph-name="Oslash" unicode="ø" d="M254 -86 l-160 117 l117 145 q-54 71 -80.5 163.5 q-26.5 92.5 -26.5 203.5 q0 114 21 227 q21 113 63.5 218.5 q42.5 105.5 106.5 195.5 q64 90 150 157.5 q86 67.5 194.5 105.5 q108.5 38 239.5 38 q95 0 173.5 -19 q78.5 -19 141.5 -53 l92 115 l156 -119 l-99 -125 q51 -70 77 -162.5 q26 -92.5 26 -199.5 q0 -114 -21 -227.5 q-21 -113.5 -63 -218.5 q-42 -105 -105 -195 q-63 -90 -148 -157.5 q-85 -67.5 -191 -105 q-106 -37.5 -234 -38.5 q-98 0 -178.5 17.5 q-80.5 17.5 -145.5 51.5 l-106 -135 ZM700 303 q51 0 96.5 20 q45.5 20 84.5 57.5 q39 37.5 70 89 q31 51.5 53 114.5 q22 63 33.5 135.5 q11.5 72.5 11.5 150.5 q0 13 0 24 q0 11 0 21 l-463 -583 q23 -14 51 -21.5 q28 -7.5 63 -7.5 ZM502 539 l465 589 q-22 16 -51 24.5 q-29 8.5 -64 8.5 q-51 0 -96.5 -21 q-45.5 -21 -84.5 -60 q-39 -39 -70 -92 q-31 -53 -53.5 -117 q-22.5 -64 -34 -135.5 q-11.5 -71.5 -11.5 -147.5 q0 -11 0 -24 q0 -13 0 -25 Z" /><glyph glyph-name="Thorn" unicode="þ" d="M33 0 l309 1462 l391 0 l-43 -213 l25 0 q180 0 288.5 -59 q108.5 -59 156.5 -158.5 q48 -99.5 48 -220.5 q0 -131 -46.5 -231.5 q-46.5 -100.5 -132 -168.5 q-85.5 -68 -203 -102.5 q-117.5 -34.5 -259.5 -34.5 l-86 0 l-57 -274 l-391 0 ZM551 594 l63 0 q63 0 108.5 21.5 q45.5 21.5 70 67 q24.5 45.5 24.5 116.5 q0 53 -38.5 93 q-38.5 40 -110.5 40 l-45 0 l-72 -338 Z" /><glyph glyph-name="germandbls" unicode="ß" d="M-53 -492 q-54 0 -113 8.5 q-59 8.5 -94 18.5 l0 303 q28 -7 58.5 -12.5 q30.5 -5.5 58.5 -5.5 q74 0 112 30.5 q38 30.5 51 94.5 l244 1151 q32 151 102 256 q70 105 195 160 q125 55 322 55 q261 0 388.5 -106 q127.5 -106 127.5 -267 q0 -83 -24 -144.5 q-24 -61.5 -71 -106.5 q-47 -45 -118 -79 q-83 -40 -100 -65 q-17 -25 -17 -37 q0 -35 24.5 -55.5 q24.5 -20.5 64 -40.5 q39.5 -20 83.5 -52 q59 -41 90 -99.5 q31 -58.5 31 -141.5 q0 -97 -48.5 -187.5 q-48.5 -90.5 -158 -148 q-109.5 -57.5 -293.5 -57.5 q-95 0 -159.5 12.5 q-64.5 12.5 -114.5 32.5 l0 299 q53 -26 131 -44 q78 -18 139 -18 q59 0 87 22 q28 22 28 50 q0 22 -8.5 38.5 q-8.5 16.5 -37 38.5 q-28.5 22 -87.5 60 q-103 66 -134.5 124 q-31.5 58 -31.5 118 q0 71 22.5 117.5 q22.5 46.5 68.5 83 q46 36.5 116 75.5 q47 27 75.5 51.5 q28.5 24.5 41 50 q12.5 25.5 12.5 54.5 q0 41 -31.5 80 q-31.5 39 -126.5 39 q-52 0 -94 -22.5 q-42 -22.5 -70.5 -66 q-28.5 -43.5 -42.5 -108.5 l-252 -1184 q-23 -108 -75.5 -193 q-52.5 -85 -142.5 -133.5 q-90 -48.5 -228 -48.5 Z" /><glyph glyph-name="ae" unicode="æ" d="M406 -20 q-87 0 -160.5 41 q-73.5 41 -117.5 135.5 q-44 94.5 -44 255.5 q0 83 19.5 182 q19.5 99 59 197.5 q39.5 98.5 99.5 180.5 q60 82 141.5 131.5 q81.5 49.5 184.5 49.5 q65 0 112 -18 q47 -18 83 -53.5 q36 -35.5 67 -88.5 l8 0 l53 140 l207 0 l0 -95 q48 47 121 81 q73 34 158 34 q157 0 251.5 -86 q94.5 -86 94.5 -229 q0 -94 -36 -170.5 q-36 -76.5 -110 -131.5 q-74 -55 -189 -84.5 q-115 -29.5 -273 -29.5 l-60 0 q0 -4 0 -7.5 q0 -3.5 0 -8.5 q0 -76 41 -112 q41 -36 123 -36 q86 0 163 26 q77 26 165 72 l0 -274 q-79 -46 -162.5 -74 q-83.5 -28 -212.5 -28 q-91 0 -156 28.5 q-65 28.5 -106 83.5 l-31 -92 l-227 0 l10 123 l-8 0 q-30 -42 -67 -74 q-37 -32 -85.5 -50.5 q-48.5 -18.5 -115.5 -18.5 ZM565 291 q33 0 62 23.5 q29 23.5 53 63.5 q24 40 41.5 90.5 q17.5 50.5 26.5 104.5 q6 31 8 62.5 q2 31.5 2 62.5 q0 65 -23.5 104.5 q-23.5 39.5 -64.5 39.5 q-32 0 -61 -23.5 q-29 -23.5 -52.5 -64 q-23.5 -40.5 -41 -93 q-17.5 -52.5 -27 -110.5 q-9.5 -58 -9.5 -117 q0 -69 21.5 -106 q21.5 -37 64.5 -37 ZM1114 664 l29 0 q87 0 138 23 q51 23 73 58 q22 35 22 70 q0 32 -20 54 q-20 22 -64 22 q-45 0 -83 -35 q-38 -35 -63 -87.5 q-25 -52.5 -32 -104.5 Z" /><glyph glyph-name="eth" unicode="ð" d="M520 -20 q-133 0 -231 53.5 q-98 53.5 -151.5 153.5 q-53.5 100 -53.5 239 q0 122 33.5 229 q33.5 107 98.5 187.5 q65 80.5 159.5 126 q94.5 45.5 216.5 45.5 q77 0 125.5 -26.5 q48.5 -26.5 77.5 -61.5 l10 4 q-7 60 -30 126 q-23 66 -60 120 l-273 -127 l-82 168 l220 102 q-23 20 -47.5 38.5 q-24.5 18.5 -47.5 35.5 l115 180 q63 -28 121 -62 q58 -34 110 -75 l238 110 l82 -166 l-184 -90 q49 -61 84 -155.5 q35 -94.5 54 -203 q19 -108.5 19 -214.5 q0 -124 -20.5 -235 q-20.5 -111 -64 -203 q-43.5 -92 -114.5 -159 q-71 -67 -171 -103.5 q-100 -36.5 -234 -36.5 ZM555 260 q38 0 67.5 21 q29.5 21 51 56 q21.5 35 35 76.5 q13.5 41.5 20 82.5 q6.5 41 6.5 75 q0 38 -4.5 68 q-4.5 30 -14.5 51 q-10 21 -26 32 q-16 11 -39 11 q-49 0 -83.5 -34 q-34.5 -34 -55.5 -86 q-21 -52 -31 -107 q-10 -55 -10 -98 q0 -74 21.5 -111 q21.5 -37 62.5 -37 Z" /><glyph glyph-name="divide" unicode="÷" d="M92 588 l0 268 l1014 0 l0 -268 l-1014 0 ZM598 162 q-63 0 -109.5 40.5 q-46.5 40.5 -46.5 129.5 q0 95 46.5 132.5 q46.5 37.5 109.5 37.5 q62 0 110 -37.5 q48 -37.5 48 -132.5 q0 -89 -48 -129.5 q-48 -40.5 -110 -40.5 ZM598 942 q-63 0 -109.5 40.5 q-46.5 40.5 -46.5 129.5 q0 95 46.5 132.5 q46.5 37.5 109.5 37.5 q62 0 110 -37.5 q48 -37.5 48 -132.5 q0 -89 -48 -129.5 q-48 -40.5 -110 -40.5 Z" /><glyph glyph-name="oslash" unicode="ø" d="M193 -111 l-127 109 l112 131 q-44 56 -69 126 q-25 70 -25 161 q0 116 27 224.5 q27 108.5 80.5 201.5 q53.5 93 133 163 q79.5 70 184 109 q104.5 39 234.5 39 q76 0 137 -15.5 q61 -15.5 113 -41.5 l105 121 l127 -109 l-105 -123 q38 -52 60 -118.5 q22 -66.5 22 -149.5 q0 -116 -27 -224.5 q-27 -108.5 -80 -201.5 q-53 -93 -132 -163 q-79 -70 -182.5 -109 q-103.5 -39 -231.5 -39 q-70 0 -129 13.5 q-59 13.5 -109 35.5 l-118 -140 ZM590 260 q35 0 68 12.5 q33 12.5 62 38.5 q29 26 52 67 q23 41 39 97.5 q16 56.5 23 130.5 q0 11 1 22 q1 11 1 21 l-318 -375 q16 -7 33 -10.5 q17 -3.5 39 -3.5 ZM449 451 l335 397 q-16 14 -36.5 21.5 q-20.5 7.5 -45.5 7.5 q-36 0 -70.5 -17 q-34.5 -17 -65 -49.5 q-30.5 -32.5 -55 -79.5 q-24.5 -47 -40 -108 q-15.5 -61 -20.5 -134 q-1 -9 -1.5 -18 q-0.5 -9 -0.5 -20 Z" /><glyph glyph-name="thorn" unicode="þ" d="M-82 -492 l434 2048 l387 0 l-49 -231 q-18 -94 -44.5 -176 q-26.5 -82 -45.5 -125 l8 0 q29 39 61.5 68 q32.5 29 73.5 45 q41 16 93 16 q147 0 235 -109 q88 -109 88 -309 q0 -112 -23 -221.5 q-23 -109.5 -66 -206 q-43 -96.5 -105.5 -170 q-62.5 -73.5 -141 -115.5 q-78.5 -42 -172.5 -42 q-51 0 -93.5 18 q-42.5 18 -76.5 50.5 q-34 32.5 -61 76.5 l-8 0 q-7 -80 -17.5 -159.5 q-10.5 -79.5 -38.5 -211.5 l-51 -246 l-387 0 ZM573 291 q32 0 61 23.5 q29 23.5 52.5 64 q23.5 40.5 41 92.5 q17.5 52 27 110.5 q9.5 58.5 9.5 116.5 q0 70 -21.5 107 q-21.5 37 -64.5 37 q-44 0 -81 -40.5 q-37 -40.5 -63 -105 q-26 -64.5 -38 -137.5 q-7 -31 -9 -62.5 q-2 -31.5 -2 -62.5 q0 -64 23.5 -103.5 q23.5 -39.5 64.5 -39.5 Z" /><glyph glyph-name="dcroat" unicode="&#x111;" d="M406 -20 q-87 0 -160.5 41 q-73.5 41 -117.5 135.5 q-44 94.5 -44 255.5 q0 93 20.5 185 q20.5 92 60.5 174 q40 82 96.5 145 q56.5 63 129 99 q72.5 36 158.5 36 q62 0 107 -19 q45 -19 80.5 -53 q35.5 -34 66.5 -80 l8 0 q0 13 2.5 55.5 q2.5 42.5 8.5 97 q6 54.5 16 101.5 l2 14 l-244 0 l49 242 l244 0 l31 147 l391 0 l-33 -147 l158 0 l-52 -242 l-157 0 l-246 -1167 l-309 0 l10 123 l-8 0 q-28 -39 -59.5 -71.5 q-31.5 -32.5 -80 -52 q-48.5 -19.5 -128.5 -19.5 ZM565 291 q27 0 50 11 q23 11 42 31.5 q19 20.5 34 48.5 q15 28 25 62 q10 34 15.5 72.5 q5.5 38.5 5.5 79.5 q0 65 -23 104 q-23 39 -65 39 q-33 0 -60 -19 q-27 -19 -47.5 -51.5 q-20.5 -32.5 -34.5 -72.5 q-14 -40 -21 -82 q-7 -42 -7 -80 q0 -69 21.5 -106 q21.5 -37 64.5 -37 Z" /><glyph glyph-name="eogonek" unicode="&#x119;" d="M645 -524 q-121 0 -185.5 63 q-64.5 63 -64.5 152 q0 69 28 123 q28 54 77 99.5 q49 45.5 112 86.5 l308 68 q-74 -69 -129.5 -123 q-55.5 -54 -86 -100 q-30.5 -46 -30.5 -91 q0 -19 13.5 -35 q13.5 -16 39.5 -16 q32 0 59 7 q27 7 58 18 l0 -222 q-45 -13 -89.5 -21.5 q-44.5 -8.5 -109.5 -8.5 ZM532 -20 q-143 0 -243 54 q-100 54 -152.5 154.5 q-52.5 100.5 -52.5 239.5 q0 139 39.5 269 q39.5 130 120 233 q80.5 103 202.5 163 q122 60 287 60 q191 0 299.5 -86 q108.5 -86 108.5 -229 q0 -94 -36 -170.5 q-36 -76.5 -110.5 -131.5 q-74.5 -55 -189.5 -84.5 q-115 -29.5 -273 -29.5 l-59 0 q0 -4 0 -7.5 q0 -3.5 0 -8.5 q0 -76 41 -112 q41 -36 123 -36 q86 0 163 26 q77 26 165 72 l0 -274 q-91 -46 -188 -74 q-97 -28 -245 -28 ZM512 664 l29 0 q87 0 138 23 q51 23 73 58 q22 35 22 70 q0 32 -20 54 q-20 22 -64 22 q-45 0 -83 -35 q-38 -35 -63 -87.5 q-25 -52.5 -32 -104.5 Z" /><glyph glyph-name="Hbar" unicode="&#x126;" d="M33 0 l225 1069 l-170 0 l47 236 l172 0 l35 157 l391 0 l-31 -157 l347 0 l32 157 l392 0 l-33 -157 l172 0 l-49 -236 l-174 0 l-226 -1069 l-391 0 l125 594 l-346 0 l-127 -594 l-391 0 ZM621 920 l348 0 l28 149 l-348 0 l-28 -149 Z" /><glyph glyph-name="hbar" unicode="&#x127;" d="M23 0 l245 1167 l-168 0 l52 242 l167 0 l33 147 l387 0 l-30 -147 l268 0 l-51 -242 l-269 0 q-11 -44 -25 -89.5 q-14 -45.5 -28 -85.5 q-14 -40 -26 -70 l8 0 q35 45 76.5 73.5 q41.5 28.5 90.5 42 q49 13.5 105 13.5 q106 0 171.5 -44 q65.5 -44 96.5 -117.5 q31 -73.5 31 -160.5 q0 -57 -6.5 -116.5 q-6.5 -59.5 -17.5 -112.5 l-107 -500 l-387 0 l109 516 q6 26 12 66 q6 40 6 75 q0 44 -22.5 65 q-22.5 21 -53.5 21 q-45 0 -79 -34 q-34 -34 -59.5 -99 q-25.5 -65 -45.5 -159 l-96 -451 l-387 0 Z" /><glyph glyph-name="kgreenlandic" unicode="&#x138;" d="M23 0 l237 1133 l387 0 l-51 -240 q-12 -55 -30.5 -113.5 q-18.5 -58.5 -35.5 -101.5 l9 0 l385 455 l446 0 l-487 -512 l274 -621 l-438 0 l-139 391 l-101 -53 l-69 -338 l-387 0 Z" /><glyph glyph-name="Lslash" unicode="&#x141;" d="M53 0 l103 485 l-78 -39 l-125 242 l274 146 l135 628 l392 0 l-90 -420 l172 91 l131 -244 l-377 -197 l-78 -373 l477 0 l-67 -319 l-869 0 Z" /><glyph glyph-name="lslash" unicode="&#x142;" d="M53 0 l90 420 l-86 -43 l-106 223 l258 133 l174 823 l387 0 l-133 -626 l86 43 l117 -223 l-271 -136 l-129 -614 l-387 0 Z" /><glyph glyph-name="Eng" unicode="&#x14a;" d="M745 -461 q-52 0 -108.5 8 q-56.5 8 -104.5 21 l0 307 q38 -9 81 -17 q43 -8 110 -8 q52 0 100.5 15 q48.5 15 85 50 q36.5 35 52.5 93 l-386 1020 l-8 0 q-1 -20 -6 -68.5 q-5 -48.5 -13 -110.5 q-8 -62 -17.5 -125.5 q-9.5 -63.5 -20.5 -113.5 l-129 -610 l-348 0 l309 1462 l430 0 l326 -872 l8 0 q5 44 16 107.5 q11 63.5 23.5 129.5 q12.5 66 23.5 117 l111 518 l348 0 l-309 -1462 q-33 -155 -100 -257.5 q-67 -102.5 -182 -153 q-115 -50.5 -292 -50.5 Z" /><glyph glyph-name="eng" unicode="&#x14b;" d="M551 -492 q-54 0 -113 8.5 q-59 8.5 -94 18.5 l0 303 q37 -12 62 -15 q25 -3 51 -3 q41 0 76.5 14.5 q35.5 14.5 61 47 q25.5 32.5 36.5 85.5 l137 651 q6 26 12 66.5 q6 40.5 6 75.5 q0 43 -22 64.5 q-22 21.5 -53 21.5 q-39 0 -73.5 -32 q-34.5 -32 -62.5 -96.5 q-28 -64.5 -49 -164.5 l-116 -553 l-387 0 l239 1133 l309 0 l-12 -158 l8 0 q37 64 82 103 q45 39 101.5 57 q56.5 18 128.5 18 q106 0 171.5 -44 q65.5 -44 96.5 -117 q31 -73 31 -161 q0 -56 -7 -115.5 q-7 -59.5 -18 -113.5 l-147 -696 q-21 -102 -73.5 -193 q-52.5 -91 -145 -148 q-92.5 -57 -236.5 -57 Z" /><glyph glyph-name="OE" unicode="&#x152;" d="M647 -20 q-178 0 -299 69.5 q-121 69.5 -182.5 193 q-61.5 123.5 -61.5 285.5 q0 127 27.5 261 q27.5 134 86.5 258 q59 124 152.5 223 q93.5 99 226 157 q132.5 58 306.5 58 q50 0 99.5 -6.5 q49.5 -6.5 91.5 -16.5 l874 0 l-67 -319 l-478 0 l-47 -225 l445 0 l-72 -322 l-444 0 l-58 -272 l477 0 l-65 -324 l-815 0 q-46 -9 -96 -14.5 q-50 -5.5 -101 -5.5 ZM682 309 q43 0 90 10 q47 10 90 31 l162 762 q-28 26 -68.5 37.5 q-40.5 11.5 -85.5 11.5 q-60 0 -115 -33 q-55 -33 -101.5 -93 q-46.5 -60 -81 -140 q-34.5 -80 -53.5 -174 q-19 -94 -19 -195 q0 -74 21.5 -122.5 q21.5 -48.5 62.5 -71.5 q41 -23 98 -23 Z" /><glyph glyph-name="oe" unicode="&#x153;" d="M520 -20 q-208 0 -322 113.5 q-114 113.5 -114 322.5 q0 116 26 224.5 q26 108.5 76.5 201.5 q50.5 93 125 163 q74.5 70 172 109 q97.5 39 216.5 39 q97 0 165.5 -32.5 q68.5 -32.5 111.5 -92.5 q68 59 160 92 q92 33 213 33 q191 0 299 -86 q108 -86 108 -229 q0 -94 -36 -170.5 q-36 -76.5 -110 -131.5 q-74 -55 -189 -84.5 q-115 -29.5 -273 -29.5 l-59 0 q0 -4 0 -8 q0 -4 0 -11 q0 -73 41 -109 q41 -36 122 -36 q86 0 163 26 q77 26 165 72 l0 -274 q-91 -46 -187.5 -74 q-96.5 -28 -244.5 -28 q-69 0 -124.5 12.5 q-55.5 12.5 -97.5 37.5 q-42 25 -73 62 q-60 -54 -143 -83 q-83 -29 -191 -29 ZM563 270 q34 0 64.5 26 q30.5 26 55.5 71.5 q25 45.5 43 104 q18 58.5 28 124.5 q10 66 10 133 q0 66 -23 99.5 q-23 33.5 -63 33.5 q-34 0 -64.5 -26 q-30.5 -26 -55 -71 q-24.5 -45 -42.5 -103.5 q-18 -58.5 -27.5 -125 q-9.5 -66.5 -9.5 -133.5 q0 -66 22 -99.5 q22 -33.5 62 -33.5 ZM1128 664 l29 0 q87 0 138.5 23 q51.5 23 73.5 58 q22 35 22 70 q0 32 -20.5 54 q-20.5 22 -63.5 22 q-45 0 -83 -35 q-38 -35 -63 -87.5 q-25 -52.5 -33 -104.5 Z" /><glyph glyph-name="Tbar" unicode="&#x166;" d="M236 0 l112 543 l-205 0 l68 319 l205 0 l57 277 l-317 0 l69 323 l1028 0 l-71 -323 l-318 0 l-57 -277 l207 0 l-70 -319 l-205 0 l-112 -543 l-391 0 Z" /><glyph glyph-name="tbar" unicode="&#x167;" d="M414 -20 q-148 0 -230 56.5 q-82 56.5 -82 201.5 q0 29 4.5 64 q4.5 35 10.5 67 l14 73 l-108 0 l51 242 l108 0 l35 156 l-154 0 l41 192 l218 88 l135 238 l258 0 l-47 -225 l288 0 l-63 -293 l-289 0 l-35 -156 l248 0 l-51 -242 l-250 0 l-2 -14 q-6 -29 -10 -51 q-4 -22 -4 -39 q0 -34 17.5 -41.5 q17.5 -7.5 45.5 -7.5 q31 0 82 11.5 q51 11.5 100 31.5 l0 -287 q-62 -31 -141.5 -48 q-79.5 -17 -189.5 -17 Z" /><glyph glyph-name="longs" unicode="&#x17f;" d="M-37 -492 q-54 0 -113 8.5 q-59 8.5 -94 18.5 l0 303 q28 -7 58.5 -12.5 q30.5 -5.5 58.5 -5.5 q74 0 112 30.5 q38 30.5 52 94.5 l272 1257 q28 128 83.5 208.5 q55.5 80.5 140 118.5 q84.5 38 198.5 38 q80 0 155.5 -16 q75.5 -16 127.5 -42 l-107 -284 q-29 14 -59 22 q-30 8 -62 8 q-25 0 -46 -11.5 q-21 -11.5 -36 -34 q-15 -22.5 -22 -54.5 l-272 -1272 q-24 -108 -76 -193 q-52 -85 -142 -133.5 q-90 -48.5 -229 -48.5 Z" /><glyph glyph-name="florin" unicode="&#x192;" d="M154 -492 q-54 0 -113 8.5 q-59 8.5 -94 18.5 l0 307 q37 -12 63 -15 q26 -3 53 -3 q60 0 106.5 28 q46.5 28 59.5 97 l166 788 l-151 0 l39 203 l178 90 l20 88 q31 133 90 213 q59 80 146 116 q87 36 203 36 q81 0 143.5 -14.5 q62.5 -14.5 122.5 -43.5 l-105 -282 q-29 14 -58.5 23.5 q-29.5 9.5 -70.5 9.5 q-40 0 -60 -19.5 q-20 -19.5 -26 -44.5 l-18 -78 l209 0 l-66 -297 l-207 0 l-182 -854 q-19 -94 -69 -180 q-50 -86 -142 -140.5 q-92 -54.5 -237 -54.5 Z" /><glyph glyph-name="Aringacute" unicode="&#x1fa;" d="M-121 0 l744 1397 q-7 20 -10 42.5 q-3 22.5 -3 47.5 q0 119 75.5 186.5 q75.5 67.5 193.5 67.5 q112 0 190 -67.5 q78 -67.5 78 -184.5 q0 -44 -17.5 -87.5 q-17.5 -43.5 -42.5 -66.5 l162 -1335 l-381 0 l-18 274 l-440 0 l-125 -274 l-406 0 ZM553 586 l285 0 l-27 305 q-1 46 -3.5 100 q-2.5 54 -2.5 111 l-10 0 q-13 -34 -27.5 -72 q-14.5 -38 -22.5 -53 l-192 -391 ZM877 1403 q35 0 62.5 23.5 q27.5 23.5 27.5 60.5 q0 38 -26.5 62 q-26.5 24 -61.5 24 q-36 0 -62 -24 q-26 -24 -26 -62 q0 -37 22 -60.5 q22 -23.5 64 -23.5 ZM762 1792 l0 10 q31 22 68 50 q37 28 72.5 57 q35.5 29 60.5 53 l426 0 l0 -8 q-50 -39 -114.5 -70 q-64.5 -31 -127 -54 q-62.5 -23 -107.5 -38 l-278 0 Z" /><glyph glyph-name="aringacute" unicode="&#x1fb;" d="M406 -20 q-87 0 -160.5 41 q-73.5 41 -117.5 135.5 q-44 94.5 -44 255.5 q0 83 19.5 182 q19.5 99 59 197.5 q39.5 98.5 99.5 180.5 q60 82 141.5 131.5 q81.5 49.5 184.5 49.5 q65 0 113.5 -20 q48.5 -20 85 -55.5 q36.5 -35.5 63.5 -84.5 l8 0 l53 140 l310 0 l-240 -1133 l-309 0 l10 123 l-8 0 q-30 -42 -67 -74 q-37 -32 -85.5 -50.5 q-48.5 -18.5 -115.5 -18.5 ZM565 291 q44 0 81 40.5 q37 40.5 63.5 104.5 q26.5 64 38.5 137 q6 31 9 62.5 q3 31.5 3 62.5 q0 65 -20.5 104.5 q-20.5 39.5 -61.5 39.5 q-32 0 -61.5 -23.5 q-29.5 -23.5 -54.5 -64 q-25 -40.5 -43.5 -93 q-18.5 -52.5 -29 -110.5 q-10.5 -58 -10.5 -117 q0 -69 21.5 -106 q21.5 -37 64.5 -37 ZM756 1200 q-118 0 -193.5 67.5 q-75.5 67.5 -75.5 184.5 q0 119 75.5 186.5 q75.5 67.5 193.5 67.5 q112 0 190 -67.5 q78 -67.5 78 -184.5 q0 -118 -77.5 -186 q-77.5 -68 -190.5 -68 ZM756 1368 q35 0 61.5 23.5 q26.5 23.5 26.5 60.5 q0 38 -26.5 62 q-26.5 24 -61.5 24 q-35 0 -61.5 -24 q-26.5 -24 -26.5 -62 q0 -37 23 -60.5 q23 -23.5 65 -23.5 ZM676 1769 l0 11 q30 22 71.5 55.5 q41.5 33.5 82 68 q40.5 34.5 63.5 58.5 l428 0 l0 -12 q-51 -39 -120 -75 q-69 -36 -136 -63.5 q-67 -27.5 -111 -42.5 l-278 0 Z" /><glyph glyph-name="circumflex" unicode="&#x2c6;" d="M229 1241 l0 23 q48 43 104.5 97.5 q56.5 54.5 111 109 q54.5 54.5 94.5 98.5 l446 0 q21 -45 51.5 -101 q30.5 -56 64.5 -110 q34 -54 64 -94 l0 -23 l-266 0 q-22 20 -51.5 52.5 q-29.5 32.5 -57.5 66 q-28 33.5 -47 55.5 q-56 -44 -116 -89 q-60 -45 -123 -85 l-275 0 Z" /><glyph glyph-name="caron" unicode="&#x2c7;" d="M475 1241 q-20 45 -51 101 q-31 56 -64.5 110 q-33.5 54 -64.5 94 l0 23 l266 0 q23 -19 52 -52 q29 -33 57.5 -66 q28.5 -33 46.5 -56 q57 44 116.5 89 q59.5 45 122.5 85 l275 0 l0 -23 q-51 -43 -108 -97.5 q-57 -54.5 -109 -109 q-52 -54.5 -92 -98.5 l-447 0 Z" /><glyph glyph-name="macron" unicode="&#x2c9;" d="M225 1241 l51 236 l666 0 l-49 -236 l-668 0 Z" /><glyph glyph-name="breve" unicode="&#x2d8;" d="M653 1241 q-114 0 -193.5 39 q-79.5 39 -121 110 q-41.5 71 -41.5 166 q0 19 2.5 34 q2.5 15 5.5 22 l217 0 q0 -43 20.5 -71.5 q20.5 -28.5 57.5 -43 q37 -14.5 86 -14.5 q65 0 120 24.5 q55 24.5 81 104.5 l221 0 q-31 -181 -139 -276 q-108 -95 -316 -95 Z" /><glyph glyph-name="dotaccent" unicode="&#x2d9;" d="M453 1241 q-82 0 -136.5 29.5 q-54.5 29.5 -54.5 111.5 q0 111 60 160 q60 49 167 49 q47 0 90.5 -11.5 q43.5 -11.5 72 -41.5 q28.5 -30 28.5 -88 q0 -92 -49.5 -150.5 q-49.5 -58.5 -177.5 -58.5 Z" /><glyph glyph-name="ring" unicode="&#x2da;" d="M553 1237 q-118 0 -193 67.5 q-75 67.5 -75 184.5 q0 119 75 186.5 q75 67.5 193 67.5 q112 0 190 -67.5 q78 -67.5 78 -184.5 q0 -118 -77 -186 q-77 -68 -191 -68 ZM553 1405 q35 0 61.5 23.5 q26.5 23.5 26.5 60.5 q0 38 -26.5 62 q-26.5 24 -61.5 24 q-35 0 -61.5 -24 q-26.5 -24 -26.5 -62 q0 -37 23.5 -60.5 q23.5 -23.5 64.5 -23.5 Z" /><glyph glyph-name="ogonek" unicode="&#x2db;" d="M152 -524 q-121 0 -185.5 63 q-64.5 63 -64.5 152 q0 69 28 123 q28 54 77 99.5 q49 45.5 112 86.5 l252 0 q-53 -44 -96.5 -83 q-43.5 -39 -69 -78.5 q-25.5 -39.5 -25.5 -84.5 q0 -19 14 -35 q14 -16 39 -16 q32 0 59 7 q27 7 58 18 l0 -222 q-44 -13 -88.5 -21.5 q-44.5 -8.5 -109.5 -8.5 Z" /><glyph glyph-name="tilde" unicode="&#x2dc;" d="M225 1237 q23 124 67 199 q44 75 106.5 109 q62.5 34 140.5 34 q44 0 81 -15 q37 -15 71 -34 q34 -19 67 -34 q33 -15 67 -15 q35 0 65.5 24.5 q30.5 24.5 49.5 75.5 l190 0 q-25 -126 -70 -201 q-45 -75 -108 -108 q-63 -33 -143 -33 q-48 0 -88.5 15 q-40.5 15 -75.5 34 q-35 19 -68 34 q-33 15 -67 15 q-31 0 -60.5 -27 q-29.5 -27 -35.5 -73 l-189 0 Z" /><glyph glyph-name="hungarumlaut" unicode="&#x2dd;" d="M694 1241 l0 29 q29 39 68 91.5 q39 52.5 77 107 q38 54.5 62 100.5 l373 0 l0 -21 q-16 -27 -61 -67.5 q-45 -40.5 -103.5 -85.5 q-58.5 -45 -115.5 -86 q-57 -41 -97 -68 l-203 0 ZM231 1241 l0 29 q32 39 72.5 91.5 q40.5 52.5 79.5 107 q39 54.5 66 100.5 l370 0 l0 -21 q-16 -27 -62.5 -67.5 q-46.5 -40.5 -106.5 -85.5 q-60 -45 -118.5 -86 q-58.5 -41 -97.5 -68 l-203 0 Z" /><glyph glyph-name="tonos" unicode="&#x384;" d="M526 1241 l0 25 q17 35 36 81 q19 46 38 96.5 q19 50.5 35.5 98.5 q16.5 48 28.5 88 l348 0 l0 -24 q-28 -45 -56.5 -89 q-28.5 -44 -58.5 -88 q-30 -44 -64 -90.5 q-34 -46.5 -75 -97.5 l-232 0 Z" /><glyph glyph-name="dieresistonos" unicode="&#x385;" d="M625 1389 l0 20 q19 41 38 96.5 q19 55.5 35 111.5 q16 56 25 99 l299 0 l0 -20 q-29 -51 -60 -100 q-31 -49 -67 -99.5 q-36 -50.5 -82 -107.5 l-188 0 ZM412 1257 q-63 0 -105.5 26 q-42.5 26 -42.5 101 q0 99 46 143 q46 44 130 44 q53 0 100.5 -23.5 q47.5 -23.5 47.5 -101.5 q0 -85 -39 -137 q-39 -52 -137 -52 ZM1077 1257 q-63 0 -105 26 q-42 26 -42 101 q0 99 45.5 143 q45.5 44 130.5 44 q53 0 100 -23.5 q47 -23.5 47 -101.5 q0 -85 -39 -137 q-39 -52 -137 -52 Z" /><glyph glyph-name="Gamma" unicode="&#x393;" d="M33 0 l309 1462 l862 0 l-67 -319 l-471 0 l-242 -1143 l-391 0 Z" /><glyph glyph-name="Theta" unicode="&#x398;" d="M711 -20 q-205 0 -339.5 71 q-134.5 71 -201 204.5 q-66.5 133.5 -66.5 319.5 q0 106 22 213.5 q22 107.5 66.5 209.5 q44.5 102 111.5 190 q67 88 156.5 155 q89.5 67 203 104.5 q113.5 37.5 249.5 37.5 q299 0 446.5 -156.5 q147.5 -156.5 147.5 -425.5 q0 -109 -22 -219 q-22 -110 -66 -213.5 q-44 -103.5 -110 -192 q-66 -88.5 -154.5 -155.5 q-88.5 -67 -199 -104.5 q-110.5 -37.5 -244.5 -38.5 ZM723 303 q57 0 108 20.5 q51 20.5 94.5 58.5 q43.5 38 78 91 q34.5 53 58.5 119 q24 66 37 142.5 q13 76.5 13 160.5 q0 114 -55.5 190 q-55.5 76 -165.5 76 q-57 0 -108.5 -22.5 q-51.5 -22.5 -95 -63.5 q-43.5 -41 -78 -96.5 q-34.5 -55.5 -59 -122 q-24.5 -66.5 -37.5 -140.5 q-13 -74 -13 -151 q0 -89 25 -147 q25 -58 74.5 -86.5 q49.5 -28.5 123.5 -28.5 ZM584 586 l69 307 l387 0 l-69 -307 l-387 0 Z" /><glyph glyph-name="Lambda" unicode="&#x39b;" d="M-117 0 l723 1462 l436 0 l107 -1462 l-383 0 l-25 711 q-3 94 -1.5 200 q1.5 106 8.5 176 q-19 -62 -45.5 -137.5 q-26.5 -75.5 -57.5 -144.5 l-348 -805 l-414 0 Z" /><glyph glyph-name="Xi" unicode="&#x39e;" d="M-41 0 l64 322 l970 0 l-65 -322 l-969 0 ZM162 598 l74 317 l786 0 l-72 -317 l-788 0 ZM219 1145 l68 317 l911 0 l-68 -317 l-911 0 Z" /><glyph glyph-name="Pi" unicode="&#x3a0;" d="M33 0 l309 1462 l1131 0 l-310 -1462 l-391 0 l238 1139 l-346 0 l-240 -1139 l-391 0 Z" /><glyph glyph-name="Sigma" unicode="&#x3a3;" d="M-61 0 l57 281 l510 481 l-307 424 l59 276 l944 0 l-67 -319 l-488 0 l291 -406 l-438 -418 l516 0 l-66 -319 l-1011 0 Z" /><glyph glyph-name="Phi" unicode="&#x3a6;" d="M535 -20 l49 225 q-176 18 -284.5 87.5 q-108.5 69.5 -158 171.5 q-49.5 102 -49.5 214 q0 130 42 240.5 q42 110.5 130 194 q88 83.5 225.5 133 q137.5 49.5 327.5 57.5 l37 180 l369 0 l-37 -180 q171 -17 280 -85.5 q109 -68.5 161 -170 q52 -101.5 52 -218.5 q0 -140 -43 -252 q-43 -112 -132 -192.5 q-89 -80.5 -226.5 -126 q-137.5 -45.5 -325.5 -53.5 l-49 -225 l-368 0 ZM649 502 l105 502 q-63 -3 -114 -23 q-51 -20 -87.5 -58 q-36.5 -38 -56 -94 q-19.5 -56 -19.5 -131 q0 -47 12.5 -89.5 q12.5 -42.5 49.5 -71.5 q37 -29 110 -35 ZM1018 504 q73 2 125 24.5 q52 22.5 85.5 62.5 q33.5 40 49.5 95 q16 55 16 121 q0 52 -17 94 q-17 42 -54.5 69 q-37.5 27 -100.5 34 l-104 -500 Z" /><glyph glyph-name="Psi" unicode="&#x3a8;" d="M584 0 l84 397 l-9 0 q-149 5 -261.5 50 q-112.5 45 -175 134 q-62.5 89 -62.5 224 q0 35 5 79 q5 44 11 72 l109 506 l379 0 l-107 -510 q-6 -28 -11 -56 q-5 -28 -5 -56 q0 -53 20.5 -79.5 q20.5 -26.5 61.5 -35 q41 -8.5 100 -8.5 l12 0 l158 745 l369 0 l-156 -745 l24 0 q68 0 117 17 q49 17 82 66.5 q33 49.5 53 147.5 l109 514 l379 0 l-123 -563 q-25 -114 -68.5 -204.5 q-43.5 -90.5 -120 -155 q-76.5 -64.5 -200.5 -100.5 q-124 -36 -311 -42 l-9 0 l-86 -397 l-368 0 Z" /><glyph glyph-name="alpha" unicode="&#x3b1;" d="M420 -20 q-164 0 -250 113 q-86 113 -86 319 q0 80 17.5 178.5 q17.5 98.5 55 197 q37.5 98.5 97 181.5 q59.5 83 143.5 133.5 q84 50.5 195 50.5 q115 0 171 -51.5 q56 -51.5 87 -114.5 l8 0 q10 23 24.5 49.5 q14.5 26.5 33 52 q18.5 25.5 38.5 44.5 l336 0 q-38 -59 -72.5 -137 q-34.5 -78 -61 -159.5 q-26.5 -81.5 -42.5 -152.5 l-53 -238 q-6 -24 -10 -50 q-4 -26 -4 -46 q0 -32 17 -46.5 q17 -14.5 46 -14.5 q17 0 36.5 4.5 q19.5 4.5 29.5 7.5 l0 -289 q-29 -12 -81.5 -22 q-52.5 -10 -117.5 -10 q-67 0 -121.5 16 q-54.5 16 -94 50.5 q-39.5 34.5 -63.5 90.5 l-14 0 q-25 -35 -60 -71.5 q-35 -36.5 -84 -61 q-49 -24.5 -120 -24.5 ZM563 291 q37 0 67.5 28.5 q30.5 28.5 54 76.5 q23.5 48 38.5 104 q14 52 21.5 108 q7.5 56 7.5 105 q0 68 -20 98.5 q-20 30.5 -54 30.5 q-40 0 -72 -26 q-32 -26 -55.5 -69.5 q-23.5 -43.5 -39.5 -97 q-16 -53.5 -24 -109.5 q-8 -56 -8 -106 q0 -70 23 -106.5 q23 -36.5 61 -36.5 Z" /><glyph glyph-name="beta" unicode="&#x3b2;" d="M-78 -492 l320 1530 q39 188 114.5 304.5 q75.5 116.5 189.5 170.5 q114 54 267 54 q153 0 257.5 -42.5 q104.5 -42.5 158 -125 q53.5 -82.5 53.5 -201.5 q0 -110 -45 -194.5 q-45 -84.5 -125.5 -135 q-80.5 -50.5 -187.5 -59.5 q122 -19 200 -111.5 q78 -92.5 78 -232.5 q0 -100 -28.5 -187.5 q-28.5 -87.5 -90.5 -154.5 q-62 -67 -161.5 -105 q-99.5 -38 -241.5 -38 q-92 0 -155 17.5 q-63 17.5 -103 45.5 l-113 -535 l-387 0 ZM637 291 q38 0 70.5 14 q32.5 14 56 39.5 q23.5 25.5 36.5 60.5 q13 35 13 76 q0 89 -44 135 q-44 46 -118 46 l-14 0 l61 290 l31 0 q37 0 68 14.5 q31 14.5 54 40.5 q23 26 35.5 62 q12.5 36 12.5 78 q0 72 -33.5 94.5 q-33.5 22.5 -62.5 22.5 q-33 0 -63 -14.5 q-30 -14.5 -55.5 -59.5 q-25.5 -45 -45.5 -137 l-152 -713 q26 -22 66.5 -35.5 q40.5 -13.5 83.5 -13.5 Z" /><glyph glyph-name="gamma" unicode="&#x3b3;" d="M45 -492 q18 84 42 168 q24 84 58 168.5 q34 84.5 80 171.5 l-131 1117 l377 0 l21 -422 q3 -65 3.5 -94 q0.5 -29 0.5 -46.5 q0 -17.5 -1 -48 q-1 -30.5 -1 -98.5 l8 0 q20 60 54.5 137 q34.5 77 74.5 162 l194 410 l414 0 l-528 -971 q-80 -146 -131 -260 q-51 -114 -81.5 -208.5 q-30.5 -94.5 -49.5 -185.5 l-404 0 Z" /><glyph glyph-name="delta" unicode="&#x3b4;" d="M522 -20 q-163 0 -266 51.5 q-103 51.5 -151 142 q-48 90.5 -48 207.5 q0 136 53.5 240.5 q53.5 104.5 151.5 179.5 q98 75 230 121 q-49 47 -89.5 120 q-40.5 73 -40.5 168 q0 124 68 203 q68 79 181 116.5 q113 37.5 247 37.5 q142 0 245.5 -27 q103.5 -27 203.5 -84 l-154 -276 q-85 55 -164 79.5 q-79 24.5 -135 24.5 q-63 0 -86 -25.5 q-23 -25.5 -23 -54.5 q0 -26 13 -51 q13 -25 48 -60 q35 -35 99 -92 q76 -65 124 -133 q48 -68 70.5 -142 q22.5 -74 22.5 -157 q0 -128 -38.5 -236 q-38.5 -108 -114 -187 q-75.5 -79 -188 -122.5 q-112.5 -43.5 -259.5 -43.5 ZM547 270 q36 0 69.5 20.5 q33.5 20.5 59.5 58.5 q26 38 41.5 90 q15.5 52 15.5 114 q0 66 -26 115.5 q-26 49.5 -58 74.5 q-45 -22 -82.5 -55 q-37.5 -33 -64.5 -75.5 q-27 -42.5 -41.5 -92.5 q-14.5 -50 -14.5 -106 q0 -67 26 -105.5 q26 -38.5 75 -38.5 Z" /><glyph glyph-name="epsilon" unicode="&#x3b5;" d="M532 -20 q-146 0 -256.5 38.5 q-110.5 38.5 -172.5 112 q-62 73.5 -62 176.5 q0 83 36 142 q36 59 111.5 96.5 q75.5 37.5 192.5 54.5 l0 8 q-82 29 -131 84.5 q-49 55.5 -49 143.5 q0 96 59.5 167.5 q59.5 71.5 175 110.5 q115.5 39 283.5 39 q141 0 248.5 -24.5 q107.5 -24.5 201.5 -67.5 l-114 -275 q-70 39 -156.5 61.5 q-86.5 22.5 -153.5 22.5 q-85 0 -130.5 -18 q-45.5 -18 -45.5 -61 q0 -34 39.5 -55 q39.5 -21 147.5 -21 l143 0 l-53 -254 l-172 0 q-74 0 -126 -11 q-52 -11 -79 -31.5 q-27 -20.5 -27 -51.5 q0 -36 41.5 -66.5 q41.5 -30.5 149.5 -30.5 q119 0 197 27.5 q78 27.5 139 56.5 l0 -297 q-76 -37 -182 -57 q-106 -20 -255 -20 Z" /><glyph glyph-name="zeta" unicode="&#x3b6;" d="M299 -379 q58 53 102.5 102 q44.5 49 70.5 93 q26 44 26 80 q0 58 -44 88.5 q-44 30.5 -145 87.5 q-92 51 -145 111.5 q-53 60.5 -75.5 131.5 q-22.5 71 -22.5 154 q0 99 35.5 201.5 q35.5 102.5 107 206 q71.5 103.5 179 206.5 q107.5 103 251.5 203 q-32 -7 -81.5 -9.5 q-49.5 -2.5 -86.5 -2.5 l-215 0 l63 282 l861 0 l-47 -213 q-230 -169 -365.5 -293.5 q-135.5 -124.5 -201.5 -217.5 q-66 -93 -86.5 -166 q-20.5 -73 -20.5 -138 q0 -38 17 -70.5 q17 -32.5 56.5 -63.5 q39.5 -31 106.5 -66 q84 -43 143 -93.5 q59 -50.5 90 -110.5 q31 -60 31 -134 q0 -73 -24 -135 q-24 -62 -67.5 -119 q-43.5 -57 -100.5 -115 l-412 0 Z" /><glyph glyph-name="eta" unicode="&#x3b7;" d="M539 -492 l229 1110 q6 26 12 66.5 q6 40.5 6 75.5 q0 43 -22 64.5 q-22 21.5 -53 21.5 q-49 0 -81.5 -26 q-32.5 -26 -56 -89.5 q-23.5 -63.5 -47.5 -177.5 l-116 -553 l-387 0 l239 1133 l309 0 l-12 -158 l8 0 q37 64 82 103 q45 39 101.5 57 q56.5 18 128.5 18 q106 0 171.5 -44 q65.5 -44 96.5 -117 q31 -73 31 -161 q0 -56 -7 -115.5 q-7 -59.5 -18 -113.5 l-227 -1094 l-387 0 Z" /><glyph glyph-name="theta" unicode="&#x3b8;" d="M530 -20 q-149 0 -245.5 57.5 q-96.5 57.5 -142.5 162 q-46 104.5 -46 244.5 q0 104 18 236.5 q18 132.5 50.5 262.5 q32.5 130 75.5 226 q43 99 99 175 q56 76 126 128.5 q70 52.5 155.5 79.5 q85.5 27 186.5 27 q140 0 231 -61 q91 -61 135 -168 q44 -107 44 -246 q0 -116 -18.5 -250.5 q-18.5 -134.5 -54.5 -266 q-36 -131.5 -87 -239.5 q-39 -83 -90 -150.5 q-51 -67.5 -115 -116.5 q-64 -49 -144 -75 q-80 -26 -178 -26 ZM551 262 q37 0 70 34.5 q33 34.5 61 91 q28 56.5 51 124 q23 67.5 39 133.5 l-285 0 q-12 -78 -18 -145 q-6 -67 -6 -107 q0 -60 22 -95.5 q22 -35.5 66 -35.5 ZM547 928 l284 0 q8 60 13.5 119 q5.5 59 5.5 114 q0 68 -21.5 101.5 q-21.5 33.5 -62.5 33.5 q-28 0 -55 -20.5 q-27 -20.5 -54.5 -64.5 q-27.5 -44 -54.5 -114 q-27 -70 -55 -169 Z" /><glyph glyph-name="iota" unicode="&#x3b9;" d="M403 -20 q-150 0 -233.5 53.5 q-83.5 53.5 -83.5 208.5 q0 26 6.5 68 q6.5 42 13.5 77 l164 746 l387 0 l-153 -707 q-6 -29 -9 -49 q-3 -20 -3 -35 q0 -23 14 -37 q14 -14 39 -14 q35 0 79.5 7 q44.5 7 90.5 26 l0 -285 q-64 -31 -141 -45 q-77 -14 -171 -14 Z" /><glyph glyph-name="lambda" unicode="&#x3bb;" d="M922 -20 q-100 0 -162.5 38.5 q-62.5 38.5 -97 110 q-34.5 71.5 -52.5 170.5 l-16 94 q-6 38 -10 93.5 q-4 55.5 -4 84.5 q-3 -4 -16.5 -36.5 q-13.5 -32.5 -29.5 -71.5 q-16 -39 -27 -66.5 q-11 -27.5 -9 -23.5 l-191 -373 l-418 0 l596 1051 l-4 53 q-7 95 -41.5 134.5 q-34.5 39.5 -79.5 39.5 q-24 0 -51 -4.5 q-27 -4.5 -49 -9.5 l-47 278 q54 14 112.5 20.5 q58.5 6.5 123.5 6.5 q122 0 205 -44 q83 -44 132 -132 q49 -88 68 -219 l92 -613 q17 -111 35.5 -169.5 q18.5 -58.5 44 -79.5 q25.5 -21 61.5 -21 q16 0 29.5 2 q13.5 2 38.5 8 l0 -285 q-40 -15 -93.5 -25.5 q-53.5 -10.5 -139.5 -10.5 Z" /><glyph glyph-name="nu" unicode="&#x3bd;" d="M238 0 l-142 1133 l379 0 l45 -619 q3 -51 4.5 -97 q1.5 -46 -0.5 -95 q80 116 135 236 q55 120 93 260.5 q38 140.5 65 314.5 l400 0 q-32 -204 -103 -399.5 q-71 -195.5 -193 -379.5 q-122 -184 -307 -354 l-376 0 Z" /><glyph glyph-name="xi" unicode="&#x3be;" d="M301 -379 q62 55 106 104 q44 49 67.5 93 q23.5 44 23.5 82 q0 43 -46 80.5 q-46 37.5 -165 101.5 q-79 43 -127.5 94 q-48.5 51 -71 114 q-22.5 63 -22.5 142 q0 105 37 180.5 q37 75.5 101.5 125.5 q64.5 50 147.5 77 l0 8 q-58 32 -100.5 81.5 q-42.5 49.5 -42.5 131.5 q0 39 13.5 77 q13.5 38 43 72 q29.5 34 76 60 q46.5 26 111.5 41 q-49 -6 -97 -9 q-48 -3 -92 -3 l-74 0 l64 282 l850 0 l-57 -270 l-46 0 q-73 0 -135.5 -8.5 q-62.5 -8.5 -112.5 -25 q-50 -16.5 -85.5 -41.5 q-35.5 -25 -54.5 -58.5 q-19 -33.5 -19 -75.5 q0 -79 56.5 -102 q56.5 -23 137.5 -23 l107 0 l-64 -290 l-55 0 q-124 0 -193.5 -19 q-69.5 -19 -97.5 -53 q-28 -34 -28 -80 q0 -39 17.5 -66 q17.5 -27 57 -53 q39.5 -26 105.5 -63 q85 -46 144.5 -94.5 q59.5 -48.5 90.5 -108 q31 -59.5 31 -139.5 q0 -62 -20 -121 q-20 -59 -61.5 -118.5 q-41.5 -59.5 -108.5 -125.5 l-412 0 Z" /><glyph glyph-name="pi" unicode="&#x3c0;" d="M1114 -20 q-139 0 -220 58.5 q-81 58.5 -81 213.5 q0 34 5.5 83.5 q5.5 49.5 15.5 90.5 l86 416 l-205 0 l-180 -842 l-388 0 l181 842 l-250 0 l39 209 l196 82 l1311 0 l-57 -291 l-260 0 l-86 -393 q-5 -23 -9 -50 q-4 -27 -4 -47 q0 -34 19 -47.5 q19 -13.5 45 -13.5 q37 0 81 10.5 q44 10.5 93 30.5 l0 -287 q-63 -31 -149 -48 q-86 -17 -183 -17 Z" /><glyph glyph-name="rho" unicode="&#x3c1;" d="M-76 -492 l223 1082 q36 173 100 299.5 q64 126.5 180.5 195 q116.5 68.5 309.5 68.5 q140 0 236 -59.5 q96 -59.5 146 -161.5 q50 -102 50 -230 q0 -125 -22.5 -235 q-22.5 -110 -66 -199.5 q-43.5 -89.5 -106.5 -153.5 q-63 -64 -144 -99 q-81 -35 -179 -35 q-85 0 -142.5 34.5 q-57.5 34.5 -82.5 87.5 q-7 -66 -23 -148 q-16 -82 -34 -173 l-58 -273 l-387 0 ZM586 291 q49 0 83 38.5 q34 38.5 55.5 96.5 q21.5 58 33 118 q11.5 60 16 105.5 q4.5 45.5 4.5 57.5 q0 61 -17.5 98 q-17.5 37 -58.5 37 q-33 0 -62.5 -19 q-29.5 -19 -56 -77 q-26.5 -58 -51.5 -175 l-43 -209 q14 -38 40 -54.5 q26 -16.5 57 -16.5 Z" /><glyph glyph-name="uni03C2" unicode="&#x3c2;" d="M283 -379 q62 55 105.5 107 q43.5 52 67 99 q23.5 47 23.5 85 q0 24 -10 47 q-10 23 -47 51.5 q-37 28.5 -117 71.5 q-79 43 -127.5 94 q-48.5 51 -71 114 q-22.5 63 -22.5 142 q0 126 27.5 236 q27.5 110 79.5 199 q52 89 126.5 153 q74.5 64 168.5 98.5 q94 34.5 204 34.5 q119 0 204.5 -22 q85.5 -22 162.5 -62 l-123 -283 q-51 23 -105 41.5 q-54 18.5 -120 18.5 q-48 0 -86 -24 q-38 -24 -65.5 -63.5 q-27.5 -39.5 -46 -85.5 q-18.5 -46 -27.5 -90.5 q-9 -44.5 -9 -78.5 q0 -47 21.5 -74 q21.5 -27 61.5 -48.5 q40 -21.5 97 -53.5 q85 -46 135.5 -94.5 q50.5 -48.5 72.5 -108 q22 -59.5 22 -139.5 q0 -62 -20 -121 q-20 -59 -62 -118.5 q-42 -59.5 -109 -125.5 l-411 0 Z" /><glyph glyph-name="sigma" unicode="&#x3c3;" d="M547 -20 q-212 0 -337.5 111 q-125.5 111 -125.5 325 q0 134 31 246.5 q31 112.5 91.5 199.5 q60.5 87 150 147.5 q89.5 60.5 206 92 q116.5 31.5 258.5 31.5 l572 0 l-66 -291 l-262 0 q38 -48 63 -113.5 q25 -65.5 25 -146.5 q0 -83 -21.5 -168.5 q-21.5 -85.5 -66.5 -163 q-45 -77.5 -116.5 -138.5 q-71.5 -61 -171 -96.5 q-99.5 -35.5 -230.5 -35.5 ZM586 270 q37 0 66 20 q29 20 50.5 57 q21.5 37 35.5 88 q14 51 21 113 q7 62 7 132 q0 56 -6 95 q-6 39 -17 67 l-18 0 q-51 0 -96 -29 q-45 -29 -78.5 -83 q-33.5 -54 -52.5 -130 q-19 -76 -19 -170 q0 -89 34.5 -124.5 q34.5 -35.5 72.5 -35.5 Z" /><glyph glyph-name="tau" unicode="&#x3c4;" d="M543 -20 q-140 0 -220.5 58.5 q-80.5 58.5 -80.5 213.5 q0 34 5.5 83.5 q5.5 49.5 14.5 90.5 l92 416 l-288 0 l40 209 l187 82 l797 0 l-64 -291 l-291 0 l-84 -393 q-4 -23 -9 -50 q-5 -27 -5 -47 q0 -34 19 -47.5 q19 -13.5 44 -13.5 q38 0 81.5 10.5 q43.5 10.5 92.5 30.5 l0 -287 q-62 -31 -148 -48 q-86 -17 -183 -17 Z" /><glyph glyph-name="upsilon" unicode="&#x3c5;" d="M535 -20 q-232 0 -335.5 107 q-103.5 107 -103.5 284 q0 34 5 69.5 q5 35.5 10 69.5 l133 623 l385 0 l-135 -641 q-7 -31 -9 -54 q-2 -23 -2 -43 q0 -57 24 -80.5 q24 -23.5 68 -23.5 q45 0 82 24 q37 24 66 71 q29 47 50.5 117.5 q21.5 70.5 35 164.5 q13.5 94 20.5 210 q7 116 7 255 l381 0 q0 -210 -17.5 -388.5 q-17.5 -178.5 -60.5 -320 q-43 -141.5 -120.5 -240.5 q-77.5 -99 -196 -151.5 q-118.5 -52.5 -287.5 -52.5 Z" /><glyph glyph-name="phi" unicode="&#x3c6;" d="M438 -492 l97 476 q-149 23 -249.5 91 q-100.5 68 -151 174.5 q-50.5 106.5 -50.5 242.5 q0 128 37.5 245 q37.5 117 112 221 q74.5 104 184.5 193 l241 -227 q-64 -60 -105 -129 q-41 -69 -60 -143 q-19 -74 -19 -152 q0 -57 13.5 -103.5 q13.5 -46.5 40 -78 q26.5 -31.5 65.5 -44.5 l94 453 q43 204 157 315 q114 111 335 111 q216 0 338 -121 q122 -121 122 -342 q0 -125 -33.5 -232 q-33.5 -107 -96.5 -192.5 q-63 -85.5 -153 -146.5 q-90 -61 -203 -95.5 q-113 -34.5 -247 -39.5 l-96 -476 l-373 0 ZM967 274 q58 12 104 42.5 q46 30.5 79.5 74.5 q33.5 44 55.5 97.5 q22 53.5 32.5 112 q10.5 58.5 10.5 116.5 q0 59 -19.5 102 q-19.5 43 -66.5 43 q-37 0 -63 -33.5 q-26 -33.5 -41 -105.5 l-92 -449 Z" /><glyph glyph-name="chi" unicode="&#x3c7;" d="M-303 -492 l663 928 l-53 283 q-13 77 -39.5 100 q-26.5 23 -64.5 23 q-22 0 -36.5 -3.5 q-14.5 -3.5 -39.5 -11.5 l-61 279 q49 22 121 34.5 q72 12.5 139 12.5 q140 0 215 -67.5 q75 -67.5 106 -233.5 l17 -88 l223 369 l438 0 l-567 -781 l73 -442 q10 -57 34.5 -73.5 q24.5 -16.5 56.5 -16.5 q15 0 42.5 3 q27.5 3 73.5 13 l0 -291 q-53 -16 -111.5 -26.5 q-58.5 -10.5 -135.5 -10.5 q-86 0 -148.5 28.5 q-62.5 28.5 -101.5 97.5 q-39 69 -58 192 l-28 199 l-320 -517 l-438 0 Z" /><glyph glyph-name="psi" unicode="&#x3c8;" d="M479 -492 l96 472 q-233 20 -356 114.5 q-123 94.5 -123 249.5 q0 34 5.5 77 q5.5 43 13.5 77 l133 635 l385 0 l-135 -641 q-7 -31 -9 -54 q-2 -23 -2 -45 q0 -55 50 -77 q50 -22 102 -25 l266 1265 l373 0 l-266 -1265 q90 15 150 70.5 q60 55.5 96 140 q36 84.5 54 188 q18 103.5 23.5 217.5 q5.5 114 5.5 226 l373 0 q0 -209 -20.5 -384 q-20.5 -175 -71 -312.5 q-50.5 -137.5 -137.5 -235.5 q-87 -98 -219 -154 q-132 -56 -318 -67 l-96 -472 l-373 0 Z" /><glyph glyph-name="omega" unicode="&#x3c9;" d="M434 -20 q-176 0 -272 108 q-96 108 -96 315 q0 108 26.5 224 q26.5 116 81 242 q54.5 126 137.5 264 l398 0 q-76 -107 -134 -232.5 q-58 -125.5 -91 -250 q-33 -124.5 -33 -230.5 q0 -60 15.5 -99.5 q15.5 -39.5 72.5 -39.5 q53 0 82 55.5 q29 55.5 57 179.5 l61 289 l377 0 l-63 -289 q-6 -29 -11.5 -57 q-5.5 -28 -8.5 -53 q-3 -25 -3 -46 q0 -35 13 -57 q13 -22 59 -22 q44 0 78.5 34 q34.5 34 59.5 93 q25 59 41 134 q16 75 24 158.5 q8 83.5 8 165.5 q0 79 -7.5 142.5 q-7.5 63.5 -23.5 124.5 l397 0 q8 -60 13.5 -116.5 q5.5 -56.5 5.5 -139.5 q0 -176 -24 -319 q-24 -143 -71.5 -251 q-47.5 -108 -118 -180.5 q-70.5 -72.5 -162.5 -109.5 q-92 -37 -206 -37 q-91 0 -153.5 22.5 q-62.5 22.5 -99.5 67 q-37 44.5 -52 108.5 q-52 -84 -135.5 -141 q-83.5 -57 -241.5 -57 Z" /><glyph glyph-name="uni0402" unicode="&#x402;" d="M1016 -20 q-57 0 -124.5 13 q-67.5 13 -109.5 38 l0 293 q32 -16 68.5 -24.5 q36.5 -8.5 75.5 -8.5 q40 0 65.5 11.5 q25.5 11.5 40.5 37.5 q15 26 23 70 l10 53 q5 22 7.5 44 q2.5 22 2.5 36 q0 32 -16 62 q-16 30 -84 30 l-217 0 l-131 -635 l-391 0 l237 1139 l-317 0 l69 323 l1028 0 l-71 -323 l-318 0 l-39 -181 l252 0 q194 0 290.5 -90 q96.5 -90 96.5 -219 q0 -43 -4.5 -84 q-4.5 -41 -13.5 -88 l-23 -115 q-29 -150 -79 -233 q-50 -83 -129.5 -116 q-79.5 -33 -198.5 -33 Z" /><glyph glyph-name="uni0404" unicode="&#x404;" d="M645 -20 q-183 0 -303 71.5 q-120 71.5 -179 199.5 q-59 128 -59 298 q0 131 28 264 q28 133 87 253.5 q59 120.5 151 215 q92 94.5 219 149 q127 54.5 292 54.5 q146 0 263 -29.5 q117 -29.5 220 -91.5 l-150 -315 q-93 55 -171 82.5 q-78 27.5 -162 27.5 q-55 0 -102.5 -19 q-47.5 -19 -87.5 -54 q-40 -35 -72 -83 q-32 -48 -56 -106 l473 0 l-67 -311 l-469 0 q0 -8 0 -16.5 q0 -8.5 0 -16.5 q0 -86 24.5 -141.5 q24.5 -55.5 68.5 -82 q44 -26.5 101 -26.5 q62 0 117.5 9.5 q55.5 9.5 120 29.5 q64.5 20 153.5 51 l0 -323 q-72 -32 -144 -52 q-72 -20 -146 -29 q-74 -9 -150 -9 Z" /><glyph glyph-name="uni0409" unicode="&#x409;" d="M63 -20 q-41 0 -78 6.5 q-37 6.5 -77 19.5 l0 305 q31 -10 52 -15 q21 -5 50 -5 q30 0 62.5 11 q32.5 11 69.5 59.5 q37 48.5 81 158.5 q24 60 53.5 149 q29.5 89 64.5 207 q35 118 75.5 264.5 q40.5 146.5 85.5 321.5 l954 0 l-113 -542 l29 0 q169 0 279.5 -54.5 q110.5 -54.5 164.5 -148.5 q54 -94 54 -213 q0 -112 -37.5 -204.5 q-37.5 -92.5 -112 -159.5 q-74.5 -67 -186 -103.5 q-111.5 -36.5 -260.5 -36.5 l-516 0 l243 1151 l-194 0 q-22 -83 -51 -187.5 q-29 -104.5 -59.5 -209 q-30.5 -104.5 -58 -191 q-27.5 -86.5 -46.5 -133.5 q-69 -172 -140.5 -270 q-71.5 -98 -163.5 -139 q-92 -41 -225 -41 ZM1217 305 l77 0 q44 0 78 12.5 q34 12.5 57.5 35.5 q23.5 23 35.5 56 q12 33 12 74 q0 51 -32.5 91 q-32.5 40 -98.5 40 l-68 0 l-61 -309 Z" /><glyph glyph-name="uni040A" unicode="&#x40a;" d="M33 0 l309 1462 l391 0 l-112 -542 l331 0 l115 542 l389 0 l-113 -542 l29 0 q169 0 279.5 -54.5 q110.5 -54.5 164.5 -148.5 q54 -94 54 -213 q0 -112 -37.5 -204.5 q-37.5 -92.5 -112 -159.5 q-74.5 -67 -186 -103.5 q-111.5 -36.5 -260.5 -36.5 l-516 0 l125 596 l-332 0 l-127 -596 l-391 0 ZM1217 305 l77 0 q59 0 99.5 21.5 q40.5 21.5 62 61.5 q21.5 40 21.5 95 q0 51 -32.5 91 q-32.5 40 -98.5 40 l-68 0 l-61 -309 Z" /><glyph glyph-name="uni040B" unicode="&#x40b;" d="M236 0 l237 1139 l-317 0 l69 323 l1028 0 l-71 -323 l-318 0 l-39 -181 l211 0 q194 0 290.5 -96.5 q96.5 -96.5 96.5 -263.5 q0 -31 -6 -80.5 q-6 -49.5 -18 -114.5 l-78 -403 l-391 0 l94 463 q5 22 7.5 44 q2.5 22 2.5 36 q0 32 -16 62 q-16 30 -84 30 l-176 0 l-131 -635 l-391 0 Z" /><glyph glyph-name="uni040F" unicode="&#x40f;" d="M309 -457 l101 457 l-377 0 l309 1462 l391 0 l-237 -1138 l346 0 l239 1138 l392 0 l-310 -1462 l-377 0 l-96 -457 l-381 0 Z" /><glyph glyph-name="uni0411" unicode="&#x411;" d="M33 0 l307 1462 l864 0 l-67 -319 l-473 0 l-46 -223 l29 0 q169 0 279.5 -54.5 q110.5 -54.5 164.5 -148.5 q54 -94 54 -213 q0 -112 -37.5 -204.5 q-37.5 -92.5 -112 -159.5 q-74.5 -67 -186 -103.5 q-111.5 -36.5 -260.5 -36.5 l-516 0 ZM492 305 l77 0 q59 0 99.5 21.5 q40.5 21.5 62 61.5 q21.5 40 21.5 95 q0 51 -32.5 91 q-32.5 40 -98.5 40 l-68 0 l-61 -309 Z" /><glyph glyph-name="uni0414" unicode="&#x414;" d="M-215 -457 l162 781 l178 0 q66 102 135 228.5 q69 126.5 135.5 273 q66.5 146.5 127 307 q60.5 160.5 108.5 329.5 l899 0 l-242 -1138 l246 0 l-166 -781 l-381 0 l98 457 l-821 0 l-98 -457 l-381 0 ZM555 324 l342 0 l176 815 l-170 0 q-31 -99 -67.5 -200.5 q-36.5 -101.5 -79.5 -203.5 q-43 -102 -93 -205 q-50 -103 -108 -206 Z" /><glyph glyph-name="uni0416" unicode="&#x416;" d="M-131 0 l528 760 l-200 702 l409 0 l178 -684 l144 684 l385 0 l-146 -684 l459 684 l436 0 l-520 -725 l223 -737 l-430 0 l-180 719 l-151 -719 l-386 0 l154 719 l-457 -719 l-446 0 Z" /><glyph glyph-name="uni0417" unicode="&#x417;" d="M487 -20 q-145 0 -271 20.5 q-126 20.5 -191 58.5 l0 326 q83 -46 195 -70 q112 -24 216 -24 q58 0 109 6.5 q51 6.5 90 25.5 q39 19 61.5 54 q22.5 35 22.5 92 q0 85 -72 112 q-72 27 -178 27 l-121 0 l68 312 l131 0 q103 0 163 16.5 q60 16.5 86.5 48 q26.5 31.5 26.5 76.5 q0 46 -36 78 q-36 32 -119 32 q-86 0 -167.5 -33 q-81.5 -33 -164.5 -91 l-141 276 q115 71 249.5 115.5 q134.5 44.5 321.5 44.5 q150 0 253.5 -46 q103.5 -46 157.5 -125.5 q54 -79.5 54 -178.5 q0 -107 -48 -184.5 q-48 -77.5 -132.5 -122 q-84.5 -44.5 -196.5 -54.5 l0 -8 q77 -17 135.5 -58 q58.5 -41 91.5 -105 q33 -64 33 -152 q0 -108 -36.5 -194.5 q-36.5 -86.5 -113 -148 q-76.5 -61.5 -195 -94 q-118.5 -32.5 -282.5 -32.5 Z" /><glyph glyph-name="uni0418" unicode="&#x418;" d="M33 0 l309 1462 l356 0 l-131 -612 q-10 -50 -24 -107.5 q-14 -57.5 -30.5 -120 q-16.5 -62.5 -35.5 -128.5 l8 0 l664 968 l489 0 l-309 -1462 l-356 0 l127 606 q11 56 24 114.5 q13 58.5 30 125 q17 66.5 38 143.5 l-8 0 l-662 -989 l-489 0 Z" /><glyph glyph-name="uni041A" unicode="&#x41a;" d="M33 0 l309 1462 l391 0 l-145 -684 l459 684 l436 0 l-520 -725 l223 -737 l-430 0 l-181 719 l-151 -719 l-391 0 Z" /><glyph glyph-name="uni041B" unicode="&#x41b;" d="M63 -20 q-41 0 -78 6.5 q-37 6.5 -77 19.5 l0 305 q31 -10 52 -15 q21 -5 50 -5 q30 0 62.5 11 q32.5 11 69.5 59.5 q37 48.5 81 158.5 q24 60 53.5 149 q29.5 89 64.5 207 q35 118 75.5 264.5 q40.5 146.5 85.5 321.5 l960 0 l-305 -1462 l-391 0 l240 1151 l-199 0 q-18 -66 -40 -147 q-22 -81 -46.5 -166 q-24.5 -85 -48 -164 q-23.5 -79 -44.5 -142.5 q-21 -63.5 -36 -101.5 q-69 -172 -140.5 -270 q-71.5 -98 -163.5 -139 q-92 -41 -225 -41 Z" /><glyph glyph-name="uni0423" unicode="&#x423;" d="M281 -20 q-52 0 -109 8 q-57 8 -104 20 l0 307 q37 -9 77.5 -16.5 q40.5 -7.5 94.5 -7.5 q48 0 80 7 q32 7 54 22.5 q22 15.5 38.5 40 q16.5 24.5 33.5 59.5 l-280 1042 l399 0 l109 -536 q6 -29 12.5 -60 q6.5 -31 12 -60.5 q5.5 -29.5 8.5 -55.5 q14 41 31.5 85.5 q17.5 44.5 35.5 84.5 l254 542 l432 0 l-637 -1132 q-68 -121 -141 -198.5 q-73 -77.5 -168.5 -114.5 q-95.5 -37 -232.5 -37 Z" /><glyph glyph-name="uni0426" unicode="&#x426;" d="M928 -457 l100 457 l-995 0 l309 1462 l391 0 l-241 -1138 l348 0 l241 1138 l392 0 l-246 -1157 l246 0 l-164 -762 l-381 0 Z" /><glyph glyph-name="uni0427" unicode="&#x427;" d="M739 0 l115 535 q-73 -40 -162.5 -62 q-89.5 -22 -183.5 -22 q-118 0 -198.5 41.5 q-80.5 41.5 -121.5 119.5 q-41 78 -41 187 q0 28 3.5 58.5 q3.5 30.5 9.5 64.5 l104 540 l393 0 l-98 -489 q-4 -23 -7 -41 q-3 -18 -3 -37 q0 -58 37.5 -89.5 q37.5 -31.5 97.5 -31.5 q54 0 116 19 q62 19 115 51 l129 618 l392 0 l-306 -1462 l-391 0 Z" /><glyph glyph-name="uni0428" unicode="&#x428;" d="M33 0 l303 1462 l391 0 l-235 -1138 l282 0 l236 1138 l385 0 l-236 -1138 l283 0 l235 1138 l391 0 l-303 -1462 l-1732 0 Z" /><glyph glyph-name="uni0429" unicode="&#x429;" d="M1530 -457 l100 457 l-1597 0 l303 1462 l391 0 l-235 -1138 l282 0 l236 1138 l385 0 l-236 -1138 l283 0 l235 1138 l391 0 l-239 -1157 l246 0 l-164 -762 l-381 0 Z" /><glyph glyph-name="uni042A" unicode="&#x42a;" d="M231 0 l242 1139 l-317 0 l69 323 l705 0 l-113 -542 l29 0 q169 0 279 -54.5 q110 -54.5 164 -148.5 q54 -94 54 -213 q0 -112 -37 -204.5 q-37 -92.5 -111.5 -159.5 q-74.5 -67 -186 -103.5 q-111.5 -36.5 -260.5 -36.5 l-517 0 ZM690 305 l78 0 q59 0 99.5 21.5 q40.5 21.5 61.5 61.5 q21 40 21 95 q0 51 -32.5 91 q-32.5 40 -98.5 40 l-67 0 l-62 -309 Z" /><glyph glyph-name="uni042B" unicode="&#x42b;" d="M33 0 l307 1462 l391 0 l-113 -542 l29 0 q169 0 279.5 -54.5 q110.5 -54.5 164.5 -148.5 q54 -94 54 -213 q0 -112 -37.5 -204.5 q-37.5 -92.5 -112 -159.5 q-74.5 -67 -186 -103.5 q-111.5 -36.5 -260.5 -36.5 l-516 0 ZM492 305 l77 0 q44 0 78 12.5 q34 12.5 57.5 35.5 q23.5 23 35.5 56 q12 33 12 74 q0 51 -32.5 91 q-32.5 40 -98.5 40 l-68 0 l-61 -309 ZM1241 0 l309 1462 l392 0 l-310 -1462 l-391 0 Z" /><glyph glyph-name="uni042C" unicode="&#x42c;" d="M33 0 l309 1462 l389 0 l-113 -542 l29 0 q169 0 279.5 -54.5 q110.5 -54.5 164.5 -148.5 q54 -94 54 -213 q0 -112 -37.5 -204.5 q-37.5 -92.5 -112 -159.5 q-74.5 -67 -186 -103.5 q-111.5 -36.5 -260.5 -36.5 l-516 0 ZM492 305 l77 0 q44 0 78 12.5 q34 12.5 57.5 35.5 q23.5 23 35.5 56 q12 33 12 74 q0 51 -32.5 91 q-32.5 40 -98.5 40 l-68 0 l-61 -309 Z" /><glyph glyph-name="uni042D" unicode="&#x42d;" d="M424 -20 q-101 0 -204 18.5 q-103 18.5 -189 67.5 l0 327 q57 -32 124.5 -52 q67.5 -20 130 -29 q62.5 -9 105.5 -9 q97 0 172 35 q75 35 129.5 98.5 q54.5 63.5 87.5 149.5 l-485 0 l67 311 l476 0 q0 8 0 17 q0 9 0 16 q0 78 -21.5 128.5 q-21.5 50.5 -70.5 75.5 q-49 25 -130 25 q-72 0 -148 -20 q-76 -20 -159 -68 l-104 313 q91 44 224 72.5 q133 28.5 257 28.5 q184 0 303.5 -69.5 q119.5 -69.5 178.5 -197 q59 -127.5 59 -300.5 q0 -110 -27 -237.5 q-27 -127.5 -85.5 -251 q-58.5 -123.5 -152 -225.5 q-93.5 -102 -227 -163 q-133.5 -61 -311.5 -61 Z" /><glyph glyph-name="uni042E" unicode="&#x42e;" d="M1362 -20 q-186 0 -311 70 q-125 70 -187.5 196.5 q-62.5 126.5 -62.5 296.5 q0 14 0 27 q0 13 0 26 l-250 0 l-127 -596 l-391 0 l309 1462 l391 0 l-112 -542 l239 0 q39 117 103 219 q64 102 155.5 180 q91.5 78 209.5 122 q118 44 265 44 q271 0 410 -154 q139 -154 139 -409 q0 -114 -20.5 -227.5 q-20.5 -113.5 -62 -219 q-41.5 -105.5 -105.5 -195.5 q-64 -90 -150.5 -157.5 q-86.5 -67.5 -196.5 -105 q-110 -37.5 -245 -37.5 ZM1397 303 q49 0 94 22 q45 22 84 62.5 q39 40.5 70.5 97 q31.5 56.5 54.5 125 q23 68.5 35 146.5 q12 78 12 162 q0 113 -48 178 q-48 65 -138 65 q-55 0 -103.5 -25 q-48.5 -25 -89 -69 q-40.5 -44 -72.5 -103 q-32 -59 -54.5 -128 q-22.5 -69 -34 -143 q-11.5 -74 -11.5 -148 q0 -79 22.5 -133 q22.5 -54 67.5 -81.5 q45 -27.5 111 -27.5 Z" /><glyph glyph-name="uni042F" unicode="&#x42f;" d="M-139 0 l504 655 q-61 53 -99.5 125 q-38.5 72 -38.5 189 q0 109 38 199.5 q38 90.5 112 156 q74 65.5 182.5 101.5 q108.5 36 249.5 36 l532 0 l-311 -1462 l-391 0 l115 532 l-70 0 l-356 -532 l-467 0 ZM754 829 l61 0 l72 334 l-92 0 q-42 0 -74.5 -15 q-32.5 -15 -55.5 -41 q-23 -26 -35 -60 q-12 -34 -12 -72 q0 -77 39 -111.5 q39 -34.5 97 -34.5 Z" /><glyph glyph-name="uni0431" unicode="&#x431;" d="M530 -20 q-132 0 -232 56 q-100 56 -156 171 q-56 115 -56 291 q0 117 21 233 q21 116 62 224.5 q41 108.5 101.5 203 q60.5 94.5 139.5 168 q79 73.5 176 119.5 q64 30 137.5 51 q73.5 21 158 35.5 q84.5 14.5 179.5 23 q95 8.5 201 13.5 l38 -328 q-62 -6 -138.5 -13.5 q-76.5 -7.5 -148 -15.5 q-71.5 -8 -118.5 -16 q-116 -19 -187.5 -57.5 q-71.5 -38.5 -110.5 -97 q-39 -58.5 -60 -138.5 l8 0 q50 71 125 112.5 q75 41.5 164 41.5 q110 0 178.5 -50.5 q68.5 -50.5 100.5 -140 q32 -89.5 32 -207.5 q0 -117 -36.5 -237 q-36.5 -120 -112 -220 q-75.5 -100 -191.5 -161 q-116 -61 -275 -61 ZM557 291 q29 0 57.5 19.5 q28.5 19.5 53.5 54.5 q25 35 44.5 82 q19.5 47 30.5 102 q11 55 11 115 q0 52 -15.5 81 q-15.5 29 -58.5 29 q-29 0 -63 -22.5 q-34 -22.5 -64.5 -54 q-30.5 -31.5 -52.5 -60.5 q-8 -28 -15.5 -75.5 q-7.5 -47.5 -7.5 -84.5 q0 -73 11.5 -113.5 q11.5 -40.5 30 -56.5 q18.5 -16 38.5 -16 Z" /><glyph glyph-name="uni0432" unicode="&#x432;" d="M567 -20 q-148 0 -256.5 52.5 q-108.5 52.5 -167.5 153.5 q-59 101 -59 246 q0 114 26.5 220 q26.5 106 79 197 q52.5 91 131 159.5 q78.5 68.5 181.5 106.5 q103 38 231 38 q129 0 226.5 -38 q97.5 -38 151.5 -108.5 q54 -70.5 54 -168.5 q0 -86 -37 -139 q-37 -53 -94 -82.5 q-57 -29.5 -119 -45.5 l0 -8 q79 -16 133 -73.5 q54 -57.5 54 -149.5 q0 -114 -58 -194.5 q-58 -80.5 -176.5 -123 q-118.5 -42.5 -300.5 -42.5 ZM592 242 q34 0 60 11.5 q26 11.5 41.5 36 q15.5 24.5 15.5 62.5 q0 42 -14 69.5 q-14 27.5 -41.5 40.5 q-27.5 13 -67.5 13 l-113 0 q-1 -18 -2.5 -29.5 q-1.5 -11.5 -1.5 -37.5 q0 -92 34 -129 q34 -37 89 -37 ZM528 725 l115 0 q55 0 84.5 13 q29.5 13 41 34.5 q11.5 21.5 11.5 46.5 q0 34 -19.5 53 q-19.5 19 -51.5 19 q-38 0 -70.5 -16 q-32.5 -16 -59.5 -52 q-27 -36 -51 -98 Z" /><glyph glyph-name="uni0433" unicode="&#x433;" d="M432 -20 q-107 0 -200 32.5 q-93 32.5 -150 108 q-57 75.5 -57 203.5 q0 70 22 127.5 q22 57.5 70 105.5 q48 48 126 87 q78 39 189 71 q76 22 112 39.5 q36 17.5 47 36.5 q11 19 11 43 q0 23 -20 39 q-20 16 -68 16 q-63 0 -129 -23 q-66 -23 -125 -55 l-92 248 q81 44 189 69 q108 25 218 25 q111 0 206 -31.5 q95 -31.5 152.5 -101 q57.5 -69.5 57.5 -184.5 q0 -91 -24.5 -157 q-24.5 -66 -77.5 -115 q-53 -49 -139.5 -89.5 q-86.5 -40.5 -210.5 -79.5 q-46 -14 -72 -25 q-26 -11 -36.5 -23.5 q-10.5 -12.5 -10.5 -33.5 q0 -22 22 -35.5 q22 -13.5 80 -13.5 q48 0 108 14 q60 14 119.5 35.5 q59.5 21.5 106.5 42.5 l0 -284 q-92 -46 -193.5 -69 q-101.5 -23 -230.5 -23 Z" /><glyph glyph-name="uni0434" unicode="&#x434;" d="M549 -20 q-155 0 -258.5 54 q-103.5 54 -155 153.5 q-51.5 99.5 -51.5 234.5 q0 114 22 211 q22 97 63.5 174 q41.5 77 98.5 131.5 q57 54.5 127 83.5 q70 29 150 29 q63 0 116 -24 q53 -24 94 -65 q41 -41 66 -94 l8 0 q2 17 2 36.5 q0 19.5 0 29.5 q0 180 -56.5 256 q-56.5 76 -196.5 76 q-46 0 -99.5 -12.5 q-53.5 -12.5 -97.5 -30.5 l-76 295 q76 24 161 41.5 q85 17.5 206 17.5 q180 0 303 -73 q123 -73 185.5 -218.5 q62.5 -145.5 62.5 -361.5 q0 -112 -14 -225 q-14 -113 -45 -219 q-31 -106 -82.5 -196.5 q-51.5 -90.5 -126 -159 q-74.5 -68.5 -175 -106.5 q-100.5 -38 -231.5 -38 ZM588 291 q32 0 60 18.5 q28 18.5 51 52 q23 33.5 41 79 q18 45.5 32 100 q14 54.5 23 114.5 q-11 25 -29.5 49 q-18.5 24 -45.5 40 q-27 16 -65 16 q-29 0 -56.5 -15.5 q-27.5 -15.5 -50 -44.5 q-22.5 -29 -39.5 -71 q-17 -42 -26.5 -94.5 q-9.5 -52.5 -9.5 -114.5 q0 -51 27.5 -90 q27.5 -39 87.5 -39 Z" /><glyph glyph-name="uni0436" unicode="&#x436;" d="M139 -20 q-46 0 -86 4 q-40 4 -78 10 l70 301 q19 -3 37.5 -5.5 q18.5 -2.5 38.5 -2.5 q43 0 80 21 q37 21 65.5 59 q28.5 38 48.5 89 q20 51 30.5 111.5 q10.5 60.5 10.5 126.5 q0 74 -24 111 q-24 37 -74 37 q-29 0 -60 -8.5 q-31 -8.5 -65 -22.5 l0 307 q37 17 95.5 26 q58.5 9 115.5 9 q173 0 283 -102.5 q110 -102.5 110 -323.5 q0 -7 0 -12 q0 -5 0 -13 l168 0 l94 431 l373 0 l-94 -431 l149 0 q29 102 80 185 q51 83 123.5 142.5 q72.5 59.5 163 91.5 q90.5 32 197.5 32 q46 0 86 -4 q40 -4 77 -10 l-69 -301 q-19 3 -37.5 5.5 q-18.5 2.5 -38.5 2.5 q-43 0 -80 -21 q-37 -21 -65.5 -59.5 q-28.5 -38.5 -48.5 -89.5 q-20 -51 -30.5 -111.5 q-10.5 -60.5 -10.5 -126.5 q0 -73 24.5 -110 q24.5 -37 73.5 -37 q29 0 60 8.5 q31 8.5 65 22.5 l0 -308 q-37 -16 -95.5 -25 q-58.5 -9 -115.5 -9 q-109 0 -198 40.5 q-89 40.5 -141 137 q-52 96.5 -52 264.5 q0 5 0 9.5 q0 4.5 0 8.5 l-174 0 l-95 -440 l-372 0 l94 440 l-143 0 q-28 -103 -79.5 -188 q-51.5 -85 -124 -145.5 q-72.5 -60.5 -163.5 -93.5 q-91 -33 -199 -33 Z" /><glyph glyph-name="uni0437" unicode="&#x437;" d="M459 -20 q-140 0 -249 24.5 q-109 24.5 -177 61.5 l0 294 q94 -43 195 -66.5 q101 -23.5 204 -23.5 q52 0 104 7 q52 7 87.5 27.5 q35.5 20.5 35.5 60.5 q0 47 -43.5 73.5 q-43.5 26.5 -164.5 26.5 l-140 0 l54 246 l153 0 q77 0 124.5 9.5 q47.5 9.5 69 28 q21.5 18.5 21.5 46.5 q0 35 -23.5 55 q-23.5 20 -99.5 20 q-67 0 -167.5 -21.5 q-100.5 -21.5 -182.5 -60.5 l-84 279 q107 37 228.5 61.5 q121.5 24.5 261.5 24.5 q122 0 224.5 -26 q102.5 -26 165 -88.5 q62.5 -62.5 62.5 -174.5 q0 -67 -26.5 -119 q-26.5 -52 -82.5 -90 q-56 -38 -143 -65 l0 -8 q94 -25 140.5 -84.5 q46.5 -59.5 46.5 -139.5 q0 -112 -64.5 -197.5 q-64.5 -85.5 -196 -133 q-131.5 -47.5 -333.5 -47.5 Z" /><glyph glyph-name="uni043A" unicode="&#x43a;" d="M23 0 l235 1133 l387 0 l-108 -521 l391 521 l440 0 l-444 -570 l227 -563 l-424 0 l-205 543 l-112 -543 l-387 0 Z" /><glyph glyph-name="uni043B" unicode="&#x43b;" d="M125 -20 q-35 0 -79.5 7.5 q-44.5 7.5 -82.5 22.5 l0 301 q26 -13 46.5 -16.5 q20.5 -3.5 33.5 -3.5 q26 0 45.5 14 q19.5 14 38 48.5 q18.5 34.5 39.5 93.5 q21 59 49 149 q42 134 90.5 237.5 q48.5 103.5 119 174.5 q70.5 71 176 108 q105.5 37 261.5 37 q145 0 268 -24 q123 -24 199 -56 l-221 -1073 l-387 0 l178 856 q-13 3 -27 4.5 q-14 1.5 -28 1.5 q-59 0 -104 -29.5 q-45 -29.5 -87.5 -118.5 q-42.5 -89 -95.5 -268 q-39 -133 -77 -222.5 q-38 -89.5 -85 -143 q-47 -53.5 -112 -77 q-65 -23.5 -158 -23.5 Z" /><glyph glyph-name="uni043C" unicode="&#x43c;" d="M33 0 l239 1133 l512 0 l47 -740 l9 0 l364 740 l541 0 l-242 -1133 l-364 0 l71 332 q39 178 61.5 263.5 q22.5 85.5 28.5 123.5 l-8 0 l-346 -719 l-362 0 l-47 719 l-9 0 q-15 -120 -29.5 -220 q-14.5 -100 -31.5 -175 l-72 -324 l-362 0 Z" /><glyph glyph-name="uni043D" unicode="&#x43d;" d="M23 0 l241 1133 l387 0 l-86 -410 l221 0 l88 410 l388 0 l-240 -1133 l-387 0 l92 440 l-223 0 l-94 -440 l-387 0 Z" /><glyph glyph-name="uni0444" unicode="&#x444;" d="M457 -492 l98 476 q-154 24 -259 89.5 q-105 65.5 -158.5 169.5 q-53.5 104 -53.5 242 q0 126 31 227 q31 101 91.5 178 q60.5 77 148 131 q87.5 54 200 86 q112.5 32 248.5 44 l84 405 l373 0 l-84 -405 q232 -35 351.5 -164.5 q119.5 -129.5 119.5 -337.5 q0 -126 -31.5 -227 q-31.5 -101 -91.5 -177.5 q-60 -76.5 -147.5 -130.5 q-87.5 -54 -200 -86 q-112.5 -32 -248.5 -44 l-99 -476 l-372 0 ZM618 274 l121 586 q-62 -7 -111.5 -38 q-49.5 -31 -84 -80 q-34.5 -49 -52.5 -111 q-18 -62 -18 -131 q0 -54 16 -102 q16 -48 48 -80.5 q32 -32.5 81 -43.5 ZM991 274 q50 6 91.5 28 q41.5 22 74 57 q32.5 35 55 79.5 q22.5 44.5 34 94.5 q11.5 50 11.5 102 q0 54 -16 101.5 q-16 47.5 -48 80.5 q-32 33 -81 43 l-121 -586 Z" /><glyph glyph-name="uni0446" unicode="&#x446;" d="M721 -416 l119 447 q-31 14 -52.5 36 q-21.5 22 -34.5 53 q-13 31 -18 70 l-8 0 q-41 -70 -90.5 -117 q-49.5 -47 -109.5 -70 q-60 -23 -132 -23 q-105 0 -171 44 q-66 44 -97 117 q-31 73 -31 160 q0 57 7 116.5 q7 59.5 18 112.5 l127 603 l387 0 l-129 -617 q-6 -26 -12.5 -66 q-6.5 -40 -6.5 -75 q0 -43 22.5 -64.5 q22.5 -21.5 53.5 -21.5 q34 0 68.5 31 q34.5 31 65 96 q30.5 65 51.5 166 l116 551 l387 0 l-145 -687 q-4 -24 -9 -50 q-5 -26 -5 -46 q0 -32 19.5 -46.5 q19.5 -14.5 51.5 -14.5 q19 0 41.5 4.5 q22.5 4.5 32.5 7.5 l-147 -717 l-369 0 Z" /><glyph glyph-name="uni0447" unicode="&#x447;" d="M596 0 l57 274 q11 54 21.5 94.5 q10.5 40.5 19.5 71.5 l-10 0 q-34 -29 -73.5 -58 q-39.5 -29 -88.5 -48 q-49 -19 -112 -19 q-91 0 -153 36.5 q-62 36.5 -93 104 q-31 67.5 -31 160.5 q0 63 7.5 118.5 q7.5 55.5 23.5 131.5 l55 267 l387 0 l-57 -281 q-6 -26 -12.5 -66 q-6.5 -40 -6.5 -75 q0 -43 22.5 -64.5 q22.5 -21.5 53.5 -21.5 q43 0 75.5 28 q32.5 28 59 92 q26.5 64 50.5 173 l45 215 l387 0 l-240 -1133 l-387 0 Z" /><glyph glyph-name="uni0448" unicode="&#x448;" d="M383 -20 q-139 0 -213 84.5 q-74 84.5 -74 248.5 q0 47 6 99 q6 52 17 106 l125 615 l387 0 l-129 -631 q-4 -20 -9.5 -55 q-5.5 -35 -5.5 -78 q0 -40 19 -61 q19 -21 51 -21 q49 0 85.5 34 q36.5 34 64 101.5 q27.5 67.5 47.5 167.5 l110 543 l387 0 l-131 -631 q-4 -23 -9 -59.5 q-5 -36.5 -5 -61.5 q0 -51 20.5 -72.5 q20.5 -21.5 51.5 -21.5 q28 0 54 13.5 q26 13.5 50 46.5 q24 33 45.5 90 q21.5 57 40.5 145 l119 551 l387 0 l-240 -1133 l-309 0 l16 186 l-8 0 q-40 -74 -86 -119.5 q-46 -45.5 -104.5 -66 q-58.5 -20.5 -136.5 -20.5 q-58 0 -103 13.5 q-45 13.5 -78 39.5 q-33 26 -55 64.5 q-22 38.5 -35 88.5 l-8 0 q-43 -70 -95 -116 q-52 -46 -113.5 -68 q-61.5 -22 -135.5 -22 Z" /><glyph glyph-name="uni0449" unicode="&#x449;" d="M1343 -416 l119 447 q-30 14 -55.5 37.5 q-25.5 23.5 -42.5 54 q-17 30.5 -23 63.5 l-8 0 q-40 -74 -86 -119.5 q-46 -45.5 -104.5 -66 q-58.5 -20.5 -136.5 -20.5 q-117 0 -181 53 q-64 53 -90 153 l-8 0 q-43 -70 -95 -116 q-52 -46 -113.5 -68 q-61.5 -22 -135.5 -22 q-139 0 -213 84.5 q-74 84.5 -74 248.5 q0 47 6 99 q6 52 17 106 l125 615 l387 0 l-129 -631 q-4 -20 -9.5 -55 q-5.5 -35 -5.5 -78 q0 -40 19 -61 q19 -21 51 -21 q49 0 85.5 34 q36.5 34 64 101.5 q27.5 67.5 47.5 167.5 l110 543 l387 0 l-131 -631 q-4 -23 -9 -59.5 q-5 -36.5 -5 -61.5 q0 -51 20.5 -72.5 q20.5 -21.5 51.5 -21.5 q28 0 54 13.5 q26 13.5 50 46.5 q24 33 45.5 90 q21.5 57 40.5 145 l119 551 l387 0 l-145 -687 q-5 -24 -10 -50 q-5 -26 -5 -46 q0 -32 20 -46.5 q20 -14.5 52 -14.5 q18 0 40.5 4.5 q22.5 4.5 33.5 7.5 l-148 -717 l-369 0 Z" /><glyph glyph-name="uni044A" unicode="&#x44a;" d="M739 -20 q-171 0 -268.5 45.5 q-97.5 45.5 -138.5 118.5 q-41 73 -41 155 q0 44 7 95.5 q7 51.5 19 105.5 l76 350 l-315 0 l61 283 l703 0 l-97 -433 q38 11 80.5 16 q42.5 5 85.5 5 q133 0 220.5 -44.5 q87.5 -44.5 131.5 -117 q44 -72.5 44 -156.5 q0 -138 -62.5 -232 q-62.5 -94 -188.5 -142.5 q-126 -48.5 -317 -48.5 ZM788 242 q28 0 51 7 q23 7 40 21 q17 14 26.5 34.5 q9.5 20.5 9.5 47.5 q0 28 -11 52.5 q-11 24.5 -34 39.5 q-23 15 -59 15 q-28 0 -60 -3.5 q-32 -3.5 -61 -13.5 q-9 -38 -15.5 -72.5 q-6.5 -34.5 -6.5 -54.5 q0 -40 36.5 -56.5 q36.5 -16.5 83.5 -16.5 Z" /><glyph glyph-name="uni044B" unicode="&#x44b;" d="M518 -20 q-166 0 -260.5 45.5 q-94.5 45.5 -134 118.5 q-39.5 73 -39.5 155 q0 44 7 95.5 q7 51.5 20 105.5 l137 633 l387 0 l-96 -433 q35 11 75 16 q40 5 80 5 q125 0 208 -44.5 q83 -44.5 124 -117 q41 -72.5 41 -156.5 q0 -138 -60.5 -232 q-60.5 -94 -182 -142.5 q-121.5 -48.5 -306.5 -48.5 ZM565 242 q24 0 44.5 7 q20.5 7 35 21 q14.5 14 23 34.5 q8.5 20.5 8.5 47.5 q0 28 -10 52.5 q-10 24.5 -29.5 39.5 q-19.5 15 -50.5 15 q-23 0 -50.5 -3.5 q-27.5 -3.5 -52.5 -13.5 q-9 -38 -15.5 -72.5 q-6.5 -34.5 -6.5 -54.5 q0 -40 31.5 -56.5 q31.5 -16.5 72.5 -16.5 ZM1171 0 l240 1133 l389 0 l-241 -1133 l-388 0 Z" /><glyph glyph-name="uni044C" unicode="&#x44c;" d="M532 -20 q-171 0 -268.5 45.5 q-97.5 45.5 -138.5 118.5 q-41 73 -41 155 q0 44 7 95.5 q7 51.5 20 105.5 l137 633 l387 0 l-96 -433 q37 11 80 16 q43 5 86 5 q132 0 219.5 -44.5 q87.5 -44.5 131.5 -117 q44 -72.5 44 -156.5 q0 -138 -62.5 -232 q-62.5 -94 -188.5 -142.5 q-126 -48.5 -317 -48.5 ZM582 242 q27 0 50.5 7 q23.5 7 40.5 21 q17 14 26.5 34.5 q9.5 20.5 9.5 47.5 q0 28 -11.5 52.5 q-11.5 24.5 -34.5 39.5 q-23 15 -59 15 q-28 0 -60 -3.5 q-32 -3.5 -61 -13.5 q-9 -38 -15.5 -72.5 q-6.5 -34.5 -6.5 -54.5 q0 -40 36.5 -56.5 q36.5 -16.5 84.5 -16.5 Z" /><glyph glyph-name="uni044D" unicode="&#x44d;" d="M299 -20 q-67 0 -135.5 14.5 q-68.5 14.5 -118.5 42.5 l0 297 q43 -31 102 -47.5 q59 -16.5 129 -16.5 q60 0 105 19.5 q45 19.5 77.5 57.5 q32.5 38 53.5 93 l-291 0 l51 246 l283 0 q0 9 0 19.5 q0 10.5 0 17.5 q0 51 -17 83.5 q-17 32.5 -45 48 q-28 15.5 -61 15.5 q-50 0 -93.5 -15.5 q-43.5 -15.5 -90.5 -43.5 l-98 252 q77 40 173 65 q96 25 197 25 q131 0 227 -51 q96 -51 148.5 -151 q52.5 -100 52.5 -249 q0 -119 -25.5 -227 q-25.5 -108 -77 -198.5 q-51.5 -90.5 -129.5 -157 q-78 -66.5 -182 -103 q-104 -36.5 -235 -36.5 Z" /><glyph glyph-name="uni044E" unicode="&#x44e;" d="M1106 -20 q-209 0 -322.5 113.5 q-113.5 113.5 -113.5 322.5 q0 6 0 12 q0 6 0 12 l-166 0 l-94 -440 l-387 0 l241 1133 l387 0 l-86 -410 l154 0 q32 92 85 170 q53 78 127 136.5 q74 58.5 169 91 q95 32.5 209 32.5 q139 0 236.5 -51 q97.5 -51 148.5 -148.5 q51 -97.5 51 -236.5 q0 -116 -26 -224.5 q-26 -108.5 -78 -201.5 q-52 -93 -129 -163 q-77 -70 -178.5 -109 q-101.5 -39 -227.5 -39 ZM1149 270 q35 0 65 26 q30 26 55 71.5 q25 45.5 43 104 q18 58.5 28 124.5 q10 66 10 133 q0 66 -23 99.5 q-23 33.5 -63 33.5 q-34 0 -64.5 -26 q-30.5 -26 -55 -71 q-24.5 -45 -42.5 -103.5 q-18 -58.5 -27.5 -125 q-9.5 -66.5 -9.5 -133.5 q0 -66 22 -99.5 q22 -33.5 62 -33.5 Z" /><glyph glyph-name="uni044F" unicode="&#x44f;" d="M141 -20 q-34 0 -69 5.5 q-35 5.5 -78 20.5 l0 299 q18 -7 34 -10.5 q16 -3.5 23 -3.5 q27 0 45 8 q18 8 36 27 q18 19 42 53 q22 32 47.5 57.5 q25.5 25.5 59.5 43 q34 17.5 81 24.5 q-39 19 -76 50 q-37 31 -61 75 q-24 44 -24 100 q0 106 39.5 182.5 q39.5 76.5 113 125.5 q73.5 49 174.5 72.5 q101 23.5 224 23.5 l495 0 l-239 -1133 l-387 0 l88 403 l-21 0 q-44 0 -75 -19.5 q-31 -19.5 -60 -63 q-29 -43.5 -68 -117.5 q-42 -80 -86.5 -129 q-44.5 -49 -105 -71.5 q-60.5 -22.5 -152.5 -22.5 ZM702 649 l58 0 l47 225 l-49 0 q-58 0 -95 -16.5 q-37 -16.5 -54 -47 q-17 -30.5 -17 -71.5 q0 -41 27 -65.5 q27 -24.5 83 -24.5 Z" /><glyph glyph-name="uni0452" unicode="&#x452;" d="M553 -492 q-54 0 -113 8.5 q-59 8.5 -94 18.5 l0 303 q37 -12 61 -15 q24 -3 50 -3 q41 0 77 15 q36 15 62 48 q26 33 37 86 l115 547 q6 26 12 66 q6 40 6 75 q0 44 -22.5 65 q-22.5 21 -53.5 21 q-45 0 -79 -34 q-34 -34 -59.5 -99 q-25.5 -65 -45.5 -159 l-96 -451 l-387 0 l245 1167 l-168 0 l52 242 l167 0 l33 147 l387 0 l-30 -147 l268 0 l-51 -242 l-269 0 l-8 -39 q-12 -61 -29 -110.5 q-17 -49.5 -34 -89.5 l8 0 q32 38 70.5 65.5 q38.5 27.5 86.5 42.5 q48 15 107 15 q106 0 171.5 -44 q65.5 -44 96.5 -117.5 q31 -73.5 31 -160.5 q0 -57 -6.5 -116.5 q-6.5 -59.5 -17.5 -112.5 l-123 -586 q-22 -109 -75 -201.5 q-53 -92.5 -145.5 -148.5 q-92.5 -56 -236.5 -56 Z" /><glyph glyph-name="uni0454" unicode="&#x454;" d="M506 -20 q-111 0 -207.5 44.5 q-96.5 44.5 -155.5 144 q-59 99.5 -59 263.5 q0 123 27.5 232 q27.5 109 79.5 198.5 q52 89.5 126.5 154.5 q74.5 65 168.5 100.5 q94 35.5 204 35.5 q119 0 204.5 -22 q85.5 -22 162.5 -62 l-109 -258 q-50 23 -104.5 41 q-54.5 18 -120.5 18 q-44 0 -82.5 -18.5 q-38.5 -18.5 -69.5 -59 q-31 -40.5 -53 -106.5 l293 0 l-51 -246 l-287 0 q0 -3 0 -6 q0 -3 0 -8 q0 -45 15 -81.5 q15 -36.5 47 -58.5 q32 -22 83 -22 q73 0 133 26 q60 26 130 66 l0 -286 q-80 -43 -168 -66.5 q-88 -23.5 -207 -23.5 Z" /><glyph glyph-name="uni0459" unicode="&#x459;" d="M1231 -20 q-171 0 -269 45.5 q-98 45.5 -139 118.5 q-41 73 -41 155 q0 44 7.5 95.5 q7.5 51.5 19.5 105.5 l78 358 q-11 2 -21.5 3 q-10.5 1 -21.5 1 q-59 0 -104 -29.5 q-45 -29.5 -87.5 -118.5 q-42.5 -89 -95.5 -268 q-39 -133 -77 -222.5 q-38 -89.5 -85 -143 q-47 -53.5 -112 -77 q-65 -23.5 -158 -23.5 q-35 0 -79.5 7.5 q-44.5 7.5 -82.5 22.5 l0 301 q26 -13 46.5 -16.5 q20.5 -3.5 33.5 -3.5 q26 0 45.5 14 q19.5 14 38 48.5 q18.5 34.5 39.5 93.5 q21 59 49 149 q42 134 90.5 237.5 q48.5 103.5 119 174.5 q70.5 71 176 108 q105.5 37 261.5 37 q145 0 263 -24 q118 -24 194 -56 l-82 -373 q37 11 80 16 q43 5 86 5 q132 0 219.5 -44.5 q87.5 -44.5 131.5 -117 q44 -72.5 44 -156.5 q0 -138 -62.5 -232 q-62.5 -94 -188 -142.5 q-125.5 -48.5 -316.5 -48.5 ZM1280 242 q28 0 51 7 q23 7 40 21 q17 14 26.5 34.5 q9.5 20.5 9.5 47.5 q0 28 -11 52.5 q-11 24.5 -34 39.5 q-23 15 -59 15 q-28 0 -60 -3.5 q-32 -3.5 -61 -13.5 q-10 -38 -16.5 -72.5 q-6.5 -34.5 -6.5 -54.5 q0 -40 37 -56.5 q37 -16.5 84 -16.5 Z" /><glyph glyph-name="uni045A" unicode="&#x45a;" d="M1157 -20 q-171 0 -268.5 45.5 q-97.5 45.5 -138.5 118.5 q-41 73 -41 155 q0 22 1.5 44.5 q1.5 22.5 4.5 47 q3 24.5 8 49.5 l-219 0 l-94 -440 l-387 0 l241 1133 l387 0 l-86 -410 l217 0 l90 410 l388 0 l-97 -433 q37 11 80 16 q43 5 86 5 q132 0 219.5 -44.5 q87.5 -44.5 131.5 -117 q44 -72.5 44 -156.5 q0 -138 -62.5 -232 q-62.5 -94 -188 -142.5 q-125.5 -48.5 -316.5 -48.5 ZM1206 242 q28 0 51 7 q23 7 40 21 q17 14 26.5 34.5 q9.5 20.5 9.5 47.5 q0 28 -11 52.5 q-11 24.5 -34 39.5 q-23 15 -59 15 q-28 0 -60 -3.5 q-32 -3.5 -61 -13.5 q-9 -38 -16 -72.5 q-7 -34.5 -7 -54.5 q0 -40 37 -56.5 q37 -16.5 84 -16.5 Z" /><glyph glyph-name="uni045F" unicode="&#x45f;" d="M395 -20 q-105 0 -171 44 q-66 44 -97 117 q-31 73 -31 160 q0 57 7 116.5 q7 59.5 18 112.5 l127 603 l387 0 l-129 -617 q-6 -26 -12.5 -66 q-6.5 -40 -6.5 -75 q0 -43 22.5 -64.5 q22.5 -21.5 53.5 -21.5 q34 0 68.5 31 q34.5 31 65 96 q30.5 65 51.5 166 l116 551 l387 0 l-239 -1133 l-310 0 l13 158 l-8 0 q-37 -63 -82 -102.5 q-45 -39.5 -101.5 -57.5 q-56.5 -18 -128.5 -18 ZM240 -492 l100 351 l264 84 l55 0 l-67 -435 l-352 0 Z" /><glyph glyph-name="uni0490" unicode="&#x490;" d="M33 0 l309 1462 l508 0 l68 316 l348 0 l-129 -635 l-471 0 l-242 -1143 l-391 0 Z" /><glyph glyph-name="uni0491" unicode="&#x491;" d="M23 0 l239 1133 l479 0 l60 290 l352 0 l-129 -602 l-440 0 l-174 -821 l-387 0 Z" /><glyph glyph-name="endash" unicode="&#x2013;" d="M33 416 l57 274 l871 0 l-60 -274 l-868 0 Z" /><glyph glyph-name="emdash" unicode="&#x2014;" d="M33 416 l57 274 l1854 0 l-60 -274 l-1851 0 Z" /><glyph glyph-name="underscoredbl" unicode="&#x2017;" d="M-150 -209 l39 164 l930 0 l-39 -164 l-930 0 ZM-205 -463 l39 164 l930 0 l-39 -164 l-930 0 Z" /><glyph glyph-name="quoteleft" unicode="&#x2018;" d="M119 961 l-10 22 q31 70 72.5 152 q41.5 82 89.5 166.5 q48 84.5 96 160.5 l288 0 q-26 -61 -51.5 -126.5 q-25.5 -65.5 -49.5 -131.5 q-24 -66 -46 -128 q-22 -62 -41 -115 l-348 0 Z" /><glyph glyph-name="quoteright" unicode="&#x2019;" d="M94 961 q34 81 68 170 q34 89 65 175 q31 86 56 156 l348 0 l8 -22 q-30 -70 -72 -152 q-42 -82 -89.5 -166 q-47.5 -84 -94.5 -161 l-289 0 Z" /><glyph glyph-name="quotesinglbase" unicode="&#x201a;" d="M-104 -264 q35 81 68 170 q33 89 64 175 q31 86 56 157 l348 0 l8 -23 q-29 -69 -70.5 -151.5 q-41.5 -82.5 -89 -166.5 q-47.5 -84 -96.5 -161 l-288 0 Z" /><glyph glyph-name="quotereversed" unicode="&#x201b;" d="M289 961 q-22 77 -42.5 161 q-20.5 84 -35 166 q-14.5 82 -21.5 152 l15 22 l342 0 q0 -53 1.5 -115 q1.5 -62 4.5 -128 q3 -66 7.5 -132 q4.5 -66 10.5 -126 l-282 0 Z" /><glyph glyph-name="quotedblleft" unicode="&#x201c;" d="M614 961 l-8 22 q31 70 72.5 152 q41.5 82 88.5 166.5 q47 84.5 95 160.5 l289 0 q-35 -81 -68 -170 q-33 -89 -63 -174.5 q-30 -85.5 -57 -156.5 l-349 0 ZM119 961 l-10 22 q31 70 72.5 152 q41.5 82 89.5 166.5 q48 84.5 96 160.5 l288 0 q-26 -61 -51.5 -126.5 q-25.5 -65.5 -49.5 -131.5 q-24 -66 -46 -128 q-22 -62 -41 -115 l-348 0 Z" /><glyph glyph-name="quotedblright" unicode="&#x201d;" d="M592 961 q34 81 67 170 q33 89 64 175 q31 86 57 156 l348 0 l7 -22 q-31 -70 -72.5 -152 q-41.5 -82 -88 -166 q-46.5 -84 -93.5 -161 l-289 0 ZM94 961 q34 81 67 170 q33 89 64 175 q31 86 58 156 l348 0 l8 -22 q-30 -70 -72 -152 q-42 -82 -89.5 -166 q-47.5 -84 -94.5 -161 l-289 0 Z" /><glyph glyph-name="quotedblbase" unicode="&#x201e;" d="M397 -264 q34 81 67 170 q33 89 64 175 q31 86 58 157 l348 0 l8 -23 q-30 -69 -72 -151.5 q-42 -82.5 -89.5 -166.5 q-47.5 -84 -96.5 -161 l-287 0 ZM-104 -264 q35 81 68 170 q33 89 64 175 q31 86 56 157 l348 0 l8 -23 q-29 -69 -70.5 -151.5 q-41.5 -82.5 -89 -166.5 q-47.5 -84 -96.5 -161 l-288 0 Z" /><glyph glyph-name="dagger" unicode="&#x2020;" d="M242 0 l245 909 l-305 -26 l62 286 l297 -26 l32 413 l334 0 l-141 -413 l324 26 l-64 -286 l-309 30 l-142 -913 l-333 0 Z" /><glyph glyph-name="daggerdbl" unicode="&#x2021;" d="M262 0 l133 373 l-323 -27 l61 287 l311 -27 l-6 180 l82 164 l-323 -26 l59 286 l311 -26 l27 372 l334 0 l-133 -372 l323 26 l-61 -286 l-309 26 l8 -164 l-84 -180 l321 27 l-59 -287 l-311 27 l-27 -373 l-334 0 Z" /><glyph glyph-name="bullet" unicode="&#x2022;" d="M379 389 q-142 0 -217.5 83 q-75.5 83 -75.5 216 q0 110 43 205 q43 95 128 154 q85 59 210 59 q106 0 170.5 -37.5 q64.5 -37.5 94.5 -105.5 q30 -68 30 -158 q0 -113 -40 -208 q-40 -95 -124.5 -151.5 q-84.5 -56.5 -218.5 -56.5 Z" /><glyph glyph-name="perthousand" unicode="&#x2030;" d="M252 0 l1089 1462 l289 0 l-1081 -1462 l-297 0 ZM397 565 q-158 0 -237.5 84 q-79.5 84 -79.5 238 q0 91 16.5 178 q16.5 87 51 162.5 q34.5 75.5 87.5 133 q53 57.5 125.5 90 q72.5 32.5 165.5 32.5 q149 0 232.5 -86.5 q83.5 -86.5 83.5 -235.5 q0 -95 -19.5 -183.5 q-19.5 -88.5 -57 -163.5 q-37.5 -75 -91.5 -131 q-54 -56 -123.5 -87 q-69.5 -31 -153.5 -31 ZM424 807 q24 0 44 22.5 q20 22.5 35.5 60 q15.5 37.5 26 83.5 q10.5 46 16 94 q5.5 48 5.5 90 q0 43 -12 63.5 q-12 20.5 -41 20.5 q-22 0 -41.5 -21 q-19.5 -21 -35 -57 q-15.5 -36 -27 -81.5 q-11.5 -45.5 -17.5 -94.5 q-6 -49 -6 -96 q0 -41 12.5 -62.5 q12.5 -21.5 40.5 -21.5 ZM1374 -20 q-158 0 -237.5 83.5 q-79.5 83.5 -79.5 237.5 q0 91 16.5 178 q16.5 87 51 162.5 q34.5 75.5 87.5 133 q53 57.5 125.5 90 q72.5 32.5 165.5 32.5 q149 0 232.5 -86.5 q83.5 -86.5 83.5 -235.5 q0 -95 -19.5 -183 q-19.5 -88 -57 -163 q-37.5 -75 -91.5 -131 q-54 -56 -123.5 -87 q-69.5 -31 -153.5 -31 ZM1401 221 q24 0 44 22.5 q20 22.5 35.5 60 q15.5 37.5 26 83.5 q10.5 46 16 94 q5.5 48 5.5 90 q0 44 -12 64 q-12 20 -41 20 q-22 0 -41.5 -21 q-19.5 -21 -35 -57 q-15.5 -36 -27 -81.5 q-11.5 -45.5 -17.5 -94.5 q-6 -49 -6 -96 q0 -41 12.5 -62.5 q12.5 -21.5 40.5 -21.5 ZM2193 -20 q-158 0 -237.5 83.5 q-79.5 83.5 -79.5 237.5 q0 91 16.5 178 q16.5 87 51 162.5 q34.5 75.5 87.5 133 q53 57.5 125.5 90 q72.5 32.5 165.5 32.5 q149 0 232.5 -86.5 q83.5 -86.5 83.5 -235.5 q0 -95 -19.5 -183 q-19.5 -88 -57 -163 q-37.5 -75 -91.5 -131 q-54 -56 -123.5 -87 q-69.5 -31 -153.5 -31 ZM2220 221 q24 0 44 22.5 q20 22.5 35.5 60 q15.5 37.5 26 83.5 q10.5 46 16 94 q5.5 48 5.5 90 q0 44 -12 64 q-12 20 -41 20 q-22 0 -41.5 -21 q-19.5 -21 -35 -57 q-15.5 -36 -27 -81.5 q-11.5 -45.5 -17.5 -94.5 q-6 -49 -6 -96 q0 -41 12.5 -62.5 q12.5 -21.5 40.5 -21.5 Z" /><glyph glyph-name="minute" unicode="&#x2032;" d="M80 934 l297 528 l371 0 l-383 -528 l-285 0 Z" /><glyph glyph-name="guilsinglleft" unicode="&#x2039;" d="M244 76 l-183 477 l0 10 l408 518 l264 -204 l-266 -334 l111 -330 l-334 -137 Z" /><glyph glyph-name="guilsinglright" unicode="&#x203a;" d="M250 43 l-264 205 l266 334 l-111 329 l332 138 l184 -478 l0 -10 l-407 -518 Z" /><glyph glyph-name="fraction" unicode="&#x2044;" d="M-563 0 l1089 1462 l291 0 l-1083 -1462 l-297 0 Z" /><glyph glyph-name="uni207F" unicode="&#x207f;" d="M124 588 l155 680 l201 0 l-8 -95 l6 0 q24 38 53 61.5 q29 23.5 66 34.5 q37 11 83 11 q103 0 149 -57.5 q46 -57.5 46 -135.5 q0 -34 -5 -69.5 q-5 -35.5 -12 -68.5 l-82 -361 l-252 0 l84 371 q4 16 8 40 q4 24 4 45 q0 26 -14.5 39 q-14.5 13 -34.5 13 q-25 0 -47 -19 q-22 -19 -41 -58 q-19 -39 -32 -99 l-75 -332 l-252 0 Z" /><glyph glyph-name="franc" unicode="&#x20a3;" d="M70 0 l55 262 l-125 0 l43 205 l125 0 l211 995 l874 0 l-67 -319 l-484 0 l-43 -205 l449 0 l-70 -320 l-450 0 l-33 -151 l252 0 l-43 -205 l-252 0 l-51 -262 l-391 0 Z" /><glyph glyph-name="afii08941" unicode="&#x20a4;" d="M-18 0 l63 313 q66 20 108.5 43 q42.5 23 68 56 q25.5 33 38.5 80 l-192 0 l43 204 l192 0 l27 123 l-189 0 l45 205 l187 0 l6 35 q32 170 98 262 q66 92 161 127 q95 35 212 35 q116 0 203.5 -25.5 q87.5 -25.5 169.5 -60.5 l-144 -299 q-49 26 -105.5 44.5 q-56.5 18.5 -107.5 18.5 q-35 0 -56.5 -22 q-21.5 -22 -35.5 -90 l-6 -25 l252 0 l-45 -205 l-250 0 l-25 -123 l248 0 l-43 -204 l-252 0 q-5 -29 -30 -57.5 q-25 -28.5 -64.5 -54.5 q-39.5 -26 -89.5 -50 l604 0 l-72 -330 l-1019 0 Z" /><glyph glyph-name="peseta" unicode="&#x20a7;" d="M23 0 l309 1462 l327 0 q194 0 312 -58 q118 -58 171.5 -157.5 q53.5 -99.5 53.5 -222.5 q0 -131 -46.5 -231.5 q-46.5 -100.5 -132 -169 q-85.5 -68.5 -203 -103.5 q-117.5 -35 -259.5 -35 l-63 0 l-101 -485 l-368 0 ZM559 797 l64 0 q40 0 76.5 14.5 q36.5 14.5 65.5 42.5 q29 28 45.5 67.5 q16.5 39.5 16.5 90.5 q0 53 -35.5 96 q-35.5 43 -97.5 43 l-59 0 l-76 -354 ZM1534 -20 q-148 0 -226.5 56.5 q-78.5 56.5 -78.5 201.5 q0 29 5 64 q5 35 11 67 l41 194 l-153 0 l38 182 l218 89 l143 270 l240 0 l-56 -258 l273 0 l-66 -283 l-268 0 l-31 -133 q-6 -29 -10 -57 q-4 -28 -4 -45 q0 -34 17.5 -46 q17.5 -12 45.5 -12 q31 0 82 11 q51 11 100 30 l0 -266 q-62 -31 -141 -48 q-79 -17 -180 -17 Z" /><glyph glyph-name="Euro" unicode="&#x20ac;" d="M651 -20 q-160 0 -259.5 52.5 q-99.5 52.5 -147 157.5 q-47.5 105 -51.5 261 l-140 0 l43 204 l109 0 q1 9 5 31 q4 22 8.5 48 q4.5 26 8.5 44 l-106 0 l47 205 l117 0 q62 178 157.5 289 q95.5 111 214 163 q118.5 52 248.5 52 q114 0 200.5 -24.5 q86.5 -24.5 174.5 -80.5 l-154 -282 q-53 35 -110 56.5 q-57 21.5 -111 21.5 q-45 0 -84.5 -20 q-39.5 -20 -73 -62.5 q-33.5 -42.5 -61.5 -112.5 l297 0 l-45 -205 l-309 0 q-5 -17 -10 -39 q-5 -22 -9 -43.5 q-4 -21.5 -6 -40.5 l246 0 l-43 -204 l-227 0 q0 -57 12.5 -88.5 q12.5 -31.5 42 -43.5 q29.5 -12 78.5 -12 q75 0 145.5 18.5 q70.5 18.5 147.5 49.5 l0 -330 q-61 -32 -153 -48.5 q-92 -16.5 -202 -16.5 Z" /><glyph glyph-name="uni2105" unicode="&#x2105;" d="M76 0 l1083 1462 l291 0 l-1079 -1462 l-295 0 ZM1102 -20 q-123 0 -203 75 q-80 75 -80 213 q0 103 26.5 189 q26.5 86 77.5 148.5 q51 62.5 125.5 97 q74.5 34.5 170.5 34.5 q137 0 209.5 -80.5 q72.5 -80.5 72.5 -214.5 q0 -93 -25 -176 q-25 -83 -75 -147.5 q-50 -64.5 -124.5 -101.5 q-74.5 -37 -174.5 -37 ZM1124 182 q26 0 48 25 q22 25 38 65 q16 40 24.5 87 q8.5 47 8.5 92 q0 50 -14 67 q-14 17 -39 17 q-22 0 -42.5 -26.5 q-20.5 -26.5 -36.5 -68.5 q-16 -42 -25 -89 q-9 -47 -9 -87 q0 -41 14 -61.5 q14 -20.5 33 -20.5 ZM373 725 q-121 0 -203 72.5 q-82 72.5 -82 212.5 q0 102 25.5 188.5 q25.5 86.5 73.5 150 q48 63.5 115.5 99 q67.5 35.5 150.5 35.5 q72 0 120.5 -9 q48.5 -9 106.5 -34 l-68 -197 q-32 14 -66 25.5 q-34 11.5 -77 11.5 q-36 0 -60 -29 q-24 -29 -37.5 -71.5 q-13.5 -42.5 -19.5 -83.5 q-6 -41 -6 -64 q0 -52 22 -78 q22 -26 60 -26 q48 0 83 13.5 q35 13.5 81 39.5 l0 -201 q-49 -24 -101.5 -39.5 q-52.5 -15.5 -117.5 -15.5 Z" /><glyph glyph-name="uni2113" unicode="&#x2113;" d="M639 -16 q-128 0 -219.5 53 q-91.5 53 -140 150.5 q-48.5 97.5 -48.5 232.5 l0 59 q-44 -12 -87.5 -23 q-43.5 -11 -88.5 -24 l0 254 q45 12 88.5 23.5 q43.5 11.5 87.5 23.5 l0 316 q0 116 42 213.5 q42 97.5 140 157 q98 59.5 267 59.5 q129 0 222 -43.5 q93 -43.5 142.5 -129.5 q49.5 -86 49.5 -214 q0 -106 -46.5 -203.5 q-46.5 -97.5 -152.5 -176.5 q-106 -79 -285 -132 l0 -183 q0 -87 23 -122 q23 -35 74 -35 q52 0 72 51.5 q20 51.5 20 142.5 l299 0 q0 -141 -40.5 -241.5 q-40.5 -100.5 -140.5 -154.5 q-100 -54 -278 -54 ZM610 844 q68 32 103 95 q35 63 35 163 q0 46 -7 76.5 q-7 30.5 -21.5 45.5 q-14.5 15 -39.5 15 q-38 0 -54 -27.5 q-16 -27.5 -16 -87.5 l0 -280 Z" /><glyph glyph-name="uni2116" unicode="&#x2116;" d="M33 0 l309 1462 l373 0 l188 -925 q3 34 13.5 104.5 q10.5 70.5 25 153.5 q14.5 83 29.5 151 l108 516 l344 0 l-309 -1462 l-375 0 l-190 907 q-1 -4 -7 -47 q-6 -43 -15 -106 q-9 -63 -20 -129 q-11 -66 -22 -117 l-108 -508 l-344 0 ZM1305 0 l45 217 l669 0 l-45 -217 l-669 0 ZM1698 276 q-145 0 -224 75.5 q-79 75.5 -79 201.5 q0 97 27 182.5 q27 85.5 81 151.5 q54 66 135.5 103.5 q81.5 37.5 190.5 37.5 q138 0 219.5 -77 q81.5 -77 81.5 -220 q0 -90 -26 -171.5 q-26 -81.5 -79 -145.5 q-53 -64 -134.5 -101 q-81.5 -37 -192.5 -37 ZM1722 481 q33 0 58.5 21 q25.5 21 42.5 56.5 q17 35.5 26 80 q9 44.5 9 92.5 q0 45 -12 68.5 q-12 23.5 -44 23.5 q-34 0 -59 -22 q-25 -22 -42 -59 q-17 -37 -25.5 -83 q-8.5 -46 -8.5 -94 q0 -41 13 -62.5 q13 -21.5 42 -21.5 Z" /><glyph glyph-name="trademark" unicode="&#x2122;" d="M645 741 l0 721 l287 0 l137 -479 l150 479 l276 0 l0 -721 l-195 0 l0 400 q0 17 2 51.5 q2 34.5 5 58.5 l-9 0 l-151 -510 l-164 0 l-143 510 l-9 0 q4 -32 5.5 -61 q1.5 -29 1.5 -49 l0 -400 l-193 0 ZM207 741 l0 545 l-170 0 l0 176 l536 0 l0 -176 l-170 0 l0 -545 l-196 0 Z" /><glyph glyph-name="uni03A9" unicode="&#x3a9;" d="M-84 0 l68 324 l387 0 q-57 36 -112 97.5 q-55 61.5 -90.5 150.5 q-35.5 89 -35.5 204 q0 134 34 245 q34 111 99 197.5 q65 86.5 157.5 146 q92.5 59.5 209 90 q116.5 30.5 254.5 30.5 q199 0 340.5 -67 q141.5 -67 217 -189.5 q75.5 -122.5 75.5 -288.5 q0 -121 -28.5 -220 q-28.5 -99 -83 -176.5 q-54.5 -77.5 -132.5 -132.5 q-78 -55 -178 -87 l387 0 l-70 -324 l-657 0 l82 371 q65 35 117 86 q52 51 89.5 115.5 q37.5 64.5 57.5 141 q20 76.5 20 163.5 q0 95 -29.5 158 q-29.5 63 -86 94.5 q-56.5 31.5 -136.5 31.5 q-85 0 -145 -29.5 q-60 -29.5 -99 -78.5 q-39 -49 -60.5 -109.5 q-21.5 -60.5 -30.5 -124.5 q-9 -64 -9 -121 q0 -115 33 -196 q33 -81 94 -131 l-82 -371 l-657 0 Z" /><glyph glyph-name="estimated" unicode="&#x212e;" d="M633 -35 q-173 0 -291.5 80 q-118.5 80 -179 209 q-60.5 129 -60.5 276 q0 148 46.5 255 q46.5 107 124.5 176 q78 69 172 102 q94 33 188 33 q151 0 270.5 -69 q119.5 -69 189.5 -195.5 q70 -126.5 70 -301.5 l-827 0 l0 -356 q44 -47 124.5 -85 q80.5 -38 172.5 -38 q149 0 237.5 61.5 q88.5 61.5 157.5 172.5 l72 -41 q-48 -76 -108 -139.5 q-60 -63.5 -146 -101.5 q-86 -38 -213 -38 ZM336 616 l596 0 l0 277 q-38 40 -116.5 79.5 q-78.5 39.5 -184.5 39.5 q-101 0 -174.5 -35.5 q-73.5 -35.5 -120.5 -81.5 l0 -279 Z" /><glyph glyph-name="partialdiff" unicode="&#x2202;" d="M485 -20 q-162 0 -259.5 56.5 q-97.5 56.5 -141 154 q-43.5 97.5 -43.5 219.5 q0 94 22 185 q22 91 66 170.5 q44 79.5 109 140.5 q65 61 151.5 95.5 q86.5 34.5 192.5 34.5 q53 0 104.5 -9 q51.5 -9 95.5 -28 q0 7 0 13 q0 6 0 12 q0 85 -46 130.5 q-46 45.5 -140 45.5 q-89 0 -166.5 -23 q-77.5 -23 -130.5 -49 l0 285 q45 25 109 40 q64 15 132 22.5 q68 7.5 124 7.5 q141 0 236.5 -47.5 q95.5 -47.5 152 -128.5 q56.5 -81 81.5 -183.5 q25 -102.5 25 -212.5 q0 -127 -25 -258.5 q-25 -131.5 -76.5 -252 q-51.5 -120.5 -131.5 -215.5 q-80 -95 -190 -150 q-110 -55 -251 -55 ZM514 270 q38 0 72.5 29 q34.5 29 65 85 q30.5 56 55.5 138 q25 82 43 187 q-14 21 -50 33 q-36 12 -65 12 q-37 0 -73 -29 q-36 -29 -65 -80 q-29 -51 -46 -117 q-17 -66 -17 -139 q0 -48 11 -73.5 q11 -25.5 29.5 -35.5 q18.5 -10 39.5 -10 Z" /><glyph glyph-name="uni0394" unicode="&#x394;" d="M-72 0 l45 225 l652 1237 l483 0 l104 -1237 l-49 -225 l-1235 0 ZM408 311 l430 0 l-21 674 q0 84 -0.5 117.5 q-0.5 33.5 -1 43 q-0.5 9.5 0.5 17.5 q1 8 3 39 q-5 -18 -17 -52 q-12 -34 -24.5 -66.5 q-12.5 -32.5 -19.5 -47.5 l-350 -725 Z" /><glyph glyph-name="product" unicode="&#x220f;" d="M158 -432 l0 1894 l1204 0 l0 -1894 l-397 0 l0 1571 l-410 0 l0 -1571 l-397 0 Z" /><glyph glyph-name="summation" unicode="&#x2211;" d="M45 -432 l0 209 l535 778 l-519 707 l0 200 l1174 0 l0 -323 l-641 0 l428 -580 l-457 -668 l725 0 l0 -323 l-1245 0 Z" /><glyph glyph-name="minus" unicode="&#x2212;" d="M102 586 l0 272 l975 0 l0 -272 l-975 0 Z" /><glyph glyph-name="radical" unicode="&#x221a;" d="M522 -14 l-262 708 l-174 0 l0 262 l348 0 l187 -514 l458 1315 l271 0 l-613 -1771 l-215 0 Z" /><glyph glyph-name="infinity" unicode="&#x221e;" d="M1010 365 q-85 0 -157 37 q-72 37 -134 110 q-57 -61 -129.5 -101 q-72.5 -40 -145.5 -40 q-98 0 -173.5 43 q-75.5 43 -118.5 122.5 q-43 79.5 -43 186.5 q0 98 41.5 177 q41.5 79 117 126 q75.5 47 176.5 47 q79 0 151 -32 q72 -32 132 -113 q59 66 127 103.5 q68 37.5 156 37.5 q98 0 172.5 -43.5 q74.5 -43.5 116.5 -123 q42 -79.5 42 -187.5 q0 -93 -42 -173 q-42 -80 -116.5 -128.5 q-74.5 -48.5 -172.5 -48.5 ZM457 623 q31 0 62.5 24.5 q31.5 24.5 62.5 75.5 q-31 49 -62 74.5 q-31 25.5 -65 25.5 q-45 0 -70 -30.5 q-25 -30.5 -25 -71.5 q0 -37 23 -67.5 q23 -30.5 74 -30.5 ZM997 614 q42 0 67.5 31 q25.5 31 25.5 74 q0 41 -26.5 69.5 q-26.5 28.5 -68.5 28.5 q-29 0 -63 -24.5 q-34 -24.5 -68 -73.5 q31 -45 66.5 -75 q35.5 -30 66.5 -30 Z" /><glyph glyph-name="integral" unicode="&#x222b;" d="M205 -492 q-67 0 -124 14 q-57 14 -110 42 l0 317 q45 -19 89.5 -34 q44.5 -15 72.5 -15 q48 0 67 25.5 q19 25.5 19 74.5 l0 1235 q0 205 115.5 297 q115.5 92 302.5 92 q69 0 127 -13.5 q58 -13.5 113 -41.5 l0 -317 q-46 18 -93.5 33.5 q-47.5 15.5 -83.5 15.5 q-27 0 -46 -10.5 q-19 -10.5 -28.5 -33 q-9.5 -22.5 -9.5 -59.5 l0 -1232 q0 -205 -112.5 -297.5 q-112.5 -92.5 -298.5 -92.5 Z" /><glyph glyph-name="approxequal" unicode="&#x2248;" d="M78 754 l0 280 q52 54 116.5 81.5 q64.5 27.5 147.5 27.5 q40 0 79 -4.5 q39 -4.5 87 -18 q48 -13.5 115 -41.5 q75 -31 133 -43 q58 -12 104 -12 q57 0 118.5 35 q61.5 35 113.5 86 l0 -281 q-52 -53 -117.5 -80.5 q-65.5 -27.5 -147.5 -27.5 q-39 0 -78 4.5 q-39 4.5 -87 18.5 q-48 14 -115 40 q-76 32 -132 43.5 q-56 11.5 -104 11.5 q-60 0 -120.5 -35 q-60.5 -35 -112.5 -85 ZM78 293 l0 280 q52 54 116.5 81.5 q64.5 27.5 147.5 27.5 q40 0 79 -4.5 q39 -4.5 87 -18 q48 -13.5 115 -41.5 q75 -30 133 -42.5 q58 -12.5 104 -12.5 q57 0 118.5 35 q61.5 35 113.5 86 l0 -281 q-52 -53 -117.5 -80.5 q-65.5 -27.5 -147.5 -27.5 q-39 0 -78 4.5 q-39 4.5 -87 18.5 q-48 14 -115 40 q-76 32 -132 44 q-56 12 -104 12 q-60 0 -120.5 -35.5 q-60.5 -35.5 -112.5 -85.5 Z" /><glyph glyph-name="notequal" unicode="&#x2260;" d="M451 129 l-248 102 l59 127 l-190 0 l0 271 l315 0 l86 186 l-401 0 l0 268 l526 0 l109 236 l247 -105 l-63 -131 l196 0 l0 -268 l-319 0 l-86 -186 l405 0 l0 -271 l-530 0 l-106 -229 Z" /><glyph glyph-name="lessequal" unicode="&#x2264;" d="M1061 285 l-975 448 l0 172 l975 508 l0 -299 l-576 -283 l576 -249 l0 -297 ZM82 0 l0 270 l975 0 l0 -270 l-975 0 Z" /><glyph glyph-name="greaterequal" unicode="&#x2265;" d="M113 285 l0 297 l575 249 l-575 285 l0 297 l974 -508 l0 -172 l-974 -448 ZM113 0 l0 270 l974 0 l0 -270 l-974 0 Z" /><glyph glyph-name="lozenge" unicode="&#x25ca;" d="M559 0 l-450 735 l450 735 l141 0 l451 -735 l-451 -735 l-141 0 ZM629 401 l198 332 l-198 336 l-197 -336 l197 -332 Z" /><glyph glyph-name="uni2074" unicode="&#x2074;" d="M479 852 l27 123 l-397 0 l30 178 l490 578 l325 0 l-118 -557 l112 0 l-41 -199 l-112 0 l-27 -123 l-289 0 ZM385 1174 l162 0 l41 157 q11 41 25.5 91 q14.5 50 21.5 69 q-17 -26 -51 -69.5 q-34 -43.5 -56 -69.5 l-143 -178 Z" /><glyph glyph-name="uni2075" unicode="&#x2075;" d="M479 834 q-78 0 -154.5 11 q-76.5 11 -131.5 42 l0 215 q53 -31 120.5 -45.5 q67.5 -14.5 124.5 -14.5 q68 0 103 18.5 q35 18.5 48 44.5 q13 26 13 46 q0 47 -37 68.5 q-37 21.5 -102 21.5 q-19 0 -54.5 -6.5 q-35.5 -6.5 -58.5 -15.5 l-92 84 l119 423 l596 0 l-51 -229 l-387 0 l-23 -82 q15 3 32 4.5 q17 1.5 48 1.5 q155 0 228 -67.5 q73 -67.5 73 -177.5 q0 -84 -29 -148 q-29 -64 -83.5 -107 q-54.5 -43 -130.5 -65 q-76 -22 -171 -22 Z" /><glyph glyph-name="uni2077" unicode="&#x2077;" d="M211 850 l465 649 l-420 0 l49 230 l735 0 l-41 -187 l-462 -692 l-326 0 Z" /><glyph glyph-name="uni2078" unicode="&#x2078;" d="M516 834 q-178 0 -266 75 q-88 75 -88 176 q0 95 60.5 154 q60.5 59 158.5 90 q-40 25 -68 70 q-28 45 -28 100 q0 89 52 145 q52 56 131.5 82.5 q79.5 26.5 162.5 26.5 q157 0 237 -61 q80 -61 80 -170 q0 -77 -48 -125 q-48 -48 -114 -74 q45 -31 89.5 -74 q44.5 -43 44.5 -125 q0 -97 -53.5 -161.5 q-53.5 -64.5 -145 -96.5 q-91.5 -32 -205.5 -32 ZM535 1022 q47 0 70.5 23.5 q23.5 23.5 23.5 52.5 q0 37 -27 64 q-27 27 -59 40 q-38 -4 -68.5 -33.5 q-30.5 -29.5 -30.5 -72.5 q0 -31 24 -52.5 q24 -21.5 67 -21.5 ZM618 1427 q36 19 53 40.5 q17 21.5 17 45.5 q0 14 -12.5 35 q-12.5 21 -52.5 21 q-31 0 -48.5 -16.5 q-17.5 -16.5 -17.5 -41.5 q0 -25 21 -48 q21 -23 40 -36 Z" /><glyph glyph-name="uni2000" unicode="&#x2000;" d="" /><glyph glyph-name="uni2001" unicode="&#x2001;" d="" /><glyph glyph-name="uni2002" unicode="&#x2002;" d="" /><glyph glyph-name="uni2003" unicode="&#x2003;" d="" /><glyph glyph-name="uni2004" unicode="&#x2004;" d="" /><glyph glyph-name="uni2005" unicode="&#x2005;" d="" /><glyph glyph-name="uni2006" unicode="&#x2006;" d="" /><glyph glyph-name="uni2007" unicode="&#x2007;" d="" /><glyph glyph-name="uni2008" unicode="&#x2008;" d="" /><glyph glyph-name="uni2009" unicode="&#x2009;" d="" /><glyph glyph-name="uni200A" unicode="&#x200a;" d="" /><glyph glyph-name="uni200B" unicode="&#x200b;" d="" /><glyph glyph-name="uniFEFF" unicode="&#xfeff;" d="" /><glyph glyph-name="uniFFFC" unicode="&#xfffc;" d="M608 328 q-135 0 -198.5 83 q-63.5 83 -63.5 218 q0 137 63.5 219 q63.5 82 198.5 82 q135 0 198.5 -82 q63.5 -82 63.5 -219 q0 -135 -63.5 -218 q-63.5 -83 -198.5 -83 ZM90 -383 l0 303 l111 0 l0 -194 l192 0 l0 -109 l-303 0 ZM90 39 l0 270 l111 0 l0 -270 l-111 0 ZM514 -383 l0 109 l270 0 l0 -109 l-270 0 ZM90 430 l0 272 l111 0 l0 -272 l-111 0 ZM905 -383 l0 109 l273 0 l0 -109 l-273 0 ZM1296 -383 l0 109 l273 0 l0 -109 l-273 0 ZM90 823 l0 271 l111 0 l0 -271 l-111 0 ZM608 432 q71 0 103 52.5 q32 52.5 32 144.5 q0 92 -32 144 q-32 52 -103 52 q-69 0 -102 -52 q-33 -52 -33 -144 q0 -92 33 -144.5 q33 -52.5 102 -52.5 ZM90 1214 l0 304 l303 0 l0 -111 l-192 0 l0 -193 l-111 0 ZM1688 -383 l0 109 l194 0 l0 194 l109 0 l0 -303 l-303 0 ZM1077 438 l74 0 q50 0 68 21.5 q18 21.5 18 58.5 q0 32 -18.5 53 q-18.5 21 -71.5 21 l-70 0 l0 -154 ZM954 336 l0 586 l172 0 q110 0 166 -33.5 q56 -33.5 56 -116.5 q0 -49 -23.5 -82 q-23.5 -33 -67.5 -41 l0 -8 q45 -9 76 -37.5 q31 -28.5 31 -97.5 q0 -80 -54.5 -125 q-54.5 -45 -148.5 -45 l-207 0 ZM1077 690 l66 0 q46 0 64 17 q18 17 18 49 q0 63 -88 63 l-60 0 l0 -129 ZM1882 39 l0 270 l109 0 l0 -270 l-109 0 ZM514 1407 l0 111 l270 0 l0 -111 l-270 0 ZM1497 330 q-48 0 -80 10 l0 102 q16 -3 32 -5.5 q16 -2.5 36 -2.5 q37 0 61.5 18 q24.5 18 24.5 68 l0 402 l125 0 l0 -398 q0 -101 -55.5 -147.5 q-55.5 -46.5 -143.5 -46.5 ZM1882 430 l0 272 l109 0 l0 -272 l-109 0 ZM905 1407 l0 111 l273 0 l0 -111 l-273 0 ZM1882 823 l0 271 l109 0 l0 -271 l-109 0 ZM1296 1407 l0 111 l273 0 l0 -111 l-273 0 ZM1882 1214 l0 193 l-194 0 l0 111 l303 0 l0 -304 l-109 0 Z" /><glyph glyph-name="uniFFFD" unicode="&#xfffd;" d="M1022 -319 l-936 937 l936 938 l940 -938 l-940 -937 ZM991 -43 q56 0 97.5 31.5 q41.5 31.5 41.5 103.5 q0 76 -41.5 106.5 q-41.5 30.5 -97.5 30.5 q-60 0 -100.5 -30.5 q-40.5 -30.5 -40.5 -106.5 q0 -72 40.5 -103.5 q40.5 -31.5 100.5 -31.5 ZM877 367 l210 0 l0 47 q0 50 21 81 q21 31 88 83 q88 71 132 133 q44 62 44 163 q0 137 -94.5 213 q-94.5 76 -257.5 76 q-86 0 -173.5 -26 q-87.5 -26 -162.5 -72 l82 -178 q71 40 133 60 q62 20 117 20 q63 0 94 -29 q31 -29 31 -76 q0 -58 -26.5 -93.5 q-26.5 -35.5 -94.5 -88.5 q-76 -61 -109.5 -117.5 q-33.5 -56.5 -33.5 -136.5 l0 -59 Z" /><glyph glyph-name="uni03D1" unicode="&#x3d1;" d="M635 -20 q-151 0 -243.5 46 q-92.5 46 -134.5 116.5 q-42 70.5 -42 144.5 q0 32 5 61 q5 29 9 53 q5 20 8 38.5 q3 18.5 3 33.5 q0 23 -6.5 35 q-6.5 12 -26.5 12 q-20 0 -40 -12 q-20 -12 -36 -23 l0 258 q38 23 101.5 48.5 q63.5 25.5 166.5 25.5 q102 0 153.5 -54 q51.5 -54 51.5 -132 q0 -31 -6 -70 q-6 -39 -12 -78 q-6 -34 -11.5 -64.5 q-5.5 -30.5 -5.5 -51.5 q0 -40 27 -68.5 q27 -28.5 84 -28.5 q44 0 82.5 19.5 q38.5 19.5 71 56.5 q32.5 37 58 89.5 q25.5 52.5 42.5 118.5 q17 66 24 144 q-175 16 -291.5 82.5 q-116.5 66.5 -174.5 163.5 q-58 97 -58 201 q0 141 64.5 237 q64.5 96 177.5 144.5 q113 48.5 258 48.5 q173 0 274.5 -72 q101.5 -72 145 -191 q43.5 -119 43.5 -261 q0 -14 -1 -30 q-1 -16 -1 -26 l151 0 l-63 -290 l-133 0 q-25 -122 -62.5 -231 q-37.5 -109 -93.5 -199.5 q-56 -90.5 -134.5 -156.5 q-78.5 -66 -183 -102 q-104.5 -36 -241.5 -36 ZM1004 995 q3 20 4.5 52.5 q1.5 32.5 1.5 54.5 q0 92 -26 137 q-26 45 -71 45 q-31 0 -53 -14 q-22 -14 -33.5 -42 q-11.5 -28 -11.5 -71 q0 -39 20 -74 q20 -35 61.5 -58.5 q41.5 -23.5 107.5 -29.5 Z" /><glyph glyph-name="uni03D2" unicode="&#x3d2;" d="M281 0 l120 567 l-237 895 l403 0 l88 -532 q27 51 56.5 102.5 q29.5 51.5 61.5 102.5 q32 51 66.5 99 q34.5 48 71.5 91 q65 75 134 112.5 q69 37.5 161 37.5 q65 0 108.5 -8.5 q43.5 -8.5 94.5 -26.5 l-70 -297 q-6 5 -28 12.5 q-22 7.5 -51 7.5 q-34 0 -63.5 -18 q-29.5 -18 -49.5 -41 q-35 -43 -75.5 -98 q-40.5 -55 -85.5 -122 q-45 -67 -93.5 -146 q-48.5 -79 -99.5 -171 l-121 -567 l-391 0 Z" /><glyph glyph-name="uni03D6" unicode="&#x3d6;" d="M545 -20 q-177 0 -273 108 q-96 108 -96 315 q0 72 12 143 q12 71 36 144 q24 73 61 152 l-207 0 l39 209 l196 82 l1770 0 l-58 -291 l-217 0 q2 -17 3 -33 q1 -16 1 -33 q0 -146 -24.5 -269.5 q-24.5 -123.5 -72 -221 q-47.5 -97.5 -117 -165.5 q-69.5 -68 -158.5 -104 q-89 -36 -197 -36 q-136 0 -220 46 q-84 46 -101 152 q-52 -84 -135.5 -141 q-83.5 -57 -241.5 -57 ZM649 281 q36 0 60.5 24 q24.5 24 42.5 76 q18 52 36 135 l23 109 l377 0 l-25 -109 q-6 -29 -11 -57 q-5 -28 -8 -53 q-3 -25 -3 -46 q0 -35 12.5 -57 q12.5 -22 58.5 -22 q50 1 86.5 27 q36.5 26 61 72 q24.5 46 39.5 106.5 q15 60.5 21.5 129.5 q6.5 69 6.5 142 q0 21 -1 42.5 q-1 21.5 -3 41.5 l-751 0 q-35 -72 -60 -144 q-25 -72 -38 -142 q-13 -70 -13 -136 q0 -60 15.5 -99.5 q15.5 -39.5 72.5 -39.5 Z" /><glyph glyph-name="uni02F3" unicode="&#x2f3;" d="M143 -633 q-119 0 -192.5 68 q-73.5 68 -73.5 186 q0 117 73.5 185.5 q73.5 68.5 192.5 68.5 q113 0 192 -68 q79 -68 79 -184 q0 -120 -78.5 -188 q-78.5 -68 -192.5 -68 ZM143 -463 q35 0 59.5 23 q24.5 23 24.5 61 q0 38 -24.5 61 q-24.5 23 -59.5 23 q-37 0 -61.5 -23 q-24.5 -23 -24.5 -61 q0 -38 21.5 -61 q21.5 -23 64.5 -23 Z" /><glyph glyph-name="Ohorn" unicode="&#x1a0;" d="M666 -20 q-187 0 -311.5 70 q-124.5 70 -187.5 196.5 q-63 126.5 -63 296.5 q0 114 21 227 q21 113 64 218.5 q43 105.5 108 195.5 q65 90 153 157.5 q88 67.5 199.5 105.5 q111.5 38 247.5 38 q154 0 266.5 -52.5 q112.5 -52.5 179.5 -146.5 q25 32 62.5 102.5 q37.5 70.5 52.5 167.5 l379 0 l12 -26 q-63 -193 -171.5 -303.5 q-108.5 -110.5 -243.5 -163.5 q6 -34 9 -69 q3 -35 3 -72 q0 -114 -20.5 -227.5 q-20.5 -113.5 -62 -219 q-41.5 -105.5 -105.5 -195.5 q-64 -90 -150.5 -157.5 q-86.5 -67.5 -196.5 -105 q-110 -37.5 -245 -37.5 ZM700 303 q49 0 94 22 q45 22 84.5 62.5 q39.5 40.5 71 97 q31.5 56.5 54.5 125 q23 68.5 35 146.5 q12 78 12 162 q0 113 -48 178 q-48 65 -139 65 q-55 0 -103 -25 q-48 -25 -88.5 -69 q-40.5 -44 -72.5 -103 q-32 -59 -54.5 -128 q-22.5 -69 -34 -143 q-11.5 -74 -11.5 -148 q0 -79 22.5 -133 q22.5 -54 67 -81.5 q44.5 -27.5 110.5 -27.5 Z" /><glyph glyph-name="ohorn" unicode="&#x1a1;" d="M520 -20 q-139 0 -236.5 51 q-97.5 51 -148.5 148.5 q-51 97.5 -51 236.5 q0 116 26 224.5 q26 108.5 78 201.5 q52 93 129 163 q77 70 178.5 109 q101.5 39 227.5 39 q117 0 205 -37 q88 -37 143 -106 q52 21 84 68.5 q32 47.5 51 107 q19 59.5 29 114.5 l364 0 l13 -24 q-35 -124 -89.5 -218 q-54.5 -94 -143 -160 q-88.5 -66 -224.5 -107 q2 -19 3 -37.5 q1 -18.5 1 -36.5 q0 -116 -26 -224.5 q-26 -108.5 -78 -201.5 q-52 -93 -129 -163 q-77 -70 -178.5 -109 q-101.5 -39 -227.5 -39 ZM563 270 q34 0 64.5 26 q30.5 26 55.5 71.5 q25 45.5 43 104 q18 58.5 28 124.5 q10 66 10 133 q0 44 -10.5 73.5 q-10.5 29.5 -29.5 44.5 q-19 15 -46 15 q-34 0 -64.5 -26 q-30.5 -26 -55 -71 q-24.5 -45 -42.5 -103.5 q-18 -58.5 -27.5 -125 q-9.5 -66.5 -9.5 -133.5 q0 -66 22 -99.5 q22 -33.5 62 -33.5 Z" /><glyph glyph-name="Uhorn" unicode="&#x1af;" d="M575 -20 q-142 0 -242.5 57.5 q-100.5 57.5 -154 155 q-53.5 97.5 -53.5 217.5 q0 31 3 64 q3 33 9 65 l199 923 l391 0 l-195 -913 q-6 -29 -10 -59 q-4 -30 -4 -56 q0 -60 29 -93.5 q29 -33.5 92 -33.5 q59 0 102.5 26 q43.5 26 75 83.5 q31.5 57.5 51.5 152.5 l191 893 l391 0 l-37 -176 q56 21 89 58 q33 37 50 90.5 q17 53.5 23 121.5 l379 0 l12 -26 q-31 -88 -77 -171.5 q-46 -83.5 -115.5 -151 q-69.5 -67.5 -170 -109 q-100.5 -41.5 -241.5 -45.5 l-111 -523 q-37 -178 -120 -300.5 q-83 -122.5 -219.5 -186 q-136.5 -63.5 -336.5 -63.5 Z" /><glyph glyph-name="uhorn" unicode="&#x1b0;" d="M395 -20 q-105 0 -171 44 q-66 44 -97 117 q-31 73 -31 160 q0 57 7 116.5 q7 59.5 18 112.5 l127 603 l387 0 l-129 -617 q-6 -26 -12.5 -66 q-6.5 -40 -6.5 -75 q0 -43 22.5 -64.5 q22.5 -21.5 53.5 -21.5 q34 0 68.5 31 q34.5 31 65 96 q30.5 65 51.5 166 l116 551 l387 0 l-22 -101 q57 18 87 52 q30 34 45.5 87.5 q15.5 53.5 27.5 126.5 l380 0 l13 -26 q-31 -88 -76.5 -171.5 q-45.5 -83.5 -115 -151 q-69.5 -67.5 -170 -108.5 q-100.5 -41 -240.5 -46 l-168 -795 l-310 0 l13 158 l-8 0 q-37 -63 -82 -102.5 q-45 -39.5 -101.5 -57.5 q-56.5 -18 -128.5 -18 Z" /><glyph glyph-name="uni0460" unicode="&#x460;" d="M289 0 q-50 136 -83.5 308 q-33.5 172 -46.5 365 q-13 193 -0.5 393.5 q12.5 200.5 54.5 393.5 l371 0 q-30 -169 -46.5 -318 q-16.5 -149 -21.5 -278.5 q-5 -129.5 1.5 -239 q6.5 -109.5 21.5 -198.5 l8 0 q19 49 41 100 q22 51 46 101 q24 50 46 96 l186 385 q4 63 10 118.5 q6 55.5 16.5 112.5 q10.5 57 25.5 123 l364 0 q-28 -147 -46.5 -287.5 q-18.5 -140.5 -25 -273.5 q-6.5 -133 -0.5 -255.5 q6 -122.5 27 -233.5 l10 0 q86 141 155.5 290.5 q69.5 149.5 127.5 333 q58 183.5 110 424.5 l379 0 q-59 -288 -152.5 -543.5 q-93.5 -255.5 -221 -483 q-127.5 -227.5 -289.5 -433.5 l-336 0 q-28 88 -49 191.5 q-21 103.5 -35 208 q-14 104.5 -23 196.5 l-251 -596 l-373 0 Z" /><glyph glyph-name="uni0461" unicode="&#x461;" d="M236 0 q-39 105 -70.5 239 q-31.5 134 -49 285 q-17.5 151 -14.5 306.5 q3 155.5 33 302.5 l357 0 q-35 -158 -44.5 -299.5 q-9.5 -141.5 0 -258.5 q9.5 -117 29.5 -202 l6 0 q26 53 57 109.5 q31 56.5 66 113.5 l129 207 q0 74 9.5 151 q9.5 77 27.5 179 l358 0 q-27 -147 -39 -284.5 q-12 -137.5 -7 -259 q5 -121.5 26 -222.5 l8 0 q66 97 121.5 216.5 q55.5 119.5 102 258 q46.5 138.5 83.5 291.5 l373 0 q-50 -197 -126 -379 q-76 -182 -186 -366 q-110 -184 -263 -388 l-334 0 q-22 65 -41.5 136.5 q-19.5 71.5 -34 144 q-14.5 72.5 -22.5 139.5 l-230 -420 l-325 0 Z" /><glyph glyph-name="uni0462" unicode="&#x462;" d="M94 0 l228 1061 l-211 0 l53 256 l209 0 l30 145 l390 0 l-31 -145 l381 0 l-53 -256 l-379 0 l-31 -141 l29 0 q169 0 279 -54.5 q110 -54.5 164 -148.5 q54 -94 54 -213 q0 -112 -37 -204.5 q-37 -92.5 -111.5 -159.5 q-74.5 -67 -186.5 -103.5 q-112 -36.5 -261 -36.5 l-516 0 ZM553 305 l78 0 q44 0 78 12.5 q34 12.5 57 35.5 q23 23 35 56 q12 33 12 74 q0 51 -32.5 91 q-32.5 40 -98.5 40 l-68 0 l-61 -309 Z" /><glyph glyph-name="uni0463" unicode="&#x463;" d="M633 -20 q-171 0 -269 45.5 q-98 45.5 -139 118.5 q-41 73 -41 155 q0 44 7.5 95.5 q7.5 51.5 19.5 105.5 l76 350 l-238 0 l60 283 l239 0 l41 186 l387 0 l-43 -186 l283 0 l-58 -283 l-286 0 l-33 -150 q37 11 80 16 q43 5 86 5 q132 0 219.5 -44.5 q87.5 -44.5 131.5 -117 q44 -72.5 44 -156.5 q0 -138 -62.5 -232 q-62.5 -94 -188 -142.5 q-125.5 -48.5 -316.5 -48.5 ZM682 242 q28 0 51 7 q23 7 40 21 q17 14 26.5 34.5 q9.5 20.5 9.5 47.5 q0 42 -25.5 74.5 q-25.5 32.5 -78.5 32.5 q-28 0 -60 -3.5 q-32 -3.5 -61 -13.5 q-10 -38 -16.5 -72.5 q-6.5 -34.5 -6.5 -54.5 q0 -40 36.5 -56.5 q36.5 -16.5 84.5 -16.5 Z" /><glyph glyph-name="uni0464" unicode="&#x464;" d="M1313 -20 q-183 0 -303 71.5 q-120 71.5 -179 199.5 q-59 128 -59 298 q0 12 0 23.5 q0 11.5 0 23.5 l-221 0 l-127 -596 l-391 0 l309 1462 l391 0 l-112 -542 l206 0 q37 115 99 217 q62 102 150.5 180.5 q88.5 78.5 206 123 q117.5 44.5 265.5 44.5 q146 0 263.5 -29.5 q117.5 -29.5 220.5 -91.5 l-150 -315 q-94 55 -171.5 82.5 q-77.5 27.5 -162.5 27.5 q-54 0 -101.5 -16 q-47.5 -16 -87.5 -46.5 q-40 -30.5 -72 -75 q-32 -44.5 -56 -101.5 l473 0 l-70 -324 l-467 0 q0 -10 0 -21 q0 -11 0 -22 q0 -129 54.5 -189.5 q54.5 -60.5 140.5 -60.5 q62 0 117.5 9.5 q55.5 9.5 120 29.5 q64.5 20 153.5 51 l0 -323 q-107 -48 -217 -69 q-110 -21 -223 -21 Z" /><glyph glyph-name="uni0465" unicode="&#x465;" d="M1090 -20 q-112 0 -208 43.5 q-96 43.5 -155 139.5 q-59 96 -59 255 q0 6 0 11 q0 5 0 11 l-164 0 l-94 -440 l-387 0 l241 1133 l387 0 l-86 -410 l152 0 q44 131 123.5 227.5 q79.5 96.5 189 149.5 q109.5 53 244.5 53 q119 0 204.5 -22 q85.5 -22 161.5 -62 l-108 -258 q-51 23 -105 41 q-54 18 -120 18 q-48 0 -88 -17.5 q-40 -17.5 -68.5 -50.5 q-28.5 -33 -44.5 -79 l289 0 l-52 -283 l-286 0 q0 -3 0 -6 q0 -3 0 -6 q0 -45 15.5 -82 q15.5 -37 43.5 -59.5 q28 -22.5 66 -22.5 q72 0 139.5 26 q67.5 26 142.5 66 l0 -286 q-79 -43 -167.5 -66.5 q-88.5 -23.5 -206.5 -23.5 Z" /><glyph glyph-name="uni0466" unicode="&#x466;" d="M-147 0 l892 1462 l515 0 l282 -1462 l-377 0 l-90 555 l-78 0 l-120 -555 l-349 0 l119 555 l-76 0 l-317 -555 l-401 0 ZM733 838 l299 0 l-33 178 q-5 29 -10 58 q-5 29 -9.5 57.5 q-4.5 28.5 -8 57.5 q-3.5 29 -6.5 58 q-18 -35 -38.5 -71.5 q-20.5 -36.5 -41 -73 q-20.5 -36.5 -41.5 -72.5 l-111 -192 Z" /><glyph glyph-name="uni0467" unicode="&#x467;" d="M-172 0 l766 1133 l467 0 l338 -1133 l-375 0 l-92 373 l-62 0 l-75 -373 l-344 0 l75 373 l-63 0 l-227 -373 l-408 0 ZM614 627 l256 0 q-13 48 -27.5 104.5 q-14.5 56.5 -27.5 107 q-13 50.5 -20 81.5 q-19 -35 -41.5 -72.5 q-22.5 -37.5 -46.5 -76 q-24 -38.5 -47.5 -75 q-23.5 -36.5 -45.5 -69.5 Z" /><glyph glyph-name="uni0468" unicode="&#x468;" d="M33 0 l309 1462 l391 0 l-123 -583 l434 0 l357 583 l514 0 l283 -1462 l-377 0 l-90 555 l-78 0 l-121 -555 l-348 0 l119 555 l-76 0 l-318 -555 l-401 0 l362 596 l-319 0 l-127 -596 l-391 0 ZM1389 838 l299 0 l-33 178 q-11 59 -20 116 q-9 57 -15 115 q-18 -35 -38.5 -71.5 q-20.5 -36.5 -41 -73 q-20.5 -36.5 -41.5 -72.5 l-110 -192 Z" /><glyph glyph-name="uni0469" unicode="&#x469;" d="M23 0 l241 1133 l387 0 l-98 -469 l358 0 l318 469 l467 0 l338 -1133 l-375 0 l-92 373 l-62 0 l-75 -373 l-345 0 l76 373 l-63 0 l-228 -373 l-407 0 l276 410 l-241 0 l-88 -410 l-387 0 ZM1249 627 l256 0 l-73 278 l-183 -278 Z" /><glyph glyph-name="uni046A" unicode="&#x46a;" d="M-135 0 l332 530 q74 118 150 188.5 q76 70.5 151.5 105.5 q75.5 35 144.5 46 l-199 424 l35 168 l1247 0 l-34 -168 l-377 -434 q59 -21 105 -62 q46 -41 82 -106.5 q36 -65.5 65 -163.5 l157 -528 l-405 0 l-102 426 q-12 51 -26.5 89 q-14.5 38 -32 58.5 q-17.5 20.5 -40.5 20.5 l-18 0 l-123 -594 l-352 0 l123 598 l-25 0 q-30 0 -62.5 -20.5 q-32.5 -20.5 -66 -60.5 q-33.5 -40 -68.5 -101 l-235 -416 l-426 0 ZM963 879 l247 301 l-372 0 l125 -301 Z" /><glyph glyph-name="uni046B" unicode="&#x46b;" d="M-168 0 l219 350 q70 111 135.5 172 q65.5 61 129.5 88.5 q64 27.5 128 36.5 l-151 340 l29 146 l1058 0 l-28 -146 l-285 -340 q52 -13 96.5 -50.5 q44.5 -37.5 79.5 -101 q35 -63.5 60 -153.5 l94 -342 l-361 0 l-53 268 q-8 42 -22 79.5 q-14 37.5 -31.5 62.5 q-17.5 25 -36.5 30 l-94 -440 l-344 0 l92 449 q-30 -7 -53.5 -24.5 q-23.5 -17.5 -51.5 -56 q-28 -38.5 -71 -110.5 l-152 -258 l-387 0 ZM752 664 l180 223 l-266 0 l86 -223 Z" /><glyph glyph-name="uni046C" unicode="&#x46c;" d="M33 0 l309 1462 l391 0 l-123 -583 l684 0 l-194 415 l35 168 l1247 0 l-35 -168 l-377 -434 q59 -21 106.5 -69.5 q47.5 -48.5 86 -122 q38.5 -73.5 67.5 -170.5 l150 -498 l-406 0 l-102 426 q-12 51 -26.5 89 q-14.5 38 -31.5 58.5 q-17 20.5 -40 20.5 l-19 0 l-123 -594 l-352 0 l123 598 l-25 0 q-30 0 -62.5 -20.5 q-32.5 -20.5 -65.5 -60.5 q-33 -40 -68 -101 l-236 -416 l-426 0 l332 510 q15 23 29.5 44.5 q14.5 21.5 29.5 41.5 l-360 0 l-127 -596 l-391 0 ZM1618 879 l248 301 l-373 0 l125 -301 Z" /><glyph glyph-name="uni046D" unicode="&#x46d;" d="M23 0 l241 1133 l387 0 l-98 -469 l534 0 l-143 323 l29 146 l1059 0 l-29 -146 l-285 -340 q53 -13 97 -50.5 q44 -37.5 79.5 -101 q35.5 -63.5 59.5 -153.5 l94 -342 l-360 0 l-54 268 q-8 42 -22 79.5 q-14 37.5 -31.5 62.5 q-17.5 25 -36.5 30 l-94 -440 l-344 0 l92 449 q-29 -7 -53 -24.5 q-24 -17.5 -52 -56 q-28 -38.5 -71 -110.5 l-152 -258 l-387 0 l205 330 q11 17 31 40 q20 23 43 40 l-264 0 l-88 -410 l-387 0 ZM1403 664 l180 223 l-266 0 l86 -223 Z" /><glyph glyph-name="uni046E" unicode="&#x46e;" d="M801 -489 q-4 17 -33 27.5 q-29 10.5 -68 10.5 q-53 0 -128.5 -4 q-75.5 -4 -145.5 -8 q-70 -4 -107 -4 q-199 0 -302 93 q-103 93 -103 247 q0 121 58.5 215 q58.5 94 184 152 q125.5 58 324.5 71 q66 5 118 17.5 q52 12.5 87.5 32.5 q35.5 20 54.5 47 q19 27 19 61 q0 85 -80 112 q-80 27 -197 27 l-135 0 l68 312 l143 0 q84 0 142.5 9.5 q58.5 9.5 94.5 27.5 q36 18 52 44 q16 26 16 60 q0 46 -40 78 q-40 32 -132 32 q-91 0 -178 -33 q-87 -33 -178 -91 l-133 258 q89 56 180 99 q91 43 211 62 q-23 51 -55 109.5 q-32 58.5 -95 155.5 l0 22 l195 0 q56 -55 90 -91 q34 -36 66 -77 q87 91 174.5 152 q87.5 61 208.5 61 q34 0 63 -3.5 q29 -3.5 53 -14.5 l0 -172 q-18 5 -36 7.5 q-18 2.5 -41 2.5 q-36 0 -73.5 -13 q-37.5 -13 -81 -46 q-43.5 -33 -97.5 -93 q101 -23 169.5 -74.5 q68.5 -51.5 103 -118.5 q34.5 -67 34.5 -140 q0 -107 -48 -184.5 q-48 -77.5 -132.5 -122 q-84.5 -44.5 -196.5 -54.5 l0 -8 q77 -17 135.5 -58 q58.5 -41 91.5 -105 q33 -64 33 -152 q0 -111 -37 -191 q-37 -80 -113.5 -133.5 q-76.5 -53.5 -194.5 -83.5 q-118 -30 -280 -41 q-65 -4 -117.5 -15.5 q-52.5 -11.5 -83 -35.5 q-30.5 -24 -30.5 -66 q0 -28 25.5 -47.5 q25.5 -19.5 85.5 -19.5 q68 0 111.5 4 q43.5 4 79 8 q35.5 4 77.5 4 q69 0 90.5 -14 q21.5 -14 32.5 -33 l0 -274 Z" /><glyph glyph-name="uni046F" unicode="&#x46f;" d="M807 -492 q-6 17 -38 30 q-32 13 -79 13 q-88 0 -177.5 -5 q-89.5 -5 -180.5 -5 q-115 0 -208.5 35.5 q-93.5 35.5 -148.5 107 q-55 71.5 -55 177.5 q0 78 20 144.5 q20 66.5 74 119.5 q54 53 155 90 q101 37 263 55 q84 10 134 22 q50 12 71.5 29.5 q21.5 17.5 21.5 43.5 q0 47 -43.5 73.5 q-43.5 26.5 -164.5 26.5 l-140 0 l54 246 l153 0 q77 0 124.5 9.5 q47.5 9.5 69 28 q21.5 18.5 21.5 46.5 q0 35 -23.5 55 q-23.5 20 -99.5 20 q-67 0 -167.5 -21.5 q-100.5 -21.5 -182.5 -60.5 l-84 279 q62 20 127 37.5 q65 17.5 135 30.5 q-18 37 -45.5 82 q-27.5 45 -68.5 108 l0 23 l194 0 q56 -55 90 -91 q34 -36 66 -77 q88 90 175 151.5 q87 61.5 208 61.5 q34 0 63 -4 q29 -4 54 -15 l0 -172 q-19 5 -37 7.5 q-18 2.5 -41 2.5 q-43 0 -88.5 -18.5 q-45.5 -18.5 -102.5 -71.5 q95 -28 154 -89 q59 -61 59 -169 q0 -67 -26.5 -119 q-26.5 -52 -82.5 -90 q-56 -38 -143 -65 l0 -8 q94 -25 140.5 -84.5 q46.5 -59.5 46.5 -139.5 q0 -112 -59.5 -192.5 q-59.5 -80.5 -190.5 -127 q-131 -46.5 -344 -58.5 q-86 -5 -128 -23.5 q-42 -18.5 -42 -62.5 q0 -48 40 -59 q40 -11 103 -11 q57 0 125 5 q68 5 125 5 q56 0 85.5 -12.5 q29.5 -12.5 39.5 -32.5 l0 -281 Z" /><glyph glyph-name="uni0472" unicode="&#x472;" d="M666 -20 q-187 0 -311.5 70 q-124.5 70 -187.5 196.5 q-63 126.5 -63 296.5 q0 114 21 227 q21 113 64 218.5 q43 105.5 108 195.5 q65 90 153 157.5 q88 67.5 199.5 105.5 q111.5 38 247.5 38 q270 0 409.5 -154 q139.5 -154 139.5 -409 q0 -114 -20.5 -227.5 q-20.5 -113.5 -62 -219 q-41.5 -105.5 -105.5 -195.5 q-64 -90 -150.5 -157.5 q-86.5 -67.5 -196.5 -105 q-110 -37.5 -245 -37.5 ZM700 283 q60 0 110 24.5 q50 24.5 90 67.5 q40 43 70.5 101.5 q30.5 58.5 51.5 125.5 l-541 0 q-1 -15 -1.5 -29 q-0.5 -14 -0.5 -28 q0 -86 24.5 -144.5 q24.5 -58.5 74 -88 q49.5 -29.5 122.5 -29.5 ZM549 905 l522 0 q0 6 0 10.5 q0 4.5 0 8.5 q0 113 -53 185.5 q-53 72.5 -154 72.5 q-51 0 -97 -19.5 q-46 -19.5 -86 -55.5 q-40 -36 -73 -87 q-33 -51 -59 -115 Z" /><glyph glyph-name="uni0473" unicode="&#x473;" d="M520 -20 q-139 0 -236.5 51 q-97.5 51 -148.5 148.5 q-51 97.5 -51 236.5 q0 116 26 224.5 q26 108.5 78 201.5 q52 93 129 163 q77 70 178.5 109 q101.5 39 227.5 39 q139 0 236.5 -51 q97.5 -51 148.5 -148.5 q51 -97.5 51 -236.5 q0 -116 -26 -224.5 q-26 -108.5 -78 -201.5 q-52 -93 -129 -163 q-77 -70 -178.5 -109 q-101.5 -39 -227.5 -39 ZM563 250 q29 0 56 14 q27 14 51 40 q24 26 44 61.5 q20 35.5 34 78.5 l-297 0 q0 -10 0 -20 q0 -10 0 -21 q0 -76 29.5 -114.5 q29.5 -38.5 82.5 -38.5 ZM492 682 l301 0 q0 12 0 23.5 q0 11.5 0 23.5 q0 77 -30.5 115.5 q-30.5 38.5 -84.5 38.5 q-39 0 -74.5 -26 q-35.5 -26 -64.5 -71 q-29 -45 -47 -104 Z" /><glyph glyph-name="uni0474" unicode="&#x474;" d="M254 0 l-104 1462 l382 0 l19 -737 q1 -53 1 -124.5 q0 -71.5 -2 -138.5 q-2 -67 -7 -108 l8 0 q15 54 34 112.5 q19 58.5 38 109.5 q19 51 32 81 l174 392 q73 164 141 256.5 q68 92.5 145.5 131 q77.5 38.5 180.5 38.5 q48 0 103.5 -11.5 q55.5 -11.5 87.5 -29.5 l0 -314 q-22 16 -51 23.5 q-29 7.5 -58 7.5 q-26 0 -55.5 -10 q-29.5 -10 -59.5 -39 q-30 -29 -59 -86 l-514 -1016 l-436 0 Z" /><glyph glyph-name="uni0475" unicode="&#x475;" d="M233 0 l-145 1133 l385 0 l25 -549 q2 -45 1.5 -95.5 q-0.5 -50.5 -3.5 -76.5 l4 0 q6 24 22 69 q16 45 35 86 l107 236 q57 127 113 204 q56 77 128.5 111.5 q72.5 34.5 177.5 34.5 q47 0 87.5 -8.5 q40.5 -8.5 78.5 -30.5 l0 -297 q-22 14 -44 19.5 q-22 5.5 -50 5.5 q-29 0 -53.5 -12 q-24.5 -12 -46 -38 q-21.5 -26 -43.5 -67 l-391 -725 l-388 0 Z" /><glyph glyph-name="uni047A" unicode="&#x47a;" d="M696 -125 q-43 0 -78 30.5 q-35 30.5 -45 82.5 q-155 21 -259.5 96.5 q-104.5 75.5 -157 200.5 q-52.5 125 -52.5 293 q0 143 41 288.5 q41 145.5 124.5 272.5 q83.5 127 212 216 q128.5 89 302.5 118 q14 56 53.5 84 q39.5 28 94.5 28 q41 0 77.5 -29 q36.5 -29 49.5 -81 q149 -22 249.5 -98 q100.5 -76 151.5 -199 q51 -123 51 -287 q0 -115 -25.5 -232 q-25.5 -117 -77 -225.5 q-51.5 -108.5 -130 -199 q-78.5 -90.5 -185.5 -153 q-107 -62.5 -243 -87.5 q-12 -60 -53.5 -89.5 q-41.5 -29.5 -100.5 -29.5 ZM874 350 q43 28 80 69 q37 41 66.5 93.5 q29.5 52.5 51 113 q21.5 60.5 33 126.5 q11.5 66 11.5 135 q0 62 -11.5 109.5 q-11.5 47.5 -33 82 q-21.5 34.5 -53.5 54.5 q-17 -51 -56.5 -76 q-39.5 -25 -93.5 -25 q-37 0 -69 22 q-32 22 -47 62 q-47 -29 -86 -73.5 q-39 -44.5 -70 -99.5 q-31 -55 -52.5 -116.5 q-21.5 -61.5 -32.5 -124.5 q-11 -63 -11 -124 q0 -69 13 -119.5 q13 -50.5 38.5 -84 q25.5 -33.5 62.5 -50.5 q16 53 52.5 78.5 q36.5 25.5 85.5 25.5 q38 0 72 -20.5 q34 -20.5 50 -57.5 Z" /><glyph glyph-name="uni047B" unicode="&#x47b;" d="M584 -125 q-54 0 -80 28.5 q-26 28.5 -35 88.5 q-187 31 -286 152 q-99 121 -99 311 q0 95 23 188 q23 93 69 176.5 q46 83.5 114 151 q68 67.5 158 113 q90 45.5 201 61.5 q17 49 47.5 72.5 q30.5 23.5 77.5 23.5 q43 0 77 -22.5 q34 -22.5 44 -75.5 q198 -32 296.5 -159 q98.5 -127 98.5 -327 q0 -89 -22.5 -177.5 q-22.5 -88.5 -67.5 -169.5 q-45 -81 -113 -147 q-68 -66 -158.5 -111 q-90.5 -45 -203.5 -62 q-17 -58 -48 -86.5 q-31 -28.5 -93 -28.5 ZM510 281 q11 71 49 99 q38 28 88 28 q35 0 69.5 -30.5 q34.5 -30.5 35.5 -84.5 q34 23 61.5 56.5 q27.5 33.5 48.5 73.5 q21 40 35 83.5 q14 43.5 21.5 87.5 q7.5 44 7.5 84 q0 62 -16 103.5 q-16 41.5 -42 64.5 q-10 -69 -49.5 -103 q-39.5 -34 -99.5 -34 q-38 0 -72 35 q-34 35 -37 87 q-31 -25 -56.5 -59 q-25.5 -34 -45 -74 q-19.5 -40 -33 -84 q-13.5 -44 -20 -88.5 q-6.5 -44.5 -6.5 -87.5 q0 -58 16 -97 q16 -39 45 -60 Z" /><glyph glyph-name="uni047C" unicode="&#x47c;" d="M883 1935 q9 104 52 187 q43 83 113 131.5 q70 48.5 160 48.5 q64 0 125 -18.5 q61 -18.5 121.5 -42 q60.5 -23.5 123 -42 q62.5 -18.5 128.5 -18.5 l35 0 l-53 -237 l-52 0 q-71 0 -131.5 15.5 q-60.5 15.5 -112 35.5 q-51.5 20 -94 35.5 q-42.5 15.5 -77.5 15.5 q-49 0 -76 -26 q-27 -26 -41 -85 l-221 0 ZM1090 1536 l24 104 q43 5 74.5 14 q31.5 9 49 25.5 q17.5 16.5 17.5 42.5 q0 20 -16 30.5 q-16 10.5 -35 16.5 q-35 11 -52 29.5 q-17 18.5 -17 56.5 q0 42 46 75.5 q46 33.5 134 33.5 q72 0 120 -40.5 q48 -40.5 48 -113.5 q0 -93 -57.5 -153.5 q-57.5 -60.5 -147.5 -90.5 q-90 -30 -188 -30 ZM618 -16 q-147 0 -262 64.5 q-115 64.5 -181 190.5 q-66 126 -66 310 q0 148 25 274.5 q25 126.5 72 231 q47 104.5 113 185 q66 80.5 148.5 135.5 q82.5 55 178 83.5 q95.5 28.5 200.5 28.5 q97 0 175 -25 q78 -25 120 -63 l-154 -285 q-22 12 -56.5 29.5 q-34.5 17.5 -80.5 17.5 q-53 0 -99.5 -23 q-46.5 -23 -85.5 -64.5 q-39 -41.5 -69.5 -97 q-30.5 -55.5 -52 -120.5 q-21.5 -65 -32.5 -135.5 q-11 -70.5 -11 -142.5 q0 -140 47 -207.5 q47 -67.5 135 -67.5 q43 0 83 19.5 q40 19.5 75 54.5 l78 364 l393 0 l-78 -364 q31 -32 70 -52 q39 -20 96 -20 q58 0 105.5 37.5 q47.5 37.5 84.5 101.5 q37 64 63 142.5 q26 78.5 39 161.5 q13 83 13 159 q0 98 -25 152.5 q-25 54.5 -63.5 77 q-38.5 22.5 -79.5 22.5 q-37 0 -71.5 -11 q-34.5 -11 -75.5 -40 l-93 293 q62 44 151 67 q89 23 187 23 q130 0 234.5 -62.5 q104.5 -62.5 165.5 -184.5 q61 -122 61 -300 q0 -129 -20 -250.5 q-20 -121.5 -59.5 -229.5 q-39.5 -108 -97 -196.5 q-57.5 -88.5 -133.5 -153 q-76 -64.5 -168.5 -99.5 q-92.5 -35 -201.5 -35 q-93 0 -167 22.5 q-74 22.5 -130.5 58.5 q-56.5 36 -97.5 78 q-72 -72 -165.5 -113.5 q-93.5 -41.5 -236.5 -41.5 Z" /><glyph glyph-name="uni047D" unicode="&#x47d;" d="M616 1618 q10 104 53 187 q43 83 113 131.5 q70 48.5 160 48.5 q64 0 125 -18.5 q61 -18.5 121.5 -42 q60.5 -23.5 123 -42 q62.5 -18.5 128.5 -18.5 l35 0 l-54 -238 l-51 0 q-71 0 -131.5 15.5 q-60.5 15.5 -112 36 q-51.5 20.5 -94 36 q-42.5 15.5 -78.5 15.5 q-49 0 -75.5 -26 q-26.5 -26 -40.5 -85 l-222 0 ZM817 1219 l27 104 q43 4 75.5 13 q32.5 9 51 26 q18.5 17 18.5 43 q0 20 -16 30.5 q-16 10.5 -35 16.5 q-35 11 -52.5 29.5 q-17.5 18.5 -17.5 56.5 q0 41 46.5 75 q46.5 34 134.5 34 q72 0 120 -41 q48 -41 48 -113 q0 -93 -59 -153.5 q-59 -60.5 -150.5 -90.5 q-91.5 -30 -190.5 -30 ZM502 -20 q-128 0 -220.5 54 q-92.5 54 -142 156 q-49.5 102 -49.5 246 q0 149 33.5 265 q33.5 116 93.5 201 q60 85 138 140 q78 55 167.5 82 q89.5 27 182.5 27 q90 0 143 -11.5 q53 -11.5 94 -25.5 l-121 -289 q-26 10 -51 15.5 q-25 5.5 -53 5.5 q-44 0 -81 -21 q-37 -21 -66 -58 q-29 -37 -48.5 -85.5 q-19.5 -48.5 -30 -103.5 q-10.5 -55 -10.5 -111 q0 -100 33 -138 q33 -38 82 -38 q28 0 51.5 8.5 q23.5 8.5 44.5 24.5 l66 301 l389 0 l-64 -291 q17 -17 40.5 -29 q23.5 -12 64.5 -12 q32 0 62.5 19.5 q30.5 19.5 56 54.5 q25.5 35 44.5 82 q19 47 29.5 103 q10.5 56 10.5 116 q0 98 -34.5 138 q-34.5 40 -84.5 40 q-32 2 -65 -5.5 q-33 -7.5 -70 -21.5 l-45 297 q53 16 117.5 25.5 q64.5 9.5 140.5 9.5 q138 0 235.5 -55 q97.5 -55 149 -161 q51.5 -106 51.5 -261 q0 -111 -24 -213.5 q-24 -102.5 -71 -190 q-47 -87.5 -116 -152.5 q-69 -65 -158 -101.5 q-89 -36.5 -198 -36.5 q-123 0 -208.5 43 q-85.5 43 -138.5 116 q-66 -69 -147.5 -114 q-81.5 -45 -222.5 -45 Z" /><glyph glyph-name="uni0480" unicode="&#x480;" d="M502 -492 l104 474 q-170 8 -281.5 81 q-111.5 73 -166 197.5 q-54.5 124.5 -54.5 288.5 q0 131 28 264 q28 133 87 253.5 q59 120.5 151 215 q92 94.5 219 149 q127 54.5 292 54.5 q146 0 263 -29.5 q117 -29.5 220 -91.5 l-150 -315 q-93 55 -171 82.5 q-78 27.5 -162 27.5 q-71 0 -130.5 -32.5 q-59.5 -32.5 -106 -90.5 q-46.5 -58 -79 -134.5 q-32.5 -76.5 -49 -165.5 q-16.5 -89 -16.5 -183 q0 -129 61.5 -189.5 q61.5 -60.5 190.5 -60.5 q48 0 112 9 q64 9 123 22 q59 13 90 24 l-184 -850 l-391 0 Z" /><glyph glyph-name="uni0481" unicode="&#x481;" d="M260 -492 l107 488 q-74 19 -138.5 72.5 q-64.5 53.5 -104.5 143 q-40 89.5 -40 214.5 q0 126 27.5 236.5 q27.5 110.5 79.5 200.5 q52 90 126.5 155 q74.5 65 168.5 100 q94 35 204 35 q119 0 205 -22.5 q86 -22.5 162 -57.5 l-123 -287 q-51 23 -110 41.5 q-59 18.5 -115 18.5 q-60 0 -104.5 -37 q-44.5 -37 -73.5 -96.5 q-29 -59.5 -43.5 -128 q-14.5 -68.5 -14.5 -131.5 q0 -52 14 -88.5 q14 -36.5 43.5 -55 q29.5 -18.5 75.5 -18.5 q59 0 113 12.5 q54 12.5 110 38.5 l-182 -834 l-387 0 Z" /><glyph glyph-name="uni0482" unicode="&#x482;" d="M385 -6 l-231 133 l137 235 l-240 142 l127 219 l244 -139 l141 247 l-241 142 l129 221 l239 -139 l137 235 l230 -133 l-135 -235 l227 -131 l-131 -220 l-221 129 l-146 -247 l226 -134 l-129 -219 l-224 129 l-139 -235 Z" /><glyph glyph-name="uni0488" unicode="&#x488;" d="M1335 934 q5 91 73.5 149 q68.5 58 168.5 58 q106 0 170.5 -56.5 q64.5 -56.5 69.5 -150.5 l-115 0 q-3 46 -41 55.5 q-38 9.5 -84 9.5 q-35 0 -77.5 -11 q-42.5 -11 -45.5 -54 l-119 0 ZM168 -41 q5 91 73.5 149 q68.5 58 168.5 58 q106 0 170.5 -56.5 q64.5 -56.5 68.5 -150.5 l-114 0 q-4 46 -41.5 56 q-37.5 10 -83.5 10 q-36 0 -78 -11.5 q-42 -11.5 -45 -54.5 l-119 0 ZM743 -319 q5 90 73.5 148 q68.5 58 168.5 58 q106 0 171 -56.5 q65 -56.5 69 -149.5 l-115 0 q-3 46 -40.5 55.5 q-37.5 9.5 -84.5 9.5 q-35 0 -77.5 -11 q-42.5 -11 -45.5 -54 l-119 0 ZM20 453 q5 90 73.5 148 q68.5 58 168.5 58 q106 0 171 -56 q65 -56 69 -150 l-115 0 q-3 46 -40.5 55.5 q-37.5 9.5 -84.5 9.5 q-35 0 -77.5 -11 q-42.5 -11 -45.5 -54 l-119 0 ZM168 934 q5 91 73.5 149 q68.5 58 168.5 58 q106 0 170.5 -56.5 q64.5 -56.5 68.5 -150.5 l-114 0 q-4 46 -41.5 55.5 q-37.5 9.5 -83.5 9.5 q-36 0 -78 -11 q-42 -11 -45 -54 l-119 0 ZM1335 -41 q5 91 73.5 149 q68.5 58 168.5 58 q106 0 170.5 -56.5 q64.5 -56.5 69.5 -150.5 l-115 0 q-3 46 -41 56 q-38 10 -84 10 q-35 0 -77.5 -11.5 q-42.5 -11.5 -45.5 -54.5 l-119 0 ZM1483 453 q5 90 73 148 q68 58 168 58 q107 0 171.5 -56 q64.5 -56 68.5 -150 l-115 0 q-3 46 -40.5 55.5 q-37.5 9.5 -84.5 9.5 q-35 0 -77 -11 q-42 -11 -45 -54 l-119 0 ZM743 1219 q5 90 73.5 148 q68.5 58 168.5 58 q106 0 171 -56.5 q65 -56.5 69 -149.5 l-115 0 q-3 46 -40.5 55.5 q-37.5 9.5 -84.5 9.5 q-35 0 -77.5 -11 q-42.5 -11 -45.5 -54 l-119 0 Z" /><glyph glyph-name="uni0489" unicode="&#x489;" d="M1436 891 l-156 156 l2 18 q46 27 101 53.5 q55 26.5 113 51 q58 24.5 112 44.5 l125 -124 q-37 -23 -76.5 -48.5 q-39.5 -25.5 -79 -52 q-39.5 -26.5 -75.5 -51.5 q-36 -25 -66 -47 ZM319 -152 l-124 127 q74 45 155 100 q81 55 139 99 l158 -158 l-4 -16 q-45 -26 -100 -53.5 q-55 -27.5 -112.5 -52.5 q-57.5 -25 -111.5 -46 ZM360 401 q-51 14 -109 33.5 q-58 19.5 -116 43 q-58 23.5 -110 46.5 l0 178 q84 -19 180 -38.5 q96 -19.5 170 -30.5 l0 -221 l-15 -11 ZM813 -385 q20 85 39.5 181 q19.5 96 30.5 169 l221 0 l10 -14 q-10 -39 -24 -81.5 q-14 -42.5 -30 -86 q-16 -43.5 -33.5 -86.5 q-17.5 -43 -35.5 -82 l-178 0 ZM1520 -238 q-31 50 -66 103.5 q-35 53.5 -69 104 q-34 50.5 -64 89.5 l156 156 l18 -2 q20 -34 40 -74 q20 -40 39.5 -82.5 q19.5 -42.5 37.5 -85.5 q18 -43 33 -84 l-125 -125 ZM446 848 l-16 4 q-20 34 -40.5 73.5 q-20.5 39.5 -40 82 q-19.5 42.5 -37.5 85.5 q-18 43 -33 83 l127 124 q30 -49 64.5 -102.5 q34.5 -53.5 69.5 -103 q35 -49.5 64 -88.5 l-158 -158 ZM1901 401 q-56 14 -118.5 27 q-62.5 13 -122.5 24.5 q-60 11.5 -110 18.5 l0 221 l15 10 q38 -10 80.5 -23.5 q42.5 -13.5 86.5 -29.5 q44 -16 87 -33.5 q43 -17.5 82 -35.5 l0 -179 ZM823 1141 l-10 14 q14 51 33.5 109 q19.5 58 43 116.5 q23.5 58.5 46.5 110.5 l178 0 q-20 -85 -39.5 -180.5 q-19.5 -95.5 -30.5 -169.5 l-221 0 Z" /><glyph glyph-name="uni048A" unicode="&#x48a;" d="M944 -457 l279 457 l-250 0 l127 606 q11 56 24 114.5 q13 58.5 30 125 q17 66.5 38 143.5 l-8 0 l-662 -989 l-489 0 l309 1462 l356 0 l-131 -612 q-10 -50 -24 -107.5 q-14 -57.5 -30.5 -120 q-16.5 -62.5 -35.5 -128.5 l8 0 l664 968 l489 0 l-243 -1138 l338 0 l-340 -781 l-449 0 ZM963 1581 q-143 0 -241.5 37.5 q-98.5 37.5 -149 113.5 q-50.5 76 -50.5 189 q0 6 1.5 20 q1.5 14 2.5 21 l320 0 q-1 -12 -2.5 -26 q-1.5 -14 -1.5 -25 q0 -72 43 -103.5 q43 -31.5 112 -31.5 q79 0 129 41.5 q50 41.5 70 144.5 l332 0 q-19 -106 -81.5 -192.5 q-62.5 -86.5 -180 -137.5 q-117.5 -51 -303.5 -51 Z" /><glyph glyph-name="uni048B" unicode="&#x48b;" d="M680 -416 l223 416 l-188 0 l20 190 l-8 0 q-41 -70 -90.5 -117 q-49.5 -47 -109.5 -70 q-60 -23 -132 -23 q-105 0 -171 44 q-66 44 -97 117 q-31 73 -31 160 q0 57 7 116.5 q7 59.5 18 112.5 l127 603 l387 0 l-129 -617 q-6 -26 -12.5 -66 q-6.5 -40 -6.5 -75 q0 -43 22.5 -64.5 q22.5 -21.5 53.5 -21.5 q34 0 68.5 31 q34.5 31 65 96 q30.5 65 51.5 166 l116 551 l387 0 l-176 -822 l318 0 l-324 -727 l-389 0 ZM750 1241 q-143 0 -241.5 37.5 q-98.5 37.5 -149 113.5 q-50.5 76 -50.5 189 q0 6 1.5 20 q1.5 14 2.5 21 l320 0 q-1 -12 -2.5 -26 q-1.5 -14 -1.5 -25 q0 -72 43 -103.5 q43 -31.5 112 -31.5 q79 0 129 41.5 q50 41.5 70 144.5 l332 0 q-19 -106 -81.5 -192.5 q-62.5 -86.5 -180 -137.5 q-117.5 -51 -303.5 -51 Z" /><glyph glyph-name="uni048C" unicode="&#x48c;" d="M33 0 l221 1038 l-139 0 l61 283 l137 0 l31 141 l389 0 l-31 -141 l234 0 l-62 -283 l-231 0 l-25 -118 l29 0 q169 0 279.5 -54.5 q110.5 -54.5 164.5 -148.5 q54 -94 54 -213 q0 -112 -37.5 -204.5 q-37.5 -92.5 -112 -159.5 q-74.5 -67 -186 -103.5 q-111.5 -36.5 -260.5 -36.5 l-516 0 ZM492 305 l77 0 q44 0 78 12.5 q34 12.5 57.5 35.5 q23.5 23 35.5 56 q12 33 12 74 q0 51 -32.5 91 q-32.5 40 -98.5 40 l-68 0 l-61 -309 Z" /><glyph glyph-name="uni048D" unicode="&#x48d;" d="M532 -20 q-171 0 -268.5 45.5 q-97.5 45.5 -138.5 118.5 q-41 73 -41 155 q0 44 7 95.5 q7 51.5 20 105.5 l125 587 l-238 0 l59 283 l240 0 l41 186 l387 0 l-43 -186 l283 0 l-58 -283 l-286 0 l-82 -387 q37 11 80 16 q43 5 86 5 q132 0 219.5 -44.5 q87.5 -44.5 131.5 -117 q44 -72.5 44 -156.5 q0 -138 -62.5 -232 q-62.5 -94 -188.5 -142.5 q-126 -48.5 -317 -48.5 ZM582 242 q27 0 50.5 7 q23.5 7 40.5 21 q17 14 26.5 34.5 q9.5 20.5 9.5 47.5 q0 28 -11.5 52.5 q-11.5 24.5 -34.5 39.5 q-23 15 -59 15 q-28 0 -60 -3.5 q-32 -3.5 -61 -13.5 q-6 -25 -11 -49.5 q-5 -24.5 -8 -44 q-3 -19.5 -3 -33.5 q0 -40 36.5 -56.5 q36.5 -16.5 84.5 -16.5 Z" /><glyph glyph-name="uni048E" unicode="&#x48e;" d="M33 0 l309 1462 l453 0 q202 0 324.5 -55.5 q122.5 -55.5 178.5 -154.5 q56 -99 56 -228 q0 -167 -79 -284.5 q-79 -117.5 -216 -180.5 l53 -115 l-192 -94 l-70 148 q-40 -7 -83 -10 q-43 -3 -87 -3 l-156 0 l-100 -485 l-391 0 ZM594 805 l70 0 q11 0 21.5 0 q10.5 0 21.5 0 l-43 94 l192 94 l55 -123 q25 28 38.5 63.5 q13.5 35.5 13.5 78.5 q0 53 -39 92 q-39 39 -119 39 l-139 0 l-72 -338 Z" /><glyph glyph-name="uni048F" unicode="&#x48f;" d="M883 -109 l-377 576 l188 119 l375 -576 l-186 -119 ZM-82 -492 l344 1625 l309 0 l-12 -127 l8 0 q31 48 69 81 q38 33 85 49.5 q47 16.5 104 16.5 q102 0 177 -49 q75 -49 116 -142.5 q41 -93.5 41 -226.5 q0 -112 -23 -221.5 q-23 -109.5 -66 -206 q-43 -96.5 -105.5 -170 q-62.5 -73.5 -141 -115.5 q-78.5 -42 -172.5 -42 q-51 0 -93.5 18 q-42.5 18 -76.5 50.5 q-34 32.5 -61 76.5 l-8 0 q-7 -80 -17.5 -159.5 q-10.5 -79.5 -38.5 -211.5 l-51 -246 l-387 0 ZM573 291 q32 0 61 23.5 q29 23.5 52.5 64 q23.5 40.5 41 92.5 q17.5 52 27 110.5 q9.5 58.5 9.5 116.5 q0 70 -21.5 107 q-21.5 37 -64.5 37 q-30 0 -55.5 -18 q-25.5 -18 -47 -49 q-21.5 -31 -38.5 -71.5 q-17 -40.5 -28.5 -86.5 q-11.5 -46 -17.5 -92.5 q-6 -46.5 -6 -90.5 q0 -64 23.5 -103.5 q23.5 -39.5 64.5 -39.5 Z" /><glyph glyph-name="uni0492" unicode="&#x492;" d="M33 0 l119 563 l-142 0 l70 320 l139 0 l123 579 l862 0 l-67 -319 l-471 0 l-56 -260 l291 0 l-70 -320 l-288 0 l-119 -563 l-391 0 Z" /><glyph glyph-name="uni0493" unicode="&#x493;" d="M23 0 l81 389 l-118 0 l59 291 l121 0 l96 453 l778 0 l-67 -312 l-389 0 l-31 -141 l238 0 l-62 -291 l-237 0 l-82 -389 l-387 0 Z" /><glyph glyph-name="uni0494" unicode="&#x494;" d="M598 -512 q-66 0 -139.5 11 q-73.5 11 -147.5 40 l0 322 q68 -25 135.5 -37 q67.5 -12 126.5 -12 q54 0 101 16.5 q47 16.5 84.5 49 q37.5 32.5 64 80.5 q26.5 48 40.5 112 q14 64 14 143 q0 135 -69.5 190.5 q-69.5 55.5 -160.5 55.5 q-44 0 -76.5 -4 q-32.5 -4 -52.5 -9 l-94 -446 l-391 0 l309 1462 l862 0 l-67 -319 l-471 0 l-80 -379 q47 8 89.5 13 q42.5 5 74.5 5 q115 0 210.5 -32 q95.5 -32 165.5 -98 q70 -66 108 -168 q38 -102 38 -242 q0 -110 -20 -218 q-20 -108 -66.5 -204.5 q-46.5 -96.5 -124 -171 q-77.5 -74.5 -192 -117.5 q-114.5 -43 -271.5 -43 Z" /><glyph glyph-name="uni0495" unicode="&#x495;" d="M434 -492 q-67 0 -139 10 q-72 10 -141 38 l0 297 q69 -31 135.5 -42.5 q66.5 -11.5 124.5 -11.5 q55 0 102 13.5 q47 13.5 85 40.5 q38 27 65.5 68.5 q27.5 41.5 42 97.5 q14.5 56 14.5 128 q0 85 -49 139 q-49 54 -144 54 q-13 0 -26 -1 q-13 -1 -23 -3 l-71 -336 l-387 0 l239 1133 l778 0 l-67 -312 l-389 0 l-43 -198 q20 5 49 6.5 q29 1.5 39 1.5 q182 0 288 -62.5 q106 -62.5 151.5 -165 q45.5 -102.5 45.5 -221.5 q0 -123 -30 -227 q-30 -104 -88 -187 q-58 -83 -141 -141 q-83 -58 -189 -88.5 q-106 -30.5 -232 -30.5 Z" /><glyph glyph-name="uni0496" unicode="&#x496;" d="M1384 -457 l101 457 l-150 0 l-180 719 l-151 -719 l-386 0 l154 719 l-457 -719 l-446 0 l528 760 l-200 702 l409 0 l178 -684 l144 684 l385 0 l-146 -684 l459 684 l436 0 l-520 -725 l131 -432 l256 0 l-164 -762 l-381 0 Z" /><glyph glyph-name="uni0497" unicode="&#x497;" d="M1516 -416 l112 424 q-97 37 -165 139 q-68 102 -68 263 q0 9 0 15 q0 6 0 15 l-174 0 l-95 -440 l-372 0 l94 440 l-143 0 q-28 -103 -79.5 -188 q-51.5 -85 -124 -145.5 q-72.5 -60.5 -163.5 -93.5 q-91 -33 -199 -33 q-46 0 -86 4 q-40 4 -78 10 l70 301 q19 -3 37.5 -5.5 q18.5 -2.5 38.5 -2.5 q43 0 80 21 q37 21 65.5 59 q28.5 38 48.5 89 q20 51 30.5 111.5 q10.5 60.5 10.5 126.5 q0 74 -24 111 q-24 37 -74 37 q-29 0 -60 -8.5 q-31 -8.5 -65 -22.5 l0 307 q37 17 88 26 q51 9 123 9 q97 0 186.5 -40.5 q89.5 -40.5 147 -133 q57.5 -92.5 57.5 -248.5 q0 -6 0 -14 q0 -8 0 -15 l170 0 l94 431 l373 0 l-94 -431 l149 0 q29 102 80 185 q51 83 123.5 142.5 q72.5 59.5 163 91.5 q90.5 32 197.5 32 q46 0 86 -4 q40 -4 77 -10 l-69 -301 q-19 3 -37.5 5.5 q-18.5 2.5 -38.5 2.5 q-43 0 -80 -21 q-37 -21 -65.5 -58 q-28.5 -37 -48.5 -85.5 q-20 -48.5 -30.5 -104.5 q-10.5 -56 -10.5 -114 q0 -92 35.5 -132 q35.5 -40 105.5 -40 q32 0 63 8.5 q31 8.5 60 22.5 l-154 -738 l-368 0 Z" /><glyph glyph-name="uni049A" unicode="&#x49a;" d="M805 -457 l100 457 l-149 0 l-181 719 l-151 -719 l-391 0 l309 1462 l391 0 l-145 -684 l459 684 l436 0 l-520 -725 l131 -432 l256 0 l-164 -762 l-381 0 Z" /><glyph glyph-name="uni049B" unicode="&#x49b;" d="M766 -416 l111 416 l-150 0 l-205 543 l-112 -543 l-387 0 l235 1133 l387 0 l-108 -521 l391 521 l440 0 l-444 -570 l100 -252 l260 0 l-149 -727 l-369 0 Z" /><glyph glyph-name="uni049C" unicode="&#x49c;" d="M545 84 l280 1327 l148 0 l-279 -1327 l-149 0 ZM33 0 l309 1462 l391 0 l-145 -684 l520 684 l416 0 l-584 -725 l287 -737 l-410 0 l-242 719 l-151 -719 l-391 0 Z" /><glyph glyph-name="uni049D" unicode="&#x49d;" d="M23 0 l235 1133 l387 0 l-115 -547 l498 547 l451 0 l-541 -576 l326 -557 l-435 0 l-303 563 l-116 -563 l-387 0 ZM516 90 l191 924 l129 0 l-191 -924 l-129 0 Z" /><glyph glyph-name="uni049E" unicode="&#x49e;" d="M33 0 l219 1038 l-141 0 l69 320 l139 0 l23 104 l391 0 l-22 -104 l96 0 l-70 -320 l-94 0 l-55 -260 l459 684 l436 0 l-520 -725 l223 -737 l-430 0 l-181 719 l-151 -719 l-391 0 Z" /><glyph glyph-name="uni049F" unicode="&#x49f;" d="M23 0 l243 1167 l-166 0 l52 242 l163 0 l31 147 l387 0 l-31 -147 l244 0 l-51 -242 l-244 0 l-114 -555 l391 521 l440 0 l-444 -570 l227 -563 l-424 0 l-205 543 l-112 -543 l-387 0 Z" /><glyph glyph-name="uni04A0" unicode="&#x4a0;" d="M231 0 l242 1139 l-317 0 l69 323 l707 0 l-146 -684 l459 684 l436 0 l-520 -725 l223 -737 l-430 0 l-180 719 l-151 -719 l-392 0 Z" /><glyph glyph-name="uni04A1" unicode="&#x4a1;" d="M137 0 l174 842 l-245 0 l61 291 l633 0 l-109 -521 l391 521 l441 0 l-445 -570 l228 -563 l-424 0 l-205 543 l-113 -543 l-387 0 Z" /><glyph glyph-name="uni04A2" unicode="&#x4a2;" d="M928 -457 l100 457 l-256 0 l125 596 l-346 0 l-127 -596 l-391 0 l309 1462 l391 0 l-112 -542 l348 0 l112 542 l392 0 l-246 -1157 l246 0 l-164 -762 l-381 0 Z" /><glyph glyph-name="uni04A3" unicode="&#x4a3;" d="M862 -416 l90 416 l-317 0 l92 440 l-223 0 l-94 -440 l-387 0 l241 1133 l387 0 l-86 -410 l221 0 l88 410 l388 0 l-175 -822 l281 0 l-149 -727 l-357 0 Z" /><glyph glyph-name="uni04A4" unicode="&#x4a4;" d="M33 0 l309 1462 l391 0 l-112 -542 l348 0 l112 542 l713 0 l-72 -323 l-317 0 l-242 -1139 l-391 0 l125 596 l-346 0 l-127 -596 l-391 0 Z" /><glyph glyph-name="uni04A5" unicode="&#x4a5;" d="M23 0 l241 1133 l387 0 l-86 -410 l221 0 l88 410 l674 0 l-61 -291 l-287 0 l-178 -842 l-387 0 l92 440 l-223 0 l-94 -440 l-387 0 Z" /><glyph glyph-name="uni04A6" unicode="&#x4a6;" d="M1335 -512 q-66 0 -139 11 q-73 11 -147 40 l0 322 q68 -25 135 -37 q67 -12 127 -12 q54 0 100.5 16.5 q46.5 16.5 84 49 q37.5 32.5 64 80.5 q26.5 48 40.5 112 q14 64 14 143 q0 90 -32.5 144 q-32.5 54 -84.5 78 q-52 24 -113 24 q-43 0 -75 -4 q-32 -4 -52 -9 l-94 -446 l-391 0 l238 1139 l-346 0 l-240 -1139 l-391 0 l309 1462 l1131 0 l-148 -698 q46 8 88 13 q42 5 74 5 q115 0 210.5 -32 q95.5 -32 165.5 -98 q70 -66 108 -168 q38 -102 38 -242 q0 -91 -13.5 -182 q-13.5 -91 -44.5 -175.5 q-31 -84.5 -82 -156.5 q-51 -72 -125.5 -126 q-74.5 -54 -176 -84 q-101.5 -30 -232.5 -30 Z" /><glyph glyph-name="uni04A7" unicode="&#x4a7;" d="M1047 -492 q-68 0 -140 10 q-72 10 -141 38 l0 297 q69 -31 135.5 -42.5 q66.5 -11.5 124.5 -11.5 q55 0 102 13.5 q47 13.5 85 40.5 q38 27 65.5 68.5 q27.5 41.5 42 97.5 q14.5 56 14.5 128 q0 85 -48.5 139 q-48.5 54 -143.5 54 q-14 0 -27 -1 q-13 -1 -22 -3 l-72 -336 l-387 0 l178 850 l-223 0 l-180 -850 l-387 0 l241 1133 l998 0 l-109 -510 q20 5 49.5 6.5 q29.5 1.5 38.5 1.5 q137 0 230 -36 q93 -36 149 -99 q56 -63 81 -144 q25 -81 25 -170 q0 -123 -30 -227 q-30 -104 -88 -187 q-58 -83 -141 -141 q-83 -58 -188.5 -88.5 q-105.5 -30.5 -231.5 -30.5 Z" /><glyph glyph-name="uni04A8" unicode="&#x4a8;" d="M1296 -84 q-101 0 -190.5 27.5 q-89.5 27.5 -151.5 76.5 q-37 -13 -87.5 -22 q-50.5 -9 -98.5 -13.5 q-48 -4.5 -78 -4.5 q-202 0 -332 71.5 q-130 71.5 -192 199.5 q-62 128 -62 298 q0 131 29 264 q29 133 89.5 253.5 q60.5 120.5 154.5 215 q94 94.5 223.5 149 q129.5 54.5 296.5 54.5 q75 0 136.5 -8 q61.5 -8 121.5 -25 l-96 -315 q-40 14 -79 19 q-39 5 -83 5 q-76 0 -138.5 -33 q-62.5 -33 -111 -91 q-48.5 -58 -81 -135 q-32.5 -77 -49.5 -166 q-17 -89 -17 -183 q0 -92 24.5 -150 q24.5 -58 65.5 -85 q41 -27 92 -27 q31 0 54 4.5 q23 4.5 32 7.5 q-25 37 -46.5 114 q-21.5 77 -21.5 163 q0 118 32 213 q32 95 92.5 163 q60.5 68 147 104 q86.5 36 195.5 36 q110 0 197.5 -43.5 q87.5 -43.5 138.5 -130 q51 -86.5 51 -215.5 q0 -58 -15.5 -120.5 q-15.5 -62.5 -49.5 -126.5 q-34 -64 -88.5 -126 q-54.5 -62 -132.5 -121 q11 -3 35.5 -4.5 q24.5 -1.5 37.5 -1.5 q32 0 72 7 q40 7 80 19 l0 -290 q-29 -11 -88 -19 q-59 -8 -109 -8 ZM1063 408 q43 30 74.5 67 q31.5 37 51.5 76.5 q20 39.5 30 76.5 q10 37 10 68 q0 37 -8.5 63 q-8.5 26 -26.5 40 q-18 14 -49 14 q-24 0 -45.5 -13.5 q-21.5 -13.5 -38 -43 q-16.5 -29.5 -26 -76 q-9.5 -46.5 -9.5 -111.5 q0 -56 11.5 -95.5 q11.5 -39.5 25.5 -65.5 Z" /><glyph glyph-name="uni04A9" unicode="&#x4a9;" d="M1124 -80 q-88 0 -174 25 q-86 25 -139 69 q-51 -16 -118.5 -25 q-67.5 -9 -151.5 -9 q-126 0 -230 44.5 q-104 44.5 -165.5 146 q-61.5 101.5 -61.5 271.5 q0 119 28 226 q28 107 82 196 q54 89 132.5 153.5 q78.5 64.5 179.5 100 q101 35.5 223 35.5 q44 0 89.5 -6 q45.5 -6 80.5 -17 l-82 -274 q-25 8 -56 13 q-31 5 -63 5 q-44 0 -80 -26.5 q-36 -26.5 -63 -71 q-27 -44.5 -45 -100 q-18 -55.5 -27.5 -114.5 q-9.5 -59 -9.5 -113 q0 -66 13.5 -108.5 q13.5 -42.5 39 -62.5 q25.5 -20 60.5 -20 q20 0 36 2 q16 2 31 6 q-13 32 -24 78 q-11 46 -11 98 q0 86 23.5 159.5 q23.5 73.5 71.5 128.5 q48 55 122 85.5 q74 30.5 175 30.5 q144 0 235.5 -81 q91.5 -81 91.5 -228 q0 -81 -25.5 -149.5 q-25.5 -68.5 -68.5 -119 q-43 -50.5 -96 -78.5 q9 -3 17.5 -4.5 q8.5 -1.5 21.5 -1.5 q43 0 83 7 q40 7 56 14 l0 -258 q-28 -8 -58 -14.5 q-30 -6.5 -65 -9.5 q-35 -3 -78 -3 ZM934 334 q41 17 70.5 44.5 q29.5 27.5 45 61.5 q15.5 34 15.5 70 q0 46 -21.5 68 q-21.5 22 -56.5 22 q-21 0 -38.5 -8.5 q-17.5 -8.5 -30.5 -26 q-13 -17.5 -20 -44 q-7 -26.5 -7 -62.5 q0 -20 10 -56.5 q10 -36.5 33 -68.5 Z" /><glyph glyph-name="uni04AC" unicode="&#x4ac;" d="M391 -457 l101 457 l-256 0 l237 1139 l-317 0 l69 323 l1028 0 l-71 -323 l-318 0 l-174 -834 l246 0 l-164 -762 l-381 0 Z" /><glyph glyph-name="uni04AD" unicode="&#x4ad;" d="M1356 -416 l110 418 q-63 20 -102 72.5 q-39 52.5 -39 158.5 q0 22 5.5 61.5 q5.5 39.5 12.5 76.5 l52 260 q5 20 9.5 55 q4.5 35 4.5 78 q0 40 -19 61 q-19 21 -51 21 q-37 0 -66.5 -19 q-29.5 -19 -53 -57.5 q-23.5 -38.5 -42.5 -95 q-19 -56.5 -34 -131.5 l-111 -543 l-387 0 l131 631 q5 23 10 59.5 q5 36.5 5 61.5 q0 50 -20.5 72 q-20.5 22 -51.5 22 q-28 0 -54.5 -13.5 q-26.5 -13.5 -50 -46.5 q-23.5 -33 -45 -90.5 q-21.5 -57.5 -41.5 -144.5 l-118 -551 l-387 0 l239 1133 l309 0 l-16 -187 l8 0 q40 75 86 120.5 q46 45.5 105 66 q59 20.5 137 20.5 q117 0 180.5 -53.5 q63.5 -53.5 89.5 -153.5 l8 0 q43 71 95 116.5 q52 45.5 114 68 q62 22.5 135 22.5 q140 0 213.5 -85 q73.5 -85 73.5 -249 q0 -46 -7 -106.5 q-7 -60.5 -15 -98.5 l-37 -168 q-4 -24 -9.5 -50 q-5.5 -26 -5.5 -46 q0 -32 20 -46.5 q20 -14.5 52 -14.5 q19 0 41.5 4.5 q22.5 4.5 32.5 7.5 l-148 -717 l-368 0 Z" /><glyph glyph-name="uni04AF" unicode="&#x4af;" d="M131 -492 l102 492 l-145 1133 l385 0 l25 -549 q2 -48 -0.5 -92.5 q-2.5 -44.5 -5.5 -79.5 l8 0 q8 32 26.5 80.5 q18.5 48.5 30.5 74.5 l262 566 l414 0 l-612 -1133 l-103 -492 l-387 0 Z" /><glyph glyph-name="uni04B0" unicode="&#x4b0;" d="M281 0 l45 215 l-287 0 l67 320 l287 0 l8 32 l-237 895 l403 0 l90 -542 l312 542 l436 0 l-612 -895 l-9 -32 l289 0 l-69 -320 l-287 0 l-45 -215 l-391 0 Z" /><glyph glyph-name="uni04B1" unicode="&#x4b1;" d="M131 -492 l41 201 l-258 0 l61 291 l258 0 l-145 1133 l385 0 l25 -549 q2 -45 -0.5 -91.5 q-2.5 -46.5 -5.5 -80.5 l8 0 q6 29 24.5 79 q18.5 50 30.5 76 l264 566 l414 0 l-612 -1133 l258 0 l-62 -291 l-258 0 l-41 -201 l-387 0 Z" /><glyph glyph-name="uni04B2" unicode="&#x4b2;" d="M899 -457 l100 457 l-196 0 l-146 498 l-338 -498 l-444 0 l563 776 l-223 686 l416 0 l123 -469 l309 469 l448 0 l-538 -725 l153 -432 l318 0 l-164 -762 l-381 0 Z" /><glyph glyph-name="uni04B3" unicode="&#x4b3;" d="M715 -416 l110 416 l-200 0 l-80 328 l-211 -328 l-453 0 l473 578 l-207 555 l422 0 l76 -314 l186 314 l459 0 l-465 -576 l101 -246 l307 0 l-150 -727 l-368 0 Z" /><glyph glyph-name="uni04B4" unicode="&#x4b4;" d="M1169 -457 l101 457 l-1037 0 l240 1139 l-317 0 l69 323 l971 0 l-72 -323 l-260 0 l-172 -815 l389 0 l242 1138 l391 0 l-246 -1157 l246 0 l-164 -762 l-381 0 Z" /><glyph glyph-name="uni04B5" unicode="&#x4b5;" d="M897 -416 l119 447 q-31 14 -52.5 36 q-21.5 22 -34 53 q-12.5 31 -18.5 70 l-8 0 q-45 -70 -99 -117 q-54 -47 -118 -70 q-64 -23 -141 -23 q-115 0 -186 44 q-71 44 -103.5 117 q-32.5 73 -32.5 160 q0 57 7 117 q7 60 18 112 l63 312 l-245 0 l61 291 l827 0 l-61 -291 l-195 0 l-65 -326 q-6 -26 -12.5 -66 q-6.5 -40 -6.5 -75 q0 -43 25.5 -64.5 q25.5 -21.5 62.5 -21.5 q40 0 83 30.5 q43 30.5 80.5 95 q37.5 64.5 58.5 167.5 l116 551 l387 0 l-145 -687 q-4 -24 -9 -50 q-5 -26 -5 -46 q0 -32 19.5 -46.5 q19.5 -14.5 51.5 -14.5 q19 0 41.5 4.5 q22.5 4.5 32.5 7.5 l-147 -717 l-369 0 Z" /><glyph glyph-name="uni04B6" unicode="&#x4b6;" d="M895 -457 l100 457 l-256 0 l115 535 q-73 -40 -162.5 -62 q-89.5 -22 -183.5 -22 q-118 0 -198.5 41.5 q-80.5 41.5 -121.5 119.5 q-41 78 -41 187 q0 28 3.5 58.5 q3.5 30.5 9.5 64.5 l104 540 l393 0 l-98 -489 q-4 -23 -7 -41 q-3 -18 -3 -37 q0 -58 37.5 -89.5 q37.5 -31.5 97.5 -31.5 q54 0 116 19 q62 19 115 51 l129 618 l392 0 l-242 -1157 l246 0 l-164 -762 l-381 0 Z" /><glyph glyph-name="uni04B7" unicode="&#x4b7;" d="M766 -416 l100 416 l-270 0 l61 295 q7 29 14.5 63.5 q7.5 34.5 14.5 63.5 l-10 0 q-45 -40 -107.5 -73.5 q-62.5 -33.5 -148.5 -33.5 q-90 0 -154.5 36.5 q-64.5 36.5 -98.5 101 q-34 64.5 -34 147.5 q0 57 10 130 q10 73 17 108 l59 295 l387 0 l-57 -281 q-6 -26 -12.5 -66 q-6.5 -40 -6.5 -75 q0 -43 22.5 -64.5 q22.5 -21.5 53.5 -21.5 q48 0 82 34.5 q34 34.5 59 100 q25 65.5 44 158.5 l45 215 l387 0 l-174 -822 l235 0 l-149 -727 l-369 0 Z" /><glyph glyph-name="uni04B8" unicode="&#x4b8;" d="M739 0 l115 535 q-32 -19 -68.5 -33 q-36.5 -14 -74.5 -25 l-72 -336 l-152 0 l66 310 q-136 0 -226 36 q-90 36 -135 113 q-45 77 -45 199 q0 28 3.5 58.5 q3.5 30.5 9.5 64.5 l104 540 l393 0 l-98 -489 q-4 -23 -7 -41 q-3 -18 -3 -37 q0 -43 20.5 -71.5 q20.5 -28.5 55.5 -41.5 l67 312 l152 0 l-66 -308 q35 10 70 24 q35 14 67 34 l129 618 l392 0 l-306 -1462 l-391 0 Z" /><glyph glyph-name="uni04B9" unicode="&#x4b9;" d="M649 0 l60 291 q6 31 14.5 62 q8.5 31 15.5 59 l-10 0 q-10 -9 -22 -18 q-12 -9 -25 -16.5 q-13 -7.5 -27 -15.5 l-51 -235 l-145 0 l43 207 q-166 0 -264.5 81.5 q-98.5 81.5 -98.5 235.5 q0 53 7.5 107.5 q7.5 54.5 17.5 107.5 l55 267 l387 0 l-57 -281 q-6 -26 -12.5 -66 q-6.5 -40 -6.5 -75 q0 -28 10.5 -46.5 q10.5 -18.5 28.5 -27.5 l54 240 l145 0 l-53 -238 q26 12 45.5 37 q19.5 25 35.5 69.5 q16 44.5 31 112.5 l62 275 l387 0 l-240 -1133 l-387 0 Z" /><glyph glyph-name="uni04BA" unicode="&#x4ba;" d="M37 0 l305 1462 l391 0 l-115 -534 q74 40 163.5 62 q89.5 22 183.5 22 q118 0 198 -41.5 q80 -41.5 121 -119 q41 -77.5 41 -187.5 q0 -28 -3 -58.5 q-3 -30.5 -9 -64.5 l-105 -541 l-393 0 l98 489 q5 23 8 41.5 q3 18.5 3 36.5 q0 59 -38 90 q-38 31 -98 31 q-53 0 -115 -18.5 q-62 -18.5 -116 -51.5 l-129 -618 l-391 0 Z" /><glyph glyph-name="uni04BC" unicode="&#x4bc;" d="M1020 -20 q-183 0 -303 71.5 q-120 71.5 -179 199.5 q-59 128 -59 298 q0 12 0 23.5 q0 11.5 0 23.5 q-154 11 -240 52.5 q-86 41.5 -120.5 107.5 q-34.5 66 -34.5 151 q0 54 21 118.5 q21 64.5 55 115.5 l305 0 q-16 -25 -30.5 -68 q-14.5 -43 -14.5 -80 q0 -49 28 -74.5 q28 -25.5 72 -25.5 l10 0 q35 120 98.5 226.5 q63.5 106.5 155.5 189 q92 82.5 211.5 129.5 q119.5 47 266.5 47 q141 0 237.5 -48.5 q96.5 -48.5 145.5 -134.5 q49 -86 49 -200 q0 -123 -49 -218.5 q-49 -95.5 -145 -160.5 q-96 -65 -236 -99 q-140 -34 -322 -34 l-68 0 q0 -9 0 -18.5 q0 -9.5 0 -18.5 q0 -129 54.5 -189.5 q54.5 -60.5 140.5 -60.5 q92 0 185 16.5 q93 16.5 196 53.5 l0 -324 q-107 -47 -212 -58 q-105 -11 -218 -11 ZM928 885 l96 0 q77 0 131 14.5 q54 14.5 88 39.5 q34 25 50 57 q16 32 16 67 q0 29 -10 51 q-10 22 -33 34.5 q-23 12.5 -62 12.5 q-43 0 -85.5 -21.5 q-42.5 -21.5 -80.5 -59.5 q-38 -38 -66.5 -88 q-28.5 -50 -43.5 -107 Z" /><glyph glyph-name="uni04BD" unicode="&#x4bd;" d="M799 -20 q-138 0 -239 52 q-101 52 -155.5 147 q-54.5 95 -54.5 224 q0 7 0 14.5 q0 7.5 0 14.5 q-126 12 -196.5 54.5 q-70.5 42.5 -99.5 102 q-29 59.5 -29 120.5 q0 53 15.5 98.5 q15.5 45.5 49.5 95.5 l252 0 q-15 -25 -32 -62.5 q-17 -37.5 -17 -74.5 q0 -46 22.5 -68.5 q22.5 -22.5 65.5 -31.5 q36 135 116 245.5 q80 110.5 205 176 q125 65.5 297 65.5 q191 0 299.5 -86 q108.5 -86 108.5 -229 q0 -94 -36 -170.5 q-36 -76.5 -110 -131.5 q-74 -55 -189 -84.5 q-115 -29.5 -273 -29.5 l-60 0 q0 -6 0 -12 q0 -6 0 -13 q0 -69 41.5 -104 q41.5 -35 122.5 -35 q86 0 163 26 q77 26 165 72 l0 -274 q-91 -46 -188 -74 q-97 -28 -244 -28 ZM778 664 l29 0 q87 0 138 23 q51 23 73 58 q22 35 22 70 q0 32 -20 54 q-20 22 -64 22 q-45 0 -82.5 -35 q-37.5 -35 -62.5 -87.5 q-25 -52.5 -33 -104.5 Z" /><glyph glyph-name="uni04BE" unicode="&#x4be;" d="M698 -457 l107 473 q-108 38 -180.5 113 q-72.5 75 -109 181.5 q-36.5 106.5 -36.5 238.5 q0 11 0.5 23 q0.5 12 1.5 24 q-144 5 -230.5 51.5 q-86.5 46.5 -125.5 120 q-39 73.5 -39 158.5 q0 53 20 108.5 q20 55.5 54 106.5 l305 0 q-16 -25 -30.5 -65.5 q-14.5 -40.5 -14.5 -78.5 q0 -49 26.5 -76.5 q26.5 -27.5 69.5 -27.5 l14 0 q35 120 98.5 226.5 q63.5 106.5 155.5 189 q92 82.5 211.5 129.5 q119.5 47 266.5 47 q141 0 237.5 -48.5 q96.5 -48.5 145.5 -134.5 q49 -86 49 -200 q0 -123 -49 -218.5 q-49 -95.5 -145 -160.5 q-96 -65 -236 -99 q-140 -34 -322 -34 l-68 0 q0 -9 0 -18.5 q0 -9.5 0 -18.5 q0 -129 54.5 -189.5 q54.5 -60.5 140.5 -60.5 q92 0 185 16.5 q93 16.5 196 53.5 l0 -324 q-70 -32 -139 -45.5 q-69 -13.5 -140 -19.5 l-92 -441 l-381 0 ZM928 885 l96 0 q77 0 131 14.5 q54 14.5 88 39.5 q34 25 50 57 q16 32 16 67 q0 29 -10 51 q-10 22 -33 34.5 q-23 12.5 -62 12.5 q-43 0 -85.5 -21.5 q-42.5 -21.5 -80.5 -59.5 q-38 -38 -66.5 -88 q-28.5 -50 -43.5 -107 Z" /><glyph glyph-name="uni04BF" unicode="&#x4bf;" d="M530 -416 l99 418 q-88 27 -149.5 84.5 q-61.5 57.5 -94.5 142 q-33 84.5 -35 191.5 q0 3 0 6 q0 3 0 6 q-126 12 -196.5 54.5 q-70.5 42.5 -99.5 102 q-29 59.5 -29 120.5 q0 53 15.5 98.5 q15.5 45.5 49.5 95.5 l252 0 q-15 -25 -30 -55.5 q-15 -30.5 -15 -67.5 q0 -46 20 -73 q20 -27 64 -41 q36 135 116 245.5 q80 110.5 205 176 q125 65.5 297 65.5 q191 0 299.5 -86 q108.5 -86 108.5 -229 q0 -94 -36 -170.5 q-36 -76.5 -110 -131.5 q-74 -55 -189 -84.5 q-115 -29.5 -273 -29.5 l-60 0 q0 -4 0 -7.5 q0 -3.5 0 -8.5 q0 -76 41.5 -112 q41.5 -36 122.5 -36 q86 0 163 26 q77 26 165 72 l0 -274 q-60 -31 -120 -53.5 q-60 -22.5 -134 -34.5 l-78 -410 l-369 0 ZM778 664 l29 0 q87 0 138 23 q51 23 73 58 q22 35 22 70 q0 32 -20 54 q-20 22 -64 22 q-45 0 -82.5 -35 q-37.5 -35 -62.5 -87.5 q-25 -52.5 -33 -104.5 Z" /><glyph glyph-name="uni04C3" unicode="&#x4c3;" d="M653 -512 q-66 0 -139 11 q-73 11 -147 40 l0 322 q68 -25 135 -37 q67 -12 127 -12 q54 0 100.5 16.5 q46.5 16.5 84 49 q37.5 32.5 64 80.5 q26.5 48 40.5 112 q14 64 14 143 q0 92 -37 149 q-37 57 -97 83 q-60 26 -130 26 q-49 0 -88 -6 q-39 -6 -62 -12 l-94 -453 l-391 0 l309 1462 l391 0 l-145 -684 l459 684 l436 0 l-504 -702 q106 -31 184 -98 q78 -67 121 -171.5 q43 -104.5 43 -248.5 q0 -110 -20 -218 q-20 -108 -66 -204.5 q-46 -96.5 -123.5 -171 q-77.5 -74.5 -192 -117.5 q-114.5 -43 -272.5 -43 Z" /><glyph glyph-name="uni04C4" unicode="&#x4c4;" d="M573 -492 q-63 0 -129 10 q-66 10 -129 38 l0 297 q60 -31 116.5 -42.5 q56.5 -11.5 107.5 -11.5 q47 0 88 11.5 q41 11.5 73.5 35.5 q32.5 24 56 62 q23.5 38 36 90.5 q12.5 52.5 12.5 120.5 q0 80 -41.5 137 q-41.5 57 -132.5 57 q-32 0 -76 -6.5 q-44 -6.5 -84 -23.5 l-61 -283 l-387 0 l235 1133 l387 0 l-108 -521 l391 521 l440 0 l-457 -560 q98 -35 161 -101 q63 -66 93.5 -150.5 q30.5 -84.5 30.5 -176.5 q0 -110 -23 -206.5 q-23 -96.5 -70 -175.5 q-47 -79 -121 -136 q-74 -57 -175.5 -88 q-101.5 -31 -233.5 -31 Z" /><glyph glyph-name="uni04C5" unicode="&#x4c5;" d="M776 -457 l279 457 l-289 0 l240 1151 l-199 0 q-22 -83 -51 -187.5 q-29 -104.5 -59.5 -209 q-30.5 -104.5 -58 -191 q-27.5 -86.5 -46.5 -133.5 q-69 -172 -140.5 -270 q-71.5 -98 -163.5 -139 q-92 -41 -225 -41 q-41 0 -78 6.5 q-37 6.5 -77 19.5 l0 305 q31 -10 52 -15 q21 -5 50 -5 q30 0 62.5 11 q32.5 11 69.5 59.5 q37 48.5 81 158.5 q19 48 42 114.5 q23 66.5 49 151.5 q26 85 56 188.5 q30 103.5 63 225.5 q33 122 69 262 l960 0 l-235 -1138 l338 0 l-340 -781 l-449 0 Z" /><glyph glyph-name="uni04C6" unicode="&#x4c6;" d="M776 -416 l223 416 l-278 0 l178 856 q-13 3 -27 4.5 q-14 1.5 -28 1.5 q-45 0 -80.5 -15.5 q-35.5 -15.5 -68 -58.5 q-32.5 -43 -66 -125.5 q-33.5 -82.5 -72.5 -216.5 q-39 -133 -77 -222.5 q-38 -89.5 -85 -143 q-47 -53.5 -112 -77 q-65 -23.5 -158 -23.5 q-35 0 -79.5 7.5 q-44.5 7.5 -82.5 22.5 l0 301 q26 -13 46.5 -16.5 q20.5 -3.5 33.5 -3.5 q26 0 45.5 14 q19.5 14 38 48.5 q18.5 34.5 39.5 93.5 q21 59 49 149 q42 134 90.5 237.5 q48.5 103.5 119 174.5 q70.5 71 176 108 q105.5 37 261.5 37 q145 0 268 -24 q123 -24 199 -56 l-158 -762 l318 0 l-324 -727 l-389 0 Z" /><glyph glyph-name="uni04C7" unicode="&#x4c7;" d="M575 -512 q-59 0 -131.5 13 q-72.5 13 -132.5 36 l0 320 q34 -14 72.5 -24.5 q38.5 -10.5 78 -15.5 q39.5 -5 75.5 -5 q63 0 110 21 q47 21 80.5 76.5 q33.5 55.5 54.5 156.5 l115 530 l-346 0 l-127 -596 l-391 0 l309 1462 l391 0 l-112 -542 l348 0 l112 542 l392 0 l-310 -1446 q-41 -192 -111 -308 q-70 -116 -185 -168 q-115 -52 -292 -52 Z" /><glyph glyph-name="uni04C8" unicode="&#x4c8;" d="M487 -492 q-52 0 -124.5 14 q-72.5 14 -124.5 34 l0 303 q43 -19 91.5 -29 q48.5 -10 88.5 -10 q62 0 105 18 q43 18 71.5 62 q28.5 44 44.5 120 l88 420 l-223 0 l-94 -440 l-387 0 l241 1133 l387 0 l-86 -410 l221 0 l88 410 l388 0 l-242 -1153 q-24 -115 -67 -203.5 q-43 -88.5 -107.5 -148 q-64.5 -59.5 -153.5 -90 q-89 -30.5 -205 -30.5 Z" /><glyph glyph-name="uni04C9" unicode="&#x4c9;" d="M780 -457 l279 457 l-287 0 l125 596 l-346 0 l-127 -596 l-391 0 l309 1462 l391 0 l-112 -542 l348 0 l112 542 l392 0 l-242 -1138 l338 0 l-340 -781 l-449 0 Z" /><glyph glyph-name="uni04CA" unicode="&#x4ca;" d="M690 -416 l223 416 l-278 0 l92 440 l-223 0 l-94 -440 l-387 0 l241 1133 l387 0 l-86 -410 l221 0 l88 410 l388 0 l-177 -822 l318 0 l-324 -727 l-389 0 Z" /><glyph glyph-name="uni04CB" unicode="&#x4cb;" d="M362 -457 l164 762 l279 0 l49 230 q-73 -40 -162.5 -62 q-89.5 -22 -183.5 -22 q-118 0 -198.5 41.5 q-80.5 41.5 -121.5 119.5 q-41 78 -41 187 q0 28 3.5 58.5 q3.5 30.5 9.5 64.5 l104 540 l393 0 l-98 -489 q-4 -23 -7 -41 q-3 -18 -3 -37 q0 -39 17 -66 q17 -27 47.5 -41 q30.5 -14 70.5 -14 q54 0 116 19 q62 19 115 51 l129 618 l392 0 l-306 -1462 l-288 0 l-99 -457 l-381 0 Z" /><glyph glyph-name="uni04CC" unicode="&#x4cc;" d="M213 -416 l178 727 l271 0 l22 107 q5 25 10.5 48 q5.5 23 10.5 48 l-11 0 q-46 -40 -116 -68 q-70 -28 -156 -28 q-86 0 -144 43 q-58 43 -87 110 q-29 67 -29 140 q0 78 7 141 q7 63 17 117 l33 164 l387 0 l-35 -179 q-6 -25 -12 -65.5 q-6 -40.5 -6 -75.5 q0 -43 22.5 -64.5 q22.5 -21.5 53.5 -21.5 q36 0 69 28 q33 28 62.5 92.5 q29.5 64.5 52.5 172.5 l23 113 l387 0 l-240 -1133 l-317 0 l-84 -416 l-369 0 Z" /><glyph glyph-name="uni04CD" unicode="&#x4cd;" d="M1176 -457 l278 457 l-246 0 l117 549 q25 114 45 197.5 q20 83.5 36 141.5 q16 58 26.5 97 q10.5 39 15.5 64 l-8 0 l-482 -1049 l-370 0 l0 1049 l-8 0 q-12 -78 -23.5 -149 q-11.5 -71 -22 -135.5 q-10.5 -64.5 -20.5 -121.5 q-10 -57 -20 -106 l-113 -537 l-348 0 l309 1462 l518 0 l0 -1038 l8 0 l478 1038 l526 0 l-246 -1138 l338 0 l-340 -781 l-448 0 Z" /><glyph glyph-name="uni04CE" unicode="&#x4ce;" d="M1174 -416 l223 416 l-258 0 l75 332 q20 89 43.5 195.5 q23.5 106.5 42.5 191.5 l-8 0 l-346 -719 l-362 0 l-47 719 l-9 0 q-13 -100 -31 -201 q-18 -101 -36 -190 l-66 -328 l-362 0 l239 1133 l512 0 l50 -732 l8 0 l362 732 l541 0 l-176 -822 l317 0 l-323 -727 l-389 0 Z" /><glyph glyph-name="uni04D8" unicode="&#x4d8;" d="M465 -20 q-141 0 -237.5 48 q-96.5 48 -145.5 134 q-49 86 -49 200 q0 123 49 218.5 q49 95.5 144.5 160.5 q95.5 65 235.5 99 q140 34 322 34 l68 0 q0 10 0 19 q0 9 0 18 q0 140 -65.5 195 q-65.5 55 -151.5 55 q-85 0 -170 -16 q-85 -16 -189 -53 l0 323 q95 35 206 52.5 q111 17.5 225 17.5 q183 0 303 -71.5 q120 -71.5 178.5 -200 q58.5 -128.5 58.5 -298.5 q0 -136 -31.5 -270.5 q-31.5 -134.5 -94 -254.5 q-62.5 -120 -156.5 -212 q-94 -92 -219 -145 q-125 -53 -281 -53 ZM522 303 q43 0 86 21.5 q43 21.5 81 60 q38 38.5 66.5 88.5 q28.5 50 43.5 107 l-97 0 q-76 0 -130.5 -14.5 q-54.5 -14.5 -88 -39.5 q-33.5 -25 -49.5 -57 q-16 -32 -16 -68 q0 -28 10 -50.5 q10 -22.5 32.5 -35 q22.5 -12.5 61.5 -12.5 Z" /><glyph glyph-name="uni04D9" unicode="&#x4d9;" d="M451 -20 q-190 0 -299 86 q-109 86 -109 229 q0 94 36 170.5 q36 76.5 110 131.5 q74 55 189 84.5 q115 29.5 273 29.5 l60 0 q0 5 0 8.5 q0 3.5 0 7.5 q0 75 -41.5 111 q-41.5 36 -122.5 36 q-86 0 -163 -25.5 q-77 -25.5 -165 -72.5 l0 275 q91 46 188 74 q97 28 244 28 q144 0 244 -54 q100 -54 152.5 -154.5 q52.5 -100.5 52.5 -239.5 q0 -139 -39.5 -269 q-39.5 -130 -120 -233 q-80.5 -103 -202.5 -163 q-122 -60 -287 -60 ZM494 242 q45 0 82.5 35 q37.5 35 63 87.5 q25.5 52.5 32.5 104.5 l-29 0 q-87 0 -138 -23.5 q-51 -23.5 -73 -58.5 q-22 -35 -22 -70 q0 -32 20.5 -53.5 q20.5 -21.5 63.5 -21.5 Z" /><glyph glyph-name="uni04E0" unicode="&#x4e0;" d="M412 -20 q-129 0 -241 20.5 q-112 20.5 -171 58.5 l0 326 q49 -30 111 -51 q62 -21 129 -32 q67 -11 129 -11 q60 0 114 6.5 q54 6.5 95.5 25.5 q41.5 19 65.5 54 q24 35 24 92 q0 72 -58.5 105.5 q-58.5 33.5 -218.5 33.5 l-135 0 l53 232 l342 303 l-420 0 l68 319 l903 0 l-51 -245 l-387 -357 q151 -34 225 -135.5 q74 -101.5 74 -255.5 q0 -108 -38 -197.5 q-38 -89.5 -117 -155 q-79 -65.5 -202.5 -101 q-123.5 -35.5 -293.5 -35.5 Z" /><glyph glyph-name="uni04E1" unicode="&#x4e1;" d="M336 -492 q-115 0 -221.5 22.5 q-106.5 22.5 -194.5 68.5 l0 331 q70 -42 148 -66 q78 -24 149 -34 q71 -10 119 -10 q59 0 108.5 14 q49.5 14 86 43 q36.5 29 57 74.5 q20.5 45.5 20.5 109.5 q0 42 -22.5 86.5 q-22.5 44.5 -85.5 75.5 q-63 31 -185 31 l-104 0 l57 283 l350 305 l-440 0 l64 291 l921 0 l-49 -242 l-440 -371 q123 -35 195.5 -98.5 q72.5 -63.5 103.5 -152 q31 -88.5 31 -201.5 q0 -141 -49 -246 q-49 -105 -138.5 -174.5 q-89.5 -69.5 -211.5 -104.5 q-122 -35 -269 -35 Z" /><glyph glyph-name="uni04F6" unicode="&#x4f6;" d="M186 -457 l101 457 l-254 0 l309 1462 l862 0 l-67 -319 l-471 0 l-179 -838 l244 0 l-164 -762 l-381 0 Z" /><glyph glyph-name="uni04F7" unicode="&#x4f7;" d="M215 -416 l111 416 l-303 0 l239 1133 l778 0 l-67 -312 l-389 0 l-107 -510 l256 0 l-149 -727 l-369 0 Z" /><glyph glyph-name="uni04FB" unicode="&#x4fb;" d="M293 -563 q-58 0 -119 7.5 q-61 7.5 -104 20.5 l0 306 q27 -10 61.5 -16.5 q34.5 -6.5 63.5 -6.5 q44 0 82 15 q38 15 68.5 59.5 q30.5 44.5 49.5 134.5 l8 43 l-380 0 l81 389 l-118 0 l59 291 l121 0 l96 453 l778 0 l-67 -312 l-389 0 l-31 -141 l238 0 l-62 -291 l-237 0 l-23 -106 l391 0 l-76 -392 q-31 -159 -95 -259.5 q-64 -100.5 -162.5 -147.5 q-98.5 -47 -233.5 -47 Z" /><glyph glyph-name="uni04FC" unicode="&#x4fc;" d="M891 -563 q-58 0 -119 7.5 q-61 7.5 -104 20.5 l0 306 q26 -10 61 -16.5 q35 -6.5 64 -6.5 q44 0 81.5 15 q37.5 15 67.5 59.5 q30 44.5 49 134.5 l8 43 l-196 0 l-146 498 l-338 -498 l-444 0 l563 776 l-223 686 l416 0 l123 -469 l309 469 l448 0 l-538 -725 l153 -432 l340 0 l-84 -414 q-31 -159 -95 -259.5 q-64 -100.5 -162.5 -147.5 q-98.5 -47 -233.5 -47 Z" /><glyph glyph-name="uni04FD" unicode="&#x4fd;" d="M721 -563 q-58 0 -119 7.5 q-61 7.5 -104 20.5 l0 306 q28 -10 62 -16.5 q34 -6.5 63 -6.5 q44 0 82 15 q38 15 68.5 59.5 q30.5 44.5 49.5 134.5 l8 43 l-206 0 l-80 328 l-211 -328 l-453 0 l473 578 l-207 555 l422 0 l76 -314 l186 314 l459 0 l-465 -576 l111 -274 l352 0 l-76 -392 q-31 -159 -95 -259.5 q-64 -100.5 -162.5 -147.5 q-98.5 -47 -233.5 -47 Z" /><glyph glyph-name="uni04FE" unicode="&#x4fe;" d="M-125 0 l410 565 l-187 0 l68 320 l237 0 l-188 577 l416 0 l114 -514 l318 514 l448 0 l-430 -577 l236 0 l-70 -320 l-213 0 l201 -565 l-432 0 l-141 528 l-343 -528 l-444 0 Z" /><glyph glyph-name="uni04FF" unicode="&#x4ff;" d="M-119 0 l342 418 l-180 0 l63 291 l199 0 l-158 424 l422 0 l68 -353 l194 353 l459 0 l-342 -424 l193 0 l-64 -291 l-196 0 l172 -418 l-428 0 l-72 365 l-219 -365 l-453 0 Z" /><glyph glyph-name="uni0500" unicode="&#x500;" d="M602 0 q-193 0 -311 57 q-118 57 -171.5 155.5 q-53.5 98.5 -53.5 223.5 q0 163 81 276.5 q81 113.5 224.5 172.5 q143.5 59 330.5 59 l82 0 l109 518 l391 0 l-309 -1462 l-373 0 ZM592 319 l59 0 l64 306 l-56 0 q-53 0 -99 -21 q-46 -21 -74.5 -60.5 q-28.5 -39.5 -28.5 -94.5 q0 -57 37 -93.5 q37 -36.5 98 -36.5 Z" /><glyph glyph-name="uni0502" unicode="&#x502;" d="M1133 -20 q-118 0 -209.5 27.5 q-91.5 27.5 -151.5 82.5 q-57 -46 -129.5 -78 q-72.5 -32 -161.5 -32 q-136 0 -228.5 55 q-92.5 55 -139.5 151 q-47 96 -47 220 q0 178 81 297.5 q81 119.5 224.5 180 q143.5 60.5 330.5 60.5 l82 0 l109 518 l391 0 l-197 -930 q-7 -34 -15.5 -77 q-8.5 -43 -8.5 -78 q0 -31 20 -52.5 q20 -21.5 54 -21.5 q49 0 79.5 31 q30.5 31 47.5 112 l84 402 l391 0 l-94 -455 q-30 -140 -94.5 -231.5 q-64.5 -91.5 -168 -136.5 q-103.5 -45 -249.5 -45 ZM557 299 q31 0 53 10.5 q22 10.5 36 29.5 q14 19 18 42 l51 244 l-43 0 q-59 0 -108 -22.5 q-49 -22.5 -78 -67.5 q-29 -45 -29 -115 q0 -23 8 -51.5 q8 -28.5 29.5 -49 q21.5 -20.5 62.5 -20.5 Z" /><glyph glyph-name="uni0503" unicode="&#x503;" d="M477 -20 q-192 0 -292.5 107.5 q-100.5 107.5 -100.5 324.5 q0 83 17.5 182 q17.5 99 54 197.5 q36.5 98.5 94 180.5 q57.5 82 137 131.5 q79.5 49.5 182.5 49.5 q62 0 107.5 -18.5 q45.5 -18.5 81 -52.5 q35.5 -34 65.5 -81 l8 0 q0 13 2.5 55.5 q2.5 42.5 8.5 97 q6 54.5 16 101.5 l62 301 l391 0 l-230 -1087 q-6 -32 -8 -48.5 q-2 -16.5 -2 -35.5 q0 -37 22 -54.5 q22 -17.5 48 -17.5 q66 0 92.5 40.5 q26.5 40.5 48.5 140.5 l45 206 l387 0 l-63 -305 q-46 -214 -173 -314.5 q-127 -100.5 -337 -100.5 q-135 0 -217 35.5 q-82 35.5 -119 93.5 l-10 0 q-32 -36 -83 -65.5 q-51 -29.5 -111.5 -46.5 q-60.5 -17 -123.5 -17 ZM565 291 q42 0 72.5 20.5 q30.5 20.5 51.5 55.5 q21 35 34.5 78.5 q13.5 43.5 21 89 q7.5 45.5 10.5 88 q3 42.5 3 75.5 q0 65 -23.5 104.5 q-23.5 39.5 -64.5 39.5 q-32 0 -61 -23.5 q-29 -23.5 -52.5 -64 q-23.5 -40.5 -41 -93 q-17.5 -52.5 -27 -110.5 q-9.5 -58 -9.5 -117 q0 -69 21.5 -106 q21.5 -37 64.5 -37 Z" /><glyph glyph-name="uni0504" unicode="&#x504;" d="M1061 -20 q-144 0 -247.5 41 q-103.5 41 -158.5 122 q-55 81 -55 201 q0 22 2.5 39.5 q2.5 17.5 5 38 q2.5 20.5 2.5 47.5 q0 57 -37.5 87 q-37.5 30 -101 41 q-63.5 11 -141.5 11 l-115 0 l68 312 l123 0 q113 0 179.5 18 q66.5 18 96 51 q29.5 33 29.5 78 q0 38 -35 71 q-35 33 -127 33 q-79 0 -168.5 -32 q-89.5 -32 -157.5 -72 l-135 266 q91 59 230 104.5 q139 45.5 329 45.5 q171 0 274.5 -51 q103.5 -51 150 -131.5 q46.5 -80.5 46.5 -167.5 q0 -107 -47.5 -184.5 q-47.5 -77.5 -132.5 -122 q-85 -44.5 -197 -54.5 l0 -8 q154 -35 207 -108.5 q53 -73.5 53 -168.5 q0 -19 -2.5 -38.5 q-2.5 -19.5 -5 -37.5 q-2.5 -18 -2.5 -34 q0 -31 20 -52.5 q20 -21.5 54 -21.5 q49 0 79.5 31 q30.5 31 47.5 112 l84 402 l391 0 l-94 -455 q-30 -140 -94.5 -231.5 q-64.5 -91.5 -167.5 -136.5 q-103 -45 -250 -45 Z" /><glyph glyph-name="uni0505" unicode="&#x505;" d="M948 -20 q-162 0 -264 50 q-102 50 -149.5 131 q-47.5 81 -47.5 173 q0 6 0 11 q0 5 0 9 q0 57 -47.5 84 q-47.5 27 -160.5 27 l-101 0 l53 246 l115 0 q77 0 124.5 9.5 q47.5 9.5 69 28 q21.5 18.5 21.5 46.5 q0 35 -23.5 55 q-23.5 20 -99.5 20 q-67 0 -141 -14 q-74 -14 -139 -49 l-84 278 q107 38 206.5 53 q99.5 15 213.5 15 q122 0 224.5 -26 q102.5 -26 165 -88.5 q62.5 -62.5 62.5 -174.5 q0 -67 -26.5 -119 q-26.5 -52 -82.5 -90 q-56 -38 -143 -65 l0 -8 q94 -17 139.5 -62.5 q45.5 -45.5 45.5 -118.5 q0 -4 0 -9 q0 -5 0 -13 q0 -29 22.5 -48.5 q22.5 -19.5 61.5 -19.5 q61 0 82.5 38.5 q21.5 38.5 44.5 144.5 l45 206 l387 0 l-64 -305 q-30 -143 -96.5 -235 q-66.5 -92 -169.5 -136 q-103 -44 -244 -44 Z" /><glyph glyph-name="uni0506" unicode="&#x506;" d="M711 -457 l100 457 l-256 0 l72 324 q11 47 16.5 78.5 q5.5 31.5 5.5 66.5 q0 85 -80 112 q-80 27 -196 27 l-135 0 l67 312 l144 0 q113 0 179.5 16.5 q66.5 16.5 96 48 q29.5 31.5 29.5 76.5 q0 46 -46 78 q-46 32 -130 32 q-56 0 -124 -14 q-68 -14 -130 -37.5 q-62 -23.5 -101 -52.5 l-133 258 q85 60 233.5 109 q148.5 49 346.5 49 q157 0 266.5 -50 q109.5 -50 167 -130 q57.5 -80 57.5 -170 q0 -107 -47.5 -184.5 q-47.5 -77.5 -132.5 -122 q-85 -44.5 -197 -54.5 l0 -8 q77 -17 135.5 -44.5 q58.5 -27.5 91.5 -78.5 q33 -51 33 -139 q0 -26 -4 -54 q-4 -28 -10 -57 l-18 -86 l243 0 l-163 -762 l-381 0 Z" /><glyph glyph-name="uni0507" unicode="&#x507;" d="M672 -416 l110 416 l-299 0 l54 229 q8 35 14 69.5 q6 34.5 6 66.5 q0 47 -43.5 73.5 q-43.5 26.5 -165.5 26.5 l-139 0 l53 246 l154 0 q77 0 124 9.5 q47 9.5 69 28 q22 18.5 22 46.5 q0 35 -24 55 q-24 20 -99 20 q-67 0 -168 -21.5 q-101 -21.5 -182 -60.5 l-84 279 q107 37 228.5 61.5 q121.5 24.5 260.5 24.5 q122 0 225 -26 q103 -26 165.5 -88.5 q62.5 -62.5 62.5 -174.5 q0 -67 -26.5 -119 q-26.5 -52 -82.5 -90 q-56 -38 -143 -65 l0 -8 q106 -28 147 -74 q41 -46 41 -111 q0 -24 -3 -44 q-3 -20 -5 -29 l-2 -13 l248 0 l-150 -727 l-368 0 Z" /><glyph glyph-name="uni0508" unicode="&#x508;" d="M63 -20 q-41 0 -78 6.5 q-37 6.5 -77 19.5 l0 305 q31 -10 52 -15 q21 -5 50 -5 q30 0 62.5 11 q32.5 11 69.5 59.5 q37 48.5 81 158.5 q24 60 53.5 149 q29.5 89 64.5 207 q35 118 75.5 264.5 q40.5 146.5 85.5 321.5 l960 0 l-192 -930 q-7 -34 -16 -77 q-9 -43 -9 -78 q0 -31 20 -52.5 q20 -21.5 54 -21.5 q49 0 79.5 31 q30.5 31 47.5 112 l84 402 l391 0 l-94 -455 q-30 -140 -94.5 -231.5 q-64.5 -91.5 -167.5 -136.5 q-103 -45 -250 -45 q-144 0 -247.5 41 q-103.5 41 -158.5 122 q-55 81 -55 201 q0 40 6 83 q6 43 19 105 l127 619 l-199 0 q-18 -66 -40 -147 q-22 -81 -46.5 -166 q-24.5 -85 -48 -164 q-23.5 -79 -44.5 -142.5 q-21 -63.5 -36 -101.5 q-69 -172 -140.5 -270 q-71.5 -98 -163.5 -139 q-92 -41 -225 -41 Z" /><glyph glyph-name="uni0509" unicode="&#x509;" d="M1264 -20 q-163 0 -264.5 49 q-101.5 49 -149 130.5 q-47.5 81.5 -47.5 180.5 q0 26 2 48.5 q2 22.5 8 51.5 l86 416 q-13 3 -27 4.5 q-14 1.5 -28 1.5 q-59 0 -104 -29.5 q-45 -29.5 -87.5 -118.5 q-42.5 -89 -95.5 -268 q-39 -133 -77 -222.5 q-38 -89.5 -85 -143 q-47 -53.5 -112 -77 q-65 -23.5 -158 -23.5 q-35 0 -79.5 7.5 q-44.5 7.5 -82.5 22.5 l0 301 q26 -13 46.5 -16.5 q20.5 -3.5 33.5 -3.5 q26 0 45.5 14 q19.5 14 38 48.5 q18.5 34.5 39.5 93.5 q21 59 49 149 q42 134 90.5 237.5 q48.5 103.5 119 174.5 q70.5 71 176 108 q105.5 37 261.5 37 q145 0 268 -24 q123 -24 199 -56 l-125 -604 q-6 -32 -8 -48.5 q-2 -16.5 -2 -35.5 q0 -37 22 -54.5 q22 -17.5 48 -17.5 q66 0 92.5 40.5 q26.5 40.5 48.5 140.5 l45 206 l387 0 l-63 -305 q-31 -143 -97.5 -235 q-66.5 -92 -169.5 -136 q-103 -44 -243 -44 Z" /><glyph glyph-name="uni050A" unicode="&#x50a;" d="M1323 -20 q-144 0 -247.5 41 q-103.5 41 -158.5 122 q-55 81 -55 201 q0 40 6 83 q6 43 19 105 l10 62 l-346 0 l-127 -594 l-391 0 l309 1462 l391 0 l-112 -542 l348 0 l112 542 l392 0 l-195 -930 q-7 -34 -16 -77 q-9 -43 -9 -78 q0 -31 20 -52.5 q20 -21.5 54 -21.5 q50 0 80.5 31 q30.5 31 46.5 112 l84 402 l391 0 l-94 -455 q-29 -140 -94 -231.5 q-65 -91.5 -168 -136.5 q-103 -45 -250 -45 Z" /><glyph glyph-name="uni050B" unicode="&#x50b;" d="M1180 -20 q-163 0 -264.5 49 q-101.5 49 -149 130.5 q-47.5 81.5 -47.5 180.5 q0 19 1.5 38.5 q1.5 19.5 4.5 35.5 l4 26 l-225 0 l-94 -440 l-387 0 l241 1133 l387 0 l-86 -410 l221 0 l88 410 l388 0 l-142 -664 q-6 -32 -8 -48.5 q-2 -16.5 -2 -35.5 q0 -37 22 -54.5 q22 -17.5 48 -17.5 q66 0 92.5 40.5 q26.5 40.5 48.5 140.5 l45 206 l387 0 l-63 -305 q-31 -143 -97.5 -235 q-66.5 -92 -169.5 -136 q-103 -44 -243 -44 Z" /><glyph glyph-name="uni050C" unicode="&#x50c;" d="M684 -20 q-271 0 -425.5 146.5 q-154.5 146.5 -154.5 436.5 q0 141 33.5 275.5 q33.5 134.5 101 251.5 q67.5 117 169.5 206 q102 89 240 139 q138 50 313 50 q127 0 243 -27 q116 -27 205 -80 l-147 -309 q-63 37 -140.5 63.5 q-77.5 26.5 -165.5 26.5 q-103 0 -179 -38.5 q-76 -38.5 -129 -103 q-53 -64.5 -85.5 -142.5 q-32.5 -78 -47.5 -158 q-15 -80 -15 -148 q0 -138 55 -201 q55 -63 164 -63 q80 0 139 28.5 q59 28.5 98.5 83.5 q39.5 55 59.5 134 l-352 0 l67 305 l742 0 l-39 -209 q-28 -150 -88 -273 q-60 -123 -152 -211 q-92 -88 -219 -135.5 q-127 -47.5 -291 -47.5 Z" /><glyph glyph-name="uni050D" unicode="&#x50d;" d="M563 -20 q-149 0 -256.5 53 q-107.5 53 -165 156.5 q-57.5 103.5 -57.5 252.5 q0 120 30 227 q30 107 88 196 q58 89 142 153.5 q84 64.5 192 99.5 q108 35 238 35 q86 0 178 -19.5 q92 -19.5 181 -60.5 l-123 -287 q-63 31 -125 45.5 q-62 14.5 -119 14.5 q-53 0 -98 -20 q-45 -20 -81 -56.5 q-36 -36.5 -61.5 -85.5 q-25.5 -49 -39 -107.5 q-13.5 -58.5 -13.5 -123.5 q0 -98 39.5 -140.5 q39.5 -42.5 99.5 -42.5 q68 0 116 38 q48 38 67 108 l-168 0 l61 282 l541 0 l-45 -202 q-34 -155 -108 -271 q-74 -116 -199 -180.5 q-125 -64.5 -314 -64.5 Z" /><glyph glyph-name="uni050E" unicode="&#x50e;" d="M782 -20 q-144 0 -247 41 q-103 41 -158 122 q-55 81 -55 201 q0 40 5.5 83 q5.5 43 18.5 105 l127 607 l-317 0 l69 323 l1028 0 l-71 -323 l-318 0 l-127 -607 q-7 -34 -15.5 -77 q-8.5 -43 -8.5 -78 q0 -31 19.5 -52.5 q19.5 -21.5 53.5 -21.5 q50 0 80.5 31 q30.5 31 46.5 112 l84 402 l392 0 l-95 -455 q-29 -140 -94 -231.5 q-65 -91.5 -168 -136.5 q-103 -45 -250 -45 Z" /><glyph glyph-name="uni050F" unicode="&#x50f;" d="M719 -20 q-163 0 -264.5 49 q-101.5 49 -149 130.5 q-47.5 81.5 -47.5 180.5 q0 26 4 58 q4 32 10 61 l80 383 l-286 0 l61 291 l960 0 l-61 -291 l-287 0 l-80 -373 q-6 -32 -8 -48.5 q-2 -16.5 -2 -35.5 q0 -37 22 -54.5 q22 -17.5 48 -17.5 q66 0 92.5 40.5 q26.5 40.5 48.5 140.5 l45 206 l387 0 l-63 -305 q-23 -107 -66.5 -185.5 q-43.5 -78.5 -107 -129.5 q-63.5 -51 -147.5 -75.5 q-84 -24.5 -189 -24.5 Z" /><glyph glyph-name="uni0510" unicode="&#x510;" d="M592 -20 q-148 0 -270.5 41 q-122.5 41 -195.5 127 q-73 86 -73 219 q0 129 56.5 213 q56.5 84 157 134.5 q100.5 50.5 231.5 78.5 l0 8 q-111 34 -179.5 92.5 q-68.5 58.5 -68.5 169.5 q0 95 39.5 172 q39.5 77 115.5 132.5 q76 55.5 185 85.5 q109 30 248 30 q121 0 212.5 -20 q91.5 -20 162.5 -52.5 q71 -32.5 130 -69.5 l-176 -274 q-60 40 -152.5 72 q-92.5 32 -199.5 32 q-43 0 -76 -9 q-33 -9 -56 -25 q-23 -16 -34.5 -36 q-11.5 -20 -11.5 -42 q0 -66 61.5 -102.5 q61.5 -36.5 235.5 -36.5 l104 0 l-65 -312 l-86 0 q-83 0 -159 -6 q-76 -6 -136 -23 q-60 -17 -94.5 -51.5 q-34.5 -34.5 -34.5 -91.5 q0 -70 59 -107.5 q59 -37.5 172 -37.5 q114 0 200.5 22.5 q86.5 22.5 192.5 73.5 l0 -319 q-78 -33 -148 -52 q-70 -19 -151.5 -27.5 q-81.5 -8.5 -195.5 -8.5 Z" /><glyph glyph-name="uni0512" unicode="&#x512;" d="M942 -563 q-58 0 -119 7.5 q-61 7.5 -104 20.5 l0 306 q26 -10 61 -16.5 q35 -6.5 64 -6.5 q44 0 82 15 q38 15 67.5 59.5 q29.5 44.5 48.5 134.5 l9 43 l-285 0 l240 1151 l-199 0 q-22 -83 -51 -187.5 q-29 -104.5 -59.5 -209 q-30.5 -104.5 -58 -191 q-27.5 -86.5 -46.5 -133.5 q-69 -172 -140.5 -270 q-71.5 -98 -163.5 -139 q-92 -41 -225 -41 q-41 0 -78 6.5 q-37 6.5 -77 19.5 l0 305 q31 -10 52 -15 q21 -5 50 -5 q30 0 62.5 11 q32.5 11 69.5 59.5 q37 48.5 81 158.5 q19 48 42 114.5 q23 66.5 49 151.5 q26 85 56 188.5 q30 103.5 63 225.5 q33 122 69 262 l960 0 l-241 -1157 l297 0 l-84 -414 q-32 -159 -96 -259.5 q-64 -100.5 -162.5 -147.5 q-98.5 -47 -233.5 -47 Z" /><glyph glyph-name="uni0513" unicode="&#x513;" d="M854 -563 q-58 0 -119 7.5 q-61 7.5 -104 20.5 l0 306 q28 -10 62 -16.5 q34 -6.5 63 -6.5 q44 0 82.5 15 q38.5 15 68.5 59.5 q30 44.5 49 134.5 l9 43 l-244 0 l178 856 q-13 3 -27 4.5 q-14 1.5 -28 1.5 q-59 0 -104 -29.5 q-45 -29.5 -87.5 -118.5 q-42.5 -89 -95.5 -268 q-39 -133 -77 -222.5 q-38 -89.5 -85 -143 q-47 -53.5 -112 -77 q-65 -23.5 -158 -23.5 q-35 0 -79.5 7.5 q-44.5 7.5 -82.5 22.5 l0 301 q26 -13 46.5 -16.5 q20.5 -3.5 33.5 -3.5 q26 0 45.5 14 q19.5 14 38 48.5 q18.5 34.5 39.5 93.5 q21 59 49 149 q42 134 90.5 237.5 q48.5 103.5 119 174.5 q70.5 71 176 108 q105.5 37 261.5 37 q145 0 268 -24 q123 -24 199 -56 l-162 -790 l254 0 l-75 -392 q-32 -159 -96 -259.5 q-64 -100.5 -162.5 -147.5 q-98.5 -47 -233.5 -47 Z" /><glyph glyph-name="uni1FDE" unicode="&#x1fde;" d="M752 1208 l0 27 q22 40 47 107 q25 67 47.5 135 q22.5 68 34.5 112 l315 0 l0 -28 q-24 -48 -69 -114.5 q-45 -66.5 -95.5 -131 q-50.5 -64.5 -91.5 -107.5 l-188 0 ZM707 1208 q-143 7 -202 59 q-59 52 -59 144 q0 54 23 98.5 q23 44.5 65.5 71.5 q42.5 27 98.5 27 q57 0 96 -29 q39 -29 39 -86 q0 -49 -25.5 -73.5 q-25.5 -24.5 -64 -33 q-38.5 -8.5 -76.5 -10.5 q0 -3 -0.5 -5.5 q-0.5 -2.5 0.5 -4.5 q0 -28 36 -45.5 q36 -17.5 91 -17.5 l-22 -95 Z" /><glyph glyph-name="uni2070" unicode="&#x2070;" d="M518 834 q-115 0 -186 48.5 q-71 48.5 -103 129.5 q-32 81 -32 178 q0 95 19 179.5 q19 84.5 56 154.5 q37 70 90 121.5 q53 51.5 120.5 79.5 q67.5 28 148.5 28 q144 0 239 -85 q95 -85 95 -279 q0 -102 -20 -188 q-20 -86 -58.5 -154 q-38.5 -68 -93 -115.5 q-54.5 -47.5 -124 -72.5 q-69.5 -25 -151.5 -25 ZM541 1069 q33 0 59 28 q26 28 44.5 75 q18.5 47 28 104.5 q9.5 57.5 9.5 116.5 q0 65 -17.5 95 q-17.5 30 -52.5 30 q-32 0 -57 -33.5 q-25 -33.5 -42 -85.5 q-17 -52 -25.5 -110.5 q-8.5 -58.5 -8.5 -108.5 q0 -58 15.5 -84.5 q15.5 -26.5 46.5 -26.5 Z" /><glyph glyph-name="uni2076" unicode="&#x2076;" d="M549 838 q-174 0 -259 96 q-85 96 -85 268 q0 101 32.5 199 q32.5 98 99.5 179 q67 81 170.5 129 q103.5 48 244.5 48 q53 0 103.5 -5 q50.5 -5 76.5 -11 l0 -234 q-35 13 -86 20 q-51 7 -101 7 q-88 0 -143 -27 q-55 -27 -83.5 -71 q-28.5 -44 -37.5 -95 l8 0 q39 42 90 61 q51 19 117 19 q98 0 162 -60 q64 -60 64 -167 q0 -76 -25.5 -141 q-25.5 -65 -74 -113 q-48.5 -48 -117.5 -75 q-69 -27 -156 -27 ZM549 1047 q31 0 52 21 q21 21 32.5 52 q11.5 31 11.5 62 q0 35 -17.5 52 q-17.5 17 -43.5 17 q-37 0 -59.5 -18 q-22.5 -18 -33 -48 q-10.5 -30 -10.5 -65 q0 -28 18 -50.5 q18 -22.5 50 -22.5 Z" /></font>
</defs>
</svg>
