<?xml version="1.0" standalone="no"?> <!DOCTYPE svg PUBLIC "-//W3C//DTD SVG 1.0//EN" "http://www.w3.org/TR/2001/REC-SVG-20010904/DTD/svg10.dtd" > <svg xmlns="http://www.w3.org/2000/svg" width="100%" height="100%">
<defs >
<font id="ObiSans_ML_Bold" horiz-adv-x="491" ><font-face
    font-family="Obi Sans ML"
    units-per-em="1000"
    panose-1="2 0 8 0 4 0 0 2 0 4"
    ascent="877"
    descent="-231"
    alphabetic="0" />
<missing-glyph horiz-adv-x="475" d="M50 0V667H425V0H50ZM112 63H362V605H112V63Z" />
<glyph unicode=" " glyph-name="space" horiz-adv-x="233" />
<glyph unicode="!" glyph-name="exclam" horiz-adv-x="277" d="M211 196H104L86 667H233L211 196ZM89 0V137H226V0H89Z" />
<glyph unicode="&quot;" glyph-name="quotedbl" horiz-adv-x="455" d="M188 458H88L81 716H196L188 458ZM366 458H266L259 716H373L366 458Z" />
<glyph unicode="#" glyph-name="numbersign" horiz-adv-x="514" d="M404 390L390 283H468V185H375L351 0H242L269 185H207L183 0H75L101 185H23V283H114L128 390H48V489H142L166 667H274L249 489H310L333 667H441L416 489H492V390H404ZM230 391L215 283H287L301 391H230Z" />
<glyph unicode="$" glyph-name="dollar" horiz-adv-x="514" d="M473 176Q473 89 429 45T308 -9V-136H212V-13Q171 -12 141 -9T91 -2Q67 2 50 6V173H189V104Q195 102 205 101Q213 100 225 100T255 99Q296 99 311 117T326 161Q326 192 307 209T249 252L151 316Q131
329 113 345T81 383T59 433T51 500Q51 656 212 677V770H308V679Q345 677 372 675T418 669Q439 665 454 662V500H314V564Q308 565 301 566Q295 567 286 567T266 568Q224 568 210 551T196 507Q196 475 211 460T253 429L369 357Q420 325 446 284T473 176Z" />
<glyph unicode="%" glyph-name="percent" horiz-adv-x="1000" d="M933 97Q933 76 928 56T909 21T870 -3T802 -13Q761 -13 734 -6T692 15T670 48T664 91V327Q664 354 670 374T692 408T734 429T800 436Q842 436 868 428T908 407T928 374T933 334V97ZM462 343Q462
322 458 303T439 268T399 243T331 233Q290 233 263 240T220 261T198 294T192 337V571Q192 598 198 618T220 652T262 673T329 680Q371 680 397 672T437 651T457 618T462 578V343ZM463 -19H378L661 686H747L463 -19ZM830 325Q830 341 823 347T798 353Q781 353 775
346T768 327V97Q768 72 799 72Q815 72 822 76T830 94V325ZM358 570Q358 586 351 592T327 598Q310 598 304 591T297 572V343Q297 329 303 323T327 317Q343 317 350 321T358 339V570Z" />
<glyph unicode="&amp;" glyph-name="ampersand" horiz-adv-x="706" d="M476 214Q487 239 492 263T498 313L499 362H629V321Q629 257 609 211T551 126L649 0H474L442 41Q407 17 367 4T284 -9Q191 -9 140 29T88 157V184Q88 217 97 244T122 292T159 331T203 361Q191
377 181 397T162 439T150 483T145 525Q145 564 160 592T201 638T262 664T337 673Q373 673 405 666T461 642T499 601T513 541Q513 508 502 479T473 425T431 378T381 338Q404 306 428 276T476 214ZM373 526Q373 546 366 558T333 570Q306 570 298 556T290 522Q290
496 299 468T323 418Q346 438 359 466T373 526ZM380 131Q350 168 323 202T268 275Q256 264 250 251T240 225T237 199T236 178V173Q236 135 253 120T306 104Q326 104 346 111T380 131Z" />
<glyph unicode="&apos;" glyph-name="quotesingle" horiz-adv-x="272" d="M186 458H86L79 716H193L186 458Z" />
<glyph unicode="(" glyph-name="parenleft" horiz-adv-x="320" d="M146 -42Q96 45 68 139T39 334Q39 434 67 528T146 708H259Q218 620 192 526T166 334Q166 235 192 141T259 -42H146Z" />
<glyph unicode=")" glyph-name="parenright" horiz-adv-x="342" d="M281 334Q281 233 253 139T174 -42H61Q102 47 128 141T154 334Q154 432 128 526T61 708H174Q224 622 252 528T281 334Z" />
<glyph unicode="*" glyph-name="asterisk" horiz-adv-x="437" d="M316 549L393 465L300 397L242 499L186 399L93 467L172 553L60 576L96 685L202 637L189 750H304L291 634L395 681L430 572L316 549Z" />
<glyph unicode="+" glyph-name="plus" horiz-adv-x="500" d="M307 209V41H194V209H33V312H194V481H307V312H467V209H307Z" />
<glyph unicode="," glyph-name="comma" horiz-adv-x="246" d="M155 -122H50L63 138H202L155 -122Z" />
<glyph unicode="-" glyph-name="hyphen" horiz-adv-x="308" d="M24 217V337H284V217H24Z" />
<glyph unicode="." glyph-name="period" horiz-adv-x="246" d="M55 0V137H191V0H55Z" />
<glyph unicode="/" glyph-name="slash" horiz-adv-x="320" d="M125 -39H7L188 708H307L125 -39Z" />
<glyph unicode="0" glyph-name="zero" horiz-adv-x="515" d="M462 153Q462 111 455 80T426 29T365 -2T262 -13Q217 -13 179 -8T113 14T69 64T53 152V494Q53 544 61 579T92 637T154 670T255 680Q322 680 363 670T426 636T455 577T462 491V153ZM315 512Q315 538
305 553T257 568Q220 568 210 552T199 512V159Q199 126 210 112T257 98Q291 98 303 111T315 153V512Z" />
<glyph unicode="1" glyph-name="one" horiz-adv-x="340" d="M123 0V518L20 470V598L153 667H263V0H123Z" />
<glyph unicode="2" glyph-name="two" horiz-adv-x="474" d="M439 516Q439 464 422 421T377 343T319 277T260 219T213 167T191 116H429V0H25V59Q25 107 45 149T95 230T159 302T224 370T274 437T294 506Q294 533 283 550T233 568Q216 568 205 568T186 566Q177 565
172 564V498H38V662Q62 667 93 671Q119 674 154 677T233 680Q283 680 321 672T386 646T425 596T439 516Z" />
<glyph unicode="3" glyph-name="three" horiz-adv-x="482" d="M441 192Q441 143 438 105T416 41T352 1T227 -13Q185 -13 150 -11T89 -4Q58 0 32 5V180H165V103Q178 102 189 101Q199 100 209 100T228 99Q252 99 265 103T285 116T292 139T294 175V207Q294 225 292
239T281 264T257 280T214 286H156V395H212Q255 395 271 410T287 465V510Q287 536 277 552T231 568Q216 568 204 567T182 565Q171 564 163 563V498H30V662Q56 667 86 671Q112 674 145 677T216 680Q276 680 318 673T386 647T423 593T435 503Q435 460 431 434T417
392T391 366T349 349Q381 340 399 328T427 298T438 254T441 192Z" />
<glyph unicode="4" glyph-name="four" horiz-adv-x="503" d="M413 157V0H268V157H21V261L200 667H413V273H481V157H413ZM271 562L161 273H271V562Z" />
<glyph unicode="5" glyph-name="five" horiz-adv-x="500" d="M452 161Q452 106 441 72T406 19T343 -6T250 -13Q213 -13 177 -11T111 -4Q77 0 45 5V180H178V103L200 101Q210 100 222 100T247 99Q270 99 282 104T299 120T304 144T305 174V284Q305 313 296 327T248
341Q224 341 210 331T189 309H51L58 667H422V551H194L191 417Q211 434 241 441T298 449Q343 449 373 438T420 407T445 360T452 298V161Z" />
<glyph unicode="6" glyph-name="six" horiz-adv-x="507" d="M462 140Q462 93 449 63T410 16T347 -7T263 -13Q211 -13 172 -7T107 19T67 70T53 156V516Q53 575 72 608T120 657T186 676T256 680Q293 680 327 677T388 671Q419 667 446 662V498H313V563Q305 564 295
565Q287 566 277 567T257 568Q237 568 226 564T208 551T201 532T199 508V382Q219 395 246 401T301 408Q371 408 416 373T462 265V140ZM315 235Q315 247 314 258T307 277T292 291T264 296Q251 296 240 294T219 288Q208 284 199 281V158Q199 126 210 112T258 98Q295
98 305 113T315 158V235Z" />
<glyph unicode="7" glyph-name="seven" horiz-adv-x="443" d="M220 0H74L287 551H143V484H10V667H430V551L220 0Z" />
<glyph unicode="8" glyph-name="eight" horiz-adv-x="505" d="M465 130Q465 53 412 20T253 -13Q146 -13 93 21T40 130V213Q40 267 61 304T126 354Q94 364 73 397T51 485V534Q51 584 69 613T116 657T181 676T253 680Q359 680 406 646T454 534V485Q454 437 436 401T381
354Q404 349 420 336T446 303T460 261T465 213V130ZM314 242Q314 266 301 282T252 298Q218 298 205 282T191 243V159Q191 126 204 112T252 98Q287 98 300 112T314 158V242ZM310 518Q310 540 298 554T253 568Q221 568 208 554T194 519V446Q194 416 209 405T253 394Q285
394 297 405T310 445V518Z" />
<glyph unicode="9" glyph-name="nine" horiz-adv-x="508" d="M455 151Q455 92 436 59T387 10T321 -9T251 -13Q207 -13 171 -11T108 -4Q76 0 51 5V179H185V103Q197 101 208 100Q218 99 229 99T250 98Q269 98 280 102T298 115T306 134T308 158V296Q288 283 261 277T206
270Q171 270 142 278T91 304T57 349T45 413V527Q45 574 58 604T97 651T160 674T244 680Q296 680 335 674T401 648T441 596T455 511V151ZM308 509Q308 541 297 555T249 569Q212 569 202 554T192 509V432Q192 409 200 396T243 382Q256 382 267 384T288 389Q299 393
308 397V509Z" />
<glyph unicode=":" glyph-name="colon" horiz-adv-x="246" d="M65 363V500H201V363H65ZM65 0V137H201V0H65Z" />
<glyph unicode=";" glyph-name="semicolon" horiz-adv-x="246" d="M159 -122H54L67 138H206L159 -122ZM68 363V500H204V363H68Z" />
<glyph unicode="&lt;" glyph-name="less" horiz-adv-x="500" d="M33 215V310L467 487V376L144 262L467 148V37L33 215Z" />
<glyph unicode="=" glyph-name="equal" horiz-adv-x="500" d="M33 304V407H467V304H33ZM33 116V219H467V116H33Z" />
<glyph unicode="&gt;" glyph-name="greater" horiz-adv-x="500" d="M33 37V148L356 262L33 376V487L467 310V215L33 37Z" />
<glyph unicode="?" glyph-name="question" horiz-adv-x="466" d="M428 522Q428 503 424 484T414 448T398 415T380 390L326 332Q304 308 291 287T277 235V192H155V230Q155 276 166 309T206 373L271 444Q286 461 292 478T299 522Q299 545 290 556T246 568Q238 568
230 568T213 566Q204 565 196 565V501H70V662Q84 667 109 671Q130 674 163 677T245 680Q311 680 347 668T402 634T424 584T428 522ZM148 0V137H284V0H148Z" />
<glyph unicode="@" glyph-name="at" horiz-adv-x="1041" d="M927 203Q927 99 884 49T738 -1H565V26Q556 17 534 6T475 -6Q436 -6 413 3T377 28T360 67T356 115V336Q356 393 379 424T467 456Q502 456 528 445T565 426V450H681V102H702Q733 102 751 108T778 126T790
159T793 209V409Q793 456 781 484T737 527T655 547T526 552Q445 552 391 547T304 527T258 484T244 409V67Q244 6 262 -28T310 -78T378 -99T458 -103H494Q533 -103 573 -100T645 -93Q683 -89 717 -82L733 -192Q702 -199 668 -204Q639 -209 602 -212T523 -216Q419
-216 342 -207T213 -167T136 -81T110 69V415Q110 496 134 545T210 620T340 654T529 662Q631 662 706 654T830 619T903 544T927 415V203ZM560 340Q553 345 540 349T512 353Q491 353 485 340T478 306V147Q478 112 485 104T512 95Q525 95 539 99T560 110V340Z" />
<glyph unicode="A" glyph-name="A" horiz-adv-x="516" d="M348 0L312 172H196L166 0H16L146 667H365L500 0H348ZM276 417Q272 434 269 460T262 510Q258 538 254 569Q250 538 246 510Q242 485 238 459T232 416L209 280H300L276 417Z" />
<glyph unicode="B" glyph-name="B" horiz-adv-x="521" d="M479 175Q479 127 469 94T436 40T376 10T286 0H63V667H273Q318 667 354 663T415 645T455 601T469 522V489Q469 464 467 442T457 402T432 372T385 353Q420 347 439 333T467 300T477 259T479 215V175ZM333
229Q333 245 331 256T323 276T303 288T269 292H210V116H265Q290 116 303 120T323 133T331 155T333 186V229ZM323 503Q323 520 320 530T309 544T291 550T264 551H210V400H269Q288 400 298 404T314 415T321 434T323 460V503Z" />
<glyph unicode="C" glyph-name="C" horiz-adv-x="514" d="M467 5Q444 0 413 -4Q387 -8 349 -10T262 -13Q202 -13 163 -2T99 32T66 86T56 160V498Q56 549 69 584T109 640T175 671T264 680Q309 680 345 677T408 671Q438 667 462 662V471H325V562Q318 563 309 565Q301
566 291 567T270 568Q229 568 216 550T202 496V171Q202 133 214 116T265 98Q277 98 288 98T308 100Q318 101 327 103V206H467V5Z" />
<glyph unicode="D" glyph-name="D" horiz-adv-x="543" d="M487 178Q487 124 477 89T444 35T382 8T288 0H63V667H283Q337 667 375 660T438 633T475 579T487 491V178ZM341 483Q341 505 338 518T327 539T304 548T265 551H210V116H269Q293 116 307 119T329 131T339
154T341 190V483Z" />
<glyph unicode="E" glyph-name="E" horiz-adv-x="462" d="M63 0V667H419V551H210V404H402V288H210V116H423V0H63Z" />
<glyph unicode="F" glyph-name="F" horiz-adv-x="415" d="M210 551V394H386V278H210V0H63V667H398V551H210Z" />
<glyph unicode="G" glyph-name="G" horiz-adv-x="528" d="M354 0L348 38Q319 12 284 4T220 -5Q164 -5 132 10T82 50T61 107T56 176V508Q56 561 70 594T111 647T181 673T281 680Q324 680 358 677T415 671Q442 667 462 662V471H325V563Q318 564 309 565Q301 566
292 567T271 568Q234 568 218 557T202 508V180Q202 166 203 154T211 134T231 121T269 116Q286 116 300 117T323 120Q334 122 341 125V252H284V352H478V0H354Z" />
<glyph unicode="H" glyph-name="H" horiz-adv-x="550" d="M339 0V288H210V0H63V667H210V404H339V667H487V0H339Z" />
<glyph unicode="I" glyph-name="I" horiz-adv-x="273" d="M63 0V667H210V0H63Z" />
<glyph unicode="J" glyph-name="J" horiz-adv-x="328" d="M267 165Q267 119 260 87T234 34T183 4T102 -6Q50 -6 25 -3Q10 -1 0 1V119Q13 118 24 117Q34 116 44 116T62 115Q97 115 108 130T120 176V667H267V165Z" />
<glyph unicode="K" glyph-name="K" horiz-adv-x="528" d="M361 0L208 280V0H63V667H208V412L360 667H519L327 355L528 0H361Z" />
<glyph unicode="L" glyph-name="L" horiz-adv-x="407" d="M63 0V667H210V116H398V0H63Z" />
<glyph unicode="M" glyph-name="M" horiz-adv-x="800" d="M590 0L591 366Q591 382 591 416T593 485T595 547T596 577Q595 574 591 548T581 487T570 419T560 366L480 3H314L238 366Q236 375 233 392T226 431T218 475T211 517T204 551Q203 560 202 564Q202 561 203
540Q204 514 205 481L208 415Q210 382 210 366V0H63V667H306L374 351Q388 288 392 245T397 189Q398 200 402 242T420 351L484 667H737V0H590Z" />
<glyph unicode="N" glyph-name="N" horiz-adv-x="579" d="M307 0L249 259Q243 288 234 334T217 425T201 505Q195 536 194 545Q194 541 195 525Q196 506 198 479T202 418T206 354T209 297T210 257V0H63V667H270L325 419Q334 378 343 329T362 235T377 158T384 119Q384
121 383 138T380 183T377 243T373 308T370 368T369 413V667H516V0H307Z" />
<glyph unicode="O" glyph-name="O" horiz-adv-x="536" d="M480 162Q480 112 467 78T427 24T360 -4T267 -13Q198 -13 156 1T92 40T63 96T56 160V509Q56 560 70 593T111 645T178 672T270 680Q343 680 385 665T448 625T474 568T480 502V162ZM334 500Q334 538 322
553T269 568Q248 568 235 564T215 552T206 531T203 500V162Q203 131 215 115T267 98Q308 98 321 113T334 162V500Z" />
<glyph unicode="P" glyph-name="P" horiz-adv-x="514" d="M480 426Q480 369 463 336T420 285T360 263T295 258H210V0H63V667H291Q338 667 373 660T432 636T468 590T480 518V426ZM333 489Q333 514 329 528T316 549T291 557T252 558H210V371H251Q272 371 287 373T313
382T328 404T333 445V489Z" />
<glyph unicode="Q" glyph-name="Q" horiz-adv-x="536" d="M461 -103L269 -13H267Q198 -13 156 1T92 40T63 96T56 160V509Q56 560 70 593T111 645T178 672T270 680Q343 680 385 665T448 625T474 568T480 502V162Q480 72 435 32L520 -10L461 -103ZM334 500Q334 538
322 553T269 568Q248 568 235 564T215 552T206 531T203 500V162Q203 131 215 115T267 98Q308 98 321 113T334 162V500Z" />
<glyph unicode="R" glyph-name="R" horiz-adv-x="518" d="M351 0L249 283H210V0H63V667H272Q318 667 356 662T422 640T465 594T480 515V466Q480 436 476 410T461 361T433 324T388 303L508 0H351ZM338 483Q338 508 333 522T316 542T287 550T247 551H210V399H246Q267
399 284 399T313 406T331 425T338 464V483Z" />
<glyph unicode="S" glyph-name="S" horiz-adv-x="483" d="M454 176Q454 125 438 89T393 31T322 -2T228 -13Q179 -13 143 -11T81 -4Q52 0 31 6V173H170V104Q176 102 186 101Q194 100 206 100T236 99Q277 99 292 117T307 161Q307 176 302 188T288 210T264 231T230
254L132 318Q91 345 62 388T32 500Q32 589 84 634T243 680Q291 680 327 677T387 671Q415 667 435 662V500H295V564Q289 565 282 566Q276 567 267 567T247 568Q205 568 191 551T177 507Q177 475 192 460T234 429L350 357Q401 325 427 284T454 176Z" />
<glyph unicode="T" glyph-name="T" horiz-adv-x="458" d="M303 551V0H154V551H17V667H442V551H303Z" />
<glyph unicode="U" glyph-name="U" horiz-adv-x="541" d="M483 155Q483 124 476 94T447 40T384 2T276 -13Q205 -13 162 0T96 37T66 90T58 155V667H205V160Q205 131 218 115T273 98Q312 98 324 115T336 160V667H483V155Z" />
<glyph unicode="V" glyph-name="V" d="M353 0H138L15 667H165L219 336Q222 315 226 288T233 233T240 178T245 129Q248 151 251 177T257 231T264 285T272 335L327 667H476L353 0Z" />
<glyph unicode="W" glyph-name="W" horiz-adv-x="744" d="M649 0H446L397 320Q394 338 392 365T386 423T380 482T375 532Q373 512 371 485T367 429T361 370T354 319L306 0H103L15 667H167L205 370Q209 340 210 315T213 264T215 214T218 158Q223 206 227 262T239
370L280 667H468L514 370Q522 317 525 265T533 167Q536 212 538 264T545 370L576 667H729L649 0Z" />
<glyph unicode="X" glyph-name="X" horiz-adv-x="471" d="M309 0L236 255L160 0H10L143 360L16 667H167L236 458L306 667H455L328 362L461 0H309Z" />
<glyph unicode="Y" glyph-name="Y" horiz-adv-x="466" d="M302 280V0H158V280L0 667H148L233 413L317 667H466L302 280Z" />
<glyph unicode="Z" glyph-name="Z" horiz-adv-x="475" d="M34 0V109L267 551H60V667H436V558L200 116H440V0H34Z" />
<glyph unicode="[" glyph-name="bracketleft" horiz-adv-x="332" d="M70 -42V708H293V602H196V64H293V-42H70Z" />
<glyph unicode="\" glyph-name="backslash" horiz-adv-x="320" d="M188 -39L7 708H125L307 -39H188Z" />
<glyph unicode="]" glyph-name="bracketright" horiz-adv-x="332" d="M39 -42V64H136V602H39V708H263V-42H39Z" />
<glyph unicode="^" glyph-name="asciicircum" horiz-adv-x="500" d="M352 436L251 653L149 436H29L176 743H324L471 436H352Z" />
<glyph unicode="_" glyph-name="underscore" horiz-adv-x="514" d="M-3 -250V-152H517V-250H-3Z" />
<glyph unicode="`" glyph-name="grave" horiz-adv-x="500" d="M237 589L146 732H296L354 589H237Z" />
<glyph unicode="a" glyph-name="a" horiz-adv-x="481" d="M291 0V48Q278 32 260 20Q245 9 224 1T176 -7Q147 -7 122 -1T78 21T48 62T37 125V152Q37 224 97 271T289 330V378Q289 407 280 418T239 429Q228 429 219 428T203 426Q195 425 188 424V372H60V511Q80 517
107 522Q130 527 164 530T243 534Q281 534 314 530T373 512T414 472T429 400V0H291ZM289 234Q240 232 209 215T177 161V156Q177 130 188 116T229 102Q242 102 253 105T272 113Q282 118 289 125V234Z" />
<glyph unicode="b" glyph-name="b" horiz-adv-x="494" d="M446 131Q446 120 442 97T424 51T383 11T309 -7Q278 -7 256 0T220 16T199 32Q192 39 191 41V0H55V716H195V491Q206 502 223 512Q237 520 258 527T309 534Q386 534 416 496T446 390V131ZM306 361Q306 387
296 402T257 418Q235 418 219 408T195 391V137Q203 129 220 119T256 109Q284 109 295 123T306 159V361Z" />
<glyph unicode="c" glyph-name="c" horiz-adv-x="457" d="M416 10Q394 3 367 -2Q344 -7 312 -10T241 -13Q176 -13 138 0T80 35T55 84T49 139V377Q49 407 55 435T80 485T137 520T237 534Q281 534 313 530T368 521Q394 516 411 509V351H282V414Q277 415 271 416Q266
417 258 417T238 418Q222 418 213 413T198 401T191 384T189 364V161Q189 136 198 120T239 103H258Q266 103 272 104Q279 105 284 106V183H416V10Z" />
<glyph unicode="d" glyph-name="d" horiz-adv-x="494" d="M303 0V42Q302 41 296 34T275 17T240 1T186 -7Q140 -7 113 10T71 51T53 97T49 131V390Q49 424 56 451T79 496T121 524T186 534Q215 534 236 527T271 512Q288 502 299 491V716H439V0H303ZM299 391Q291 398
275 408T238 418Q209 418 199 403T189 361V159Q189 138 200 124T239 109Q256 109 273 119T299 137V391Z" />
<glyph unicode="e" glyph-name="e" horiz-adv-x="486" d="M189 238V145Q189 92 248 92Q260 92 269 92T286 94Q294 95 300 96V166H434V10Q413 3 386 -2Q363 -7 331 -10T256 -13Q205 -13 167 -7T103 16T63 63T49 141V379Q49 425 62 455T100 503T161 527T245 534Q281
534 316 530T378 509T423 461T440 376V238H189ZM300 379Q300 408 288 421T247 434Q215 434 202 422T189 379V327H300V379Z" />
<glyph unicode="f" glyph-name="f" horiz-adv-x="287" d="M306 623Q299 624 290 625Q282 626 273 626T256 627Q223 627 214 609T205 563V521H289V418H205V0H65V418H8V521H65V584Q65 615 72 641T97 687T141 716T211 727Q229 727 246 726T277 724Q293 722 306 721V623Z" />
<glyph unicode="g" glyph-name="g" horiz-adv-x="494" d="M439 -16Q439 -64 425 -96T385 -148T322 -176T238 -185Q196 -185 163 -182T104 -174Q75 -170 52 -163V-31H190V-81Q195 -83 203 -84Q209 -85 218 -85T240 -86Q276 -86 287 -71T299 -25V65Q288 53 271 43Q257
35 235 28T181 21Q149 21 124 32T83 64T58 111T49 169V373Q49 398 53 425T72 474T111 511T180 526Q214 526 237 520T274 506T296 491T304 482V521H439V-16ZM299 396Q293 402 284 407Q276 411 265 414T240 418Q205 418 197 401T189 358V182Q189 158 198 143T237
127Q250 127 261 129T281 136Q291 140 299 146V396Z" />
<glyph unicode="h" glyph-name="h" horiz-adv-x="485" d="M292 0V375Q292 398 283 408T247 418Q228 418 216 409T195 391V0H55V716H195V488Q206 500 221 511Q234 519 253 526T300 534Q341 534 366 526T406 502T426 462T432 404V0H292Z" />
<glyph unicode="i" glyph-name="i" horiz-adv-x="250" d="M55 0V521H195V0H55ZM55 605V716H195V605H55Z" />
<glyph unicode="j" glyph-name="j" horiz-adv-x="258" d="M203 -4Q203 -35 198 -66T176 -123T128 -165T46 -181Q8 -181 -14 -178Q-27 -176 -38 -174V-62Q-31 -64 -22 -65Q-15 -66 -6 -66T13 -67Q32 -67 42 -62T56 -49T62 -29T63 -3V521H203V-4ZM63 605V716H203V605H63Z" />
<glyph unicode="k" glyph-name="k" horiz-adv-x="464" d="M315 0L195 219V0H55V716H195V359L303 521H464L300 300L474 0H315Z" />
<glyph unicode="l" glyph-name="l" horiz-adv-x="250" d="M55 0V716H195V0H55Z" />
<glyph unicode="m" glyph-name="m" horiz-adv-x="710" d="M517 0V366Q517 386 510 399T479 413Q468 413 458 410T441 404Q432 400 426 395V0H286V370Q286 388 278 400T246 413Q235 413 226 410T209 404Q201 400 195 395V0H55V521H189V473Q210 498 239 513T302
528Q334 528 354 519T387 499Q400 487 407 471Q416 478 427 488T455 507T490 522T535 528Q578 528 602 516T639 484T654 440T657 393V0H517Z" />
<glyph unicode="n" glyph-name="n" horiz-adv-x="485" d="M292 0V370Q292 393 284 403T249 413Q236 413 227 410T210 402Q202 397 195 391V0H55V521H191V476Q202 490 220 501Q235 510 257 518T311 526Q347 526 370 519T407 496T426 456T432 399V0H292Z" />
<glyph unicode="o" glyph-name="o" horiz-adv-x="488" d="M440 122Q440 95 432 71T402 28T344 -2T250 -13Q209 -13 173 -8T109 12T65 57T49 133V379Q49 433 67 464T113 510T177 530T248 534Q277 534 311 531T373 512T421 467T440 385V122ZM300 366Q300 392 289
405T245 418Q213 418 201 404T189 365V156Q189 130 201 117T246 103Q278 103 289 116T300 156V366Z" />
<glyph unicode="p" glyph-name="p" horiz-adv-x="494" d="M446 131Q446 63 416 25T309 -13Q280 -13 259 -7T223 8Q206 18 195 30V-173H55V521H191V478Q192 480 197 487Q204 495 218 504T255 520T309 528Q355 528 382 511T424 470T442 424T446 390V131ZM306 363Q306
384 295 398T256 413Q238 413 221 403T195 385V130Q203 123 219 113T257 103Q286 103 296 118T306 160V363Z" />
<glyph unicode="q" glyph-name="q" horiz-adv-x="494" d="M299 -173V30Q288 18 271 8Q257 0 236 -6T186 -13Q148 -13 122 -4T79 24T56 70T49 131V390Q49 401 53 424T71 470T112 510T186 528Q217 528 238 521T273 505T295 488T303 478V521H439V-173H299ZM299 385Q291
393 274 403T239 413Q211 413 200 399T189 363V160Q189 134 199 119T238 103Q259 103 275 113T299 130V385Z" />
<glyph unicode="r" glyph-name="r" horiz-adv-x="340" d="M323 382Q290 382 268 376T232 361T209 339T195 315V0H55V521H187V437Q188 440 194 452Q201 468 216 486T258 519T323 534V382Z" />
<glyph unicode="s" glyph-name="s" horiz-adv-x="443" d="M416 147Q416 95 401 64T359 15T294 -7T210 -13Q171 -13 139 -10T84 -2Q57 2 36 9V138H165V86Q169 84 177 83Q189 80 217 80Q250 80 261 94T273 132Q273 147 268 158T251 180T223 199T180 220Q146 235
119 248T73 278T43 319T32 381Q32 427 47 457T89 504T150 527T226 534Q268 534 299 530T353 521Q379 516 397 509V385H267V434Q262 435 256 436Q251 437 243 438T223 439Q190 439 181 426T172 392Q172 376 180 366T204 347T242 330T296 308Q362 279 389 243T416
147Z" />
<glyph unicode="t" glyph-name="t" horiz-adv-x="325" d="M308 5Q295 2 279 -1Q265 -3 247 -5T207 -7Q164 -7 138 3T97 32T77 80T72 145V418H16V521H72V643L212 676V521H293V418H212V167Q212 153 212 142T217 123T231 111T258 107Q277 107 292 110Q301 111 308 113V5Z" />
<glyph unicode="u" glyph-name="u" horiz-adv-x="485" d="M294 0V45Q283 31 265 20Q250 10 228 3T174 -5Q138 -5 115 2T78 25T59 65T53 122V521H193V151Q193 128 201 118T236 108Q248 108 258 111T275 119Q283 123 290 130V521H430V0H294Z" />
<glyph unicode="v" glyph-name="v" horiz-adv-x="435" d="M302 0H133L13 521H152L200 274Q206 242 211 201T219 124Q222 158 226 198T237 274L281 521H422L302 0Z" />
<glyph unicode="w" glyph-name="w" horiz-adv-x="671" d="M558 0H402L353 232Q347 260 341 300Q336 338 334 370Q331 343 327 306Q322 267 314 232L265 0H109L15 521H157L187 298L191 262Q194 242 195 222T198 182T201 147Q204 177 209 219T222 298L262 521H409Q416
481 422 446Q427 416 432 385T441 336Q444 316 448 291T455 241T462 190Q466 167 468 149Q470 179 473 220Q477 262 482 300L515 521H657L558 0Z" />
<glyph unicode="x" glyph-name="x" horiz-adv-x="424" d="M276 0L235 120Q225 148 220 177L214 211Q213 208 212 201Q211 192 208 179T201 151T191 120L148 0H0L120 271L8 521H156L191 419Q205 380 209 355T214 324Q214 327 215 336T219 358T226 388T235 419L269
521H415L307 272L424 0H276Z" />
<glyph unicode="y" glyph-name="y" horiz-adv-x="444" d="M309 24Q301 -7 291 -42T262 -108T212 -159T129 -180Q93 -180 66 -177Q50 -175 36 -173V-73Q42 -74 49 -75Q55 -76 61 -76T74 -77Q90 -77 101 -73T118 -61T128 -46T132 -30L139 22L18 521H158L198 326Q214
248 218 199T222 143Q222 147 223 163T228 203T236 258T248 324L287 521H427L309 24Z" />
<glyph unicode="z" glyph-name="z" horiz-adv-x="382" d="M18 0V90L200 418H30V521H358V431L177 103H364V0H18Z" />
<glyph unicode="{" glyph-name="braceleft" horiz-adv-x="332" d="M217 -42Q99 -42 99 79V206Q99 223 97 241T84 274Q74 288 59 292T28 298V365Q51 366 65 373T86 393T96 422T99 459V586Q99 646 127 677T217 708H315V619H278Q246 619 233 600T220 552V445Q220
396 202 369T132 333V330Q181 321 200 296T220 221V113Q220 84 233 66T278 47H315V-42H217Z" />
<glyph unicode="|" glyph-name="bar" horiz-adv-x="500" d="M191 -196V667H309V-196H191Z" />
<glyph unicode="}" glyph-name="braceright" horiz-adv-x="321" d="M304 298Q289 297 274 293T248 275Q238 261 236 242T233 206V79Q233 -42 115 -42H17V47H54Q86 47 99 65T112 113V221Q112 270 131 295T200 330V333Q149 341 131 368T112 445V552Q112 581 99 600T54
619H17V708H115Q176 708 204 677T233 586V459Q233 439 235 423T245 394T267 374T304 365V298Z" />
<glyph unicode="~" glyph-name="asciitilde" horiz-adv-x="500" d="M479 307Q467 283 454 260T423 220T382 193T329 182Q306 182 286 190T245 208T204 226T160 235Q129 235 113 219T82 179L21 215Q32 236 45 258T74 299T111 330T159 342Q183 342 205 334T250 316T294
298T341 289Q370 289 386 305T416 344L479 307Z" />
<glyph unicode="&#xa0;" glyph-name="uni00A0" horiz-adv-x="237" />
<glyph unicode="&#xa1;" glyph-name="exclamdown" horiz-adv-x="277" d="M44 0L66 471H173L191 0H44ZM51 530V667H188V530H51Z" />
<glyph unicode="&#xa2;" glyph-name="cent" horiz-adv-x="514" d="M318 532Q348 530 371 526T412 518Q431 514 445 509V351H316V414Q309 415 300 416Q292 417 283 417T262 418Q230 418 217 401T203 364V161Q203 136 217 120T263 103H283Q293 103 301 104Q310 105
318 106V183H450V10Q432 6 412 2Q394 -2 371 -5T318 -11V-110H222V-11Q171 -7 140 7T92 43T69 88T63 139V377Q63 404 69 430T93 478T141 513T222 532V627H318V532Z" />
<glyph unicode="&#xa3;" glyph-name="sterling" horiz-adv-x="514" d="M82 0V271H13V371H82V498Q82 549 94 584T130 640T192 671T280 680Q325 680 361 677T424 671Q454 667 478 662V491H341V562Q334 563 325 565Q317 566 307 567T286 568Q266 568 255 563T237
549T230 527T228 496V371H415V271H228V116H483V0H82Z" />
<glyph unicode="&#xa4;" glyph-name="currency" horiz-adv-x="514" d="M443 85L363 164Q334 147 310 141T257 134Q227 134 204 140T151 164L71 85L2 152L84 232Q67 260 61 282T54 334Q54 363 60 385T84 437L2 519L71 586L151 507Q181 524 204 530T258 536Q287
536 309 530T360 507L440 586L507 519L429 437Q447 407 453 385T459 334Q459 307 453 284T429 232L511 153L443 85ZM350 335Q350 354 343 371T324 401T295 421T256 429Q214 429 189 402T163 335Q163 315 170 298T190 269T220 249T256 241Q275 241 292 248T322 269T342
299T350 335Z" />
<glyph unicode="&#xa5;" glyph-name="yen" horiz-adv-x="514" d="M39 211V283H181V310L158 362H29V434H126L24 667H182L256 434H257L331 667H490L383 434H483V362H350L327 310V283H473V211H327V0H181V211H39Z" />
<glyph unicode="&#xa6;" glyph-name="brokenbar" horiz-adv-x="500" d="M191 357V667H309V357H191ZM191 -195V115H309V-195H191Z" />
<glyph unicode="&#xa7;" glyph-name="section" horiz-adv-x="514" d="M47 248Q47 304 74 339T146 394Q109 419 88 449T67 524Q67 568 84 597T129 644T194 669T270 677Q312 677 344 673T400 664Q426 659 446 652V528H317V577Q310 578 301 579Q293 580 284 581T263
582Q231 582 220 569T208 535Q208 524 216 515T238 498T266 482T294 468L368 429Q418 403 440 365T463 275Q463 244 455 220T433 176T401 143T363 119Q381 108 397 96T426 68T444 33T451 -12Q451 -59 434 -88T389 -135T323 -158T247 -165Q205 -165 171 -161T112
-150Q83 -144 61 -135V-11H191V-60Q200 -63 210 -65Q228 -70 251 -70Q283 -70 297 -54T311 -18Q311 -5 304 4T283 22T253 38T216 57L138 101Q90 128 69 162T47 248ZM242 342Q219 336 202 315T185 267Q185 238 196 220T231 189L265 172Q296 182 310 201T325 252Q325
270 321 282T310 302T294 316T274 327L242 342Z" />
<glyph unicode="&#xa8;" glyph-name="dieresis" horiz-adv-x="500" d="M274 605V716H414V605H274ZM85 605V716H225V605H85Z" />
<glyph unicode="&#xa9;" glyph-name="copyright" horiz-adv-x="669" d="M662 334Q662 256 643 192T583 83T481 12T336 -13Q254 -13 193 12T90 83T28 192T7 334Q7 412 27 475T89 584T192 655T336 680Q418 680 479 655T580 585T641 475T662 334ZM580 334Q580 392
566 442T522 530T446 589T336 610Q271 610 224 589T147 532T103 445T89 334Q89 274 103 223T146 136T223 78T336 57Q402 57 448 78T524 135T566 223T580 334ZM451 151Q436 147 418 143Q402 140 381 138T333 136Q289 136 264 145T225 168T208 201T204 238V428Q204
448 208 467T225 500T264 524T331 533Q360 533 382 531T419 525Q436 521 448 517V410H361V453Q357 453 353 454Q349 454 344 454T331 455Q310 455 304 444T298 419V252Q298 235 304 224T332 213H344Q350 213 354 214Q358 214 362 215V266H451V151Z" />
<glyph unicode="&#xaa;" glyph-name="ordfeminine" horiz-adv-x="315" d="M189 370V391Q181 384 162 375T119 366Q85 366 61 383T37 444V459Q37 501 76 528T188 563V586Q188 600 182 605T160 610Q155 610 150 610T140 609Q135 608 129 608V583H50V663Q65 666 83
670Q99 672 120 674T166 677Q188 677 207 675T242 664T265 641T274 598V370H189ZM188 501Q168 500 155 498T135 490T126 478T123 461Q123 435 154 435Q165 435 177 440Q182 443 188 446V501ZM39 221V288H278V221H39Z" />
<glyph unicode="&#xab;" glyph-name="guillemotleft" horiz-adv-x="495" d="M393 261L457 43H326L247 260L328 477H458L393 261ZM185 261L249 43H118L39 260L120 477H250L185 261Z" />
<glyph unicode="&#xac;" glyph-name="logicalnot" horiz-adv-x="500" d="M354 13V212H33V315H467V13H354Z" />
<glyph unicode="&#xad;" glyph-name="hyphen" horiz-adv-x="308" d="M24 217V337H284V217H24Z" />
<glyph unicode="&#xae;" glyph-name="registered" horiz-adv-x="524" d="M469 525Q469 476 456 435T418 364T354 317T263 300Q212 300 173 317T108 364T69 435T55 525Q55 574 68 615T108 687T173 734T263 751Q314 751 353 734T417 687T456 615T469 525ZM414 525Q414
561 406 593T379 649T332 688T263 702Q222 702 193 689T146 651T118 595T109 525Q109 487 117 455T145 399T193 362T263 348Q303 348 332 361T379 399T405 455T414 525ZM294 406L255 506H241V406H195V647H258Q300 647 315 632T331 583Q331 552 324 538T298 518L344
406H294ZM283 580Q283 592 279 598T263 604H241V550H263Q277 550 280 558T283 580Z" />
<glyph unicode="&#xaf;" glyph-name="macron" horiz-adv-x="500" d="M107 610V715H392V610H107Z" />
<glyph unicode="&#xb0;" glyph-name="degree" horiz-adv-x="434" d="M377 561Q377 489 333 449T217 408Q147 408 102 449T57 561Q57 597 69 625T102 673T152 703T217 714Q252 714 281 704T332 674T365 626T377 561ZM295 561Q295 596 275 618T217 640Q180 640 160
618T139 561Q139 526 159 504T217 482Q254 482 274 503T295 561Z" />
<glyph unicode="&#xb1;" glyph-name="plusminus" horiz-adv-x="500" d="M307 274V152H195V274H33V377H195V508H307V377H467V274H307ZM33 13V116H467V13H33Z" />
<glyph unicode="&#xb2;" glyph-name="twosuperior" horiz-adv-x="317" d="M286 573Q286 545 277 522T254 479T223 442T189 410Q169 393 155 377T136 347H280V268H25V308Q25 332 33 353T55 393T85 430T118 464Q144 490 165 515T186 567Q186 580 181 588T156 597Q145
597 139 597T130 596H125V558H33V664Q48 666 66 669Q82 671 104 672T156 674Q220 674 253 653T286 573Z" />
<glyph unicode="&#xb3;" glyph-name="threesuperior" horiz-adv-x="324" d="M285 378Q285 350 283 328T268 291T228 268T150 260Q123 260 101 261T62 265Q43 268 27 271V384H119V338Q130 337 138 337H151Q175 337 180 345T185 375V394Q185 412 178 423T143 434H102V509H141Q164
509 172 516T180 544V570Q180 582 175 589T153 597Q146 597 140 597T129 596H118V558H26V664Q42 666 60 669Q76 671 97 672T144 674Q181 674 207 670T250 653T273 620T281 566Q281 522 273 504T244 476Q272 464 278 444T285 385V378Z" />
<glyph unicode="&#xb4;" glyph-name="acute" horiz-adv-x="500" d="M263 589H146L204 732H354L263 589Z" />
<glyph unicode="&#xb5;" glyph-name="mu" horiz-adv-x="500" d="M340 0V49Q325 20 305 5T251 -10Q215 -10 197 4T160 49V-173H47V521H160V197Q160 147 180 116T252 84Q279 84 296 93T322 117T336 154T340 199V521H453V0H340Z" />
<glyph unicode="&#xb6;" glyph-name="paragraph" horiz-adv-x="514" d="M429 593V-173H348V593H276V-173H195V315H180Q102 315 65 362T27 490Q27 540 45 574T93 628T163 658T248 667H486V593H429Z" />
<glyph unicode="&#xb7;" glyph-name="periodcentered" horiz-adv-x="260" d="M62 209V346H198V209H62Z" />
<glyph unicode="&#xb8;" glyph-name="cedilla" horiz-adv-x="500" d="M362 -141Q362 -174 348 -192T311 -221T262 -233T209 -236Q173 -236 138 -225L140 -163Q167 -171 193 -171Q200 -171 211 -170T233 -166T251 -157T259 -140Q259 -117 243 -112T207 -107Q199
-107 191 -108T174 -110L221 0H284L258 -60Q279 -60 297 -63T330 -76T353 -101T362 -141Z" />
<glyph unicode="&#xb9;" glyph-name="onesuperior" horiz-adv-x="217" d="M75 268V564L13 537V625L97 667H172V268H75Z" />
<glyph unicode="&#xba;" glyph-name="ordmasculine" horiz-adv-x="317" d="M270 442Q270 427 265 413T248 387T214 370T159 363Q136 363 115 366T78 378T53 404T43 448V586Q43 618 53 636T80 663T117 674T158 677Q175 677 195 675T231 664T259 638T270 590V442ZM184
579Q184 592 179 598T157 604Q141 604 136 597T130 578V461Q130 449 136 443T158 436Q173 436 178 442T184 461V579ZM39 221V288H278V221H39Z" />
<glyph unicode="&#xbb;" glyph-name="guillemotright" horiz-adv-x="495" d="M377 43H246L310 261L245 477H375L456 260L377 43ZM169 43H38L102 261L37 477H167L248 260L169 43Z" />
<glyph unicode="&#xbc;" glyph-name="onequarter" horiz-adv-x="765" d="M129 268V564L106 554L67 537V625L151 667H226V268H129ZM283 -19H198L481 686H567L283 -19ZM703 81V0H604V81H456V149L550 399H703V160H744V81H703ZM606 332H601Q600 321 596 305Q590 278
569 221L546 160H606V332Z" />
<glyph unicode="&#xbd;" glyph-name="onehalf" horiz-adv-x="765" d="M129 268V564L106 554L67 537V625L151 667H226V268H129ZM283 -19H198L481 686H567L283 -19ZM726 305Q726 277 717 254T694 211T663 174T629 142Q609 125 595 109T576 79H720V0H465V40Q465 64
473 85T495 125T525 162T558 196Q584 222 605 247T626 299Q626 312 621 320T596 329Q585 329 579 329T570 328H565V289H473V396Q488 398 506 401Q522 403 544 404T596 406Q660 406 693 385T726 305Z" />
<glyph unicode="&#xbe;" glyph-name="threequarters" horiz-adv-x="765" d="M703 81V0H604V81H456V149L550 399H703V160H744V81H703ZM299 378Q299 350 297 328T282 291T242 268T164 260Q137 260 115 261T76 265Q57 268 41 271V384H133V338Q144 337 152 337H165Q189
337 194 345T199 375V394Q199 412 192 423T157 434H116V509H155Q178 509 186 516T194 544V570Q194 582 189 589T167 597Q160 597 154 597T143 596H132V558H40V664Q56 666 74 669Q90 671 111 672T158 674Q195 674 221 670T264 653T287 620T295 566Q295 522 287 504T258
476Q286 464 292 444T299 385V378ZM283 -19H198L481 686H567L283 -19ZM606 332H601Q600 321 596 305Q590 278 569 221L546 160H606V332Z" />
<glyph unicode="&#xbf;" glyph-name="questiondown" horiz-adv-x="466" d="M396 18Q381 13 356 9Q335 5 302 3T221 0Q155 0 119 12T64 46T42 96T38 158Q38 177 42 196T52 232T68 265T86 290L140 348Q162 372 175 393T189 445V488H311V450Q311 404 300 371T260
307L195 236Q180 219 174 202T167 158Q167 135 176 124T220 112H236Q245 112 253 113Q262 114 270 115V179H396V18ZM182 543V680H318V543H182Z" />
<glyph unicode="&#xc0;" glyph-name="Agrave" horiz-adv-x="516" d="M201 719L110 852H270L328 719H201ZM348 0L312 172H196L166 0H16L146 667H365L500 0H348ZM276 417Q272 434 269 460T262 510Q258 538 254 569Q250 538 246 510Q242 485 238 459T232 416L209
280H300L276 417Z" />
<glyph unicode="&#xc1;" glyph-name="Aacute" horiz-adv-x="516" d="M311 719H184L242 852H402L311 719ZM348 0L312 172H196L166 0H16L146 667H365L500 0H348ZM276 417Q272 434 269 460T262 510Q258 538 254 569Q250 538 246 510Q242 485 238 459T232 416L209
280H300L276 417Z" />
<glyph unicode="&#xc2;" glyph-name="Acircumflex" horiz-adv-x="516" d="M302 711L260 781L221 711H101L181 847H336L418 711H302ZM348 0L312 172H196L166 0H16L146 667H365L500 0H348ZM276 417Q272 434 269 460T262 510Q258 538 254 569Q250 538 246 510Q242
485 238 459T232 416L209 280H300L276 417Z" />
<glyph unicode="&#xc3;" glyph-name="Atilde" horiz-adv-x="516" d="M423 750Q408 741 395 733T369 719T342 710T309 706Q293 706 279 711T250 721T221 732T191 737Q174 737 157 726T126 704L73 786Q97 806 127 823T189 840Q205 840 219 835T248 825T277 814T307
809Q313 809 323 812T343 821T364 832T380 841L423 750ZM348 0L312 172H196L166 0H16L146 667H365L500 0H348ZM276 417Q272 434 269 460T262 510Q258 538 254 569Q250 538 246 510Q242 485 238 459T232 416L209 280H300L276 417Z" />
<glyph unicode="&#xc4;" glyph-name="Adieresis" horiz-adv-x="515" d="M96 715V826H229V715H96ZM286 715V826H419V715H286ZM348 0L312 172H196L166 0H16L146 667H365L500 0H348ZM276 417Q272 434 269 460T262 510Q258 538 254 569Q250 538 246 510Q242 485 238
459T232 416L209 280H300L276 417Z" />
<glyph unicode="&#xc5;" glyph-name="Aring" horiz-adv-x="516" d="M367 787Q367 743 344 720T259 697Q200 697 176 720T151 786Q151 829 174 853T259 877Q321 877 344 854T367 787ZM297 787Q297 818 259 818Q221 818 221 787Q221 756 259 756Q297 756 297 787ZM348
0L312 172H196L166 0H16L146 667H365L500 0H348ZM276 417Q272 434 269 460T262 510Q258 538 254 569Q250 538 246 510Q242 485 238 459T232 416L209 280H300L276 417Z" />
<glyph unicode="&#xc6;" glyph-name="AE" horiz-adv-x="658" d="M294 0V172H207L174 0H16L170 667H630V551H441V404H613V288H441V116H634V0H294ZM294 551H281L229 280H294V551Z" />
<glyph unicode="&#xc7;" glyph-name="Ccedilla" horiz-adv-x="514" d="M384 -131Q384 -165 369 -185T331 -215T279 -228T223 -231Q205 -231 185 -228T148 -219L150 -154Q179 -162 206 -162Q214 -162 225 -161T248 -157T267 -148T275 -130Q275 -118 270 -111T258
-101T241 -96T221 -95Q212 -95 204 -96T186 -98L227 -12Q177 -9 145 4T92 39T64 91T56 160V498Q56 549 69 584T109 640T175 671T264 680Q309 680 345 677T408 671Q438 667 462 662V471H325V562Q318 563 309 565Q301 566 291 567T270 568Q229 568 216 550T202 496V171Q202
133 214 116T265 98Q277 98 288 98T308 100Q318 101 327 103V206H467V5Q447 1 421 -3Q398 -6 366 -8T291 -12L274 -46Q296 -46 316 -50T351 -63T375 -89T384 -131Z" />
<glyph unicode="&#xc8;" glyph-name="Egrave" horiz-adv-x="447" d="M63 0V667H409V551H210V404H392V288H210V116H413V0H63ZM191 719L100 852H260L318 719H191Z" />
<glyph unicode="&#xc9;" glyph-name="Eacute" horiz-adv-x="447" d="M63 0V667H409V551H210V404H392V288H210V116H413V0H63ZM280 719H153L211 852H371L280 719Z" />
<glyph unicode="&#xca;" glyph-name="Ecircumflex" horiz-adv-x="447" d="M63 0V667H409V551H210V404H392V288H210V116H413V0H63ZM281 711L239 781L200 711H80L160 847H315L397 711H281Z" />
<glyph unicode="&#xcb;" glyph-name="Edieresis" horiz-adv-x="447" d="M63 0V667H409V551H210V404H392V288H210V116H413V0H63ZM268 715V826H401V715H268ZM68 715V826H201V715H68Z" />
<glyph unicode="&#xcc;" glyph-name="Igrave" horiz-adv-x="273" d="M63 0V667H210V0H63ZM90 719L-1 852H159L217 719H90Z" />
<glyph unicode="&#xcd;" glyph-name="Iacute" horiz-adv-x="273" d="M63 0V667H210V0H63ZM190 719H63L121 852H281L190 719Z" />
<glyph unicode="&#xce;" glyph-name="Icircumflex" horiz-adv-x="273" d="M63 0V667H210V0H63ZM161 711L129 801L100 711H-7L53 847H208L270 711H161Z" />
<glyph unicode="&#xcf;" glyph-name="Idieresis" horiz-adv-x="273" d="M63 0V667H210V0H63ZM170 715V826H283V715H170ZM-10 715V826H103V715H-10Z" />
<glyph unicode="&#xd0;" glyph-name="Eth" horiz-adv-x="543" d="M487 178Q487 124 477 89T444 35T382 8T288 0H63V288H8V404H63V667H283Q337 667 375 660T438 633T475 579T487 491V178ZM279 288H210V116H269Q293 116 307 119T329 131T339 154T341 190V483Q341
505 338 518T327 539T304 548T265 551H210V404H279V288Z" />
<glyph unicode="&#xd1;" glyph-name="Ntilde" horiz-adv-x="579" d="M307 0L249 259Q243 288 234 334T217 425T201 505Q195 536 194 545Q194 541 195 525Q196 506 198 479T202 418T206 354T209 297T210 257V0H63V667H270L325 419Q334 378 343 329T362 235T377
158T384 119Q384 121 383 138T380 183T377 243T373 308T370 368T369 413V667H516V0H307ZM462 750Q447 741 434 733T408 719T381 710T348 706Q332 706 318 711T289 721T260 732T230 737Q213 737 196 726T165 704L112 786Q136 806 166 823T228 840Q244 840 258 835T287
825T316 814T346 809Q352 809 362 812T382 821T403 832T419 841L462 750Z" />
<glyph unicode="&#xd2;" glyph-name="Ograve" horiz-adv-x="536" d="M480 162Q480 112 467 78T427 24T360 -4T267 -13Q198 -13 156 1T92 40T63 96T56 160V509Q56 560 70 593T111 645T178 672T270 680Q343 680 385 665T448 625T474 568T480 502V162ZM334 500Q334
538 322 553T269 568Q248 568 235 564T215 552T206 531T203 500V162Q203 131 215 115T267 98Q308 98 321 113T334 162V500ZM217 719L126 852H286L344 719H217Z" />
<glyph unicode="&#xd3;" glyph-name="Oacute" horiz-adv-x="536" d="M480 162Q480 112 467 78T427 24T360 -4T267 -13Q198 -13 156 1T92 40T63 96T56 160V509Q56 560 70 593T111 645T178 672T270 680Q343 680 385 665T448 625T474 568T480 502V162ZM334 500Q334
538 322 553T269 568Q248 568 235 564T215 552T206 531T203 500V162Q203 131 215 115T267 98Q308 98 321 113T334 162V500ZM325 719H198L256 852H416L325 719Z" />
<glyph unicode="&#xd4;" glyph-name="Ocircumflex" horiz-adv-x="536" d="M480 162Q480 112 467 78T427 24T360 -4T267 -13Q198 -13 156 1T92 40T63 96T56 160V509Q56 560 70 593T111 645T178 672T270 680Q343 680 385 665T448 625T474 568T480 502V162ZM334 500Q334
538 322 553T269 568Q248 568 235 564T215 552T206 531T203 500V162Q203 131 215 115T267 98Q308 98 321 113T334 162V500ZM311 711L269 781L230 711H110L190 847H345L427 711H311Z" />
<glyph unicode="&#xd5;" glyph-name="Otilde" horiz-adv-x="536" d="M480 162Q480 112 467 78T427 24T360 -4T267 -13Q198 -13 156 1T92 40T63 96T56 160V509Q56 560 70 593T111 645T178 672T270 680Q343 680 385 665T448 625T474 568T480 502V162ZM334 500Q334
538 322 553T269 568Q248 568 235 564T215 552T206 531T203 500V162Q203 131 215 115T267 98Q308 98 321 113T334 162V500ZM443 750Q428 741 415 733T389 719T362 710T329 706Q313 706 299 711T270 721T241 732T211 737Q194 737 177 726T146 704L93 786Q117 806
147 823T209 840Q225 840 239 835T268 825T297 814T327 809Q333 809 343 812T363 821T384 832T400 841L443 750Z" />
<glyph unicode="&#xd6;" glyph-name="Odieresis" horiz-adv-x="536" d="M480 162Q480 112 467 78T427 24T360 -4T267 -13Q198 -13 156 1T92 40T63 96T56 160V509Q56 560 70 593T111 645T178 672T270 680Q343 680 385 665T448 625T474 568T480 502V162ZM334 500Q334
538 322 553T269 568Q248 568 235 564T215 552T206 531T203 500V162Q203 131 215 115T267 98Q308 98 321 113T334 162V500ZM300 715V826H433V715H300ZM100 715V826H233V715H100Z" />
<glyph unicode="&#xd7;" glyph-name="multiply" horiz-adv-x="500" d="M390 49L250 188L111 49L37 122L176 261L37 400L111 474L250 335L390 474L463 400L324 261L463 122L390 49Z" />
<glyph unicode="&#xd8;" glyph-name="Oslash" horiz-adv-x="536" d="M430 734L402 657Q428 645 443 628T466 591T476 548T479 502V162Q479 112 466 78T426 24T360 -4T267 -13Q247 -13 230 -12T197 -8L175 -70H102L131 11Q107 23 93 39T70 75T59 116T56 160V509Q56
560 70 593T111 645T178 672T270 680Q289 680 305 679T337 675L357 734H430ZM339 470Q312 386 283 289T228 104Q236 101 247 100T272 98Q313 98 326 113T339 162V470ZM198 206Q211 248 225 293T253 385T281 477T306 563Q299 565 287 566T264 568Q243 568 230 564T210
552T201 531T198 500V206Z" />
<glyph unicode="&#xd9;" glyph-name="Ugrave" horiz-adv-x="541" d="M483 155Q483 124 476 94T447 40T384 2T276 -13Q205 -13 162 0T96 37T66 90T58 155V667H205V160Q205 131 218 115T273 98Q312 98 324 115T336 160V667H483V155ZM231 719L140 852H300L358 719H231Z" />
<glyph unicode="&#xda;" glyph-name="Uacute" horiz-adv-x="541" d="M483 155Q483 124 476 94T447 40T384 2T276 -13Q205 -13 162 0T96 37T66 90T58 155V667H205V160Q205 131 218 115T273 98Q312 98 324 115T336 160V667H483V155ZM300 719H173L231 852H391L300 719Z" />
<glyph unicode="&#xdb;" glyph-name="Ucircumflex" horiz-adv-x="541" d="M483 155Q483 124 476 94T447 40T384 2T276 -13Q205 -13 162 0T96 37T66 90T58 155V667H205V160Q205 131 218 115T273 98Q312 98 324 115T336 160V667H483V155ZM311 711L269 781L230 711H110L190
847H345L427 711H311Z" />
<glyph unicode="&#xdc;" glyph-name="Udieresis" horiz-adv-x="542" d="M483 155Q483 124 476 94T447 40T384 2T276 -13Q205 -13 162 0T96 37T66 90T58 155V667H205V160Q205 131 218 115T273 98Q312 98 324 115T336 160V667H483V155ZM306 715V826H439V715H306ZM106
715V826H239V715H106Z" />
<glyph unicode="&#xdd;" glyph-name="Yacute" horiz-adv-x="466" d="M302 280V0H158V280L0 667H148L233 413L317 667H466L302 280ZM275 719H148L206 852H366L275 719Z" />
<glyph unicode="&#xde;" glyph-name="Thorn" horiz-adv-x="514" d="M480 300Q480 243 463 210T420 159T360 137T295 132H210V0H63V667H210V541H291Q338 541 373 534T432 510T468 464T480 392V300ZM333 363Q333 388 329 402T316 423T291 431T252 432H210V245H251Q272
245 287 247T313 256T328 278T333 319V363Z" />
<glyph unicode="&#xdf;" glyph-name="germandbls" horiz-adv-x="546" d="M513 140Q511 71 477 32T359 -7Q330 -7 308 -5T272 0Q254 3 243 7V100Q257 97 270 95Q281 93 293 92T314 91Q353 91 363 108T373 151Q373 167 368 179T354 203Q353 205 348 212T337 228T324
244T317 254Q306 268 296 280T279 305T266 333T261 369Q261 384 262 394T267 414T274 431T282 450Q283 453 286 460T292 474T299 489T302 499Q305 505 307 515T310 535T313 556T314 572Q314 602 302 613T254 624Q232 624 220 620T203 607T196 586T195 558V0H55V584Q55
621 62 648T89 694T148 722T250 731Q308 731 346 725T409 702T443 657T454 587Q454 570 450 551T441 513T429 477L419 450Q415 439 411 429Q404 410 404 405Q400 393 402 380T406 353Q407 349 412 342T425 325T439 307L452 292Q453 291 457 286T465 276T474 265T478
259Q495 238 505 211T513 140Z" />
<glyph unicode="&#xe0;" glyph-name="agrave" horiz-adv-x="475" d="M286 0V48Q273 32 255 20Q240 9 219 1T171 -7Q142 -7 117 -1T73 21T43 62T32 125V152Q32 224 92 271T284 330V378Q284 407 275 418T234 429Q223 429 214 428T198 426Q190 425 183 424V372H55V511Q75
517 102 522Q125 527 159 530T238 534Q276 534 309 530T368 512T409 472T424 400V0H286ZM195 589L104 732H254L312 589H195ZM284 234Q235 232 204 215T172 161V156Q172 130 183 116T224 102Q237 102 248 105T267 113Q277 118 284 125V234Z" />
<glyph unicode="&#xe1;" glyph-name="aacute" horiz-adv-x="475" d="M286 0V48Q273 32 255 20Q240 9 219 1T171 -7Q142 -7 117 -1T73 21T43 62T32 125V152Q32 224 92 271T284 330V378Q284 407 275 418T234 429Q223 429 214 428T198 426Q190 425 183 424V372H55V511Q75
517 102 522Q125 527 159 530T238 534Q276 534 309 530T368 512T409 472T424 400V0H286ZM289 589H172L230 732H381L289 589ZM284 234Q235 232 204 215T172 161V156Q172 130 183 116T224 102Q237 102 248 105T267 113Q277 118 284 125V234Z" />
<glyph unicode="&#xe2;" glyph-name="acircumflex" horiz-adv-x="475" d="M286 0V48Q273 32 255 20Q240 9 219 1T171 -7Q142 -7 117 -1T73 21T43 62T32 125V152Q32 224 92 271T284 330V378Q284 407 275 418T234 429Q223 429 214 428T198 426Q190 425 183 424V372H55V511Q75
517 102 522Q125 527 159 530T238 534Q276 534 309 530T368 512T409 472T424 400V0H286ZM280 586L241 666L198 586H82L164 732H320L400 586H280ZM284 234Q235 232 204 215T172 161V156Q172 130 183 116T224 102Q237 102 248 105T267 113Q277 118 284 125V234Z"
/>
<glyph unicode="&#xe3;" glyph-name="atilde" horiz-adv-x="475" d="M286 0V48Q273 32 255 20Q240 9 219 1T171 -7Q142 -7 117 -1T73 21T43 62T32 125V152Q32 224 92 271T284 330V378Q284 407 275 418T234 429Q223 429 214 428T198 426Q190 425 183 424V372H55V511Q75
517 102 522Q125 527 159 530T238 534Q276 534 309 530T368 512T409 472T424 400V0H286ZM416 635Q401 626 388 618T362 604T335 595T302 591Q286 591 272 596T243 606T214 617T184 622Q167 622 150 611T119 589L66 671Q90 691 120 708T182 725Q198 725 212 720T241
710T270 699T300 694Q306 694 316 697T336 706T357 717T373 726L416 635ZM284 234Q235 232 204 215T172 161V156Q172 130 183 116T224 102Q237 102 248 105T267 113Q277 118 284 125V234Z" />
<glyph unicode="&#xe4;" glyph-name="adieresis" horiz-adv-x="477" d="M286 0V48Q273 32 255 20Q240 9 219 1T171 -7Q142 -7 117 -1T73 21T43 62T32 125V152Q32 224 92 271T284 330V378Q284 407 275 418T234 429Q223 429 214 428T198 426Q190 425 183 424V372H55V511Q75
517 102 522Q125 527 159 530T238 534Q276 534 309 530T368 512T409 472T424 400V0H286ZM70 605V716H210V605H70ZM260 605V716H400V605H260ZM284 234Q235 232 204 215T172 161V156Q172 130 183 116T224 102Q237 102 248 105T267 113Q277 118 284 125V234Z" />
<glyph unicode="&#xe5;" glyph-name="aring" horiz-adv-x="475" d="M286 0V48Q273 32 255 20Q240 9 219 1T171 -7Q142 -7 117 -1T73 21T43 62T32 125V152Q32 224 92 271T284 330V378Q284 407 275 418T234 429Q223 429 214 428T198 426Q190 425 183 424V372H55V511Q75
517 102 522Q125 527 159 530T238 534Q276 534 309 530T368 512T409 472T424 400V0H286ZM344 664Q344 620 321 595T236 569Q177 569 153 594T128 663Q128 684 133 702T151 732T184 752T236 759Q297 759 320 733T344 664ZM284 234Q235 232 204 215T172 161V156Q172
130 183 116T224 102Q237 102 248 105T267 113Q277 118 284 125V234ZM274 664Q274 680 265 690T236 700Q216 700 207 690T198 664Q198 648 207 638T236 628Q256 628 265 638T274 664Z" />
<glyph unicode="&#xe6;" glyph-name="ae" horiz-adv-x="729" d="M435 238V145Q435 92 494 92Q506 92 515 92T532 94Q540 95 546 96V166H680V10Q659 3 632 -2Q609 -7 577 -10T502 -13Q430 -13 388 -1T326 52Q317 34 301 23T265 5T224 -4T182 -7Q153 -7 128 -1T84
21T54 62T43 125V152Q43 224 103 271T295 330V378Q295 407 286 418T245 429Q234 429 225 428T209 426Q201 425 194 424V372H66V511Q86 517 113 522Q136 527 170 530T248 534Q284 534 306 528T341 515T359 500T365 492Q365 493 371 499T392 513T433 527T501 534Q537
534 570 530T629 509T670 461T686 376V238H435ZM295 234Q246 232 215 215T183 161V156Q183 130 194 116T235 102Q248 102 259 105T278 113Q288 118 295 125V234ZM546 379Q546 408 534 421T493 434Q461 434 448 422T435 379V327H546V379Z" />
<glyph unicode="&#xe7;" glyph-name="ccedilla" horiz-adv-x="454" d="M345 -131Q345 -165 330 -185T292 -215T240 -228T184 -231Q166 -231 146 -228T109 -219L111 -154Q140 -162 167 -162Q175 -162 186 -161T209 -157T228 -148T236 -130Q236 -118 231 -111T219
-101T202 -96T182 -95Q173 -95 165 -96T147 -98L188 -10Q140 -5 112 9T70 44T51 89T46 139V377Q46 407 52 435T77 485T134 520T234 534Q278 534 310 530T365 521Q391 516 408 509V351H279V414Q274 415 268 416Q263 417 255 417T235 418Q219 418 210 413T195 401T188
384T186 364V161Q186 136 195 120T236 103H255Q263 103 269 104Q276 105 281 106V183H413V10Q393 3 368 -1Q347 -6 318 -9T252 -13L235 -46Q257 -46 277 -50T312 -63T336 -89T345 -131Z" />
<glyph unicode="&#xe8;" glyph-name="egrave" horiz-adv-x="482" d="M188 238V145Q188 92 247 92Q259 92 268 92T285 94Q293 95 299 96V166H433V10Q412 3 385 -2Q362 -7 330 -10T255 -13Q204 -13 166 -7T102 16T62 63T48 141V379Q48 425 61 455T99 503T160 527T244
534Q280 534 315 530T377 509T422 461T439 376V238H188ZM205 589L114 732H264L322 589H205ZM299 379Q299 408 287 421T246 434Q214 434 201 422T188 379V327H299V379Z" />
<glyph unicode="&#xe9;" glyph-name="eacute" horiz-adv-x="482" d="M188 238V145Q188 92 247 92Q259 92 268 92T285 94Q293 95 299 96V166H433V10Q412 3 385 -2Q362 -7 330 -10T255 -13Q204 -13 166 -7T102 16T62 63T48 141V379Q48 425 61 455T99 503T160 527T244
534Q280 534 315 530T377 509T422 461T439 376V238H188ZM289 589H172L230 732H381L289 589ZM299 379Q299 408 287 421T246 434Q214 434 201 422T188 379V327H299V379Z" />
<glyph unicode="&#xea;" glyph-name="ecircumflex" horiz-adv-x="482" d="M188 238V145Q188 92 247 92Q259 92 268 92T285 94Q293 95 299 96V166H433V10Q412 3 385 -2Q362 -7 330 -10T255 -13Q204 -13 166 -7T102 16T62 63T48 141V379Q48 425 61 455T99 503T160
527T244 534Q280 534 315 530T377 509T422 461T439 376V238H188ZM283 586L244 666L201 586H85L167 732H323L403 586H283ZM299 379Q299 408 287 421T246 434Q214 434 201 422T188 379V327H299V379Z" />
<glyph unicode="&#xeb;" glyph-name="edieresis" horiz-adv-x="482" d="M188 238V145Q188 92 247 92Q259 92 268 92T285 94Q293 95 299 96V166H433V10Q412 3 385 -2Q362 -7 330 -10T255 -13Q204 -13 166 -7T102 16T62 63T48 141V379Q48 425 61 455T99 503T160
527T244 534Q280 534 315 530T377 509T422 461T439 376V238H188ZM80 605V716H220V605H80ZM270 605V716H410V605H270ZM299 379Q299 408 287 421T246 434Q214 434 201 422T188 379V327H299V379Z" />
<glyph unicode="&#xec;" glyph-name="igrave" horiz-adv-x="251" d="M55 0V521H195V0H55ZM85 589L-6 732H144L202 589H85Z" />
<glyph unicode="&#xed;" glyph-name="iacute" horiz-adv-x="251" d="M55 0V521H195V0H55ZM170 589H53L111 732H261L170 589Z" />
<glyph unicode="&#xee;" glyph-name="icircumflex" horiz-adv-x="251" d="M55 0V521H195V0H55ZM167 586L128 666L86 586H-30L52 732H207L287 586H167Z" />
<glyph unicode="&#xef;" glyph-name="idieresis" horiz-adv-x="251" d="M55 0V521H195V0H55ZM150 605V716H270V605H150ZM-19 605V716H101V605H-19Z" />
<glyph unicode="&#xf0;" glyph-name="eth" horiz-adv-x="488" d="M440 122Q440 95 432 71T402 28T344 -2T250 -13Q209 -13 173 -8T109 12T65 57T49 133V339Q49 393 66 424T111 470T172 490T237 494Q270 494 300 485Q299 513 294 537T272 579L171 528L144 582L211
615Q169 627 100 627V730Q184 730 242 715T340 676L432 722L459 668L389 633Q418 597 428 549T440 443V122ZM300 326Q300 352 289 365T245 378Q213 378 201 364T189 325V156Q189 130 201 117T246 103Q278 103 289 116T300 156V326Z" />
<glyph unicode="&#xf1;" glyph-name="ntilde" horiz-adv-x="485" d="M292 0V370Q292 393 284 403T249 413Q236 413 227 410T210 402Q202 397 195 391V0H55V521H191V476Q202 490 220 501Q235 510 257 518T311 526Q347 526 370 519T407 496T426 456T432 399V0H292ZM416
635Q401 626 388 618T362 604T335 595T302 591Q286 591 272 596T243 606T214 617T184 622Q167 622 150 611T119 589L66 671Q90 691 120 708T182 725Q198 725 212 720T241 710T270 699T300 694Q306 694 316 697T336 706T357 717T373 726L416 635Z" />
<glyph unicode="&#xf2;" glyph-name="ograve" horiz-adv-x="488" d="M440 122Q440 95 432 71T402 28T344 -2T250 -13Q209 -13 173 -8T109 12T65 57T49 133V379Q49 433 67 464T113 510T177 530T248 534Q277 534 311 531T373 512T421 467T440 385V122ZM300 366Q300
392 289 405T245 418Q213 418 201 404T189 365V156Q189 130 201 117T246 103Q278 103 289 116T300 156V366ZM207 589L116 732H266L324 589H207Z" />
<glyph unicode="&#xf3;" glyph-name="oacute" horiz-adv-x="488" d="M440 122Q440 95 432 71T402 28T344 -2T250 -13Q209 -13 173 -8T109 12T65 57T49 133V379Q49 433 67 464T113 510T177 530T248 534Q277 534 311 531T373 512T421 467T440 385V122ZM300 366Q300
392 289 405T245 418Q213 418 201 404T189 365V156Q189 130 201 117T246 103Q278 103 289 116T300 156V366ZM292 589H175L233 732H384L292 589Z" />
<glyph unicode="&#xf4;" glyph-name="ocircumflex" horiz-adv-x="488" d="M440 122Q440 95 432 71T402 28T344 -2T250 -13Q209 -13 173 -8T109 12T65 57T49 133V379Q49 433 67 464T113 510T177 530T248 534Q277 534 311 531T373 512T421 467T440 385V122ZM300
366Q300 392 289 405T245 418Q213 418 201 404T189 365V156Q189 130 201 117T246 103Q278 103 289 116T300 156V366ZM285 586L246 666L203 586H87L169 732H325L405 586H285Z" />
<glyph unicode="&#xf5;" glyph-name="otilde" horiz-adv-x="488" d="M440 122Q440 95 432 71T402 28T344 -2T250 -13Q209 -13 173 -8T109 12T65 57T49 133V379Q49 433 67 464T113 510T177 530T248 534Q277 534 311 531T373 512T421 467T440 385V122ZM300 366Q300
392 289 405T245 418Q213 418 201 404T189 365V156Q189 130 201 117T246 103Q278 103 289 116T300 156V366ZM418 635Q403 626 390 618T364 604T337 595T304 591Q288 591 274 596T245 606T216 617T186 622Q169 622 152 611T121 589L68 671Q92 691 122 708T184 725Q200
725 214 720T243 710T272 699T302 694Q308 694 318 697T338 706T359 717T375 726L418 635Z" />
<glyph unicode="&#xf6;" glyph-name="odieresis" horiz-adv-x="488" d="M440 122Q440 95 432 71T402 28T344 -2T250 -13Q209 -13 173 -8T109 12T65 57T49 133V379Q49 433 67 464T113 510T177 530T248 534Q277 534 311 531T373 512T421 467T440 385V122ZM300 366Q300
392 289 405T245 418Q213 418 201 404T189 365V156Q189 130 201 117T246 103Q278 103 289 116T300 156V366ZM270 605V716H410V605H270ZM80 605V716H220V605H80Z" />
<glyph unicode="&#xf7;" glyph-name="divide" horiz-adv-x="500" d="M316 428Q316 401 297 382T250 362Q222 362 203 381T183 428Q183 456 202 475T249 495Q277 495 296 476T316 428ZM33 210V313H467V210H33ZM316 95Q316 67 297 48T250 29Q222 29 203 48T183 95Q183
122 202 141T249 161Q277 161 296 142T316 95Z" />
<glyph unicode="&#xf8;" glyph-name="oslash" horiz-adv-x="484" d="M392 590L364 515Q396 501 417 471T438 385V122Q438 95 430 71T400 28T342 -2T247 -13Q226 -13 209 -12T174 -7L151 -76H90L120 6Q87 20 67 49T47 133V379Q47 433 65 464T111 510T175 530T245
534Q261 534 276 533T311 529L333 590H392ZM298 345Q275 286 252 226T209 109Q221 103 244 103Q276 103 287 116T298 156V345ZM187 177Q210 236 232 295T275 412Q263 418 243 418Q211 418 199 404T187 365V177Z" />
<glyph unicode="&#xf9;" glyph-name="ugrave" horiz-adv-x="485" d="M294 0V45Q283 31 265 20Q250 10 228 3T174 -5Q138 -5 115 2T78 25T59 65T53 122V521H193V151Q193 128 201 118T236 108Q248 108 258 111T275 119Q283 123 290 130V521H430V0H294ZM205 589L114
732H264L322 589H205Z" />
<glyph unicode="&#xfa;" glyph-name="uacute" horiz-adv-x="485" d="M294 0V45Q283 31 265 20Q250 10 228 3T174 -5Q138 -5 115 2T78 25T59 65T53 122V521H193V151Q193 128 201 118T236 108Q248 108 258 111T275 119Q283 123 290 130V521H430V0H294ZM271 589H154L212
732H362L271 589Z" />
<glyph unicode="&#xfb;" glyph-name="ucircumflex" horiz-adv-x="485" d="M294 0V45Q283 31 265 20Q250 10 228 3T174 -5Q138 -5 115 2T78 25T59 65T53 122V521H193V151Q193 128 201 118T236 108Q248 108 258 111T275 119Q283 123 290 130V521H430V0H294ZM279
586L240 666L198 586H82L164 732H319L399 586H279Z" />
<glyph unicode="&#xfc;" glyph-name="udieresis" horiz-adv-x="485" d="M294 0V45Q283 31 265 20Q250 10 228 3T174 -5Q138 -5 115 2T78 25T59 65T53 122V521H193V151Q193 128 201 118T236 108Q248 108 258 111T275 119Q283 123 290 130V521H430V0H294ZM266 605V716H406V605H266ZM77
605V716H217V605H77Z" />
<glyph unicode="&#xfd;" glyph-name="yacute" horiz-adv-x="444" d="M309 24Q301 -7 291 -42T262 -108T212 -159T129 -180Q93 -180 66 -177Q50 -175 36 -173V-73Q42 -74 49 -75Q55 -76 61 -76T74 -77Q90 -77 101 -73T118 -61T128 -46T132 -30L139 22L18 521H158L198
326Q214 248 218 199T222 143Q222 147 223 163T228 203T236 258T248 324L287 521H427L309 24ZM270 589H153L211 732H361L270 589Z" />
<glyph unicode="&#xfe;" glyph-name="thorn" horiz-adv-x="494" d="M446 131Q446 63 416 25T309 -13Q280 -13 259 -7T223 8Q206 18 195 30V-173H55V716H195V484Q199 489 207 496T230 511T263 523T309 528Q355 528 382 511T424 470T442 424T446 390V131ZM306 362Q306
383 295 397T256 412Q238 412 221 402T195 384V130Q203 123 219 113T257 103Q286 103 296 118T306 160V362Z" />
<glyph unicode="&#xff;" glyph-name="ydieresis" horiz-adv-x="444" d="M309 24Q301 -7 291 -42T262 -108T212 -159T129 -180Q93 -180 66 -177Q50 -175 36 -173V-73Q42 -74 49 -75Q55 -76 61 -76T74 -77Q90 -77 101 -73T118 -61T128 -46T132 -30L139 22L18 521H158L198
326Q214 248 218 199Q221 161 222 148Q222 153 223 163Q225 179 228 203T236 258T248 324L287 521H427L309 24ZM59 605V716H199V605H59ZM248 605V716H388V605H248Z" />
<glyph unicode="&#x100;" glyph-name="Amacron" horiz-adv-x="516" d="M111 715V825H396V715H111ZM348 0L312 172H196L166 0H16L146 667H365L500 0H348ZM276 417Q272 434 269 460T262 510Q258 538 254 569Q250 538 246 510Q242 485 238 459T232 416L209 280H300L276 417Z" />
<glyph unicode="&#x101;" glyph-name="amacron" horiz-adv-x="481" d="M291 0V48Q278 32 260 20Q245 9 224 1T176 -7Q147 -7 122 -1T78 21T48 62T37 125V152Q37 224 97 271T289 330V378Q289 407 280 418T239 429Q228 429 219 428T203 426Q195 425 188 424V372H60V511Q80
517 107 522Q130 527 164 530T243 534Q281 534 314 530T373 512T414 472T429 400V0H291ZM96 610V715H381V610H96ZM289 234Q240 232 209 215T177 161V156Q177 130 188 116T229 102Q242 102 253 105T272 113Q282 118 289 125V234Z" />
<glyph unicode="&#x102;" glyph-name="Abreve" horiz-adv-x="516" d="M415 839Q415 804 403 778T369 733T319 706T257 697Q225 697 197 707T148 735T114 779T101 839H193Q195 814 214 800T257 785Q285 785 303 797T324 839H415ZM348 0L312 172H196L166 0H16L146
667H365L500 0H348ZM276 417Q272 434 269 460T262 510Q258 538 254 569Q250 538 246 510Q242 485 238 459T232 416L209 280H300L276 417Z" />
<glyph unicode="&#x103;" glyph-name="abreve" horiz-adv-x="481" d="M291 0V48Q278 32 260 20Q245 9 224 1T176 -7Q147 -7 122 -1T78 21T48 62T37 125V152Q37 224 97 271T289 330V378Q289 407 280 418T239 429Q228 429 219 428T203 426Q195 425 188 424V372H60V511Q80
517 107 522Q130 527 164 530T243 534Q281 534 314 530T373 512T414 472T429 400V0H291ZM401 729Q401 694 389 668T355 623T305 596T243 587Q211 587 183 597T134 625T100 669T87 729H179Q181 704 200 690T243 675Q271 675 289 687T310 729H401ZM289 234Q240 232
209 215T177 161V156Q177 130 188 116T229 102Q242 102 253 105T272 113Q282 118 289 125V234Z" />
<glyph unicode="&#x104;" glyph-name="Aogonek" horiz-adv-x="516" d="M520 -218Q504 -220 488 -221Q474 -223 459 -223T431 -224Q407 -224 382 -221T337 -207T303 -180T290 -134Q290 -88 319 -56T393 0H348L312 172H196L166 0H16L146 667H365L500 0Q488 -5 471
-13T439 -32T412 -57T401 -86Q401 -98 406 -105T420 -117T439 -122T459 -124H477Q487 -124 497 -123Q508 -122 520 -121V-218ZM276 417Q273 433 270 456T263 502T257 543T254 567Q253 563 251 545T245 504T239 457T232 416L209 280H300L276 417Z" />
<glyph unicode="&#x105;" glyph-name="aogonek" horiz-adv-x="481" d="M462 -215L432 -219Q419 -221 405 -221T379 -222Q356 -222 333 -218T290 -204T258 -177T245 -133Q245 -101 259 -77T290 -35Q310 -15 336 0H291V48Q278 32 260 20Q245 9 224 1T176 -7Q147
-7 122 -1T78 21T48 62T37 125V152Q37 224 97 271T289 330V378Q289 407 280 418T239 429Q228 429 219 428T203 426Q195 425 188 424V372H60V511Q80 517 107 522Q130 527 164 530T243 534Q281 534 314 530T373 512T414 472T429 400V0Q407 -10 390 -24Q374 -36 362
-53T350 -91Q350 -114 368 -120T405 -127Q415 -127 425 -127T444 -125Q454 -124 462 -123V-215ZM289 234Q240 232 209 215T177 161V156Q177 130 188 116T229 102Q242 102 253 105T272 113Q282 118 289 125V234Z" />
<glyph unicode="&#x106;" glyph-name="Cacute" horiz-adv-x="514" d="M467 5Q444 0 413 -4Q387 -8 349 -10T262 -13Q202 -13 163 -2T99 32T66 86T56 160V498Q56 549 69 584T109 640T175 671T264 680Q309 680 345 677T408 671Q438 667 462 662V471H325V562Q318
563 309 565Q301 566 291 567T270 568Q229 568 216 550T202 496V171Q202 133 214 116T265 98Q277 98 288 98T308 100Q318 101 327 103V206H467V5ZM331 719H204L262 852H422L331 719Z" />
<glyph unicode="&#x107;" glyph-name="cacute" horiz-adv-x="457" d="M416 10Q394 3 367 -2Q344 -7 312 -10T241 -13Q176 -13 138 0T80 35T55 84T49 139V377Q49 407 55 435T80 485T137 520T237 534Q281 534 313 530T368 521Q394 516 411 509V351H282V414Q277 415
271 416Q266 417 258 417T238 418Q222 418 213 413T198 401T191 384T189 364V161Q189 136 198 120T239 103H258Q266 103 272 104Q279 105 284 106V183H416V10ZM292 589H175L233 732H383L292 589Z" />
<glyph unicode="&#x108;" glyph-name="Ccircumflex" horiz-adv-x="514" d="M467 5Q444 0 413 -4Q387 -8 349 -10T262 -13Q202 -13 163 -2T99 32T66 86T56 160V498Q56 549 69 584T109 640T175 671T264 680Q309 680 345 677T408 671Q438 667 462 662V471H325V562Q318
563 309 565Q301 566 291 567T270 568Q229 568 216 550T202 496V171Q202 133 214 116T265 98Q277 98 288 98T308 100Q318 101 327 103V206H467V5ZM318 711L276 781L237 711H117L197 847H352L434 711H318Z" />
<glyph unicode="&#x109;" glyph-name="ccircumflex" horiz-adv-x="457" d="M416 10Q394 3 367 -2Q344 -7 312 -10T241 -13Q176 -13 138 0T80 35T55 84T49 139V377Q49 407 55 435T80 485T137 520T237 534Q281 534 313 530T368 521Q394 516 411 509V351H282V414Q277
415 271 416Q266 417 258 417T238 418Q222 418 213 413T198 401T191 384T189 364V161Q189 136 198 120T239 103H258Q266 103 272 104Q279 105 284 106V183H416V10ZM284 586L245 666L203 586H87L169 732H324L404 586H284Z" />
<glyph unicode="&#x10a;" glyph-name="Cdotaccent" horiz-adv-x="514" d="M467 5Q444 0 413 -4Q387 -8 349 -10T262 -13Q202 -13 163 -2T99 32T66 86T56 160V498Q56 549 69 584T109 640T175 671T264 680Q309 680 345 677T408 671Q438 667 462 662V471H325V562Q318
563 309 565Q301 566 291 567T270 568Q229 568 216 550T202 496V171Q202 133 214 116T265 98Q277 98 288 98T308 100Q318 101 327 103V206H467V5ZM209 715V826H342V715H209Z" />
<glyph unicode="&#x10b;" glyph-name="cdotaccent" horiz-adv-x="457" d="M416 10Q394 3 367 -2Q344 -7 312 -10T241 -13Q176 -13 138 0T80 35T55 84T49 139V377Q49 407 55 435T80 485T137 520T237 534Q281 534 313 530T368 521Q394 516 411 509V351H282V414Q277
415 271 416Q266 417 258 417T238 418Q222 418 213 413T198 401T191 384T189 364V161Q189 136 198 120T239 103H258Q266 103 272 104Q279 105 284 106V183H416V10ZM174 605V716H314V605H174Z" />
<glyph unicode="&#x10c;" glyph-name="Ccaron" horiz-adv-x="514" d="M467 5Q444 0 413 -4Q387 -8 349 -10T262 -13Q202 -13 163 -2T99 32T66 86T56 160V498Q56 549 69 584T109 640T175 671T264 680Q309 680 345 677T408 671Q438 667 462 662V471H325V562Q318
563 309 565Q301 566 291 567T270 568Q229 568 216 550T202 496V171Q202 133 214 116T265 98Q277 98 288 98T308 100Q318 101 327 103V206H467V5ZM351 711H196L114 847H230L272 777L311 847H431L351 711Z" />
<glyph unicode="&#x10d;" glyph-name="ccaron" horiz-adv-x="457" d="M416 10Q394 3 367 -2Q344 -7 312 -10T241 -13Q176 -13 138 0T80 35T55 84T49 139V377Q49 407 55 435T80 485T137 520T237 534Q281 534 313 530T368 521Q394 516 411 509V351H282V414Q277 415
271 416Q266 417 258 417T238 418Q222 418 213 413T198 401T191 384T189 364V161Q189 136 198 120T239 103H258Q266 103 272 104Q279 105 284 106V183H416V10ZM318 586H163L81 732H197L239 652L278 732H398L318 586Z" />
<glyph unicode="&#x10e;" glyph-name="Dcaron" horiz-adv-x="543" d="M487 178Q487 124 477 89T444 35T382 8T288 0H63V667H283Q337 667 375 660T438 633T475 579T487 491V178ZM341 483Q341 505 338 518T327 539T304 548T265 551H210V116H269Q293 116 307 119T329
131T339 154T341 190V483ZM330 711H175L93 847H209L251 777L290 847H410L330 711Z" />
<glyph unicode="&#x10f;" glyph-name="dcaron" horiz-adv-x="494" d="M303 0V42Q302 41 296 34T275 17T239 1T185 -7Q139 -7 112 10T71 51T53 97T49 131V390Q49 424 56 451T79 496T121 524T185 534Q214 534 235 527T271 512Q288 502 299 491V716H439V0H303ZM299
391Q291 398 275 408T238 418Q209 418 199 403T189 361V159Q189 138 200 124T239 109Q256 109 273 119T299 137V391ZM589 562H494L499 736H621L589 562Z" />
<glyph unicode="&#x110;" glyph-name="Dcroat" horiz-adv-x="543" d="M487 178Q487 124 477 89T444 35T382 8T288 0H63V288H8V404H63V667H283Q337 667 375 660T438 633T475 579T487 491V178ZM279 288H210V116H269Q293 116 307 119T329 131T339 154T341 190V483Q341
505 338 518T327 539T304 548T265 551H210V404H279V288Z" />
<glyph unicode="&#x111;" glyph-name="dcroat" horiz-adv-x="494" d="M303 0V42Q302 41 296 34T275 17T240 1T186 -7Q140 -7 113 10T71 51T53 97T49 131V370Q49 404 56 431T79 476T121 504T186 514Q215 514 236 507T271 492Q288 482 299 471V574H176V667H299V716H439V667H488V574H439V0H303ZM299
371Q291 378 275 388T238 398Q209 398 199 383T189 341V159Q189 138 200 124T239 109Q256 109 273 119T299 137V371Z" />
<glyph unicode="&#x112;" glyph-name="Emacron" horiz-adv-x="462" d="M63 0V667H409V551H210V404H392V288H210V116H413V0H63ZM93 715V825H378V715H93Z" />
<glyph unicode="&#x113;" glyph-name="emacron" horiz-adv-x="486" d="M189 238V145Q189 92 248 92Q260 92 269 92T286 94Q294 95 300 96V166H434V10Q413 3 386 -2Q363 -7 331 -10T256 -13Q205 -13 167 -7T103 16T63 63T49 141V379Q49 425 62 455T100 503T161
527T245 534Q281 534 316 530T378 509T423 461T440 376V238H189ZM104 610V715H389V610H104ZM300 379Q300 408 288 421T247 434Q215 434 202 422T189 379V327H300V379Z" />
<glyph unicode="&#x114;" glyph-name="Ebreve" horiz-adv-x="462" d="M63 0V667H419V551H210V404H402V288H210V116H423V0H63ZM395 849Q395 814 383 788T349 743T299 716T237 707Q205 707 177 717T128 745T94 789T81 849H173Q175 824 194 810T237 795Q265 795 283
807T304 849H395Z" />
<glyph unicode="&#x115;" glyph-name="ebreve" horiz-adv-x="486" d="M189 238V145Q189 92 248 92Q260 92 269 92T286 94Q294 95 300 96V166H434V10Q413 3 386 -2Q363 -7 331 -10T256 -13Q205 -13 167 -7T103 16T63 63T49 141V379Q49 425 62 455T100 503T161 527T245
534Q281 534 316 530T378 509T423 461T440 376V238H189ZM300 379Q300 408 288 421T247 434Q215 434 202 422T189 379V327H300V379ZM401 729Q401 694 389 668T355 623T305 596T243 587Q211 587 183 597T134 625T100 669T87 729H179Q181 704 200 690T243 675Q271
675 289 687T310 729H401Z" />
<glyph unicode="&#x116;" glyph-name="Edotaccent" horiz-adv-x="462" d="M63 0V667H409V551H210V404H392V288H210V116H413V0H63ZM168 715V826H301V715H168Z" />
<glyph unicode="&#x117;" glyph-name="edotaccent" horiz-adv-x="486" d="M189 238V145Q189 92 248 92Q260 92 269 92T286 94Q294 95 300 96V166H434V10Q413 3 386 -2Q363 -7 331 -10T256 -13Q205 -13 167 -7T103 16T63 63T49 141V379Q49 425 62 455T100 503T161
527T245 534Q281 534 316 530T378 509T423 461T440 376V238H189ZM171 605V716H311V605H171ZM300 379Q300 408 288 421T247 434Q215 434 202 422T189 379V327H300V379Z" />
<glyph unicode="&#x118;" glyph-name="Eogonek" horiz-adv-x="462" d="M433 -218Q417 -220 401 -221Q387 -223 372 -223T344 -224Q320 -224 295 -221T250 -207T216 -180T203 -134Q203 -97 218 -72T254 -30Q277 -12 306 0H63V667H409V551H210V404H392V288H210V116H413V0Q401
-5 384 -13T352 -32T325 -57T314 -86Q314 -98 319 -105T333 -117T352 -122T372 -124H390Q400 -124 410 -123Q421 -122 433 -121V-218Z" />
<glyph unicode="&#x119;" glyph-name="eogonek" horiz-adv-x="486" d="M409 -215L379 -219Q366 -221 352 -221T326 -222Q303 -222 280 -219T237 -206T205 -181T192 -137Q192 -115 200 -95T221 -58T250 -26Q258 -19 265 -13H256Q205 -13 167 -7T103 16T63 63T49
141V379Q49 425 62 455T100 503T161 527T245 534Q281 534 316 530T378 509T423 461T440 376V238H189V145Q189 92 248 92Q260 92 269 92T286 94Q294 95 300 96V166H434V10Q413 3 386 -2Q381 -3 376 -4Q368 -8 358 -14Q343 -23 330 -35T307 -62T297 -91Q297 -114
315 -120T352 -127Q359 -127 369 -127T388 -125Q399 -124 409 -123V-215ZM300 379Q300 408 288 421T247 434Q215 434 202 422T189 379V327H300V379Z" />
<glyph unicode="&#x11a;" glyph-name="Ecaron" horiz-adv-x="462" d="M63 0V667H409V551H210V404H392V288H210V116H413V0H63ZM310 711H155L73 847H189L231 777L270 847H390L310 711Z" />
<glyph unicode="&#x11b;" glyph-name="ecaron" horiz-adv-x="486" d="M189 238V145Q189 92 248 92Q260 92 269 92T286 94Q294 95 300 96V166H434V10Q413 3 386 -2Q363 -7 331 -10T256 -13Q205 -13 167 -7T103 16T63 63T49 141V379Q49 425 62 455T100 503T161 527T245
534Q281 534 316 530T378 509T423 461T440 376V238H189ZM320 586H164L82 732H198L240 652L280 732H400L320 586ZM300 379Q300 408 288 421T247 434Q215 434 202 422T189 379V327H300V379Z" />
<glyph unicode="&#x11c;" glyph-name="Gcircumflex" horiz-adv-x="528" d="M354 0L348 38Q319 12 284 4T220 -5Q164 -5 132 10T82 50T61 107T56 176V508Q56 561 70 594T111 647T181 673T281 680Q324 680 358 677T415 671Q442 667 462 662V471H325V563Q318 564
309 565Q301 566 292 567T271 568Q234 568 218 557T202 508V180Q202 166 203 154T211 134T231 121T269 116Q286 116 300 117T323 120Q334 122 341 125V252H284V352H478V0H354ZM319 711L277 781L238 711H118L198 847H353L435 711H319Z" />
<glyph unicode="&#x11d;" glyph-name="gcircumflex" horiz-adv-x="494" d="M439 -16Q439 -64 425 -96T385 -148T322 -176T238 -185Q196 -185 163 -182T104 -174Q75 -170 52 -163V-31H190V-81Q195 -83 203 -84Q209 -85 218 -85T240 -86Q276 -86 287 -71T299 -25V65Q288
53 271 43Q257 35 235 28T181 21Q149 21 124 32T83 64T58 111T49 169V373Q49 398 53 425T72 474T111 511T180 526Q214 526 237 520T274 506T296 491T304 482V521H439V-16ZM299 396Q293 402 284 407Q276 411 265 414T240 418Q205 418 197 401T189 358V182Q189 158
198 143T237 127Q250 127 261 129T281 136Q291 140 299 146V396ZM296 586L257 666L215 586H99L181 732H336L416 586H296Z" />
<glyph unicode="&#x11e;" glyph-name="Gbreve" horiz-adv-x="528" d="M354 0L348 38Q319 12 284 4T220 -5Q164 -5 132 10T82 50T61 107T56 176V508Q56 561 70 594T111 647T181 673T281 680Q324 680 358 677T415 671Q442 667 462 662V471H325V563Q318 564 309 565Q301
566 292 567T271 568Q234 568 218 557T202 508V180Q202 166 203 154T211 134T231 121T269 116Q286 116 300 117T323 120Q334 122 341 125V252H284V352H478V0H354ZM431 849Q431 814 419 788T385 743T335 716T273 707Q241 707 213 717T164 745T130 789T117 849H209Q211
824 230 810T273 795Q301 795 319 807T340 849H431Z" />
<glyph unicode="&#x11f;" glyph-name="gbreve" horiz-adv-x="494" d="M439 -16Q439 -64 425 -96T385 -148T322 -176T238 -185Q196 -185 163 -182T104 -174Q75 -170 52 -163V-31H190V-81Q195 -83 203 -84Q209 -85 218 -85T240 -86Q276 -86 287 -71T299 -25V65Q288
53 271 43Q257 35 235 28T181 21Q149 21 124 32T83 64T58 111T49 169V373Q49 398 53 425T72 474T111 511T180 526Q214 526 237 520T274 506T296 491T304 482V521H439V-16ZM299 396Q293 402 284 407Q276 411 265 414T240 418Q205 418 197 401T189 358V182Q189 158
198 143T237 127Q250 127 261 129T281 136Q291 140 299 146V396ZM406 729Q406 694 394 668T360 623T310 596T248 587Q216 587 188 597T139 625T105 669T92 729H184Q186 704 205 690T248 675Q276 675 294 687T315 729H406Z" />
<glyph unicode="&#x120;" glyph-name="Gdotaccent" horiz-adv-x="528" d="M354 0L348 38Q319 12 284 4T220 -5Q164 -5 132 10T82 50T61 107T56 176V508Q56 561 70 594T111 647T181 673T281 680Q324 680 358 677T415 671Q442 667 462 662V471H325V563Q318 564 309
565Q301 566 292 567T271 568Q234 568 218 557T202 508V180Q202 166 203 154T211 134T231 121T269 116Q286 116 300 117T323 120Q334 122 341 125V252H284V352H478V0H354ZM211 715V826H344V715H211Z" />
<glyph unicode="&#x121;" glyph-name="gdotaccent" horiz-adv-x="494" d="M439 -16Q439 -64 425 -96T385 -148T322 -176T238 -185Q196 -185 163 -182T104 -174Q75 -170 52 -163V-31H190V-81Q195 -83 203 -84Q209 -85 218 -85T240 -86Q276 -86 287 -71T299 -25V65Q288
53 271 43Q257 35 235 28T181 21Q149 21 124 32T83 64T58 111T49 169V373Q49 398 53 425T72 474T111 511T180 526Q214 526 237 520T274 506T296 491T304 482V521H439V-16ZM299 396Q293 402 284 407Q276 411 265 414T240 418Q205 418 197 401T189 358V182Q189 158
198 143T237 127Q250 127 261 129T281 136Q291 140 299 146V396ZM190 605V716H329V605H190Z" />
<glyph unicode="&#x122;" glyph-name="Gcommaaccent" horiz-adv-x="528" d="M354 0L348 38Q319 12 284 4T220 -5Q164 -5 132 10T82 50T61 107T56 176V508Q56 561 70 594T111 647T181 673T281 680Q324 680 358 677T415 671Q442 667 462 662V471H325V563Q318 564
309 565Q301 566 292 567T271 568Q234 568 218 557T202 508V180Q202 166 203 154T211 134T231 121T269 116Q286 116 300 117T323 120Q334 122 341 125V252H284V352H478V0H354ZM319 -211H204L209 -57H341L319 -211Z" />
<glyph unicode="&#x123;" glyph-name="gcommaaccent" horiz-adv-x="494" d="M439 -16Q439 -64 425 -96T385 -148T322 -176T238 -185Q196 -185 163 -182T104 -174Q75 -170 52 -163V-31H190V-81Q195 -83 203 -84Q209 -85 218 -85T240 -86Q276 -86 287 -71T299 -25V65Q288
53 271 43Q257 35 235 28T181 21Q149 21 124 32T83 64T58 111T49 169V373Q49 398 53 425T72 474T111 511T180 526Q215 526 239 519T278 504Q295 494 304 482V521H439V-16ZM299 396Q293 402 284 407Q276 411 265 414T240 418Q205 418 197 401T189 358V182Q189 158
198 143T237 127Q250 127 261 129T281 136Q291 140 299 146V396ZM207 743H312L307 589H175L207 743Z" />
<glyph unicode="&#x124;" glyph-name="Hcircumflex" horiz-adv-x="550" d="M339 0V288H210V0H63V667H210V404H339V667H487V0H339ZM317 711L275 781L236 711H116L196 847H351L433 711H317Z" />
<glyph unicode="&#x125;" glyph-name="hcircumflex" horiz-adv-x="485" d="M292 0V375Q292 398 283 408T247 418Q228 418 216 409T195 391V0H55V716H195V488Q206 500 221 511Q234 519 253 526T300 534Q341 534 366 526T406 502T426 462T432 404V0H292ZM168 756L129
836L87 756H-29L53 902H208L288 756H168Z" />
<glyph unicode="&#x126;" glyph-name="Hbar" horiz-adv-x="550" d="M339 0V288H210V0H63V498H0V604H63V667H210V604H339V667H487V604H550V498H487V0H339ZM339 404V498H210V404H339Z" />
<glyph unicode="&#x127;" glyph-name="hbar" horiz-adv-x="485" d="M195 574V468Q206 480 221 491Q234 499 253 506T300 514Q341 514 366 506T406 482T426 442T432 384V0H292V355Q292 378 283 388T247 398Q228 398 216 389T195 371V0H55V574H0V667H55V716H195V667H332V574H195Z"
/>
<glyph unicode="&#x128;" glyph-name="Itilde" horiz-adv-x="273" d="M63 0V667H210V0H63ZM312 755Q297 746 284 738T258 724T231 715T198 711Q182 711 168 716T139 726T110 737T80 742Q63 742 46 731T15 709L-38 791Q-14 811 16 828T78 845Q94 845 108 840T137
830T166 819T196 814Q202 814 212 817T232 826T253 837T269 846L312 755Z" />
<glyph unicode="&#x129;" glyph-name="itilde" horiz-adv-x="251" d="M55 0V521H195V0H55ZM301 635Q286 626 273 618T247 604T220 595T187 591Q171 591 157 596T128 606T99 617T69 622Q52 622 35 611T4 589L-49 671Q-25 691 5 708T67 725Q83 725 97 720T126 710T155
699T185 694Q191 694 201 697T221 706T242 717T258 726L301 635Z" />
<glyph unicode="&#x12a;" glyph-name="Imacron" horiz-adv-x="273" d="M63 0V667H210V0H63ZM4 715V825H269V715H4Z" />
<glyph unicode="&#x12b;" glyph-name="imacron" horiz-adv-x="251" d="M55 0V521H195V0H55ZM-5 610V715H254V610H-5Z" />
<glyph unicode="&#x12c;" glyph-name="Ibreve" horiz-adv-x="273" d="M63 0V667H210V0H63ZM294 849Q294 814 282 788T248 743T198 716T136 707Q104 707 76 717T27 745T-7 789T-20 849H72Q74 824 93 810T136 795Q164 795 182 807T203 849H294Z" />
<glyph unicode="&#x12d;" glyph-name="ibreve" horiz-adv-x="251" d="M55 0V521H195V0H55ZM283 729Q283 694 271 668T237 623T187 596T125 587Q93 587 65 597T16 625T-18 669T-31 729H61Q63 704 82 690T125 675Q153 675 171 687T192 729H283Z" />
<glyph unicode="&#x12e;" glyph-name="Iogonek" horiz-adv-x="273" d="M247 -216L215 -220Q201 -222 186 -223T159 -224Q135 -224 111 -221T66 -207T34 -180T21 -134Q21 -102 35 -77T67 -35Q87 -15 113 0H63V667H210V0Q198 -5 184 -14T158 -36T137 -63T129 -93Q129
-104 134 -110T148 -119T167 -123T187 -124Q195 -124 204 -124T224 -122Q235 -121 247 -119V-216Z" />
<glyph unicode="&#x12f;" glyph-name="iogonek" horiz-adv-x="250" d="M224 -215L194 -219Q181 -221 167 -221T141 -222Q118 -222 95 -219T52 -206T20 -181T7 -137Q7 -93 33 -58T93 0H55V521H195V0Q183 -5 169 -14T142 -35T121 -62T112 -91Q112 -114 130 -120T167
-127Q174 -127 184 -127T203 -125Q214 -124 224 -123V-215ZM55 605V716H195V605H55Z" />
<glyph unicode="&#x130;" glyph-name="Idotaccent" horiz-adv-x="273" d="M63 0V667H210V0H63ZM64 713V824H210V713H64Z" />
<glyph unicode="&#x131;" glyph-name="dotlessi" horiz-adv-x="251" d="M55 0V521H195V0H55Z" />
<glyph unicode="&#x132;" glyph-name="IJ" horiz-adv-x="601" d="M63 0V667H210V0H63ZM540 165Q540 119 533 87T507 34T456 4T375 -6Q323 -6 298 -3Q283 -1 273 1V119Q286 118 297 117Q307 116 317 116T335 115Q370 115 381 130T393 176V667H540V165Z" />
<glyph unicode="&#x133;" glyph-name="ij" horiz-adv-x="508" d="M55 0V521H195V0H55ZM55 605V716H195V605H55ZM453 -4Q453 -35 448 -66T426 -123T378 -165T296 -181Q258 -181 236 -178Q223 -176 212 -174V-62Q219 -64 228 -65Q235 -66 244 -66T263 -67Q282 -67
292 -62T306 -49T312 -29T313 -3V521H453V-4ZM313 605V716H453V605H313Z" />
<glyph unicode="&#x134;" glyph-name="Jcircumflex" horiz-adv-x="328" d="M267 165Q267 119 260 87T234 34T183 4T102 -6Q50 -6 25 -3Q10 -1 0 1V119Q13 118 24 117Q34 116 44 116T62 115Q97 115 108 130T120 176V667H267V165ZM238 711L196 781L157 711H37L117
847H272L354 711H238Z" />
<glyph unicode="&#x135;" glyph-name="jcircumflex" horiz-adv-x="258" d="M203 -4Q203 -35 198 -66T176 -123T128 -165T46 -181Q8 -181 -14 -178Q-27 -176 -38 -174V-62Q-31 -64 -22 -65Q-15 -66 -6 -66T13 -67Q32 -67 42 -62T56 -49T62 -29T63 -3V521H203V-4ZM168
586L129 666L87 586H-29L53 732H208L288 586H168Z" />
<glyph unicode="&#x136;" glyph-name="Kcommaaccent" horiz-adv-x="535" d="M361 0L208 280V0H63V667H208V412L347 667H511L327 353L528 0H361ZM310 -211H195L200 -57H332L310 -211Z" />
<glyph unicode="&#x137;" glyph-name="kcommaaccent" horiz-adv-x="464" d="M315 0L195 219V0H55V716H195V359L303 521H464L300 300L474 0H315ZM271 -211H166L171 -57H303L271 -211Z" />
<glyph unicode="&#x138;" glyph-name="kgreenlandic" horiz-adv-x="464" d="M315 0L195 204V0H55V521H195V344L303 521H464L300 285L474 0H315Z" />
<glyph unicode="&#x139;" glyph-name="Lacute" horiz-adv-x="407" d="M63 0V667H210V116H398V0H63ZM200 719H73L131 852H291L200 719Z" />
<glyph unicode="&#x13a;" glyph-name="lacute" horiz-adv-x="250" d="M55 0V716H195V0H55ZM174 769H57L115 912H265L174 769Z" />
<glyph unicode="&#x13b;" glyph-name="Lcommaaccent" horiz-adv-x="407" d="M63 0V667H210V116H398V0H63ZM269 -211H154L159 -57H291L269 -211Z" />
<glyph unicode="&#x13c;" glyph-name="lcommaaccent" horiz-adv-x="250" d="M55 0V716H195V0H55ZM160 -211H55L60 -57H192L160 -211Z" />
<glyph unicode="&#x13d;" glyph-name="Lcaron" horiz-adv-x="407" d="M63 0V667H210V116H398V0H63ZM357 513H252L257 667H389L357 513Z" />
<glyph unicode="&#x13e;" glyph-name="lcaron" horiz-adv-x="250" d="M55 0V716H195V0H55ZM346 562H251L256 736H378L346 562Z" />
<glyph unicode="&#x13f;" glyph-name="Ldot" horiz-adv-x="407" d="M63 0V667H210V116H398V0H63ZM287 332V441H395V332H287Z" />
<glyph unicode="&#x140;" glyph-name="ldot" horiz-adv-x="376" d="M55 0V716H195V0H55ZM252 215V340H376V215H252Z" />
<glyph unicode="&#x141;" glyph-name="Lslash" horiz-adv-x="407" d="M63 0V232L7 198V324L63 358V667H210V422L344 504V378L210 296V116H398V0H63Z" />
<glyph unicode="&#x142;" glyph-name="lslash" horiz-adv-x="250" d="M195 316V0H55V264L-2 229V355L55 390V716H195V442L256 480V354L195 316Z" />
<glyph unicode="&#x143;" glyph-name="Nacute" horiz-adv-x="579" d="M307 0L249 259Q243 288 234 334T217 425T201 505Q195 536 194 545Q194 541 195 525Q196 506 198 479T202 418T206 354T209 297T210 257V0H63V667H270L325 419Q334 378 343 329T362 235T377
158T384 119Q384 121 383 138T380 183T377 243T373 308T370 368T369 413V667H516V0H307ZM351 719H224L282 852H442L351 719Z" />
<glyph unicode="&#x144;" glyph-name="nacute" horiz-adv-x="485" d="M292 0V370Q292 393 284 403T249 413Q236 413 227 410T210 402Q202 397 195 391V0H55V521H191V476Q202 490 220 501Q235 510 257 518T311 526Q347 526 370 519T407 496T426 456T432 399V0H292ZM280
589H163L221 732H371L280 589Z" />
<glyph unicode="&#x145;" glyph-name="Ncommaaccent" horiz-adv-x="579" d="M307 0L249 259Q243 288 234 334T217 425T201 505Q195 536 194 545Q194 541 195 525Q196 506 198 479T202 418T206 354T209 297T210 257V0H63V667H270L325 419Q334 378 343 329T362 235T377
158T384 119Q384 121 383 138T380 183T377 243T373 308T370 368T369 413V667H516V0H307ZM330 -211H215L220 -57H352L330 -211Z" />
<glyph unicode="&#x146;" glyph-name="ncommaaccent" horiz-adv-x="485" d="M292 0V370Q292 393 284 403T249 413Q236 413 227 410T210 402Q202 397 195 391V0H55V521H191V476Q202 490 220 501Q235 510 257 518T311 526Q347 526 370 519T407 496T426 456T432 399V0H292ZM271
-211H166L171 -57H303L271 -211Z" />
<glyph unicode="&#x147;" glyph-name="Ncaron" horiz-adv-x="579" d="M307 0L249 259Q243 288 234 334T217 425T201 505Q195 536 194 545Q194 541 195 525Q196 506 198 479T202 418T206 354T209 297T210 257V0H63V667H270L325 419Q334 378 343 329T362 235T377
158T384 119Q384 121 383 138T380 183T377 243T373 308T370 368T369 413V667H516V0H307ZM370 711H215L133 847H249L291 777L330 847H450L370 711Z" />
<glyph unicode="&#x148;" glyph-name="ncaron" horiz-adv-x="485" d="M292 0V370Q292 393 284 403T249 413Q236 413 227 410T210 402Q202 397 195 391V0H55V521H191V476Q202 490 220 501Q235 510 257 518T311 526Q347 526 370 519T407 496T426 456T432 399V0H292ZM326
586H171L89 732H205L247 652L286 732H406L326 586Z" />
<glyph unicode="&#x149;" glyph-name="napostrophe" horiz-adv-x="485" d="M292 0V370Q292 393 284 403T249 413Q236 413 227 410T210 402Q202 397 195 391V0H55V521H191V476Q202 490 220 501Q235 510 257 518T311 526Q347 526 370 519T407 496T426 456T432 399V0H292ZM116
562H1L6 716H138L116 562Z" />
<glyph unicode="&#x14a;" glyph-name="Eng" horiz-adv-x="579" d="M516 -35Q516 -81 509 -118T483 -181T432 -222T351 -236Q299 -236 274 -233Q259 -231 249 -229V-111Q262 -112 273 -113Q283 -114 293 -114T311 -115Q346 -115 357 -100T369 -54V1L277 249Q263
285 249 329T222 413T200 481Q193 502 191 510Q192 502 194 484Q197 459 200 422T207 342T210 257V0H63V667H250L324 449Q336 413 348 372T370 296T387 234T396 201Q395 208 391 235T383 302T374 386T370 475L369 667H516V-35Z" />
<glyph unicode="&#x14b;" glyph-name="eng" horiz-adv-x="485" d="M432 6Q432 -25 427 -58T405 -118T357 -163T275 -181Q237 -181 215 -178Q202 -176 191 -174V-62Q198 -64 207 -65Q214 -66 223 -66T242 -67Q261 -67 271 -62T285 -49T291 -29T292 -3V370Q292 393
284 403T249 413Q236 413 227 410T210 402Q202 397 195 391V0H55V521H191V476Q202 490 220 501Q235 510 257 518T311 526Q347 526 370 519T407 496T426 456T432 399V6Z" />
<glyph unicode="&#x14c;" glyph-name="Omacron" horiz-adv-x="536" d="M480 162Q480 112 467 78T427 24T360 -4T267 -13Q198 -13 156 1T92 40T63 96T56 160V509Q56 560 70 593T111 645T178 672T270 680Q343 680 385 665T448 625T474 568T480 502V162ZM334 500Q334
538 322 553T269 568Q248 568 235 564T215 552T206 531T203 500V162Q203 131 215 115T267 98Q308 98 321 113T334 162V500ZM127 715V825H412V715H127Z" />
<glyph unicode="&#x14d;" glyph-name="omacron" horiz-adv-x="488" d="M440 122Q440 95 432 71T402 28T344 -2T250 -13Q209 -13 173 -8T109 12T65 57T49 133V379Q49 433 67 464T113 510T177 530T248 534Q277 534 311 531T373 512T421 467T440 385V122ZM300 366Q300
392 289 405T245 418Q213 418 201 404T189 365V156Q189 130 201 117T246 103Q278 103 289 116T300 156V366ZM101 605V715H386V605H101Z" />
<glyph unicode="&#x14e;" glyph-name="Obreve" horiz-adv-x="536" d="M480 162Q480 112 467 78T427 24T360 -4T267 -13Q198 -13 156 1T92 40T63 96T56 160V509Q56 560 70 593T111 645T178 672T270 680Q343 680 385 665T448 625T474 568T480 502V162ZM334 500Q334
538 322 553T269 568Q248 568 235 564T215 552T206 531T203 500V162Q203 131 215 115T267 98Q308 98 321 113T334 162V500ZM425 849Q425 814 413 788T379 743T329 716T267 707Q235 707 207 717T158 745T124 789T111 849H203Q205 824 224 810T267 795Q295 795 313
807T334 849H425Z" />
<glyph unicode="&#x14f;" glyph-name="obreve" horiz-adv-x="488" d="M440 122Q440 95 432 71T402 28T344 -2T250 -13Q209 -13 173 -8T109 12T65 57T49 133V379Q49 433 67 464T113 510T177 530T248 534Q277 534 311 531T373 512T421 467T440 385V122ZM300 366Q300
392 289 405T245 418Q213 418 201 404T189 365V156Q189 130 201 117T246 103Q278 103 289 116T300 156V366ZM402 729Q402 694 390 668T356 623T306 596T244 587Q212 587 184 597T135 625T101 669T88 729H180Q182 704 201 690T244 675Q272 675 290 687T311 729H402Z"
/>
<glyph unicode="&#x150;" glyph-name="Ohungarumlaut" horiz-adv-x="536" d="M480 162Q480 112 467 78T427 24T360 -4T267 -13Q198 -13 156 1T92 40T63 96T56 160V509Q56 560 70 593T111 645T178 672T270 680Q343 680 385 665T448 625T474 568T480 502V162ZM334
500Q334 538 322 553T269 568Q248 568 235 564T215 552T206 531T203 500V162Q203 131 215 115T267 98Q308 98 321 113T334 162V500ZM396 715H292L331 858H458L396 715ZM225 715H121L160 858H287L225 715Z" />
<glyph unicode="&#x151;" glyph-name="ohungarumlaut" horiz-adv-x="488" d="M440 122Q440 95 432 71T402 28T344 -2T250 -13Q209 -13 173 -8T109 12T65 57T49 133V379Q49 433 67 464T113 510T177 530T248 534Q277 534 311 531T373 512T421 467T440 385V122ZM300
366Q300 392 289 405T245 418Q213 418 201 404T189 365V156Q189 130 201 117T246 103Q278 103 289 116T300 156V366ZM373 589H268L307 732H435L373 589ZM201 589H97L136 732H264L201 589Z" />
<glyph unicode="&#x152;" glyph-name="OE" horiz-adv-x="698" d="M356 0Q345 -2 332 -3Q309 -6 267 -6Q198 -6 156 8T92 47T63 103T56 167V503Q56 554 70 587T111 639T178 666T270 674Q284 674 299 673T327 670Q342 668 356 667H660V551H481V404H643V288H481V116H664V0H356ZM334
557Q325 558 314 559Q305 560 293 561T269 562Q248 562 235 558T215 546T206 525T203 494V169Q203 138 215 122T267 105Q287 105 300 105T321 107Q330 108 334 110V557Z" />
<glyph unicode="&#x153;" glyph-name="oe" horiz-adv-x="758" d="M438 238V145Q438 92 497 92Q509 92 518 92T535 94Q543 95 549 96V166H683V10Q662 3 635 -2Q612 -7 580 -10T505 -13Q464 -13 438 -8T397 6Q379 14 370 25Q356 14 338 6Q323 -2 300 -7T247 -13Q207
-13 171 -8T107 12T63 57T47 133V379Q47 433 65 464T111 510T175 530T245 534Q279 534 302 529T341 516Q359 508 370 498Q379 508 397 516Q411 523 435 528T494 534Q530 534 565 530T627 509T672 461T689 376V238H438ZM298 366Q298 392 287 405T243 418Q211 418
199 404T187 365V156Q187 130 199 117T244 103Q276 103 287 116T298 156V366ZM549 379Q549 408 537 421T496 434Q464 434 451 422T438 379V327H549V379Z" />
<glyph unicode="&#x154;" glyph-name="Racute" horiz-adv-x="518" d="M351 0L249 283H210V0H63V667H272Q318 667 356 662T422 640T465 594T480 515V466Q480 436 476 410T461 361T433 324T388 303L508 0H351ZM300 719H173L231 852H391L300 719ZM338 483Q338 508
333 522T316 542T287 550T247 551H210V399H246Q267 399 284 399T313 406T331 425T338 464V483Z" />
<glyph unicode="&#x155;" glyph-name="racute" horiz-adv-x="340" d="M323 382Q265 382 235 361T195 315V0H55V521H187V456Q188 458 194 469Q201 482 216 496T258 522T323 534V382ZM196 589H79L137 732H287L196 589Z" />
<glyph unicode="&#x156;" glyph-name="Rcommaaccent" horiz-adv-x="518" d="M351 0L249 283H210V0H63V667H272Q318 667 356 662T422 640T465 594T480 515V466Q480 436 476 410T461 361T433 324T388 303L508 0H351ZM311 -211H196L201 -57H333L311 -211ZM338 483Q338
508 333 522T316 542T287 550T247 551H210V399H246Q267 399 284 399T313 406T331 425T338 464V483Z" />
<glyph unicode="&#x157;" glyph-name="rcommaaccent" horiz-adv-x="340" d="M323 382Q265 382 235 361T195 315V0H54V521H187V456Q188 458 194 469Q201 482 216 496T258 522T323 534V382ZM162 -211H56L61 -57H194L162 -211Z" />
<glyph unicode="&#x158;" glyph-name="Rcaron" horiz-adv-x="518" d="M351 0L249 283H210V0H63V667H272Q318 667 356 662T422 640T465 594T480 515V466Q480 436 476 410T461 361T433 324T388 303L508 0H351ZM310 711H155L73 847H189L231 777L270 847H390L310 711ZM338
483Q338 508 333 522T316 542T287 550T247 551H210V399H246Q267 399 284 399T313 406T331 425T338 464V483Z" />
<glyph unicode="&#x159;" glyph-name="rcaron" horiz-adv-x="340" d="M323 382Q265 382 235 361T195 315V0H55V521H187V456Q188 458 194 469Q201 482 216 496T258 522T323 534V382ZM246 586H91L19 732H130L167 642L201 732H316L246 586Z" />
<glyph unicode="&#x15a;" glyph-name="Sacute" horiz-adv-x="483" d="M454 176Q454 125 438 89T393 31T322 -2T228 -13Q179 -13 143 -11T81 -4Q52 0 31 6V173H170V104Q176 102 186 101Q194 100 206 100T236 99Q277 99 292 117T307 161Q307 176 302 188T288 210T264
231T230 254L132 318Q91 345 62 388T32 500Q32 589 84 634T243 680Q291 680 327 677T387 671Q415 667 435 662V500H295V564Q289 565 282 566Q276 567 267 567T247 568Q205 568 191 551T177 507Q177 475 192 460T234 429L350 357Q401 325 427 284T454 176ZM300 719H173L231
852H391L300 719Z" />
<glyph unicode="&#x15b;" glyph-name="sacute" horiz-adv-x="443" d="M416 147Q416 95 401 64T359 15T294 -7T210 -13Q171 -13 139 -10T84 -2Q57 2 36 9V138H165V86Q169 84 177 83Q189 80 217 80Q250 80 261 94T273 132Q273 147 268 158T251 180T223 199T180 220Q146
235 119 248T73 278T43 319T32 381Q32 427 47 457T89 504T150 527T226 534Q268 534 299 530T353 521Q379 516 397 509V385H267V434Q262 435 256 436Q251 437 243 438T223 439Q190 439 181 426T172 392Q172 376 180 366T204 347T242 330T296 308Q362 279 389 243T416
147ZM269 589H151L209 732H360L269 589Z" />
<glyph unicode="&#x15c;" glyph-name="Scircumflex" horiz-adv-x="483" d="M454 176Q454 125 438 89T393 31T322 -2T228 -13Q179 -13 143 -11T81 -4Q52 0 31 6V173H170V104Q176 102 186 101Q194 100 206 100T236 99Q277 99 292 117T307 161Q307 176 302 188T288
210T264 231T230 254L132 318Q91 345 62 388T32 500Q32 589 84 634T243 680Q291 680 327 677T387 671Q415 667 435 662V500H295V564Q289 565 282 566Q276 567 267 567T247 568Q205 568 191 551T177 507Q177 475 192 460T234 429L350 357Q401 325 427 284T454 176ZM299
711L257 781L218 711H98L178 847H333L415 711H299Z" />
<glyph unicode="&#x15d;" glyph-name="scircumflex" horiz-adv-x="443" d="M416 147Q416 95 401 64T359 15T294 -7T210 -13Q171 -13 139 -10T84 -2Q57 2 36 9V138H165V86Q169 84 177 83Q189 80 217 80Q250 80 261 94T273 132Q273 147 268 158T251 180T223 199T180
220Q146 235 119 248T73 278T43 319T32 381Q32 427 47 457T89 504T150 527T226 534Q268 534 299 530T353 521Q379 516 397 509V385H267V434Q262 435 256 436Q251 437 243 438T223 439Q190 439 181 426T172 392Q172 376 180 366T204 347T242 330T296 308Q362 279
389 243T416 147ZM269 586L230 666L188 586H72L154 732H309L389 586H269Z" />
<glyph unicode="&#x15e;" glyph-name="Scedilla" horiz-adv-x="483" d="M360 -138Q360 -172 345 -192T307 -222T255 -235T199 -238Q181 -238 161 -235T124 -226L126 -161Q155 -169 182 -169Q190 -169 201 -168T224 -164T243 -155T251 -137Q251 -125 246 -118T234
-108T217 -103T198 -102Q189 -102 181 -103T163 -105L206 -13Q162 -12 130 -10T75 -3Q49 1 31 6V173H171V104Q177 102 187 101Q195 100 207 100T237 99Q277 99 292 117T307 161Q307 176 302 188T288 210T264 231T230 254L132 318Q91 345 62 388T32 500Q32 589 84
634T243 680Q291 680 327 677T387 671Q415 667 435 662V500H295V564Q289 565 282 566Q276 567 267 567T247 568Q206 568 192 551T178 507Q178 475 193 460T235 429L350 357Q401 325 427 284T454 176Q454 130 442 97T406 41T348 6T272 -11L250 -53Q272 -53 292 -57T327
-70T351 -96T360 -138Z" />
<glyph unicode="&#x15f;" glyph-name="scedilla" horiz-adv-x="443" d="M335 -131Q335 -165 320 -185T282 -215T230 -228T174 -231Q156 -231 136 -228T99 -219L101 -154Q130 -162 157 -162Q165 -162 176 -161T199 -157T218 -148T226 -130Q226 -118 221 -111T209
-101T192 -96T172 -95Q163 -95 155 -96T137 -98L178 -12Q146 -10 120 -7T75 0Q53 4 36 9V138H166V86Q170 84 178 83Q190 80 218 80Q250 80 261 94T273 132Q273 147 268 158T251 180T223 199T180 220Q146 235 119 248T73 278T43 319T32 381Q32 427 47 457T89 504T150
527T226 534Q268 534 299 530T353 521Q379 516 397 509V385H267V434Q262 435 256 436Q251 437 243 438T223 439Q191 439 182 426T173 392Q173 376 181 366T205 347T243 330T296 308Q362 279 389 243T416 147Q416 100 404 70T369 22T314 -3T243 -12L225 -46Q247
-46 267 -50T302 -63T326 -89T335 -131Z" />
<glyph unicode="&#x160;" glyph-name="Scaron" horiz-adv-x="483" d="M454 176Q454 125 438 89T393 31T322 -2T228 -13Q179 -13 143 -11T81 -4Q52 0 31 6V173H170V104Q176 102 186 101Q194 100 206 100T236 99Q277 99 292 117T307 161Q307 192 288 210T230 254L132
318Q91 344 62 388T32 500Q32 589 84 634T243 680Q291 680 327 677T387 671Q415 667 435 662V500H295V564Q289 565 282 566Q276 567 267 567T247 568Q205 568 191 551T177 507Q177 475 192 460T234 429L350 357Q401 325 427 284T454 176ZM330 711H175L93 847H209L251
777L290 847H410L330 711Z" />
<glyph unicode="&#x161;" glyph-name="scaron" horiz-adv-x="443" d="M416 147Q416 95 401 64T359 15T294 -7T210 -13Q171 -13 139 -10T84 -2Q57 2 36 9V138H165V86Q169 84 177 83Q189 80 217 80Q250 80 261 94T273 132Q273 147 268 158T251 180T223 199T180 220Q146
235 119 248T73 278T43 319T32 381Q32 427 47 457T89 504T150 527T226 534Q268 534 299 530T353 521Q379 516 397 509V385H267V434Q262 435 256 436Q251 437 243 438T223 439Q190 439 181 426T172 392Q172 376 180 366T204 347T242 330T296 308Q362 279 389 243T416
147ZM309 586H154L72 732H188L230 652L269 732H389L309 586Z" />
<glyph unicode="&#x162;" glyph-name="Tcedilla" horiz-adv-x="458" d="M347 -138Q347 -172 332 -192T294 -222T242 -235T186 -238Q168 -238 148 -235T111 -226L113 -161Q142 -169 169 -169Q177 -169 188 -168T211 -164T230 -155T238 -137Q238 -126 233 -119T221
-109T204 -104T184 -103Q175 -103 167 -104T149 -106L199 0H154V551H17V667H442V551H303V0H265L237 -54Q259 -54 279 -57T314 -70T338 -96T347 -138Z" />
<glyph unicode="&#x163;" glyph-name="tcedilla" horiz-adv-x="325" d="M275 -135Q275 -168 261 -186T224 -215T175 -227T122 -230Q86 -230 51 -219L53 -157Q80 -165 106 -165Q113 -165 124 -164T146 -160T164 -151T172 -134Q172 -111 156 -106T120 -101Q112 -101
104 -102T87 -104L133 5Q95 21 84 56T72 145V418H16V521H72V643L212 676V521H293V418H212V167Q212 153 212 142T217 123T231 111T258 107Q277 107 292 110Q301 111 308 113V5Q295 2 279 -1Q265 -3 247 -5T207 -7Q202 -7 199 -7T191 -6L171 -54Q192 -54 210 -57T243
-70T266 -95T275 -135Z" />
<glyph unicode="&#x164;" glyph-name="Tcaron" horiz-adv-x="458" d="M303 551V0H154V551H17V667H442V551H303ZM307 711H152L70 847H186L228 777L267 847H387L307 711Z" />
<glyph unicode="&#x165;" glyph-name="tcaron" horiz-adv-x="325" d="M308 5Q295 2 279 -1Q265 -3 247 -5T207 -7Q164 -7 138 3T97 32T77 80T72 145V418H16V521H72V643L212 676V521H293V418H212V167Q212 153 212 142T217 123T231 111T258 107Q277 107 292 110Q301
111 308 113V5ZM366 582H271L276 756H398L366 582Z" />
<glyph unicode="&#x166;" glyph-name="Tbar" horiz-adv-x="458" d="M303 551V375H419V265H303V0H154V265H36V375H154V551H17V667H442V551H303Z" />
<glyph unicode="&#x167;" glyph-name="tbar" horiz-adv-x="325" d="M308 5Q295 2 279 -1Q265 -3 247 -5T207 -7Q164 -7 138 3T97 32T77 80T72 145V223H23V326H72V418H16V521H72V643L212 676V521H293V418H212V326H264V223H212V167Q212 153 212 142T217 123T231
111T258 107Q277 107 292 110Q301 111 308 113V5Z" />
<glyph unicode="&#x168;" glyph-name="Utilde" horiz-adv-x="541" d="M483 155Q483 124 476 94T447 40T384 2T276 -13Q205 -13 162 0T96 37T66 90T58 155V667H205V160Q205 131 218 115T273 98Q312 98 324 115T336 160V667H483V155ZM445 750Q430 741 417 733T391
719T364 710T331 706Q315 706 301 711T272 721T243 732T213 737Q196 737 179 726T148 704L95 786Q119 806 149 823T211 840Q227 840 241 835T270 825T299 814T329 809Q335 809 345 812T365 821T386 832T402 841L445 750Z" />
<glyph unicode="&#x169;" glyph-name="utilde" horiz-adv-x="485" d="M294 0V45Q283 31 265 20Q250 10 228 3T174 -5Q138 -5 115 2T78 25T59 65T53 122V521H193V151Q193 128 201 118T236 108Q248 108 258 111T275 119Q283 123 290 130V521H430V0H294ZM418 635Q403
626 390 618T364 604T337 595T304 591Q288 591 274 596T245 606T216 617T186 622Q169 622 152 611T121 589L68 671Q92 691 122 708T184 725Q200 725 214 720T243 710T272 699T302 694Q308 694 318 697T338 706T359 717T375 726L418 635Z" />
<glyph unicode="&#x16a;" glyph-name="Umacron" horiz-adv-x="541" d="M483 155Q483 124 476 94T447 40T384 2T276 -13Q205 -13 162 0T96 37T66 90T58 155V667H205V160Q205 131 218 115T273 98Q312 98 324 115T336 160V667H483V155ZM130 715V825H415V715H130Z" />
<glyph unicode="&#x16b;" glyph-name="umacron" horiz-adv-x="485" d="M294 0V45Q283 31 265 20Q250 10 228 3T174 -5Q138 -5 115 2T78 25T59 65T53 122V521H193V151Q193 128 201 118T236 108Q248 108 258 111T275 119Q283 123 290 130V521H430V0H294ZM97 605V715H382V605H97Z"
/>
<glyph unicode="&#x16c;" glyph-name="Ubreve" horiz-adv-x="541" d="M483 155Q483 124 476 94T447 40T384 2T276 -13Q205 -13 162 0T96 37T66 90T58 155V667H205V160Q205 131 218 115T273 98Q312 98 324 115T336 160V667H483V155ZM427 849Q427 814 415 788T381
743T331 716T269 707Q237 707 209 717T160 745T126 789T113 849H205Q207 824 226 810T269 795Q297 795 315 807T336 849H427Z" />
<glyph unicode="&#x16d;" glyph-name="ubreve" horiz-adv-x="485" d="M294 0V45Q283 31 265 20Q250 10 228 3T174 -5Q138 -5 115 2T78 25T59 65T53 122V521H193V151Q193 128 201 118T236 108Q248 108 258 111T275 119Q283 123 290 130V521H430V0H294ZM400 729Q400
694 388 668T354 623T304 596T242 587Q210 587 182 597T133 625T99 669T86 729H178Q180 704 199 690T242 675Q270 675 288 687T309 729H400Z" />
<glyph unicode="&#x16e;" glyph-name="Uring" horiz-adv-x="541" d="M483 155Q483 124 476 94T447 40T384 2T276 -13Q205 -13 162 0T96 37T66 90T58 155V667H205V160Q205 131 218 115T273 98Q312 98 324 115T336 160V667H483V155ZM377 787Q377 743 354 720T269
697Q210 697 186 720T161 786Q161 829 184 853T269 877Q331 877 354 854T377 787ZM307 787Q307 818 269 818Q231 818 231 787Q231 756 269 756Q307 756 307 787Z" />
<glyph unicode="&#x16f;" glyph-name="uring" horiz-adv-x="485" d="M294 0V45Q283 31 265 20Q250 10 228 3T174 -5Q138 -5 115 2T78 25T59 65T53 122V521H193V151Q193 128 201 118T236 108Q248 108 258 111T275 119Q283 123 290 130V521H430V0H294ZM349 664Q349
620 326 595T241 569Q182 569 158 594T133 663Q133 684 138 702T156 732T189 752T241 759Q302 759 325 733T349 664ZM279 664Q279 680 270 690T241 700Q221 700 212 690T203 664Q203 648 212 638T241 628Q261 628 270 638T279 664Z" />
<glyph unicode="&#x170;" glyph-name="Uhungarumlaut" horiz-adv-x="541" d="M483 155Q483 124 476 94T447 40T384 2T276 -13Q205 -13 162 0T96 37T66 90T58 155V667H205V160Q205 131 218 115T273 98Q312 98 324 115T336 160V667H483V155ZM222 715H118L157 858H284L222
715ZM393 715H289L328 858H455L393 715Z" />
<glyph unicode="&#x171;" glyph-name="uhungarumlaut" horiz-adv-x="485" d="M294 0V45Q283 31 265 20Q250 10 228 3T174 -5Q138 -5 115 2T78 25T59 65T53 122V521H193V151Q193 128 201 118T236 108Q248 108 258 111T275 119Q283 123 290 130V521H430V0H294ZM193
589H89L128 732H255L193 589ZM364 589H260L299 732H426L364 589Z" />
<glyph unicode="&#x172;" glyph-name="Uogonek" horiz-adv-x="541" d="M403 -215Q385 -217 368 -219Q354 -221 338 -221T310 -222Q291 -222 270 -218T230 -204T199 -177T186 -133Q186 -95 208 -66T259 -13Q194 -11 155 3T94 40T65 92T58 155V667H205V160Q205 131
218 115T273 98Q312 98 324 115T336 160V667H483V155Q483 131 479 108T464 64T433 27T379 0Q367 -5 352 -14T324 -35T301 -62T291 -91Q291 -114 309 -120T346 -127Q353 -127 363 -127T382 -125Q393 -124 403 -123V-215Z" />
<glyph unicode="&#x173;" glyph-name="uogonek" horiz-adv-x="485" d="M449 -217Q433 -219 417 -220Q403 -222 388 -222T360 -223Q336 -223 311 -220T266 -206T232 -179T219 -133Q219 -87 239 -55T294 1V45Q283 31 265 20Q250 10 228 3T174 -5Q138 -5 115 2T78
25T59 65T53 122V521H193V151Q193 128 201 118T236 108Q248 108 258 111T275 119Q283 123 290 130V521H430V0H427Q415 -5 398 -13T366 -32T341 -56T330 -85Q330 -97 335 -104T349 -116T368 -121T388 -123H406Q416 -123 426 -122Q437 -121 449 -120V-217Z" />
<glyph unicode="&#x174;" glyph-name="Wcircumflex" horiz-adv-x="744" d="M649 0H446L397 320Q394 338 392 365T386 423T380 482T375 532Q373 512 371 485T367 429T361 370T354 319L306 0H103L15 667H167L205 370Q209 340 210 315T213 264T215 214T218 158Q223
206 227 262T239 370L280 667H468L514 370Q522 317 525 265T533 167Q536 212 538 264T545 370L576 667H729L649 0ZM414 711L372 781L333 711H213L293 847H448L530 711H414Z" />
<glyph unicode="&#x175;" glyph-name="wcircumflex" horiz-adv-x="671" d="M558 0H402L353 232Q347 260 341 300Q336 338 334 370Q331 343 327 306Q322 267 314 232L265 0H109L15 521H157L187 298L191 262Q194 242 195 222T198 182T201 147Q204 177 209 219T222
298L262 521H409Q416 481 422 446Q427 416 432 385T441 336Q444 316 448 291T455 241T462 191T468 147Q470 178 473 220T482 300L515 521H657L558 0ZM374 586L335 666L293 586H177L259 732H414L494 586H374Z" />
<glyph unicode="&#x176;" glyph-name="Ycircumflex" horiz-adv-x="466" d="M302 280V0H158V280L0 667H148L233 413L317 667H466L302 280ZM276 711L234 781L195 711H75L155 847H310L392 711H276Z" />
<glyph unicode="&#x177;" glyph-name="ycircumflex" horiz-adv-x="444" d="M309 24Q301 -7 291 -42T262 -108T212 -159T129 -180Q93 -180 66 -177Q50 -175 36 -173V-73Q42 -74 49 -75Q55 -76 61 -76T74 -77Q90 -77 101 -73T118 -61T128 -46T132 -30L139 22L18
521H158L198 326Q214 248 218 199T222 143Q222 147 223 163T228 203T236 258T248 324L287 521H427L309 24ZM261 586L222 666L180 586H64L146 732H301L381 586H261Z" />
<glyph unicode="&#x178;" glyph-name="Ydieresis" horiz-adv-x="466" d="M302 280V0H158V280L0 667H148L233 413L317 667H466L302 280ZM262 715V826H395V715H262ZM62 715V826H195V715H62Z" />
<glyph unicode="&#x179;" glyph-name="Zacute" horiz-adv-x="475" d="M34 0V109L267 551H60V667H436V558L200 116H440V0H34ZM300 719H173L231 852H391L300 719Z" />
<glyph unicode="&#x17a;" glyph-name="zacute" horiz-adv-x="382" d="M18 0V90L200 418H30V521H358V431L177 103H364V0H18ZM250 589H133L191 732H341L250 589Z" />
<glyph unicode="&#x17b;" glyph-name="Zdotaccent" horiz-adv-x="475" d="M34 0V109L267 551H60V667H436V558L200 116H440V0H34ZM182 715V826H315V715H182Z" />
<glyph unicode="&#x17c;" glyph-name="zdotaccent" horiz-adv-x="382" d="M18 0V90L200 418H30V521H358V431L177 103H364V0H18ZM126 605V716H266V605H126Z" />
<glyph unicode="&#x17d;" glyph-name="Zcaron" horiz-adv-x="475" d="M34 0V109L267 551H60V667H436V558L200 116H440V0H34ZM330 711H175L93 857H209L251 777L290 857H410L330 711Z" />
<glyph unicode="&#x17e;" glyph-name="zcaron" horiz-adv-x="384" d="M18 0V90L200 418H30V521H358V431L177 103H364V0H18ZM286 586H131L49 732H165L207 652L246 732H366L286 586Z" />
<glyph unicode="&#x1cd;" glyph-name="Acaron" horiz-adv-x="516" d="M348 0L312 172H196L166 0H16L146 667H365L500 0H348ZM276 417Q272 434 269 460T262 510Q258 538 254 569Q250 538 246 510Q242 485 238 459T232 416L209 280H300L276 417ZM337 711H182L100
847H216L258 777L297 847H417L337 711Z" />
<glyph unicode="&#x1ce;" glyph-name="acaron" horiz-adv-x="481" d="M291 0V48Q278 32 260 20Q245 9 224 1T176 -7Q147 -7 122 -1T78 21T48 62T37 125V152Q37 224 97 271T289 330V378Q289 407 280 418T239 429Q228 429 219 428T203 426Q195 425 188 424V372H60V511Q80
517 107 522Q130 527 164 530T243 534Q281 534 314 530T373 512T414 472T429 400V0H291ZM289 234Q240 232 209 215T177 161V156Q177 130 188 116T229 102Q242 102 253 105T272 113Q282 118 289 125V234ZM326 586H171L89 732H205L247 652L286 732H406L326 586Z"
/>
<glyph unicode="&#x218;" glyph-name="Scommaaccent" horiz-adv-x="483" d="M454 176Q454 125 438 89T393 31T322 -2T228 -13Q179 -13 143 -11T81 -4Q52 0 31 6V173H170V104Q176 102 186 101Q194 100 206 100T236 99Q277 99 292 117T307 161Q307 176 302 188T288
210T264 231T230 254L132 318Q91 345 62 388T32 500Q32 589 84 634T243 680Q291 680 327 677T387 671Q415 667 435 662V500H295V564Q289 565 282 566Q276 567 267 567T247 568Q205 568 191 551T177 507Q177 475 192 460T234 429L350 357Q401 325 427 284T454 176ZM287
-211H172L177 -57H309L287 -211Z" />
<glyph unicode="&#x219;" glyph-name="scommaaccent" horiz-adv-x="443" d="M416 147Q416 95 401 64T359 15T294 -7T210 -13Q171 -13 139 -10T84 -2Q57 2 36 9V138H165V86Q169 84 177 83Q189 80 217 80Q250 80 261 94T273 132Q273 147 268 158T251 180T223 199T180
220Q146 235 119 248T73 278T43 319T32 381Q32 427 47 457T89 504T150 527T226 534Q268 534 299 530T353 521Q379 516 397 509V385H267V434Q262 435 256 436Q251 437 243 438T223 439Q190 439 181 426T172 392Q172 376 180 366T204 347T242 330T296 308Q362 279
389 243T416 147ZM268 -211H153L158 -57H290L268 -211Z" />
<glyph unicode="&#x21a;" glyph-name="Tcommaaccent" horiz-adv-x="472" d="M310 551V0H161V551H24V667H449V551H310ZM282 -211H167L172 -57H304L282 -211Z" />
<glyph unicode="&#x21b;" glyph-name="tcommaaccent" horiz-adv-x="339" d="M315 5Q302 2 286 -1Q272 -3 254 -5T214 -7Q171 -7 145 3T104 32T84 80T79 145V418H23V521H79V643L219 676V521H300V418H219V167Q219 153 219 142T224 123T238 111T265 107Q284 107 299
110Q308 111 315 113V5ZM206 -211H101L106 -57H238L206 -211Z" />
<glyph unicode="&#x226;" glyph-name="Adotaccent" horiz-adv-x="516" d="M348 0L312 172H196L166 0H16L146 667H365L500 0H348ZM276 417Q272 434 269 460T262 510Q258 538 254 569Q250 538 246 510Q242 485 238 459T232 416L209 280H300L276 417ZM191 715V826H324V715H191Z"
/>
<glyph unicode="&#x227;" glyph-name="adotaccent" horiz-adv-x="481" d="M291 0V48Q278 32 260 20Q245 9 224 1T176 -7Q147 -7 122 -1T78 21T48 62T37 125V152Q37 224 97 271T289 330V378Q289 407 280 418T239 429Q228 429 219 428T203 426Q195 425 188 424V372H60V511Q80
517 107 522Q130 527 164 530T243 534Q281 534 314 530T373 512T414 472T429 400V0H291ZM289 234Q240 232 209 215T177 161V156Q177 130 188 116T229 102Q242 102 253 105T272 113Q282 118 289 125V234ZM171 605V716H311V605H171Z" />
<glyph unicode="&#x22e;" glyph-name="Odotaccent" horiz-adv-x="536" d="M480 162Q480 112 467 78T427 24T360 -4T267 -13Q198 -13 156 1T92 40T63 96T56 160V509Q56 560 70 593T111 645T178 672T270 680Q343 680 385 665T448 625T474 568T480 502V162ZM334 500Q334
538 322 553T269 568Q248 568 235 564T215 552T206 531T203 500V162Q203 131 215 115T267 98Q308 98 321 113T334 162V500ZM202 715V826H335V715H202Z" />
<glyph unicode="&#x22f;" glyph-name="odotaccent" horiz-adv-x="488" d="M440 122Q440 95 432 71T402 28T344 -2T250 -13Q209 -13 173 -8T109 12T65 57T49 133V379Q49 433 67 464T113 510T177 530T248 534Q277 534 311 531T373 512T421 467T440 385V122ZM300
366Q300 392 289 405T245 418Q213 418 201 404T189 365V156Q189 130 201 117T246 103Q278 103 289 116T300 156V366ZM174 605V716H314V605H174Z" />
<glyph unicode="&#x232;" glyph-name="Ymacron" horiz-adv-x="466" d="M302 280V0H158V280L0 667H148L233 413L317 667H466L302 280ZM90 715V825H375V715H90Z" />
<glyph unicode="&#x233;" glyph-name="ymacron" horiz-adv-x="444" d="M309 24Q301 -7 291 -42T262 -108T212 -159T129 -180Q93 -180 66 -177Q50 -175 36 -173V-73Q42 -74 49 -75Q55 -76 61 -76T74 -77Q90 -77 101 -73T118 -61T128 -46T132 -30L139 22L18 521H158L198
326Q214 248 218 199T222 143Q222 147 223 163T228 203T236 258T248 324L287 521H427L309 24ZM80 610V715H365V610H80Z" />
<glyph unicode="&#x2c6;" glyph-name="circumflex" horiz-adv-x="500" d="M288 586L249 666L207 586H91L173 732H328L408 586H288Z" />
<glyph unicode="&#x2c7;" glyph-name="caron" horiz-adv-x="500" d="M328 586H173L91 732H207L249 652L288 732H408L328 586Z" />
<glyph unicode="&#x2d8;" glyph-name="breve" horiz-adv-x="500" d="M407 729Q407 694 395 668T361 623T311 596T249 587Q217 587 189 597T140 625T106 669T93 729H185Q187 704 206 690T249 675Q277 675 295 687T316 729H407Z" />
<glyph unicode="&#x2d9;" glyph-name="dotaccent" horiz-adv-x="500" d="M180 605V716H320V605H180Z" />
<glyph unicode="&#x2da;" glyph-name="ring" horiz-adv-x="500" d="M358 664Q358 620 335 595T250 569Q191 569 167 594T142 663Q142 684 147 702T165 732T198 752T250 759Q311 759 334 733T358 664ZM288 664Q288 680 279 690T250 700Q230 700 221 690T212 664Q212
648 221 638T250 628Q270 628 279 638T288 664Z" />
<glyph unicode="&#x2db;" glyph-name="ogonek" horiz-adv-x="500" d="M354 -215L324 -219Q311 -221 297 -221T271 -222Q248 -222 225 -219T182 -206T150 -181T137 -137Q137 -115 145 -95T166 -58T195 -26T228 0H330Q318 -5 303 -14T275 -35T252 -62T242 -91Q242
-114 260 -120T297 -127Q304 -127 314 -127T333 -125Q344 -124 354 -123V-215Z" />
<glyph unicode="&#x2dc;" glyph-name="tilde" horiz-adv-x="500" d="M425 635Q410 626 397 618T371 604T344 595T311 591Q295 591 281 596T252 606T223 617T193 622Q176 622 159 611T128 589L75 671Q99 691 129 708T191 725Q207 725 221 720T250 710T279 699T309
694Q315 694 325 697T345 706T366 717T382 726L425 635Z" />
<glyph unicode="&#x2dd;" glyph-name="hungarumlaut" horiz-adv-x="500" d="M356 589H252L291 732H418L356 589ZM185 589H81L120 732H247L185 589Z" />
<glyph unicode="&#x3c0;" glyph-name="pi" horiz-adv-x="500" d="M415 418V0H303V418H199V0H86V418H20V521H480V418H415Z" />
<glyph unicode="&#x401;" glyph-name="afii10023" horiz-adv-x="447" d="M268 715V826H401V715H268ZM68 715V826H201V715H68ZM63 0V667H409V551H210V404H392V288H210V116H413V0H63Z" />
<glyph unicode="&#x402;" glyph-name="afii10051" horiz-adv-x="634" d="M578 165Q578 119 570 87T545 34T499 4T430 -6Q416 -6 401 -6T372 -3Q356 -1 341 1V119Q345 118 350 117Q355 116 360 116T373 115Q408 115 419 130T431 176V236Q431 251 429 262T420 282T401
295T366 299Q352 299 341 297T321 292Q311 288 303 285V0H154V551H17V667H442V551H303V398Q308 400 337 407T419 415Q501 415 539 375T578 267V165Z" />
<glyph unicode="&#x403;" glyph-name="afii10052" horiz-adv-x="407" d="M270 719H143L201 852H361L270 719ZM210 551V0H63V667H398V551H210Z" />
<glyph unicode="&#x404;" glyph-name="afii10053" horiz-adv-x="514" d="M467 5Q444 0 413 -4Q387 -8 349 -10T262 -13Q202 -13 163 -2T99 32T66 86T56 160V498Q56 549 69 584T109 640T175 671T264 680Q309 680 345 677T408 671Q438 667 462 662V501H325V562Q318
563 309 565Q301 566 291 567T270 568Q229 568 216 550T202 496V404H382V288H202V171Q202 133 214 116T265 98Q277 98 288 98T308 100Q318 101 327 103V176H467V5Z" />
<glyph unicode="&#x405;" glyph-name="afii10054" horiz-adv-x="483" d="M454 176Q454 125 438 89T393 31T322 -2T228 -13Q179 -13 143 -11T81 -4Q52 0 31 6V173H170V104Q176 102 186 101Q194 100 206 100T236 99Q277 99 292 117T307 161Q307 176 302 188T288
210T264 231T230 254L132 318Q91 344 62 388T32 500Q32 589 84 634T243 680Q291 680 327 677T387 671Q415 667 435 662V500H295V564Q289 565 282 566Q276 567 267 567T247 568Q205 568 191 551T177 507Q177 475 192 460T234 429L350 357Q401 325 427 284T454 176Z"
/>
<glyph unicode="&#x406;" glyph-name="afii10055" horiz-adv-x="273" d="M63 0V667H210V0H63Z" />
<glyph unicode="&#x407;" glyph-name="afii10056" horiz-adv-x="273" d="M170 715V826H283V715H170ZM-10 715V826H103V715H-10ZM63 0V667H210V0H63Z" />
<glyph unicode="&#x408;" glyph-name="afii10057" horiz-adv-x="339" d="M278 165Q278 119 271 87T245 34T194 4T113 -6Q61 -6 36 -3Q21 -1 11 1V119Q24 118 35 117Q45 116 55 116T73 115Q108 115 119 130T131 176V667H278V165Z" />
<glyph unicode="&#x409;" glyph-name="afii10058" horiz-adv-x="788" d="M754 149Q754 105 742 77T707 31T648 7T565 0H337V551H246L231 192Q228 126 215 87T180 26T130 -1T70 -8Q27 -8 12 -5Q3 -4 0 -2L9 108Q11 107 15 106Q19 105 25 105T41 104Q57 104 66 109T80
125T88 155T92 202L117 667H485V404H569Q601 404 634 399T693 377T737 327T754 236V149ZM607 219Q607 244 602 258T587 279T562 287T525 288H474V116H526Q549 116 564 117T589 125T603 145T607 185V219Z" />
<glyph unicode="&#x40a;" glyph-name="afii10059" horiz-adv-x="790" d="M756 149Q756 105 744 77T709 31T650 7T567 0H339V288H210V0H63V667H210V404H339V667H487V404H571Q603 404 636 399T695 377T739 327T756 236V149ZM609 214Q609 239 604 254T589 276T564
286T527 288H486V116H528Q551 116 566 117T591 125T605 145T609 185V214Z" />
<glyph unicode="&#x40b;" glyph-name="afii10060" horiz-adv-x="634" d="M303 551V398Q308 400 337 407T419 415Q501 415 539 375T578 267V0H431V236Q431 251 429 262T420 282T401 295T366 299Q339 299 323 293T303 284V0H154V551H17V667H442V551H303Z" />
<glyph unicode="&#x40c;" glyph-name="afii10061" horiz-adv-x="535" d="M300 719H173L231 852H391L300 719ZM361 0L208 280V0H63V667H208V412L347 667H511L327 353L528 0H361Z" />
<glyph unicode="&#x40e;" glyph-name="afii10062" horiz-adv-x="516" d="M298 166Q281 123 267 91T234 38T191 6T129 -5Q90 -5 69 -2Q57 0 47 2V120L61 118Q67 117 74 117T89 116Q108 116 120 122T139 139T152 163T162 190L185 251L24 667H172L223 506Q234 468
241 434T253 372Q257 340 260 312Q263 338 267 370Q271 396 277 431T295 505L341 667H490L298 166ZM422 847Q422 777 379 741T254 705Q175 705 132 743T88 847H200Q201 819 213 801T254 783Q288 783 298 800T311 847H422Z" />
<glyph unicode="&#x40f;" glyph-name="afii10145" horiz-adv-x="550" d="M205 -131V0H63V667H210V116H339V667H487V0H345V-131H205Z" />
<glyph unicode="&#x410;" glyph-name="afii10017" horiz-adv-x="516" d="M348 0L312 172H196L161 0H16L146 667H365L500 0H348ZM276 417Q273 434 270 457T263 501T257 538T254 559Q253 556 251 540T245 502T239 457T232 416L209 280H300L276 417Z" />
<glyph unicode="&#x411;" glyph-name="afii10018" horiz-adv-x="514" d="M480 149Q480 105 468 77T433 31T374 7T291 0H63V667H409V551H210V404H295Q327 404 360 399T419 377T463 327T480 236V149ZM333 219Q333 244 328 258T313 279T288 287T251 288H210V109H252Q275
109 290 110T315 118T329 138T333 178V219Z" />
<glyph unicode="&#x412;" glyph-name="afii10019" horiz-adv-x="521" d="M479 175Q479 127 469 94T436 40T376 10T286 0H63V667H273Q318 667 354 663T415 645T455 601T469 522V489Q469 464 467 442T457 402T432 372T385 353Q420 347 439 333T467 300T477 259T479
215V175ZM323 503Q323 520 320 530T309 544T291 550T264 551H210V400H269Q288 400 298 404T314 415T321 434T323 460V503ZM333 229Q333 245 331 256T323 276T303 288T269 292H210V116H265Q290 116 303 120T323 133T331 155T333 186V229Z" />
<glyph unicode="&#x413;" glyph-name="afii10020" horiz-adv-x="407" d="M210 551V0H63V667H398V551H210Z" />
<glyph unicode="&#x414;" glyph-name="afii10021" horiz-adv-x="550" d="M337 117V552H246L233 299Q229 230 219 186T193 117H337ZM387 -130V1H163V-130H23V117H59Q65 124 70 137T81 171T90 222T96 294L115 668H485V117H527V-130H387Z" />
<glyph unicode="&#x415;" glyph-name="afii10022" horiz-adv-x="462" d="M63 0V667H409V551H210V404H392V288H210V116H413V0H63Z" />
<glyph unicode="&#x416;" glyph-name="afii10024" horiz-adv-x="798" d="M624 0L471 308V0H326V308L174 0H7L208 353L24 667H188L326 402V667H471V402L610 667H774L590 353L791 0H624Z" />
<glyph unicode="&#x417;" glyph-name="afii10025" horiz-adv-x="514" d="M464 192Q464 143 461 105T438 41T374 1T249 -13Q207 -13 170 -11T104 -4Q70 0 40 5V177H173V103Q189 102 204 101Q217 100 229 100T250 99Q274 99 287 103T307 116T315 139T317 175V209Q317
227 315 241T304 266T279 282T236 288H146V404H234Q277 404 293 419T310 474V510Q310 536 299 552T253 568Q230 568 216 567T191 565Q180 564 173 563V501H40V662Q69 667 102 671Q130 674 165 677T238 680Q298 680 340 673T408 647T446 593T458 503Q458 460 454
434T440 392T414 366T372 349Q404 340 422 328T450 298T461 254T464 192Z" />
<glyph unicode="&#x418;" glyph-name="afii10026" horiz-adv-x="579" d="M380 547Q379 540 374 505T361 425T345 334T330 259L272 0H63V667H210V413Q210 396 209 369T205 309T200 244T195 184T192 139T190 119H200Q201 125 206 157T219 234T236 328T254 419L309
667H516V0H369V257Q369 271 370 297T374 354T379 418T384 478T388 525T390 547H380Z" />
<glyph unicode="&#x419;" glyph-name="afii10027" horiz-adv-x="579" d="M457 847Q457 777 414 741T289 705Q210 705 167 743T123 847H235Q236 819 248 801T289 783Q323 783 333 800T346 847H457ZM380 547Q379 540 374 505T361 425T345 334T330 259L272 0H63V667H210V413Q210
396 209 369T205 309T200 244T195 184T192 139T190 119H200Q201 125 206 157T219 234T236 328T254 419L309 667H516V0H369V257Q369 271 370 297T374 354T379 418T384 478T388 525T390 547H380Z" />
<glyph unicode="&#x41a;" glyph-name="afii10028" horiz-adv-x="535" d="M361 0L208 280V0H63V667H208V412L347 667H511L327 353L528 0H361Z" />
<glyph unicode="&#x41b;" glyph-name="afii10029" horiz-adv-x="548" d="M337 0V551H246L231 192Q228 126 215 87T180 26T130 -1T70 -8Q36 -8 18 -5Q7 -4 0 -2L9 108Q12 107 16 106Q26 104 37 104Q55 104 65 109T80 125T87 155T91 202L115 667H485V0H337Z" />
<glyph unicode="&#x41c;" glyph-name="afii10030" horiz-adv-x="800" d="M402 189Q403 200 404 242T420 351L484 667H737V0H590L591 366Q591 382 592 416T595 485T599 547T601 577H591Q590 574 587 548T579 487T569 419T560 366L480 3H314L238 366Q236 375 233
392T227 431T221 475T214 517T210 551T207 568H197Q197 566 199 540T203 481T208 415T210 366V0H63V667H306L374 351Q388 288 389 245T392 189H402Z" />
<glyph unicode="&#x41d;" glyph-name="afii10031" horiz-adv-x="550" d="M339 0V288H210V0H63V667H210V404H339V667H487V0H339Z" />
<glyph unicode="&#x41e;" glyph-name="afii10032" horiz-adv-x="536" d="M480 162Q480 112 467 78T427 24T360 -4T267 -13Q198 -13 156 1T92 40T63 96T56 160V509Q56 560 70 593T111 645T178 672T270 680Q343 680 385 665T448 625T474 568T480 502V162ZM334 500Q334
538 322 553T269 568Q248 568 235 564T215 552T206 531T203 500V162Q203 131 215 115T267 98Q308 98 321 113T334 162V500Z" />
<glyph unicode="&#x41f;" glyph-name="afii10033" horiz-adv-x="550" d="M339 0V551H210V0H63V667H487V0H339Z" />
<glyph unicode="&#x420;" glyph-name="afii10034" horiz-adv-x="514" d="M480 426Q480 369 463 336T420 285T360 263T295 258H210V0H63V667H291Q338 667 373 660T432 636T468 590T480 518V426ZM333 489Q333 514 329 528T316 549T291 557T252 558H210V371H251Q272
371 287 373T313 382T328 404T333 445V489Z" />
<glyph unicode="&#x421;" glyph-name="afii10035" horiz-adv-x="514" d="M467 5Q444 0 413 -4Q387 -8 349 -10T262 -13Q202 -13 163 -2T99 32T66 86T56 160V498Q56 549 69 584T109 640T175 671T264 680Q309 680 345 677T408 671Q438 667 462 662V471H325V562Q318
563 309 565Q301 566 291 567T270 568Q229 568 216 550T202 496V171Q202 133 214 116T265 98Q277 98 288 98T308 100Q318 101 327 103V206H467V5Z" />
<glyph unicode="&#x422;" glyph-name="afii10036" horiz-adv-x="459" d="M303 551V0H154V551H17V667H442V551H303Z" />
<glyph unicode="&#x423;" glyph-name="afii10037" horiz-adv-x="516" d="M298 166Q281 123 267 91T234 38T191 6T129 -5Q90 -5 69 -2Q57 0 47 2V120L61 118Q67 117 74 117T89 116Q108 116 120 122T139 139T152 163T162 190L185 251L24 667H172L223 506Q234 468
241 434T253 372Q257 340 260 312Q263 338 267 370Q271 396 277 431T295 505L341 667H490L298 166Z" />
<glyph unicode="&#x424;" glyph-name="afii10038" horiz-adv-x="656" d="M260 48Q199 51 160 66T97 106T65 159T56 220V459Q56 506 70 538T111 589T175 618T259 630L255 707H403L400 629Q463 626 501 610T562 569T591 515T599 452V222Q599 175 585 143T545 91T482
60T399 48Q400 24 400 2T403 -40H255Q258 -20 258 2T260 48ZM262 517Q232 512 215 496T198 450V222Q198 201 206 189T224 171T246 162T263 159Q264 188 264 221V291Q264 349 264 408T262 517ZM397 516Q396 466 396 408T395 291V222Q395 189 396 160Q425 165 442
180T459 222V450Q459 482 443 496T397 516Z" />
<glyph unicode="&#x425;" glyph-name="afii10039" horiz-adv-x="490" d="M319 0L246 265L170 0H20L153 360L26 667H177L246 448L316 667H465L338 362L471 0H319Z" />
<glyph unicode="&#x426;" glyph-name="afii10040" horiz-adv-x="550" d="M387 -131V0H63V667H210V116H339V667H487V116H527V-131H387Z" />
<glyph unicode="&#x427;" glyph-name="afii10041" horiz-adv-x="543" d="M332 0V289Q320 284 302 280Q287 277 266 275T215 272Q133 272 95 312T56 420V667H203V451Q203 436 205 425T213 405T233 392T268 388Q283 388 295 390T315 396Q325 400 332 404V667H480V0H332Z" />
<glyph unicode="&#x428;" glyph-name="afii10042" horiz-adv-x="787" d="M63 0V667H210V116H320V667H467V116H576V667H724V0H63Z" />
<glyph unicode="&#x429;" glyph-name="afii10043" horiz-adv-x="787" d="M624 -131V0H63V667H210V116H320V667H467V116H576V667H724V116H764V-131H624Z" />
<glyph unicode="&#x42a;" glyph-name="afii10044" horiz-adv-x="580" d="M563 149Q563 105 551 77T516 31T457 7T374 0H146V551H9V667H293V404H378Q410 404 443 399T502 377T546 327T563 236V149ZM416 219Q416 244 411 258T396 279T371 287T334 288H293V116H335Q358
116 373 117T398 125T412 145T416 185V219Z" />
<glyph unicode="&#x42b;" glyph-name="afii10045" horiz-adv-x="783" d="M573 0V667H720V0H573ZM480 149Q480 105 468 77T433 31T374 7T291 0H63V667H210V404H295Q327 404 360 399T419 377T463 327T480 236V149ZM333 219Q333 244 328 258T313 279T288 287T251
288H210V116H252Q275 116 290 117T315 125T329 145T333 185V219Z" />
<glyph unicode="&#x42c;" glyph-name="afii10046" horiz-adv-x="514" d="M480 149Q480 105 468 77T433 31T374 7T291 0H63V667H210V404H295Q327 404 360 399T419 377T463 327T480 236V149ZM333 219Q333 244 328 258T313 279T288 287T251 288H210V116H252Q275 116
290 117T315 125T329 145T333 185V219Z" />
<glyph unicode="&#x42d;" glyph-name="afii10047" horiz-adv-x="514" d="M458 160Q458 119 449 87T415 32T352 -1T252 -13Q203 -13 165 -11T101 -4Q70 0 47 5V176H187V103Q196 101 206 100Q214 99 225 99T249 98Q287 98 299 115T312 171V288H132V404H312V496Q312
531 299 549T244 568Q232 568 223 567T205 565Q196 563 189 562V501H52V662Q76 667 106 671Q132 674 168 677T250 680Q300 680 339 671T404 641T444 584T458 498V160Z" />
<glyph unicode="&#x42e;" glyph-name="afii10048" horiz-adv-x="816" d="M210 288V0H63V667H210V404H336V509Q336 560 350 593T391 645T458 672T550 680Q623 680 665 665T728 625T754 568T760 502V162Q760 112 747 78T707 24T640 -4T547 -13Q478 -13 436 1T372
40T343 96T336 160V288H210ZM614 500Q614 538 602 553T549 568Q528 568 515 564T495 552T486 531T483 500V162Q483 131 495 115T547 98Q588 98 601 113T614 162V500Z" />
<glyph unicode="&#x42f;" glyph-name="afii10049" horiz-adv-x="532" d="M322 0V283H283L181 0H24L144 303Q117 309 99 324T71 361T56 409T52 466V515Q52 564 67 593T109 639T175 661T260 667H469V0H322ZM322 551H285Q262 551 245 550T216 543T200 522T194 483V464Q194
438 200 425T219 406T248 400T286 399H322V551Z" />
<glyph unicode="&#x430;" glyph-name="afii10065" horiz-adv-x="481" d="M291 0V48Q278 32 260 20Q245 9 224 1T176 -7Q147 -7 122 -1T78 21T48 62T37 125V152Q37 224 97 271T289 330V378Q289 407 280 418T239 429Q228 429 219 428T203 426Q195 425 188 424V372H60V511Q80
517 107 522Q130 527 164 530T243 534Q281 534 314 530T373 512T414 472T429 400V0H291ZM289 234Q240 232 209 215T177 161V156Q177 130 188 116T229 102Q242 102 253 105T272 113Q282 118 289 125V234Z" />
<glyph unicode="&#x431;" glyph-name="afii10066" horiz-adv-x="488" d="M461 621Q427 618 407 616T373 612T348 609T318 607Q291 605 270 599T232 579T207 540T193 477Q200 488 213 498Q224 506 242 513T287 520Q317 520 344 516T393 496T427 451T440 371V122Q440
95 432 71T402 28T344 -2T250 -13Q209 -13 173 -8T109 12T65 57T49 133V366Q49 417 55 474T85 581T154 667T276 713Q301 716 319 717T357 720T401 723T465 730L461 621ZM300 352Q300 378 289 391T245 404Q213 404 201 390T189 351V156Q189 130 201 117T246 103Q278
103 289 116T300 156V352Z" />
<glyph unicode="&#x432;" glyph-name="afii10067" horiz-adv-x="489" d="M448 126Q448 89 441 65T415 26T365 6T284 0H55V521H252Q297 521 331 519T389 504T425 465T438 393V375Q438 340 425 321T396 292Q378 281 355 277Q380 274 401 262Q418 251 433 230T448
171V126ZM308 173Q308 205 296 214T250 224H195V99H250Q271 99 282 102T300 111T307 130T308 160V173ZM298 368Q298 400 287 410T245 421H195V310H245Q264 310 274 313T290 323T296 340T298 365V368Z" />
<glyph unicode="&#x433;" glyph-name="afii10068" horiz-adv-x="424" d="M195 418V0H55V521H403V418H195Z" />
<glyph unicode="&#x434;" glyph-name="afii10069" horiz-adv-x="487" d="M330 -131V0H156V-131H16V103H35Q47 114 58 140Q67 162 76 199T90 299L105 521H438V103H470V-131H330ZM298 418H229L222 287Q219 231 210 196T192 140Q181 115 168 103H298V418Z" />
<glyph unicode="&#x435;" glyph-name="afii10070" horiz-adv-x="482" d="M188 238V145Q188 92 247 92Q259 92 268 92T285 94Q293 95 299 96V166H433V10Q412 3 385 -2Q362 -7 330 -10T255 -13Q204 -13 166 -7T102 16T62 63T48 141V379Q48 425 61 455T99 503T160
527T244 534Q280 534 315 530T377 509T422 461T439 376V238H188ZM299 379Q299 408 287 421T246 434Q214 434 201 422T188 379V327H299V379Z" />
<glyph unicode="&#x436;" glyph-name="afii10072" horiz-adv-x="740" d="M560 0L440 229V0H300V229L180 0H21L195 290L31 521H192L300 329V521H440V329L548 521H709L545 290L719 0H560Z" />
<glyph unicode="&#x437;" glyph-name="afii10073" horiz-adv-x="448" d="M404 129Q404 96 399 70T374 25T316 -3T212 -13Q173 -13 141 -10T85 -2Q58 3 37 10V163H169V108Q176 106 183 105Q189 104 197 104T214 103Q246 103 255 119T264 161Q264 202 254 215T214
228H133V311H209Q239 311 249 323T259 364Q259 388 251 403T212 418Q203 418 196 418T183 416L171 414V371H42V509Q59 516 85 521Q107 526 139 530T216 534Q273 534 308 525T364 499T391 460T399 410V367Q399 334 391 315T372 286Q360 275 345 271Q361 267 374
255Q385 244 394 225T404 170V129Z" />
<glyph unicode="&#x438;" glyph-name="afii10074" horiz-adv-x="507" d="M180 116Q202 220 231 320T292 521H452V0H317V178Q317 232 322 287T337 395H327Q304 295 275 197T215 0H55V521H190V338Q190 282 185 227T170 116H180Z" />
<glyph unicode="&#x439;" glyph-name="afii10075" horiz-adv-x="507" d="M417 729Q417 659 372 623T249 587Q169 587 126 625T83 729H195Q195 704 207 685T249 665Q283 665 294 682T306 729H417ZM180 116Q202 220 231 320T292 521H452V0H317V178Q317 232 322 287T337
395H327Q304 295 275 197T215 0H55V521H190V338Q190 282 185 227T170 116H180Z" />
<glyph unicode="&#x43a;" glyph-name="afii10076" horiz-adv-x="495" d="M315 0L195 219V0H55V521H195V339L303 521H464L300 290L474 0H315Z" />
<glyph unicode="&#x43b;" glyph-name="afii10077" horiz-adv-x="501" d="M306 0V405H237L226 205Q222 139 210 98T179 34T133 3T75 -5Q40 -5 21 -2Q10 -1 0 1L9 115Q13 114 18 113Q23 112 28 112T41 111Q57 111 66 117T81 135T90 167T95 215L118 521H446V0H306Z" />
<glyph unicode="&#x43c;" glyph-name="afii10078" horiz-adv-x="724" d="M369 109Q370 148 373 183Q375 213 377 244T384 296L426 521H669V0H522V220Q522 236 524 272T528 347Q531 391 534 441H524Q517 389 509 336Q502 291 492 238T471 138L432 3H286L253 136Q242
181 232 232T214 329Q205 381 197 432H187Q190 383 194 342Q197 306 199 272T202 220V0H55V521H288L344 292Q348 275 351 245T356 184Q358 149 359 109H369Z" />
<glyph unicode="&#x43d;" glyph-name="afii10079" horiz-adv-x="487" d="M292 0V232H195V0H55V521H195V335H292V521H432V0H292Z" />
<glyph unicode="&#x43e;" glyph-name="afii10080" horiz-adv-x="488" d="M440 122Q440 95 432 71T402 28T344 -2T250 -13Q209 -13 173 -8T109 12T65 57T49 133V379Q49 433 67 464T113 510T177 530T248 534Q277 534 311 531T373 512T421 467T440 385V122ZM300 366Q300
392 289 405T245 418Q213 418 201 404T189 365V156Q189 130 201 117T246 103Q278 103 289 116T300 156V366Z" />
<glyph unicode="&#x43f;" glyph-name="afii10081" horiz-adv-x="487" d="M292 0V418H195V0H55V521H432V0H292Z" />
<glyph unicode="&#x440;" glyph-name="afii10082" horiz-adv-x="494" d="M446 131Q446 63 416 25T309 -13Q280 -13 259 -7T223 8Q206 18 195 30V-173H55V521H191V478Q192 480 197 487Q204 495 218 504T255 520T309 528Q355 528 382 511T424 470T442 424T446 390V131ZM306
363Q306 384 295 398T256 413Q238 413 221 403T195 385V130Q203 123 219 113T257 103Q286 103 296 118T306 160V363Z" />
<glyph unicode="&#x441;" glyph-name="afii10083" horiz-adv-x="457" d="M416 10Q394 3 367 -2Q344 -7 312 -10T241 -13Q176 -13 138 0T80 35T55 84T49 139V377Q49 407 55 435T80 485T137 520T237 534Q281 534 313 530T368 521Q394 516 411 509V351H282V414Q277
415 271 416Q266 417 258 417T238 418Q222 418 213 413T198 401T191 384T189 364V161Q189 136 198 120T239 103H258Q266 103 272 104Q279 105 284 106V183H416V10Z" />
<glyph unicode="&#x442;" glyph-name="afii10084" horiz-adv-x="419" d="M280 418V0H140V418H21V521H398V418H280Z" />
<glyph unicode="&#x443;" glyph-name="afii10085" horiz-adv-x="444" d="M309 24Q302 -7 292 -42T263 -108T212 -159T129 -180Q93 -180 66 -177Q50 -175 36 -173V-73Q42 -74 49 -75Q55 -76 61 -76T74 -77Q90 -77 101 -73T118 -61T128 -46T132 -30L139 22L18 521H158L198
326Q214 248 218 199Q221 159 222 147Q222 152 224 163L229 203Q232 227 236 258T248 324L287 521H427L309 24Z" />
<glyph unicode="&#x444;" glyph-name="afii10086" horiz-adv-x="718" d="M670 131Q670 63 640 25T533 -13Q504 -13 484 -7T452 8Q438 18 429 30V-173H289V30Q280 18 266 8Q254 0 235 -6T186 -13Q148 -13 122 -4T79 24T56 70T49 131V395Q49 406 53 429T71 475T112
515T186 533Q218 533 238 525T269 508Q282 497 289 483V716H429V483Q436 497 449 508Q460 517 480 525T533 533Q579 533 606 516T648 475T666 429T670 395V131ZM530 367Q530 388 519 402T480 417Q462 417 450 407T429 389V130Q437 123 448 113T481 103Q510 103
520 118T530 160V367ZM289 389Q281 397 269 407T239 417Q211 417 200 403T189 367V160Q189 134 199 119T238 103Q259 103 270 113T289 130V389Z" />
<glyph unicode="&#x445;" glyph-name="afii10087" horiz-adv-x="458" d="M293 0L252 120Q242 148 237 177L231 211Q230 207 229 201Q227 192 224 179T217 151T208 120L165 0H17L137 271L25 521H173L208 419Q222 380 226 355T231 324Q231 327 232 336T236 358T243
388T252 419L286 521H432L324 272L441 0H293Z" />
<glyph unicode="&#x446;" glyph-name="afii10088" horiz-adv-x="487" d="M330 -131V0H55V521H195V103H292V521H432V103H470V-131H330Z" />
<glyph unicode="&#x447;" glyph-name="afii10089" horiz-adv-x="472" d="M277 0V228Q266 215 251 205Q238 196 218 189T172 182Q131 182 106 190T66 214T46 254T40 312V521H180V341Q180 318 189 308T225 298Q244 298 256 307T277 325V521H417V0H277Z" />
<glyph unicode="&#x448;" glyph-name="afii10090" horiz-adv-x="704" d="M55 0V521H195V103H282V521H422V103H509V521H649V0H55Z" />
<glyph unicode="&#x449;" glyph-name="afii10091" horiz-adv-x="704" d="M547 -131V0H55V521H195V103H282V521H422V103H509V521H649V103H687V-131H547Z" />
<glyph unicode="&#x44a;" glyph-name="afii10092" horiz-adv-x="550" d="M517 149Q517 105 505 77T470 31T411 7T328 0H140V418H21V521H280V335H332Q364 335 397 333T456 318T500 274T517 187V149ZM377 175Q377 214 363 223T321 232H280V103H331Q348 103 358 108T372
125T377 161V175Z" />
<glyph unicode="&#x44b;" glyph-name="afii10093" horiz-adv-x="715" d="M432 149Q432 105 420 77T385 31T326 7T243 0H55V521H195V335H247Q279 335 312 333T371 318T415 274T432 187V149ZM520 0V521H660V0H520ZM292 175Q292 214 278 223T236 232H195V103H246Q263
103 273 108T287 125T292 161V175Z" />
<glyph unicode="&#x44c;" glyph-name="afii10094" horiz-adv-x="465" d="M440 149Q440 105 428 77T393 31T334 7T251 0H63V521H203V335H255Q287 335 320 333T379 318T423 274T440 187V149ZM300 175Q300 214 286 223T244 232H203V103H254Q271 103 281 108T295 125T300
161V175Z" />
<glyph unicode="&#x44d;" glyph-name="afii10095" horiz-adv-x="456" d="M407 139Q407 111 402 84T376 36T318 1T215 -13Q176 -13 144 -10T88 -2Q61 3 40 10V166H172V106Q177 105 184 104Q190 103 198 103H217Q249 103 258 119T267 161V228H116V311H267V364Q267
374 265 383T258 400T244 413T218 418Q207 418 199 418T185 416Q179 415 174 414V371H45V509Q62 516 88 521Q110 526 142 530T219 534Q281 534 318 521T375 486T401 436T407 377V139Z" />
<glyph unicode="&#x44e;" glyph-name="afii10096" horiz-adv-x="731" d="M195 232V0H55V521H195V335H305V379Q305 433 323 464T369 510T433 530T504 534Q533 534 564 531T622 512T666 467T683 385V122Q683 95 677 71T651 28T598 -2T506 -13Q465 -13 429 -8T365
12T321 57T305 133V232H195ZM543 366Q543 379 543 389T538 405T526 415T501 418Q469 418 457 404T445 365V156Q445 130 457 117T502 103Q518 103 526 106T538 116T542 133T543 156V366Z" />
<glyph unicode="&#x44f;" glyph-name="afii10097" horiz-adv-x="481" d="M286 0V188H264L166 0H8L128 208Q75 220 57 258T38 357V379Q38 428 53 456T95 498T160 517T245 521H426V0H286ZM286 418H270Q247 418 229 417T200 411T184 393T178 360V354Q178 328 184
315T203 297T232 292T271 291H286V418Z" />
<glyph unicode="&#x451;" glyph-name="afii10071" horiz-adv-x="482" d="M269 605V716H409V605H269ZM80 605V716H220V605H80ZM188 238V145Q188 92 247 92Q259 92 268 92T285 94Q293 95 299 96V166H433V10Q412 3 385 -2Q362 -7 330 -10T255 -13Q204 -13 166 -7T102
16T62 63T48 141V379Q48 425 61 455T99 503T160 527T244 534Q280 534 315 530T377 509T422 461T439 376V238H188ZM299 379Q299 408 287 421T246 434Q214 434 201 422T188 379V327H299V379Z" />
<glyph unicode="&#x452;" glyph-name="afii10099" horiz-adv-x="497" d="M442 -4Q442 -35 437 -66T415 -123T367 -165T285 -181Q247 -181 225 -178Q212 -176 201 -174V-62Q208 -64 217 -65Q224 -66 233 -66T252 -67Q271 -67 281 -62T295 -49T301 -29T302 -3V375Q302
398 293 408T257 418Q238 418 221 409T195 391V0H55V588H17V667H55V716H195V667H330V588H195V488Q208 500 226 511Q241 519 262 526T310 534Q351 534 376 526T416 502T436 462T442 404V-4Z" />
<glyph unicode="&#x453;" glyph-name="afii10100" horiz-adv-x="424" d="M195 418V0H55V521H403V418H195ZM270 589H153L211 732H361L270 589Z" />
<glyph unicode="&#x454;" glyph-name="afii10101" horiz-adv-x="456" d="M189 228V161Q189 136 198 120T239 103H258Q266 103 272 104Q279 105 284 106V166H416V10Q394 3 367 -2Q344 -7 312 -10T241 -13Q176 -13 138 0T80 35T55 84T49 139V377Q49 407 55 435T80
485T137 520T237 534Q281 534 313 530T368 521Q394 516 411 509V371H282V414Q277 415 271 416Q266 417 258 417T238 418Q222 418 213 413T198 401T191 384T189 364V311H340V228H189Z" />
<glyph unicode="&#x455;" glyph-name="afii10102" horiz-adv-x="463" d="M426 147Q426 95 411 64T369 15T304 -7T220 -13Q181 -13 149 -10T94 -2Q67 2 46 9V138H175V86Q179 84 187 83Q199 80 227 80Q260 80 271 94T283 132Q283 147 278 158T261 180T233 199T190
220Q156 235 129 248T83 278T53 319T42 381Q42 427 57 457T99 504T160 527T236 534Q278 534 309 530T363 521Q389 516 407 509V385H277V434Q272 435 266 436Q261 437 253 438T233 439Q200 439 191 426T182 392Q182 376 190 366T214 347T252 330T306 308Q372 279
399 243T426 147Z" />
<glyph unicode="&#x456;" glyph-name="afii10103" horiz-adv-x="250" d="M55 605V716H195V605H55ZM55 0V521H195V0H55Z" />
<glyph unicode="&#x457;" glyph-name="afii10104" horiz-adv-x="251" d="M150 605V716H270V605H150ZM-19 605V716H101V605H-19ZM55 0V521H195V0H55Z" />
<glyph unicode="&#x458;" glyph-name="afii10105" horiz-adv-x="252" d="M57 605V716H197V605H57ZM197 -4Q197 -35 192 -66T170 -123T122 -165T40 -181Q2 -181 -20 -178Q-33 -176 -44 -174V-62Q-37 -64 -28 -65Q-21 -66 -12 -66T7 -67Q26 -67 36 -62T50 -49T56
-29T57 -3V521H197V-4Z" />
<glyph unicode="&#x459;" glyph-name="afii10106" horiz-adv-x="721" d="M688 149Q688 105 676 77T641 31T582 7T499 0H311V405H242L229 205Q225 139 213 98T182 34T137 3T80 -5Q44 -5 23 -2Q11 -1 0 1L9 115Q13 114 18 113Q23 112 28 112T41 111Q57 111 66 117T81
135T90 167T95 215L118 521H451V335H503Q535 335 568 333T627 318T671 274T688 187V149ZM548 175Q548 214 534 223T492 232H451V103H502Q519 103 529 108T543 125T548 161V175Z" />
<glyph unicode="&#x45a;" glyph-name="afii10107" horiz-adv-x="702" d="M669 149Q669 105 657 77T622 31T563 7T480 0H292V232H195V0H55V521H195V335H292V521H432V335H484Q516 335 549 333T608 318T652 274T669 187V149ZM529 175Q529 214 515 223T473 232H432V103H483Q500
103 510 108T524 125T529 161V175Z" />
<glyph unicode="&#x45b;" glyph-name="afii10108" horiz-adv-x="499" d="M304 0V375Q304 398 295 408T259 418Q240 418 223 409T197 391V0H57V588H19V667H57V716H197V667H332V588H197V488Q210 500 228 511Q243 519 264 526T312 534Q353 534 378 526T418 502T438
462T444 404V0H304Z" />
<glyph unicode="&#x45c;" glyph-name="afii10109" horiz-adv-x="495" d="M270 589H153L211 732H361L270 589ZM315 0L195 219V0H55V521H195V339L303 521H464L300 290L474 0H315Z" />
<glyph unicode="&#x45e;" glyph-name="afii10110" horiz-adv-x="444" d="M303 24Q295 -7 286 -42T259 -108T211 -159T129 -180Q93 -180 66 -177Q50 -175 36 -173V-73Q42 -74 49 -75Q55 -76 61 -76T74 -77Q90 -77 101 -73T118 -61T127 -46T132 -30L144 22L18 521H158L198
326Q214 248 218 199Q221 159 222 147Q222 152 224 163L229 203Q232 227 236 258T248 324L287 521H427L303 24ZM395 729Q395 660 350 624T227 588Q147 588 104 625T61 729H173Q173 704 185 685T227 665Q261 665 272 682T284 729H395Z" />
<glyph unicode="&#x45f;" glyph-name="afii10193" horiz-adv-x="487" d="M175 -131V0H55V521H195V103H292V521H432V0H315V-131H175Z" />
<glyph unicode="&#x490;" glyph-name="afii10050" horiz-adv-x="407" d="M210 0H63V667H258V745H398V551H210V0Z" />
<glyph unicode="&#x491;" glyph-name="afii10098" horiz-adv-x="426" d="M195 0H55V521H265V632H405V418H195V0Z" />
<glyph unicode="&#x492;" glyph-name="Ghestroke.cyr" horiz-adv-x="407" d="M210 284V0H63V284H-20V394H63V667H398V551H210V394H335V284H210Z" />
<glyph unicode="&#x493;" glyph-name="ghestroke.cyr" horiz-adv-x="424" d="M-10 300H55V521H403V418H195V300H343V197H195V0H55V197H-10V300Z" />
<glyph unicode="&#x49a;" glyph-name="Kadescender.cyr" horiz-adv-x="535" d="M403 -132V0H361L208 280V0H63V667H208V412L347 667H511L327 353L462 115H528V-132H403Z" />
<glyph unicode="&#x49b;" glyph-name="kadescender.cyr" horiz-adv-x="495" d="M349 -132V0H315L195 219V0H55V521H195V339L303 521H464L300 290L413 102H474V-132H349Z" />
<glyph unicode="&#x4a2;" glyph-name="Endescender.cyr" horiz-adv-x="550" d="M401 -131V0H338L339 288H210V0H63V667H210V404H339V667H487V116H526V-131H401Z" />
<glyph unicode="&#x4a3;" glyph-name="endescender.cyr" horiz-adv-x="487" d="M345 -131V0H292V232H195V0H55V521H195V335H292V521H432V103H470V-131H345Z" />
<glyph unicode="&#x4ae;" glyph-name="Ustraight.cyr" horiz-adv-x="466" d="M302 290V0H158V290L0 667H148L233 423L317 667H466L302 290Z" />
<glyph unicode="&#x4af;" glyph-name="ustraight.cyr" horiz-adv-x="435" d="M288 90V-173H148V90L5 521H149L189 377Q196 351 201 324T211 274Q215 248 219 224L227 276Q231 299 236 325T247 376L284 521H430L288 90Z" />
<glyph unicode="&#x4b0;" glyph-name="Ustraightstroke.cyr" horiz-adv-x="466" d="M302 182V0H158V182H37V292H158V310L0 667H148L206 515Q212 499 216 481L225 447L233 411Q238 431 242 450Q246 467 251 484T261 516L317 667H466L302 310V292H431V182H302Z" />
<glyph unicode="&#x4b1;" glyph-name="ustraightstroke.cyr" horiz-adv-x="435" d="M40 103H148V110L5 521H149L189 387Q196 363 201 339T210 296T216 262T219 245Q219 247 221 260T227 294T236 339T247 386L284 521H430L288 110V103H394V0H288V-173H148V0H40V103Z" />
<glyph unicode="&#x4ba;" glyph-name="Shha.cyr" horiz-adv-x="548" d="M338 0V239Q338 277 323 289T273 302Q261 302 250 301T229 298Q218 296 210 294V0H64V667H210V402Q229 406 251 410Q270 413 293 415T342 418Q424 418 456 382T488 278V0H338Z" />
<glyph unicode="&#x4bb;" glyph-name="shha.cyr" horiz-adv-x="499" d="M304 0V375Q304 398 295 408T259 418Q240 418 223 409T197 391V0H57V716H197V488Q210 500 228 511Q243 519 264 526T312 534Q353 534 378 526T418 502T438 462T444 404V0H304Z" />
<glyph unicode="&#x4d8;" glyph-name="Schwa.cyr" horiz-adv-x="482" d="M305 394V515Q305 543 291 555T241 568Q228 568 217 568T195 566L173 564V494H33V657Q58 663 89 668Q115 673 150 676T228 680Q277 680 318 674T389 651T434 604T451 526V151Q451 102 435
71T391 21T324 -5T238 -13Q202 -13 165 -8T97 15T47 64T27 150V394H305ZM174 153Q174 122 191 110T241 98Q273 98 289 110T305 154V284H174V153Z" />
<glyph unicode="&#x4d9;" glyph-name="schwa.cyr" horiz-adv-x="482" d="M294 283V376Q294 429 236 429Q223 429 214 429T198 427Q190 426 184 425V355H50V511Q71 517 98 522Q121 527 153 530T228 534Q277 534 315 528T380 505T420 458T434 380V142Q434 95 421
65T383 18T322 -6T239 -13Q203 -13 168 -9T106 12T61 60T44 145V283H294ZM184 142Q184 113 196 100T237 87Q268 87 281 99T294 142V194H184V142Z" />
<glyph unicode="&#x4e8;" glyph-name="Obarred.cyr" horiz-adv-x="536" d="M480 162Q480 112 467 78T427 24T360 -4T267 -13Q198 -13 156 1T92 40T63 96T56 160V509Q56 560 70 593T111 645T178 672T270 680Q343 680 385 665T448 625T474 568T480 502V162ZM334
284H203V162Q203 131 215 115T267 98Q308 98 321 113T334 162V284ZM203 394H334V500Q334 538 322 553T269 568Q248 568 235 564T215 552T206 531T203 500V394Z" />
<glyph unicode="&#x4e9;" glyph-name="obarred.cyr" horiz-adv-x="488" d="M440 122Q440 95 432 71T402 28T344 -2T250 -13Q209 -13 173 -8T109 12T65 57T49 133V379Q49 433 67 464T113 510T177 530T248 534Q277 534 311 531T373 512T421 467T440 385V122ZM300
210H189V156Q189 130 201 117T246 103Q278 103 289 116T300 156V210ZM189 313H300V366Q300 392 289 405T245 418Q213 418 201 404T189 365V313Z" />
<glyph unicode="&#x1e80;" glyph-name="Wgrave" horiz-adv-x="744" d="M649 0H446L397 320Q394 338 392 365T386 423T380 482T375 532Q373 512 371 485T367 429T361 370T354 319L306 0H103L15 667H167L205 370Q209 340 210 315T213 264T215 214T218 158Q223 206
227 262T239 370L280 667H468L514 370Q522 317 525 265T533 167Q536 212 538 264T545 370L576 667H729L649 0ZM315 719L224 852H384L442 719H315Z" />
<glyph unicode="&#x1e81;" glyph-name="wgrave" horiz-adv-x="671" d="M558 0H402L353 232Q347 260 341 300Q336 338 334 370Q331 343 327 306Q322 267 314 232L265 0H109L15 521H157L187 298L191 262Q194 242 195 222T198 182T201 147Q204 177 209 219T222 298L262
521H409Q416 481 422 446Q427 416 432 385T441 336Q444 316 448 291T455 241T462 190Q466 167 468 149Q470 179 473 220Q477 262 482 300L515 521H657L558 0ZM283 589L192 732H342L400 589H283Z" />
<glyph unicode="&#x1e82;" glyph-name="Wacute" horiz-adv-x="744" d="M649 0H446L397 320Q394 338 392 365T386 423T380 482T375 532Q373 512 371 485T367 429T361 370T354 319L306 0H103L15 667H167L205 370Q209 340 210 315T213 264T215 214T218 158Q223 206
227 262T239 370L280 667H468L514 370Q522 317 525 265T533 167Q536 212 538 264T545 370L576 667H729L649 0ZM438 719H311L369 852H529L438 719Z" />
<glyph unicode="&#x1e83;" glyph-name="wacute" horiz-adv-x="671" d="M558 0H402L353 232Q347 260 341 300Q336 338 334 370Q331 343 327 306Q322 267 314 232L265 0H109L15 521H157L187 298L191 262Q194 242 195 222T198 182T201 147Q204 177 209 219T222 298L262
521H409Q416 481 422 446Q427 416 432 385T441 336Q444 316 448 291T455 241T462 191T468 147Q470 178 473 220T482 300L515 521H657L558 0ZM386 589H269L327 732H477L386 589Z" />
<glyph unicode="&#x1e84;" glyph-name="Wdieresis" horiz-adv-x="744" d="M649 0H446L397 320Q394 338 392 365T386 423T380 482T375 532Q373 512 371 485T367 429T361 370T354 319L306 0H103L15 667H167L205 370Q209 340 210 315T213 264T215 214T218 158Q223
206 227 262T239 370L280 667H468L514 370Q522 317 525 265T533 167Q536 212 538 264T545 370L576 667H729L649 0ZM405 715V826H538V715H405ZM205 715V826H338V715H205Z" />
<glyph unicode="&#x1e85;" glyph-name="wdieresis" horiz-adv-x="671" d="M558 0H402L353 232Q347 260 341 300Q336 338 334 370Q331 343 327 306Q322 267 314 232L265 0H109L15 521H157L187 298L191 262Q194 242 195 222T198 182T201 147Q204 177 209 219T222
298L262 521H409Q416 481 422 446Q427 416 432 385T441 336Q444 316 448 291T455 241T462 191T468 147Q470 178 473 220T482 300L515 521H657L558 0ZM171 605V716H311V605H171ZM360 605V716H500V605H360Z" />
<glyph unicode="&#x1ef2;" glyph-name="Ygrave" horiz-adv-x="466" d="M302 280V0H158V280L0 667H148L233 413L317 667H466L302 280ZM185 719L94 852H254L312 719H185Z" />
<glyph unicode="&#x1ef3;" glyph-name="ygrave" horiz-adv-x="444" d="M309 24Q301 -7 291 -42T262 -108T212 -159T129 -180Q93 -180 66 -177Q50 -175 36 -173V-73Q42 -74 49 -75Q55 -76 61 -76T74 -77Q90 -77 101 -73T118 -61T128 -46T132 -30L139 22L18 521H158L198
326Q214 248 218 199T222 143Q222 147 223 163T228 203T236 258T248 324L287 521H427L309 24ZM181 589L90 732H240L298 589H181Z" />
<glyph unicode="&#x2013;" glyph-name="endash" horiz-adv-x="627" d="M125 217V337H502V217H125Z" />
<glyph unicode="&#x2014;" glyph-name="emdash" horiz-adv-x="628" d="M0 217V337H628V217H0Z" />
<glyph unicode="&#x2018;" glyph-name="quoteleft" horiz-adv-x="226" d="M172 456H33L80 716H185L172 456Z" />
<glyph unicode="&#x2019;" glyph-name="quoteright" horiz-adv-x="226" d="M146 456H41L54 716H193L146 456Z" />
<glyph unicode="&#x201a;" glyph-name="quotesinglbase" horiz-adv-x="226" d="M146 -122H41L54 138H193L146 -122Z" />
<glyph unicode="&#x201c;" glyph-name="quotedblleft" horiz-adv-x="416" d="M362 456H223L270 716H375L362 456ZM172 456H33L80 716H185L172 456Z" />
<glyph unicode="&#x201d;" glyph-name="quotedblright" horiz-adv-x="416" d="M336 456H231L244 716H383L336 456ZM146 456H41L54 716H193L146 456Z" />
<glyph unicode="&#x201e;" glyph-name="quotedblbase" horiz-adv-x="416" d="M336 -122H231L244 138H383L336 -122ZM146 -122H41L54 138H193L146 -122Z" />
<glyph unicode="&#x2020;" glyph-name="dagger" horiz-adv-x="514" d="M324 380V0H187V380H50V496H187V667H324V496H463V380H324Z" />
<glyph unicode="&#x2021;" glyph-name="daggerdbl" horiz-adv-x="514" d="M325 161V0H189V161H47V277H189V403H47V519H189V667H325V519H467V403H325V277H467V161H325Z" />
<glyph unicode="&#x2022;" glyph-name="bullet" horiz-adv-x="307" d="M300 344Q300 321 293 295T268 248T223 212T155 197Q122 197 95 209T48 242T18 289T7 345Q7 373 18 399T50 446T97 479T156 491Q185 491 211 481T257 451T288 405T300 344Z" />
<glyph unicode="&#x2026;" glyph-name="ellipsis" horiz-adv-x="732" d="M55 0V137H191V0H55ZM298 0V137H434V0H298ZM541 0V137H677V0H541Z" />
<glyph unicode="&#x2030;" glyph-name="perthousand" horiz-adv-x="1327" d="M933 97Q933 76 928 56T909 21T870 -3T802 -13Q761 -13 734 -6T692 15T670 48T664 91V327Q664 354 670 374T692 408T734 429T800 436Q842 436 868 428T908 407T928 374T933 334V97ZM462
343Q462 322 458 303T439 268T399 243T331 233Q290 233 263 240T220 261T198 294T192 337V571Q192 598 198 618T220 652T262 673T329 680Q371 680 397 672T437 651T457 618T462 578V343ZM463 -19H378L661 686H747L463 -19ZM830 325Q830 341 823 347T798 353Q781
353 775 346T768 327V97Q768 72 799 72Q815 72 822 76T830 94V325ZM358 570Q358 586 351 592T327 598Q310 598 304 591T297 572V343Q297 329 303 323T327 317Q343 317 350 321T358 339V570ZM1260 97Q1260 76 1255 56T1236 21T1197 -3T1129 -13Q1088 -13 1061 -6T1019
15T997 48T991 91V327Q991 354 997 374T1019 408T1061 429T1127 436Q1169 436 1195 428T1235 407T1255 374T1260 334V97ZM1157 325Q1157 341 1150 347T1125 353Q1108 353 1102 346T1095 327V97Q1095 72 1126 72Q1142 72 1149 76T1157 94V325Z" />
<glyph unicode="&#x2032;" glyph-name="minute" horiz-adv-x="272" d="M186 458H86L79 716H193L186 458Z" />
<glyph unicode="&#x2033;" glyph-name="second" horiz-adv-x="455" d="M188 458H88L81 716H196L188 458ZM366 458H266L259 716H373L366 458Z" />
<glyph unicode="&#x2039;" glyph-name="guilsinglleft" horiz-adv-x="287" d="M185 261L249 43H118L39 260L120 477H250L185 261Z" />
<glyph unicode="&#x203a;" glyph-name="guilsinglright" horiz-adv-x="287" d="M169 43H38L102 261L37 477H167L248 260L169 43Z" />
<glyph unicode="&#x2044;" glyph-name="fraction" horiz-adv-x="89" d="M-55 -19H-140L143 686H229L-55 -19Z" />
<glyph unicode="&#x2070;" glyph-name="zero.superior" horiz-adv-x="338" d="M298 363Q298 337 294 318T276 286T237 267T172 260Q144 260 120 263T79 276T51 307T41 362V561Q41 591 46 612T66 647T104 667T168 674Q211 674 236 668T275 647T293 611T298 559V363ZM198
571Q198 583 193 590T170 597Q152 597 147 590T141 571V366Q141 350 147 344T170 337Q186 337 192 343T198 363V571Z" />
<glyph unicode="&#x2074;" glyph-name="four.superior" horiz-adv-x="324" d="M261 349V268H162V349H14V417L108 667H261V428H302V349H261ZM164 600H159Q158 589 154 573Q148 546 127 489L104 428H164V600Z" />
<glyph unicode="&#x2075;" glyph-name="five.superior" horiz-adv-x="330" d="M299 367Q299 333 292 312T270 280T230 264T172 260Q147 260 124 261T83 265Q62 268 43 271V384H134V339Q139 338 145 338Q150 337 156 337H170Q191 337 195 346T199 370V439Q199 453
194 459T170 466Q159 466 151 460T139 447H50V667H281V588H144V556Q144 547 144 540T142 527Q156 534 172 537T200 540Q258 540 278 515T299 447V367Z" />
<glyph unicode="&#x2076;" glyph-name="six.superior" horiz-adv-x="338" d="M297 355Q297 326 289 308T264 279T224 264T171 260Q139 260 115 264T74 280T49 312T40 364V573Q40 610 52 630T82 660T124 672T168 674Q192 674 213 673T252 669Q271 666 288 664V557H196V595Q195
595 191 596Q188 596 183 596T169 597Q149 597 145 589T140 569V506Q152 511 164 514T194 517Q239 517 268 496T297 428V355ZM197 410Q197 421 194 430T173 440Q168 440 163 439T152 436Q146 434 140 433V366Q140 350 145 344T169 337Q187 337 192 344T197 366V410Z"
/>
<glyph unicode="&#x2077;" glyph-name="seven.superior" horiz-adv-x="284" d="M144 268H43L171 588H100V549H8V667H272V592L144 268Z" />
<glyph unicode="&#x2078;" glyph-name="eight.superior" horiz-adv-x="338" d="M303 349Q303 301 270 281T170 260Q36 260 36 349V398Q36 457 78 479Q61 488 52 507T42 555V584Q42 615 53 633T83 660T124 671T170 674Q238 674 267 653T297 584V555Q297 529 290
510T266 479Q289 469 296 447T303 398V349ZM200 414Q200 425 194 433T169 441Q152 441 146 433T139 415V366Q139 350 145 344T169 337Q187 337 193 343T200 366V414ZM198 574Q198 584 193 590T170 597Q153 597 147 591T140 575V533Q140 518 147 514T170 509Q186
509 192 514T198 532V574Z" />
<glyph unicode="&#x2079;" glyph-name="nine.superior" horiz-adv-x="331" d="M292 362Q292 325 280 305T249 274T207 262T163 260Q134 260 112 261T72 265Q53 268 37 271V384H129V338Q135 337 145 337H163Q182 337 187 345T192 366V435Q181 430 166 428T136 425Q91
425 63 446T34 514V580Q34 609 42 627T67 655T106 670T159 674Q192 674 216 670T258 655T283 624T292 570V362ZM192 568Q192 584 187 590T162 597Q145 597 140 590T134 568V525Q134 514 138 508T159 502Q169 502 180 505Q186 506 192 508V568Z" />
<glyph unicode="&#x2080;" glyph-name="zero.inferior" horiz-adv-x="338" d="M298 -55Q298 -81 294 -100T276 -132T237 -151T172 -158Q144 -158 120 -155T79 -142T51 -111T41 -56V143Q41 173 46 194T66 229T104 249T168 256Q211 256 236 250T275 229T293 193T298
141V-55ZM198 153Q198 165 193 172T170 179Q152 179 147 172T141 153V-52Q141 -68 147 -74T170 -81Q186 -81 192 -75T198 -55V153Z" />
<glyph unicode="&#x2081;" glyph-name="one.inferior" horiz-adv-x="217" d="M75 -150V146L52 136L13 119V207L97 249H172V-150H75Z" />
<glyph unicode="&#x2082;" glyph-name="two.inferior" horiz-adv-x="317" d="M286 155Q286 127 277 104T254 61T223 24T189 -8Q169 -25 155 -41T136 -71H280V-150H25V-110Q25 -86 33 -65T55 -25T85 12T118 46Q144 72 165 97T186 149Q186 162 181 170T156 179Q145
179 139 179T130 178H125V139H33V246Q48 248 66 251Q82 253 104 254T156 256Q220 256 253 235T286 155Z" />
<glyph unicode="&#x2083;" glyph-name="three.inferior" horiz-adv-x="324" d="M285 -40Q285 -68 283 -90T268 -127T228 -150T150 -158Q123 -158 101 -157T62 -153Q43 -150 27 -147V-34H119V-80Q130 -81 138 -81H151Q175 -81 180 -73T185 -43V-24Q185 -6 178 5T143
16H102V91H141Q164 91 172 98T180 126V152Q180 164 175 171T153 179Q146 179 140 179T129 178H118V139H26V246Q42 248 60 251Q76 253 97 254T144 256Q181 256 207 252T250 235T273 202T281 148Q281 104 273 86T244 58Q272 46 278 26T285 -33V-40Z" />
<glyph unicode="&#x2084;" glyph-name="four.inferior" horiz-adv-x="324" d="M261 -69V-150H162V-69H14V-1L108 249H261V10H302V-69H261ZM164 182H159Q158 171 154 155Q148 128 127 71L104 10H164V182Z" />
<glyph unicode="&#x2085;" glyph-name="five.inferior" horiz-adv-x="330" d="M299 -51Q299 -85 292 -106T270 -138T230 -154T172 -158Q147 -158 124 -157T83 -153Q62 -150 43 -147V-34H134V-79Q139 -80 145 -80Q150 -81 156 -81H170Q191 -81 195 -72T199 -48V21Q199
35 194 41T170 48Q159 48 151 42T139 29H50V249H281V170H144V138Q144 129 144 122T142 109Q156 116 172 119T200 122Q258 122 278 97T299 29V-51Z" />
<glyph unicode="&#x2086;" glyph-name="six.inferior" horiz-adv-x="338" d="M297 -63Q297 -92 289 -110T264 -139T224 -154T171 -158Q139 -158 115 -154T74 -138T49 -106T40 -54V154Q40 191 52 211T82 241T124 253T168 255Q192 255 213 254T252 250Q271 247 288
245V139H196V177Q195 177 191 178Q188 178 183 178T169 179Q149 179 145 171T140 151V88Q152 93 164 96T194 99Q239 99 268 78T297 10V-63ZM197 -8Q197 3 194 12T173 22Q168 22 163 21T152 18Q146 16 140 15V-52Q140 -68 145 -74T169 -81Q187 -81 192 -74T197 -52V-8Z"
/>
<glyph unicode="&#x2087;" glyph-name="seven.inferior" horiz-adv-x="284" d="M144 -150H43L171 170H100V131H8V249H272V174L144 -150Z" />
<glyph unicode="&#x2088;" glyph-name="eight.inferior" horiz-adv-x="338" d="M303 -69Q303 -117 270 -137T170 -158Q36 -158 36 -69V-20Q36 39 78 61Q61 70 52 89T42 137V166Q42 197 53 215T83 242T124 253T170 256Q238 256 267 235T297 166V137Q297 111 290
92T266 61Q289 51 296 29T303 -20V-69ZM200 -4Q200 7 194 15T169 23Q152 23 146 15T139 -3V-52Q139 -68 145 -74T169 -81Q187 -81 193 -75T200 -52V-4ZM198 156Q198 166 193 172T170 179Q153 179 147 173T140 157V115Q140 100 147 96T170 91Q186 91 192 96T198
114V156Z" />
<glyph unicode="&#x2089;" glyph-name="nine.inferior" horiz-adv-x="331" d="M292 -56Q292 -93 280 -113T249 -144T207 -156T163 -158Q134 -158 112 -157T72 -153Q53 -150 37 -147V-34H129V-80Q135 -81 145 -81H163Q182 -81 187 -73T192 -52V17Q181 12 166 10T136
7Q91 7 63 28T34 96V163Q34 192 42 210T67 238T106 253T159 257Q192 257 216 253T258 238T283 207T292 153V-56ZM192 151Q192 167 187 173T162 180Q145 180 140 173T134 151V107Q134 96 138 90T159 84Q169 84 180 87Q186 88 192 90V151Z" />
<glyph unicode="&#x20ac;" glyph-name="Euro" horiz-adv-x="514" d="M495 5Q474 0 446 -4Q421 -8 385 -10T300 -13Q240 -13 201 0T137 37T104 95T94 170V235H16V307H94V375H16V447H94V498Q94 549 107 584T147 640T213 671T302 680Q347 680 382 677T441 671Q469
667 490 662V516H353V562Q348 563 342 565Q337 566 328 567T308 568Q267 568 254 550T240 496V447H422V375H240V307H422V235H240V181Q240 143 252 121T303 98Q315 98 324 98T341 100Q349 101 355 103V156H495V5Z" />
<glyph unicode="&#x2113;" glyph-name="litre" horiz-adv-x="375" d="M81 194Q51 164 41 164Q36 164 32 169T27 180Q27 190 47 207Q56 215 68 227T97 259Q139 477 186 578T293 680Q321 680 338 659T356 603Q356 526 314 447T181 270Q172 224 166 191T156 133T151
91T149 62Q149 37 167 37Q193 37 217 91Q225 109 236 109Q249 109 249 96Q249 71 223 35Q188 -13 147 -13Q115 -13 97 12T79 80Q79 100 81 123T88 189L90 202L81 194ZM192 334Q253 402 285 469T317 598Q317 615 311 626T295 637Q278 637 265 617T238 547Q233 530
228 507T217 458T205 405T195 353L192 334Z" />
<glyph unicode="&#x2116;" glyph-name="numero" horiz-adv-x="929" d="M857 403Q857 382 853 363T834 328T794 303T726 293Q685 293 658 300T615 321T593 354T587 397V571Q587 598 593 618T615 652T657 673T724 680Q766 680 792 672T832 651T852 618T857 578V403ZM753
570Q753 586 746 592T722 598Q705 598 699 591T692 572V403Q692 389 698 383T722 377Q738 377 745 381T753 399V570ZM588 156V240H858V156H588ZM190 547Q190 544 191 525T195 479T200 418T205 354T209 297T211 257V0H64V667H271L326 419Q335 378 344 329T360 235T373
158T380 119H390Q390 121 389 138T385 183T380 243T375 308T372 368T370 413V667H517V0H308L250 259Q244 288 236 334T220 425T207 505T200 547H190Z" />
<glyph unicode="&#x2122;" glyph-name="trademark" horiz-adv-x="769" d="M631 314V485Q631 525 632 565Q634 604 639 642L563 319H488L410 644Q414 606 416 567T418 490V314H330V717H471L509 565Q517 534 522 501Q526 475 527 449Q528 474 532 500Q537 532 544
562L578 717H719V314H631ZM187 648V315H101V648H12V716H276V648H187Z" />
<glyph unicode="&#x212e;" glyph-name="estimated" horiz-adv-x="687" d="M126 320V121Q180 64 234 45T352 26Q419 26 484 50T589 123H639Q592 63 517 27T351 -9Q277 -9 213 18T101 91T27 200T0 333Q0 404 27 466T100 575T209 649T343 676Q414 676 477 649T586
576T660 467T687 333V320H126ZM561 549Q514 597 459 620T342 643Q318 643 288 638T229 621T172 592T126 550V354H561V549Z" />
<glyph unicode="&#x2153;" glyph-name="onethird" horiz-adv-x="765" d="M726 110Q726 82 724 60T709 23T669 0T590 -8Q563 -8 541 -7T502 -3Q483 0 467 3V116H560V70Q571 69 579 69H592Q616 69 621 77T626 107V126Q626 144 619 155T584 166H543V241H582Q605 241
613 248T621 276V302Q621 314 616 321T594 329Q587 329 581 329T570 328H559V289H466V396Q482 398 500 401Q516 403 537 404T584 406Q622 406 648 402T691 385T714 352T722 298Q722 254 714 236T685 208Q713 196 719 176T726 117V110ZM283 -19H198L481 686H567L283
-19ZM129 268V564L106 554L67 537V625L151 667H226V268H129Z" />
<glyph unicode="&#x2154;" glyph-name="twothirds" horiz-adv-x="765" d="M726 110Q726 82 724 60T709 23T669 0T590 -8Q563 -8 541 -7T502 -3Q483 0 467 3V116H560V70Q571 69 579 69H592Q616 69 621 77T626 107V126Q626 144 619 155T584 166H543V241H582Q605
241 613 248T621 276V302Q621 314 616 321T594 329Q587 329 581 329T570 328H559V289H466V396Q482 398 500 401Q516 403 537 404T584 406Q622 406 648 402T691 385T714 352T722 298Q722 254 714 236T685 208Q713 196 719 176T726 117V110ZM299 573Q299 545 290
522T267 479T236 442T202 410Q182 393 168 377T149 347H293V268H38V308Q38 332 46 353T68 393T98 430T131 464Q157 490 178 515T199 567Q199 580 194 588T169 597Q158 597 152 597T143 596H138V558H46V664Q61 666 79 669Q95 671 117 672T169 674Q233 674 266 653T299
573ZM283 -19H198L481 686H567L283 -19Z" />
<glyph unicode="&#x2155;" glyph-name="onefifth" horiz-adv-x="765" d="M726 99Q726 65 719 44T697 12T657 -4T599 -8Q574 -8 551 -7T510 -3Q489 0 470 3V115H561V70Q566 69 572 69Q577 68 583 68H597Q618 68 622 77T626 101V171Q626 185 621 191T597 198Q586
198 578 192T566 179H477V399H708V320H571V288Q571 279 571 272T569 259Q583 266 599 269T627 272Q685 272 705 247T726 179V99ZM283 -19H198L481 686H567L283 -19ZM129 268V564L106 554L67 537V625L151 667H226V268H129Z" />
<glyph unicode="&#x2156;" glyph-name="twofifths" horiz-adv-x="765" d="M726 99Q726 65 719 44T697 12T657 -4T599 -8Q574 -8 551 -7T510 -3Q489 0 470 3V115H561V70Q566 69 572 69Q577 68 583 68H597Q618 68 622 77T626 101V171Q626 185 621 191T597 198Q586
198 578 192T566 179H477V399H708V320H571V288Q571 279 571 272T569 259Q583 266 599 269T627 272Q685 272 705 247T726 179V99ZM299 573Q299 545 290 522T267 479T236 442T202 410Q182 393 168 377T149 347H293V268H38V308Q38 332 46 353T68 393T98 430T131 464Q157
490 178 515T199 567Q199 580 194 588T169 597Q158 597 152 597T143 596H138V558H46V664Q61 666 79 669Q95 671 117 672T169 674Q233 674 266 653T299 573ZM283 -19H198L481 686H567L283 -19Z" />
<glyph unicode="&#x2157;" glyph-name="threefifths" horiz-adv-x="765" d="M726 99Q726 65 719 44T697 12T657 -4T599 -8Q574 -8 551 -7T510 -3Q489 0 470 3V115H561V70Q566 69 572 69Q577 68 583 68H597Q618 68 622 77T626 101V171Q626 185 621 191T597 198Q586
198 578 192T566 179H477V399H708V320H571V288Q571 279 571 272T569 259Q583 266 599 269T627 272Q685 272 705 247T726 179V99ZM299 378Q299 350 297 328T282 291T242 268T164 260Q137 260 115 261T76 265Q57 268 41 271V384H133V338Q144 337 152 337H165Q189
337 194 345T199 375V394Q199 412 192 423T157 434H116V509H155Q178 509 186 516T194 544V570Q194 582 189 589T167 597Q160 597 154 597T143 596H132V558H40V664Q56 666 74 669Q90 671 111 672T158 674Q195 674 221 670T264 653T287 620T295 566Q295 522 287 504T258
476Q286 464 292 444T299 385V378ZM283 -19H198L481 686H567L283 -19Z" />
<glyph unicode="&#x2158;" glyph-name="fourfifths" horiz-adv-x="765" d="M276 349V268H177V349H29V417L123 667H276V428H317V349H276ZM726 99Q726 65 719 44T697 12T657 -4T599 -8Q574 -8 551 -7T510 -3Q489 0 470 3V115H561V70Q566 69 572 69Q577 68 583 68H597Q618
68 622 77T626 101V171Q626 185 621 191T597 198Q586 198 578 192T566 179H477V399H708V320H571V288Q571 279 571 272T569 259Q583 266 599 269T627 272Q685 272 705 247T726 179V99ZM283 -19H198L481 686H567L283 -19ZM179 600H174Q173 589 169 573Q163 546 142
489L119 428H179V600Z" />
<glyph unicode="&#x2159;" glyph-name="onesixth" horiz-adv-x="765" d="M129 268V564L106 554L67 537V625L151 667H226V268H129ZM283 -19H198L480 686H566L283 -19ZM724 87Q724 58 716 40T691 11T651 -4T598 -8Q566 -8 542 -4T501 12T476 44T467 96V304Q467 341
479 361T509 391T551 403T595 405Q619 405 640 404T679 400Q698 397 715 395V289H623V327Q622 327 618 328Q615 328 610 328T596 329Q576 329 572 321T567 301L566 238Q578 243 591 246T621 249Q666 249 695 228T724 160V87ZM624 142Q624 153 621 162T600 172Q595
172 590 171T579 168Q573 166 567 165V98Q567 82 572 76T596 69Q614 69 619 76T624 98V142Z" />
<glyph unicode="&#x215a;" glyph-name="fivesixths" horiz-adv-x="765" d="M724 87Q724 58 716 40T691 11T651 -4T598 -8Q566 -8 542 -4T501 12T476 44T467 96V304Q467 341 479 361T509 391T551 403T595 405Q619 405 640 404T679 400Q698 397 715 395V289H623V327Q622
327 618 328Q615 328 610 328T596 329Q576 329 572 321T567 301L566 238Q578 243 591 246T621 249Q666 249 695 228T724 160V87ZM299 367Q299 333 292 312T270 280T230 264T172 260Q147 260 124 261T83 265Q62 268 43 271V384H134V339Q139 338 145 338Q150 337
156 337H170Q191 337 195 346T199 370V439Q199 453 194 459T170 466Q159 466 151 460T139 447H50V667H281V588H144V556Q144 547 144 540T142 527Q156 534 172 537T200 540Q258 540 278 515T299 447V367ZM283 -19H198L480 686H566L283 -19ZM624 142Q624 153 621
162T600 172Q595 172 590 171T579 168Q573 166 567 165V98Q567 82 572 76T596 69Q614 69 619 76T624 98V142Z" />
<glyph unicode="&#x215b;" glyph-name="oneeighth" horiz-adv-x="765" d="M129 268V564L106 554L67 537V625L151 667H226V268H129ZM283 -19H198L481 686H567L283 -19ZM730 81Q730 33 697 13T597 -8Q463 -8 463 81V130Q463 189 505 211Q488 220 479 239T469 287V316Q469
347 480 365T510 392T551 403T597 406Q665 406 694 385T724 316V287Q724 261 717 242T693 211Q716 201 723 179T730 130V81ZM627 146Q627 157 621 165T596 173Q579 173 573 165T566 147V98Q566 82 572 76T596 69Q614 69 620 75T627 98V146ZM625 306Q625 316 620
322T597 329Q580 329 574 323T567 307V265Q567 250 574 246T597 241Q613 241 619 246T625 264V306Z" />
<glyph unicode="&#x215c;" glyph-name="threeeighths" horiz-adv-x="765" d="M730 81Q730 33 697 13T597 -8Q463 -8 463 81V130Q463 189 505 211Q488 220 479 239T469 287V316Q469 347 480 365T510 392T551 403T597 406Q665 406 694 385T724 316V287Q724 261 717
242T693 211Q716 201 723 179T730 130V81ZM299 378Q299 350 297 328T282 291T242 268T164 260Q137 260 115 261T76 265Q57 268 41 271V384H133V338Q144 337 152 337H165Q189 337 194 345T199 375V394Q199 412 192 423T157 434H116V509H155Q178 509 186 516T194
544V570Q194 582 189 589T167 597Q160 597 154 597T143 596H132V558H40V664Q56 666 74 669Q90 671 111 672T158 674Q195 674 221 670T264 653T287 620T295 566Q295 522 287 504T258 476Q286 464 292 444T299 385V378ZM283 -19H198L481 686H567L283 -19ZM627 146Q627
157 621 165T596 173Q579 173 573 165T566 147V98Q566 82 572 76T596 69Q614 69 620 75T627 98V146ZM625 306Q625 316 620 322T597 329Q580 329 574 323T567 307V265Q567 250 574 246T597 241Q613 241 619 246T625 264V306Z" />
<glyph unicode="&#x215d;" glyph-name="fiveeighths" horiz-adv-x="765" d="M730 81Q730 33 697 13T597 -8Q463 -8 463 81V130Q463 189 505 211Q488 220 479 239T469 287V316Q469 347 480 365T510 392T551 403T597 406Q665 406 694 385T724 316V287Q724 261 717
242T693 211Q716 201 723 179T730 130V81ZM299 367Q299 333 292 312T270 280T230 264T172 260Q147 260 124 261T83 265Q62 268 43 271V384H134V339Q139 338 145 338Q150 337 156 337H170Q191 337 195 346T199 370V439Q199 453 194 459T170 466Q159 466 151 460T139
447H50V667H281V588H144V556Q144 547 144 540T142 527Q156 534 172 537T200 540Q258 540 278 515T299 447V367ZM283 -19H198L481 686H567L283 -19ZM627 146Q627 157 621 165T596 173Q579 173 573 165T566 147V98Q566 82 572 76T596 69Q614 69 620 75T627 98V146ZM625
306Q625 316 620 322T597 329Q580 329 574 323T567 307V265Q567 250 574 246T597 241Q613 241 619 246T625 264V306Z" />
<glyph unicode="&#x215e;" glyph-name="seveneighths" horiz-adv-x="765" d="M174 268H73L201 588H130V549H38V667H302V592L174 268ZM283 -19H198L481 686H567L283 -19ZM730 81Q730 33 697 13T597 -8Q463 -8 463 81V130Q463 189 505 211Q488 220 479 239T469 287V316Q469
347 480 365T510 392T551 403T597 406Q665 406 694 385T724 316V287Q724 261 717 242T693 211Q716 201 723 179T730 130V81ZM627 146Q627 157 621 165T596 173Q579 173 573 165T566 147V98Q566 82 572 76T596 69Q614 69 620 75T627 98V146ZM625 306Q625 316 620
322T597 329Q580 329 574 323T567 307V265Q567 250 574 246T597 241Q613 241 619 246T625 264V306Z" />
<glyph unicode="&#x215f;" glyph-name="onefraction" horiz-adv-x="427" d="M129 268V564L106 554L67 537V625L151 667H226V268H129ZM283 -19H198L481 686H567L283 -19Z" />
<glyph unicode="&#x2190;" glyph-name="arrowleft" horiz-adv-x="667" d="M395 119L499 280H0V396H499L395 557H519L667 338L519 119H395Z" />
<glyph unicode="&#x2191;" glyph-name="arrowup" horiz-adv-x="667" d="M112 519L333 667L555 519L553 395L392 499V0H275V499L114 395L112 519Z" />
<glyph unicode="&#x2192;" glyph-name="arrowright" horiz-adv-x="667" d="M148 119L0 338L148 557H272L168 396H667V280H168L272 119H148Z" />
<glyph unicode="&#x2193;" glyph-name="arrowdown" horiz-adv-x="667" d="M114 272L275 168V667H392V168L553 272L555 148L333 0L112 148L114 272Z" />
<glyph unicode="&#x2194;" glyph-name="arrowboth" horiz-adv-x="667" d="M138 119L0 338L138 557H262L163 396H504L405 557H529L667 338L529 119H405L504 280H163L262 119H138Z" />
<glyph unicode="&#x2195;" glyph-name="arrowupdn" horiz-adv-x="667" d="M553 143L334 5L114 143V267L276 168V509L114 410V534L334 672L553 534V410L391 509V168L553 267V143Z" />
<glyph unicode="&#x2196;" glyph-name="arrownowe" horiz-adv-x="667" d="M46 308L97 569L359 621L445 532L258 492L611 139L528 56L175 409L135 222L46 308Z" />
<glyph unicode="&#x2197;" glyph-name="arrownoea" horiz-adv-x="667" d="M303 623L564 572L616 310L527 224L487 411L134 58L51 141L404 494L217 534L303 623Z" />
<glyph unicode="&#x2198;" glyph-name="arrowsoea" horiz-adv-x="667" d="M618 366L567 105L305 53L219 142L406 182L53 535L136 618L489 265L529 452L618 366Z" />
<glyph unicode="&#x2199;" glyph-name="arrowsowe" horiz-adv-x="667" d="M361 51L100 102L48 364L137 450L177 263L530 616L613 533L260 180L447 140L361 51Z" />
<glyph unicode="&#x2212;" glyph-name="minus" horiz-adv-x="500" d="M33 209V312H467V209H33Z" />
<glyph unicode="&#x2215;" glyph-name="fraction" horiz-adv-x="89" d="M-55 -19H-140L143 686H229L-55 -19Z" />
<glyph unicode="&#x2219;" glyph-name="periodcentered" horiz-adv-x="260" d="M62 209V346H198V209H62Z" />
<glyph unicode="&#x221e;" glyph-name="infinity" horiz-adv-x="687" d="M660 263Q660 227 648 198T615 147T565 113T500 101Q449 101 414 126T347 188Q313 150 277 126T187 101Q152 101 123 113T72 147T40 198T28 264Q28 298 39 327T72 377T122 411T186 423Q238
423 273 399T342 337Q374 375 411 399T501 423Q536 423 565 411T616 378T648 327T660 263ZM544 263Q544 287 526 303T483 320Q457 320 435 302T400 263Q416 241 435 223T483 204Q509 204 526 220T544 263ZM289 263Q273 284 253 302T204 320Q179 320 162 304T144
263Q144 237 161 221T204 204Q219 204 231 209T253 223T271 241T289 263Z" />
<glyph unicode="&#x2248;" glyph-name="approxequal" horiz-adv-x="500" d="M479 397Q467 373 454 351T423 311T382 283T329 272Q306 272 286 280T245 299T204 317T160 326Q129 326 113 310T82 269L21 306Q32 327 45 349T74 389T111 420T159 432Q183 432 205 424T250
406T294 388T341 380Q370 380 386 395T416 434L479 397ZM479 217Q467 193 454 171T423 131T382 103T329 92Q306 92 286 100T245 119T204 137T160 146Q129 146 113 130T82 89L21 126Q32 147 45 169T74 209T111 240T159 252Q183 252 205 244T250 226T294 208T341
200Q370 200 386 215T416 254L479 217Z" />
<glyph unicode="&#x2260;" glyph-name="notequal" horiz-adv-x="497" d="M225 118L177 19H84L133 118H32V219H178L216 293H32V394H260L315 503H408L353 394H466V293H308L270 219H466V118H225Z" />
<glyph unicode="&#x2264;" glyph-name="lessequal" horiz-adv-x="500" d="M33 281V376L467 507V404L144 331L467 252V150L33 281ZM33 13V114H467V13H33Z" />
<glyph unicode="&#x2265;" glyph-name="greaterequal" horiz-adv-x="500" d="M33 150V252L356 331L33 404V507L467 376V281L33 150ZM33 13V114H467V13H33Z" />
<glyph unicode="&#x2300;" glyph-name="diameter" horiz-adv-x="766" d="M107 128Q41 219 41 334Q41 409 67 472T139 581T247 652T382 676Q412 675 438 673T486 664T530 649T572 624L667 725L752 645L655 546Q693 499 709 445T725 334Q725 257 700 194T630 86T521
17T382 -8Q329 -8 282 2T190 44L96 -54L10 28L107 128ZM483 530Q462 542 435 548T382 554Q335 554 296 538T230 492T187 422T172 335Q172 306 179 278T198 225L483 530ZM278 141Q302 126 329 120T383 113Q434 113 473 130T539 177T579 247T593 335Q593 366 587
395T567 448L278 141Z" />
<glyph unicode="&#x2302;" glyph-name="house" horiz-adv-x="667" d="M0 381L333 709L667 381V0H0V381ZM616 51V359L332 636L51 359V51H616Z" />
<glyph unicode="&#x25a0;" glyph-name="filledbox" horiz-adv-x="667" d="M0 0V667H667V0H0Z" />
<glyph unicode="&#x25a1;" glyph-name="whitebox" horiz-adv-x="667" d="M0 0V667H667V0H0ZM620 620H47V47H620V620Z" />
<glyph unicode="&#x25aa;" glyph-name="filledboxsm" horiz-adv-x="367" d="M0 150V517H367V150H0Z" />
<glyph unicode="&#x25ab;" glyph-name="whiteboxsm" horiz-adv-x="367" d="M0 150V517H367V150H0ZM320 470H47V197H320V470Z" />
<glyph unicode="&#x25b2;" glyph-name="triagup" horiz-adv-x="667" d="M33 67L333 628L633 67H33Z" />
<glyph unicode="&#x25b4;" glyph-name="triagsmup" horiz-adv-x="500" d="M33 147L250 552L466 147H33Z" />
<glyph unicode="&#x25b6;" glyph-name="triagright" horiz-adv-x="667" d="M63 633L624 333L63 33V633Z" />
<glyph unicode="&#x25b8;" glyph-name="triagsmright" horiz-adv-x="500" d="M468 334L63 117V550L468 334Z" />
<glyph unicode="&#x25bc;" glyph-name="triagdn" horiz-adv-x="667" d="M633 600L333 39L33 600H633Z" />
<glyph unicode="&#x25be;" glyph-name="triagsmdn" horiz-adv-x="500" d="M466 520L250 115L33 520H466Z" />
<glyph unicode="&#x25c0;" glyph-name="triagleft" horiz-adv-x="667" d="M604 33L43 333L604 633V33Z" />
<glyph unicode="&#x25c2;" glyph-name="triagsmleft" horiz-adv-x="500" d="M468 550V117L63 334L468 550Z" />
<glyph unicode="&#x25cb;" glyph-name="circle" horiz-adv-x="521" d="M264 589Q316 589 363 569T445 513T500 432T521 333Q521 280 501 234T445 152T362 97T260 77Q207 77 160 97T77 152T21 233T0 332Q0 386 20 432T77 514T161 569T264 589ZM258 543Q214 543
176 527T109 482T64 415T47 333Q47 289 63 251T109 185T177 140T260 123Q304 123 343 139T411 184T457 251T474 332Q474 376 458 414T412 481T343 526T258 543Z" />
<glyph unicode="&#x25cf;" glyph-name="blackcircle" horiz-adv-x="521" d="M264 589Q316 589 363 569T445 513T500 432T521 333Q521 280 501 234T445 152T362 97T260 77Q207 77 160 97T77 152T21 233T0 332Q0 386 20 432T77 514T161 569T264 589Z" />
<glyph unicode="&#x25d8;" glyph-name="invbullet" horiz-adv-x="667" d="M0 667H667V0H0V667ZM332 473Q304 473 279 462T236 432T207 388T196 333Q196 304 206 279T236 235T279 205T333 194Q361 194 386 205T430 234T460 278T471 333Q471 362 460 387T431 432T387
462T332 473Z" />
<glyph unicode="&#x25d9;" glyph-name="invcircle" horiz-adv-x="667" d="M336 543Q379 543 417 527T485 482T530 415T547 333Q547 289 531 251T485 185T417 140T333 123Q289 123 250 139T182 184T137 251T120 333Q120 377 136 415T182 481T251 526T336 543ZM0
0V667H667V0H0ZM330 590Q277 590 231 570T149 514T94 432T73 333Q73 280 93 234T149 153T232 98T333 77Q387 77 434 97T517 152T573 233T594 333Q594 387 574 433T517 515T433 570T330 590Z" />
<glyph unicode="&#x25e6;" glyph-name="whitebullet" horiz-adv-x="275" d="M139 472Q168 472 193 462T236 433T264 389T275 334Q275 304 265 279T236 236T192 208T138 197Q109 197 84 207T40 236T11 279T0 334Q0 364 10 389T39 433T83 462T139 472ZM136 426Q98
426 74 399T49 334Q49 315 55 299T74 270T102 250T137 243Q176 243 201 269T226 334Q226 372 201 399T136 426Z" />
<glyph unicode="&#x25fb;" glyph-name="whitemedbox" horiz-adv-x="527" d="M0 70V597H527V70H0ZM480 550H47V117H480V550Z" />
<glyph unicode="&#x25fc;" glyph-name="filledmedbox" horiz-adv-x="527" d="M0 70V597H527V70H0Z" />
<glyph unicode="&#x25fd;" glyph-name="whitemedboxsm" horiz-adv-x="427" d="M0 120V547H427V120H0ZM380 500H47V167H380V500Z" />
<glyph unicode="&#x25fe;" glyph-name="blackmedboxsm" horiz-adv-x="427" d="M0 120V547H427V120H0Z" />
<glyph unicode="&#x263a;" glyph-name="smileface" horiz-adv-x="633" d="M224 466Q241 466 254 453T267 422Q267 404 254 391T223 378Q205 378 192 391T179 422Q179 441 192 453T224 466ZM412 466Q429 466 442 453T455 422Q455 404 442 391T411 378Q393 378 380
391T367 422Q367 441 380 453T412 466ZM111 372Q129 295 182 254T317 213Q399 213 452 254T523 372Q507 141 317 141Q129 141 111 372ZM321 650Q385 650 441 625T540 557T608 456T633 333Q633 268 608 211T540 110T440 42T317 17Q251 17 194 42T93 110T25 210T0
333Q0 399 25 457T93 558T194 625T321 650ZM313 609Q257 609 208 587T121 528T63 440T41 333Q41 276 62 226T121 139T209 80T316 58Q373 58 423 79T510 138T570 226T592 333Q592 391 571 441T511 528T422 587T313 609Z" />
<glyph unicode="&#x263b;" glyph-name="invsmileface" horiz-adv-x="633" d="M321 650Q385 650 441 625T540 557T608 456T633 333Q633 268 608 211T540 110T440 42T317 17Q251 17 194 42T93 110T25 210T0 333Q0 399 25 457T93 558T194 625T321 650ZM222 466Q205
466 192 453T179 422Q179 404 192 391T223 378Q241 378 254 391T267 422Q267 441 254 453T222 466ZM410 466Q393 466 380 453T367 422Q367 404 379 391T410 378Q429 378 441 391T454 422Q454 440 442 453T410 466ZM111 372Q129 141 317 141Q507 141 523 372Q506
295 453 254T317 213Q236 213 183 254T111 372Z" />
<glyph unicode="&#x263c;" glyph-name="sun" horiz-adv-x="633" d="M71 543L106 577L180 504Q205 524 232 534T290 548V653H339V548Q371 544 400 533T451 504L524 577L558 543L486 469Q523 423 532 358H633V309H532Q523 244 486 198L558 124L524 90L450 163Q427
143 399 133T339 119V14H290V119Q261 122 235 132T179 162L106 90L71 124L144 197Q125 220 113 249T97 309H0V358H97Q102 391 113 417T144 469L71 543ZM313 492Q278 492 250 480T201 446T169 396T158 334Q158 301 170 272T203 222T253 189T315 177Q348 177 376
189T426 222T459 272T471 335Q471 368 460 397T427 447T377 480T313 492Z" />
<glyph unicode="&#x2640;" glyph-name="female" horiz-adv-x="478" d="M215 0V166H53V209H215V320Q181 325 153 341T103 380T71 434T59 499Q59 537 72 570T110 627T167 665T239 679Q281 679 314 665T370 627T406 570T419 499Q419 464 408 434T375 381T326 341T263
320V209H425V166H263V0H215ZM237 635Q210 635 187 626T146 598T118 555T107 499Q107 471 117 446T146 403T188 374T239 363Q266 363 290 373T332 402T360 446T371 499Q371 527 362 552T334 595T292 624T237 635Z" />
<glyph unicode="&#x2642;" glyph-name="male" horiz-adv-x="661" d="M494 533Q469 539 446 547T406 563T378 580T367 596Q367 608 380 608Q384 608 388 608T400 605Q425 600 442 598T483 596Q540 596 576 606Q588 610 591 610T599 611Q609 611 609 600Q609 598
609 596T606 585Q598 560 596 540T593 491Q593 466 595 449T603 407Q605 398 605 395T606 388Q606 374 593 374Q586 374 577 385T558 413T541 453T527 499L377 349Q414 295 414 239Q414 195 400 161T360 104T302 69T231 56Q194 56 161 69T104 106T65 163T51 238Q51
277 64 310T102 368T159 407T231 421Q263 421 289 412T343 382L494 533ZM229 374Q202 374 179 364T139 337T111 294T101 239Q101 211 111 186T138 143T180 114T231 103Q258 103 282 112T325 139T353 181T364 238Q364 266 354 291T325 334T282 363T229 374Z" />
<glyph unicode="&#x2660;" glyph-name="spade" horiz-adv-x="667" d="M106 0V18Q213 32 269 91T327 255Q306 206 270 180T187 153Q161 153 139 163T100 190T74 230T64 279Q64 302 70 322T91 364T130 410T190 465Q311 566 334 686Q356 567 477 465Q513 435 537
411T576 365T597 323T603 279Q603 253 594 230T567 190T528 163T480 153Q434 153 398 179T340 255Q343 151 398 92T561 18V0H106Z" />
<glyph unicode="&#x2663;" glyph-name="club" horiz-adv-x="667" d="M106 0V18Q219 34 273 96T327 274Q254 147 150 147Q119 147 93 159T46 191T15 239T3 299Q3 330 13 356T41 403T83 434T134 446Q144 446 151 446T168 442T189 433L221 417Q201 445 193 468T185
517Q185 546 196 572T228 617T276 648T333 660Q363 660 390 649T437 618T469 572T481 517Q481 491 473 469T446 417Q465 427 477 433T499 442T515 445T533 446Q560 446 584 435T626 403T654 357T664 299Q664 267 653 240T621 192T575 159T517 147Q413 147 340 274Q340
159 394 97T561 18V0H106Z" />
<glyph unicode="&#x2665;" glyph-name="heart" horiz-adv-x="667" d="M333 -11Q325 22 313 52T281 117T228 199T147 310Q120 346 102 373T74 422T60 463T56 504Q56 532 66 557T93 600T134 628T186 639Q291 639 333 509Q351 573 388 606T479 640Q507 640 531 630T573
601T601 557T611 503Q611 473 599 438T563 364Q557 355 552 347T538 327T514 295T475 244Q418 173 382 107T333 -11Z" />
<glyph unicode="&#x2666;" glyph-name="diamond" horiz-adv-x="667" d="M80 333Q107 363 141 406T209 499T277 598T334 693Q358 649 390 599T457 499T526 407T587 333Q560 304 526 261T458 168T391 68T334 -26Q309 17 277 68T210 168T141 260T80 333Z" />
<glyph unicode="&#x266a;" glyph-name="musicalnote" horiz-adv-x="457" d="M231 667V606L298 525Q389 416 389 300Q389 255 375 214T332 138H304Q322 180 329 213T337 283Q337 317 329 347T306 402T273 441T231 460V163Q231 85 190 38T81 -9Q49 -9 30 7T10 51Q10
74 20 95T46 132T85 157T132 167Q157 167 185 156V667H231Z" />
<glyph unicode="&#x266b;" glyph-name="musicalnotedbl" horiz-adv-x="747" d="M589 694L586 199Q586 121 545 74T436 27Q404 27 385 43T365 87Q365 110 375 131T401 168T440 193T487 203Q515 203 540 192L543 462L224 372L221 143Q221 65 180 18T71 -29Q39 -29
20 -13T0 31Q0 54 10 75T36 112T75 137T122 147Q150 147 175 136L178 587L589 694ZM543 538V608L224 518V448L543 538Z" />
<glyph unicode="&#xefed;" glyph-name="Dotaccent" horiz-adv-x="500" d="M183 715V826H316V715H183Z" />
<glyph unicode="&#xefee;" glyph-name="Breve" horiz-adv-x="500" d="M407 849Q407 814 395 788T361 743T311 716T249 707Q217 707 189 717T140 745T106 789T93 849H185Q187 824 206 810T249 795Q277 795 295 807T316 849H407Z" />
<glyph unicode="&#xeff1;" glyph-name="Ogonek" horiz-adv-x="500" d="M354 -215L324 -219Q311 -221 297 -221T271 -222Q248 -222 225 -219T182 -206T150 -181T137 -137Q137 -115 145 -95T166 -58T195 -26T228 0H330Q318 -5 303 -14T275 -35T252 -62T242 -91Q242
-114 260 -120T297 -127Q304 -127 314 -127T333 -125Q344 -124 354 -123V-215Z" />
<glyph unicode="&#xeff2;" glyph-name="Cedilla" horiz-adv-x="500" d="M368 -138Q368 -172 353 -192T315 -222T263 -235T207 -238Q189 -238 169 -235T132 -226L134 -161Q163 -169 190 -169Q198 -169 209 -168T232 -164T251 -155T259 -137Q259 -125 254 -118T242
-108T225 -103T205 -102Q196 -102 188 -103T170 -105L220 1H286L258 -53Q280 -53 300 -57T335 -70T359 -96T368 -138Z" />
<glyph unicode="&#xeff3;" glyph-name="Ring" horiz-adv-x="500" d="M358 788Q358 744 335 721T250 698Q191 698 167 721T142 787Q142 830 165 854T250 878Q312 878 335 855T358 788ZM288 788Q288 819 250 819Q212 819 212 788Q212 757 250 757Q288 757 288 788Z" />
<glyph unicode="&#xeff5;" glyph-name="Tilde" horiz-adv-x="500" d="M425 750Q410 741 397 733T371 719T344 710T311 706Q295 706 281 711T252 721T223 732T193 737Q176 737 159 726T128 704L75 786Q99 806 129 823T191 840Q207 840 221 835T250 825T279 814T309
809Q315 809 325 812T345 821T366 832T382 841L425 750Z" />
<glyph unicode="&#xeff7;" glyph-name="Circumflex" horiz-adv-x="500" d="M292 711L250 781L211 711H91L171 847H326L408 711H292Z" />
<glyph unicode="&#xf06d;" glyph-name="one.superior" horiz-adv-x="217" d="M75 268V564L52 554L13 537V625L97 667H172V268H75Z" />
<glyph unicode="&#xf06e;" glyph-name="two.superior" horiz-adv-x="317" d="M286 573Q286 545 277 522T254 479T223 442T189 410Q169 393 155 377T136 347H280V268H25V308Q25 332 33 353T55 393T85 430T118 464Q144 490 165 515T186 567Q186 580 181 588T156
597Q145 597 139 597T130 596H125V558H33V664Q48 666 66 669Q82 671 104 672T156 674Q220 674 253 653T286 573Z" />
<glyph unicode="&#xf06f;" glyph-name="three.superior" horiz-adv-x="324" d="M285 378Q285 350 283 328T268 291T228 268T150 260Q123 260 101 261T62 265Q43 268 27 271V384H119V338Q130 337 138 337H151Q175 337 180 345T185 375V394Q185 412 178 423T143
434H102V509H141Q164 509 172 516T180 544V570Q180 582 175 589T153 597Q146 597 140 597T129 596H118V558H26V664Q42 666 60 669Q76 671 97 672T144 674Q181 674 207 670T250 653T273 620T281 566Q281 522 273 504T244 476Q272 464 278 444T285 385V378Z" />
<glyph unicode="&#xf090;" glyph-name="Stroketod" horiz-adv-x="500" d="M385 288H114V404H385V288Z" />
<glyph unicode="&#xf091;" glyph-name="stroketod" horiz-adv-x="500" d="M94 589V682H406V589H94Z" />
<glyph unicode="&#xf116;" glyph-name="Mcircumflex" horiz-adv-x="800" d="M590 0L591 366Q591 382 591 416T593 485T595 547T596 577Q595 574 591 548T581 487T570 419T560 366L480 3H314L238 366Q236 375 233 392T226 431T218 475T211 517T204 551Q203 560
202 564Q202 561 203 540Q204 514 205 481L208 415Q210 382 210 366V0H63V667H306L374 351Q388 288 392 245T397 189Q398 200 402 242T420 351L484 667H737V0H590ZM442 711L400 781L361 711H241L321 847H476L558 711H442Z" />
<glyph unicode="&#xf117;" glyph-name="mcircumflex" horiz-adv-x="710" d="M517 0V366Q517 386 510 399T479 413Q468 413 458 410T441 404Q432 400 426 395V0H286V370Q286 388 278 400T246 413Q235 413 226 410T209 404Q201 400 195 395V0H55V521H189V473Q210
498 239 513T302 528Q334 528 354 519T387 499Q400 487 407 471Q416 478 427 488T455 507T490 522T535 528Q578 528 602 516T639 484T654 440T657 393V0H517ZM393 586L354 666L312 586H196L278 732H433L513 586H393Z" />
<glyph unicode="&#xf11b;" glyph-name="Gtilde" horiz-adv-x="528" d="M354 0L348 38Q319 12 284 4T220 -5Q164 -5 132 10T82 50T61 107T56 176V508Q56 561 70 594T111 647T181 673T281 680Q324 680 358 677T415 671Q442 667 462 662V471H325V563Q318 564 309
565Q301 566 292 567T271 568Q234 568 218 557T202 508V180Q202 166 203 154T211 134T231 121T269 116Q286 116 300 117T323 120Q334 122 341 125V252H284V352H478V0H354ZM448 750Q433 741 420 733T394 719T367 710T334 706Q318 706 304 711T275 721T246 732T216
737Q199 737 182 726T151 704L98 786Q122 806 152 823T214 840Q230 840 244 835T273 825T302 814T332 809Q338 809 348 812T368 821T389 832T405 841L448 750Z" />
<glyph unicode="&#xf11c;" glyph-name="gtilde" horiz-adv-x="494" d="M439 -16Q439 -64 425 -96T385 -148T322 -176T238 -185Q196 -185 163 -182T104 -174Q75 -170 52 -163V-31H190V-81Q195 -83 203 -84Q209 -85 218 -85T240 -86Q276 -86 287 -71T299 -25V65Q288
53 271 43Q257 35 235 28T181 21Q149 21 124 32T83 64T58 111T49 169V373Q49 398 53 425T72 474T111 511T180 526Q214 526 237 520T274 506T296 491T304 482V521H439V-16ZM299 396Q293 402 284 407Q276 411 265 414T240 418Q205 418 197 401T189 358V182Q189 158
198 143T237 127Q250 127 261 129T281 136Q291 140 299 146V396ZM431 635Q416 626 403 618T377 604T350 595T317 591Q301 591 287 596T258 606T229 617T199 622Q182 622 165 611T134 589L81 671Q105 691 135 708T197 725Q213 725 227 720T256 710T285 699T315 694Q321
694 331 697T351 706T372 717T388 726L431 635Z" />
<glyph unicode="&#xf127;" glyph-name="Ncircumflex" horiz-adv-x="579" d="M307 0L249 259Q243 288 234 334T217 425T201 505Q195 536 194 545Q194 541 195 525Q196 506 198 479T202 418T206 354T209 297T210 257V0H63V667H270L325 419Q334 378 343 329T362 235T377
158T384 119Q384 121 383 138T380 183T377 243T373 308T370 368T369 413V667H516V0H307ZM335 711L293 781L254 711H134L214 847H369L451 711H335Z" />
<glyph unicode="&#xf128;" glyph-name="ncircumflex" horiz-adv-x="485" d="M292 0V370Q292 393 284 403T249 413Q236 413 227 410T210 402Q202 397 195 391V0H55V521H191V476Q202 490 220 501Q235 510 257 518T311 526Q347 526 370 519T407 496T426 456T432 399V0H292ZM281
586L242 666L200 586H84L166 732H321L401 586H281Z" />
<glyph unicode="&#xf12a;" glyph-name="Commaaccent" horiz-adv-x="500" d="M296 -211H181L186 -57H318L296 -211Z" />
<glyph unicode="&#xf12c;" glyph-name="Ndieresis" horiz-adv-x="579" d="M307 0L249 259Q243 288 234 334T217 425T201 505Q195 536 194 545Q194 541 195 525Q196 506 198 479T202 418T206 354T209 297T210 257V0H63V667H270L325 419Q334 378 343 329T362 235T377
158T384 119Q384 121 383 138T380 183T377 243T373 308T370 368T369 413V667H516V0H307ZM127 715V826H260V715H127ZM327 715V826H460V715H327Z" />
<glyph unicode="&#xf12d;" glyph-name="ndieresis" horiz-adv-x="485" d="M292 0V370Q292 393 284 403T249 413Q236 413 227 410T210 402Q202 397 195 391V0H55V521H191V476Q202 490 220 501Q235 510 257 518T311 526Q347 526 370 519T407 496T426 456T432 399V0H292ZM267
605V716H407V605H267ZM78 605V716H218V605H78Z" />
<glyph unicode="&#xf150;" glyph-name="zeroone" horiz-adv-x="765" d="M298 363Q298 337 294 318T276 286T237 267T172 260Q144 260 120 263T79 276T51 307T41 362V561Q41 591 46 612T66 647T104 667T168 674Q211 674 236 668T275 647T293 611T298 559V363ZM198
571Q198 583 193 590T170 597Q152 597 147 590T141 571V366Q141 350 147 344T170 337Q186 337 192 343T198 363V571ZM283 -19H198L481 686H567L283 -19ZM556 0V296L533 286L494 269V357L578 399H653V0H556Z" />
<glyph unicode="&#xf151;" glyph-name="oneone" horiz-adv-x="765" d="M129 268V564L106 554L67 537V625L151 667H226V268H129ZM283 -19H198L481 686H567L283 -19ZM556 0V296L533 286L494 269V357L578 399H653V0H556Z" />
<glyph unicode="&#xf206;" glyph-name="commaascender" horiz-adv-x="500" d="M276 562H181L186 736H308L276 562Z" />
<glyph unicode="&#xf20f;" glyph-name="acutetol" horiz-adv-x="500" d="M264 716H147L205 859H355L264 716Z" />
<glyph unicode="&#xf211;" glyph-name="Germandbls" horiz-adv-x="992" d="M454 176Q454 125 438 89T393 31T322 -2T228 -13Q179 -13 143 -11T81 -4Q52 0 31 6V173H170V104Q176 102 186 101Q194 100 206 100T236 99Q277 99 292 117T307 161Q307 176 302 188T288
210T264 231T230 254L132 318Q91 345 62 388T32 500Q32 589 84 634T243 680Q291 680 327 677T387 671Q415 667 435 662V500H295V564Q289 565 282 566Q276 567 267 567T247 568Q205 568 191 551T177 507Q177 475 192 460T234 429L350 357Q401 325 427 284T454 176ZM963
176Q963 125 947 89T902 31T831 -2T737 -13Q688 -13 652 -11T590 -4Q561 0 540 6V173H679V104Q685 102 695 101Q703 100 715 100T745 99Q786 99 801 117T816 161Q816 176 811 188T797 210T773 231T739 254L641 318Q600 345 571 388T541 500Q541 589 593 634T752
680Q800 680 836 677T896 671Q924 667 944 662V500H804V564Q798 565 791 566Q785 567 776 567T756 568Q714 568 700 551T686 507Q686 475 701 460T743 429L859 357Q910 325 936 284T963 176Z" />
<glyph unicode="&#xf303;" glyph-name="zerozero" horiz-adv-x="765" d="M298 363Q298 337 294 318T276 286T237 267T172 260Q144 260 120 263T79 276T51 307T41 362V561Q41 591 46 612T66 647T104 667T168 674Q211 674 236 668T275 647T293 611T298 559V363ZM198
571Q198 583 193 590T170 597Q152 597 147 590T141 571V366Q141 350 147 344T170 337Q186 337 192 343T198 363V571ZM283 -19H198L481 686H567L283 -19ZM725 95Q725 69 721 50T703 18T664 -1T599 -8Q570 -8 546 -5T505 8T477 39T467 94V293Q467 323 472 344T492
379T530 399T595 406Q638 406 663 400T702 379T720 343T725 291V95ZM625 303Q625 315 620 322T596 329Q578 329 573 322T567 303V98Q567 82 573 76T596 69Q613 69 619 75T625 95V303Z" />
<glyph unicode="&#xf639;" glyph-name="zero.fitted" horiz-adv-x="514" d="M462 153Q462 111 455 80T426 29T365 -2T262 -13Q217 -13 179 -8T113 14T69 64T53 152V494Q53 544 61 579T92 637T154 670T255 680Q322 680 363 670T426 636T455 577T462 491V153ZM315
512Q315 538 305 553T257 568Q220 568 210 552T199 512V159Q199 126 210 112T257 98Q291 98 303 111T315 153V512Z" />
<glyph unicode="&#xf63a;" glyph-name="two.fitted" horiz-adv-x="514" d="M462 516Q462 464 445 421T400 343T342 277T283 219T236 167T214 116H452V0H48V59Q48 107 68 149T118 230T182 302T247 370T297 437T317 506Q317 533 306 550T256 568Q239 568 228 568T209
566Q200 565 195 564V498H61V662Q85 667 116 671Q142 674 177 677T256 680Q306 680 344 672T409 646T448 596T462 516Z" />
<glyph unicode="&#xf63b;" glyph-name="three.fitted" horiz-adv-x="514" d="M463 192Q463 143 460 105T438 41T374 1T249 -13Q207 -13 172 -11T111 -4Q80 0 54 5V180H187V103Q200 102 211 101Q221 100 231 100T250 99Q274 99 287 103T307 116T314 139T316 175V207Q316
225 314 239T303 264T279 280T236 286H178V395H234Q277 395 293 410T309 465V510Q309 536 299 552T253 568Q238 568 226 567T204 565Q193 564 185 563V498H52V662Q78 667 108 671Q134 674 167 677T238 680Q298 680 340 673T408 647T445 593T457 503Q457 460 453
434T439 392T413 366T371 349Q403 340 421 328T449 298T460 254T463 192Z" />
<glyph unicode="&#xf63c;" glyph-name="four.fitted" horiz-adv-x="514" d="M424 157V0H279V157H32V261L211 667H424V273H492V157H424ZM282 562L172 273H282V562Z" />
<glyph unicode="&#xf63d;" glyph-name="five.fitted" horiz-adv-x="514" d="M463 161Q463 106 452 72T417 19T354 -6T261 -13Q224 -13 188 -11T122 -4Q88 0 56 5V180H189V103L211 101Q221 100 233 100T258 99Q281 99 293 104T310 120T315 144T316 174V284Q316
313 307 327T259 341Q235 341 221 331T200 309H62L69 667H433V551H205L202 417Q222 434 252 441T309 449Q354 449 384 438T431 407T456 360T463 298V161Z" />
<glyph unicode="&#xf63e;" glyph-name="six.fitted" horiz-adv-x="514" d="M461 140Q461 93 448 63T409 16T346 -7T262 -13Q210 -13 171 -7T106 19T66 70T52 156V516Q52 575 71 608T119 657T185 676T255 680Q292 680 326 677T387 671Q418 667 445 662V498H312V563Q304
564 294 565Q286 566 276 567T256 568Q236 568 225 564T207 551T200 532T198 508V382Q218 395 245 401T300 408Q370 408 415 373T461 265V140ZM314 235Q314 247 313 258T306 277T291 291T263 296Q250 296 239 294T218 288Q207 284 198 281V158Q198 126 209 112T257
98Q294 98 304 113T314 158V235Z" />
<glyph unicode="&#xf63f;" glyph-name="seven.fitted" horiz-adv-x="514" d="M259 0H113L326 551H182V484H49V667H469V551L259 0Z" />
<glyph unicode="&#xf640;" glyph-name="eight.fitted" horiz-adv-x="514" d="M470 130Q470 53 417 20T258 -13Q151 -13 98 21T45 130V213Q45 267 66 304T131 354Q99 364 78 397T56 485V534Q56 584 74 613T121 657T186 676T258 680Q364 680 411 646T459 534V485Q459
437 441 401T386 354Q409 349 425 336T451 303T465 261T470 213V130ZM319 242Q319 266 306 282T257 298Q223 298 210 282T196 243V159Q196 126 209 112T257 98Q292 98 305 112T319 158V242ZM315 518Q315 540 303 554T258 568Q226 568 213 554T199 519V446Q199 416
214 405T258 394Q290 394 302 405T315 445V518Z" />
<glyph unicode="&#xf641;" glyph-name="nine.fitted" horiz-adv-x="514" d="M463 151Q463 92 444 59T395 10T329 -9T259 -13Q215 -13 179 -11T116 -4Q84 0 59 5V179H193V103Q205 101 216 100Q226 99 237 99T258 98Q277 98 288 102T306 115T314 134T316 158V296Q296
283 269 277T214 270Q179 270 150 278T99 304T65 349T53 413V527Q53 574 66 604T105 651T168 674T252 680Q304 680 343 674T409 648T449 596T463 511V151ZM316 509Q316 541 305 555T257 569Q220 569 210 554T200 509V432Q200 409 208 396T251 382Q264 382 275 384T296
389Q307 393 316 397V509Z" />
<glyph unicode="&#xf655;" glyph-name="zero.numerator" horiz-adv-x="338" d="M298 363Q298 337 294 318T276 286T237 267T172 260Q144 260 120 263T79 276T51 307T41 362V561Q41 591 46 612T66 647T104 667T168 674Q211 674 236 668T275 647T293 611T298 559V363ZM198
571Q198 583 193 590T170 597Q152 597 147 590T141 571V366Q141 350 147 344T170 337Q186 337 192 343T198 363V571Z" />
<glyph unicode="&#xf656;" glyph-name="one.numerator" horiz-adv-x="338" d="M129 268V564L106 554L67 537V625L151 667H226V268H129Z" />
<glyph unicode="&#xf657;" glyph-name="two.numerator" horiz-adv-x="338" d="M299 573Q299 545 290 522T267 479T236 442T202 410Q182 393 168 377T149 347H293V268H38V308Q38 332 46 353T68 393T98 430T131 464Q157 490 178 515T199 567Q199 580 194 588T169
597Q158 597 152 597T143 596H138V558H46V664Q61 666 79 669Q95 671 117 672T169 674Q233 674 266 653T299 573Z" />
<glyph unicode="&#xf658;" glyph-name="three.numerator" horiz-adv-x="338" d="M299 378Q299 350 297 328T282 291T242 268T164 260Q137 260 115 261T76 265Q57 268 41 271V384H133V338Q144 337 152 337H165Q189 337 194 345T199 375V394Q199 412 192 423T157
434H116V509H155Q178 509 186 516T194 544V570Q194 582 189 589T167 597Q160 597 154 597T143 596H132V558H40V664Q56 666 74 669Q90 671 111 672T158 674Q195 674 221 670T264 653T287 620T295 566Q295 522 287 504T258 476Q286 464 292 444T299 385V378Z" />
<glyph unicode="&#xf659;" glyph-name="four.numerator" horiz-adv-x="338" d="M276 349V268H177V349H29V417L123 667H276V428H317V349H276ZM179 600H174Q173 589 169 573Q163 546 142 489L119 428H179V600Z" />
<glyph unicode="&#xf65a;" glyph-name="five.numerator" horiz-adv-x="338" d="M299 367Q299 333 292 312T270 280T230 264T172 260Q147 260 124 261T83 265Q62 268 43 271V384H134V339Q139 338 145 338Q150 337 156 337H170Q191 337 195 346T199 370V439Q199
453 194 459T170 466Q159 466 151 460T139 447H50V667H281V588H144V556Q144 547 144 540T142 527Q156 534 172 537T200 540Q258 540 278 515T299 447V367Z" />
<glyph unicode="&#xf65b;" glyph-name="six.numerator" horiz-adv-x="338" d="M297 355Q297 326 289 308T264 279T224 264T171 260Q139 260 115 264T74 280T49 312T40 364V573Q40 610 52 630T82 660T124 672T168 674Q192 674 213 673T252 669Q271 666 288 664V557H196V595Q195
595 191 596Q188 596 183 596T169 597Q149 597 145 589T140 569V506Q152 511 164 514T194 517Q239 517 268 496T297 428V355ZM197 410Q197 421 194 430T173 440Q168 440 163 439T152 436Q146 434 140 433V366Q140 350 145 344T169 337Q187 337 192 344T197 366V410Z"
/>
<glyph unicode="&#xf65c;" glyph-name="seven.numerator" horiz-adv-x="338" d="M174 268H73L201 588H130V549H38V667H302V592L174 268Z" />
<glyph unicode="&#xf65d;" glyph-name="eight.numerator" horiz-adv-x="338" d="M303 349Q303 301 270 281T170 260Q36 260 36 349V398Q36 457 78 479Q61 488 52 507T42 555V584Q42 615 53 633T83 660T124 671T170 674Q238 674 267 653T297 584V555Q297 529 290
510T266 479Q289 469 296 447T303 398V349ZM200 414Q200 425 194 433T169 441Q152 441 146 433T139 415V366Q139 350 145 344T169 337Q187 337 193 343T200 366V414ZM198 574Q198 584 193 590T170 597Q153 597 147 591T140 575V533Q140 518 147 514T170 509Q186
509 192 514T198 532V574Z" />
<glyph unicode="&#xf65e;" glyph-name="nine.numerator" horiz-adv-x="338" d="M299 362Q299 325 287 305T256 274T214 262T170 260Q141 260 119 261T79 265Q60 268 44 271V384H136V338Q142 337 152 337H170Q189 337 194 345T199 366V435Q188 430 173 428T143
425Q98 425 70 446T41 514V580Q41 609 49 627T74 655T113 670T166 674Q199 674 223 670T265 655T290 624T299 570V362ZM199 568Q199 584 194 590T169 597Q152 597 147 590T141 568V525Q141 514 145 508T166 502Q176 502 187 505Q193 506 199 508V568Z" />
<glyph unicode="&#xf661;" glyph-name="zero.denominator" horiz-adv-x="338" d="M298 95Q298 69 294 50T276 18T237 -1T172 -8Q144 -8 120 -5T79 8T51 39T41 94V293Q41 323 46 344T66 379T104 399T168 406Q211 406 236 400T275 379T293 343T298 291V95ZM198 303Q198
315 193 322T170 329Q152 329 147 322T141 303V98Q141 82 147 76T170 69Q186 69 192 75T198 95V303Z" />
<glyph unicode="&#xf662;" glyph-name="one.denominator" horiz-adv-x="338" d="M129 0V296L106 286L67 269V357L151 399H226V0H129Z" />
<glyph unicode="&#xf663;" glyph-name="two.denominator" horiz-adv-x="338" d="M299 305Q299 277 290 254T267 211T236 174T202 142Q182 125 168 109T149 79H293V0H38V40Q38 64 46 85T68 125T98 162T131 196Q157 222 178 247T199 299Q199 312 194 320T169 329Q158
329 152 329T143 328H138V289H46V396Q61 398 79 401Q95 403 117 404T169 406Q233 406 266 385T299 305Z" />
<glyph unicode="&#xf664;" glyph-name="three.denominator" horiz-adv-x="338" d="M299 110Q299 82 297 60T282 23T242 0T164 -8Q137 -8 115 -7T76 -3Q57 0 41 3V116H133V70Q144 69 152 69H165Q189 69 194 77T199 107V126Q199 144 192 155T157 166H116V241H155Q178
241 186 248T194 276V302Q194 314 189 321T167 329Q160 329 154 329T143 328H132V289H40V396Q56 398 74 401Q90 403 111 404T158 406Q195 406 221 402T264 385T287 352T295 298Q295 254 287 236T258 208Q286 196 292 176T299 117V110Z" />
<glyph unicode="&#xf665;" glyph-name="four.denominator" horiz-adv-x="338" d="M276 81V0H177V81H29V149L123 399H276V160H317V81H276ZM179 332H174Q173 321 169 305Q163 278 142 221L119 160H179V332Z" />
<glyph unicode="&#xf666;" glyph-name="five.denominator" horiz-adv-x="338" d="M299 99Q299 65 292 44T270 12T230 -4T172 -8Q147 -8 124 -7T83 -3Q62 0 43 3V115H134V70Q139 69 145 69Q150 68 156 68H170Q191 68 195 77T199 101V171Q199 185 194 191T170 198Q159
198 151 192T139 179H50V399H281V320H144V288Q144 279 144 272T142 259Q156 266 172 269T200 272Q258 272 278 247T299 179V99Z" />
<glyph unicode="&#xf667;" glyph-name="six.denominator" horiz-adv-x="338" d="M297 87Q297 58 289 40T264 11T224 -4T171 -8Q139 -8 115 -4T74 12T49 44T40 96V304Q40 341 52 361T82 391T124 403T168 405Q192 405 213 404T252 400Q271 397 288 395V289H196V327Q195
327 191 328Q188 328 183 328T169 329Q149 329 145 321T140 301V238Q152 243 164 246T194 249Q239 249 268 228T297 160V87ZM197 142Q197 153 194 162T173 172Q168 172 163 171T152 168Q146 166 140 165V98Q140 82 145 76T169 69Q187 69 192 76T197 98V142Z" />
<glyph unicode="&#xf668;" glyph-name="seven.denominator" horiz-adv-x="338" d="M174 0H73L201 320H130V281H38V399H302V324L174 0Z" />
<glyph unicode="&#xf669;" glyph-name="eight.denominator" horiz-adv-x="338" d="M303 81Q303 33 270 13T170 -8Q36 -8 36 81V130Q36 189 78 211Q61 220 52 239T42 287V316Q42 347 53 365T83 392T124 403T170 406Q238 406 267 385T297 316V287Q297 261 290 242T266
211Q289 201 296 179T303 130V81ZM200 146Q200 157 194 165T169 173Q152 173 146 165T139 147V98Q139 82 145 76T169 69Q187 69 193 75T200 98V146ZM198 306Q198 316 193 322T170 329Q153 329 147 323T140 307V265Q140 250 147 246T170 241Q186 241 192 246T198
264V306Z" />
<glyph unicode="&#xf66a;" glyph-name="nine.denominator" horiz-adv-x="338" d="M299 94Q299 57 287 37T256 6T214 -6T170 -8Q141 -8 119 -7T79 -3Q60 0 44 3V116H136V70Q142 69 152 69H170Q189 69 194 77T199 98V167Q188 162 173 160T143 157Q98 157 70 178T41
246V313Q41 342 49 360T74 388T113 403T166 407Q199 407 223 403T265 388T290 357T299 303V94ZM199 301Q199 317 194 323T169 330Q152 330 147 323T141 301V257Q141 246 145 240T166 234Q176 234 187 237Q193 238 199 240V301Z" />
<glyph unicode="&#xf6bc;" glyph-name="Emdash" horiz-adv-x="628" d="M0 273V393H628V273H0Z" />
<glyph unicode="&#xf6be;" glyph-name="dotlessj" horiz-adv-x="258" d="M203 -4Q203 -35 198 -66T176 -123T128 -165T46 -181Q8 -181 -14 -178Q-27 -176 -38 -174V-62Q-31 -64 -22 -65Q-15 -66 -6 -66T13 -67Q32 -67 42 -62T56 -49T62 -29T63 -3V521H203V-4Z" />
<glyph unicode="&#xf6c3;" glyph-name="commaaccent" horiz-adv-x="500" d="M296 -211H181L186 -57H318L296 -211Z" />
<glyph unicode="&#xf6c9;" glyph-name="Acute" horiz-adv-x="500" d="M268 719H141L199 852H359L268 719Z" />
<glyph unicode="&#xf6ca;" glyph-name="Caron" horiz-adv-x="500" d="M328 711H173L91 847H207L249 777L288 847H408L328 711Z" />
<glyph unicode="&#xf6cb;" glyph-name="Dieresis" horiz-adv-x="500" d="M283 715V826H416V715H283ZM83 715V826H216V715H83Z" />
<glyph unicode="&#xf6ce;" glyph-name="Grave" horiz-adv-x="500" d="M232 719L141 852H301L359 719H232Z" />
<glyph unicode="&#xf6cf;" glyph-name="Hungarumlaut" horiz-adv-x="500" d="M356 715H252L291 858H418L356 715ZM185 715H81L120 858H247L185 715Z" />
<glyph unicode="&#xf6d0;" glyph-name="Macron" horiz-adv-x="500" d="M107 715V825H392V715H107Z" />
<glyph unicode="&#xf6dc;" glyph-name="one.fitted" horiz-adv-x="514" d="M200 0V518L97 470V598L230 667H340V0H200Z" />
<glyph unicode="&#xfb01;" glyph-name="fi" horiz-adv-x="540" d="M306 623Q299 624 290 625Q282 626 273 626T256 627Q223 627 214 609T205 563V521H289V418H205V0H65V418H8V521H65V584Q65 615 72 641T97 687T141 716T211 727Q229 727 246 726T277 724Q293 722
306 721V623ZM345 0V521H485V0H345ZM345 605V716H485V605H345Z" />
<glyph unicode="&#xfb02;" glyph-name="fl" horiz-adv-x="540" d="M306 623Q299 624 290 625Q282 626 273 626T256 627Q223 627 214 609T205 563V521H289V418H205V0H65V418H8V521H65V584Q65 615 72 641T97 687T141 716T211 727Q229 727 246 726T277 724Q293 722
306 721V623ZM345 0V716H485V0H345Z" />
</font>
</defs>
</svg>
