<?xml version="1.0" standalone="no"?> <!DOCTYPE svg PUBLIC "-//W3C//DTD SVG 1.0//EN" "http://www.w3.org/TR/2001/REC-SVG-20010904/DTD/svg10.dtd" > <svg xmlns="http://www.w3.org/2000/svg" width="100%" height="100%">
<defs >
<font id="ObiSans_ML_Black" horiz-adv-x="548" ><font-face
    font-family="Obi Sans ML"
    units-per-em="1000"
    panose-1="2 0 9 0 4 0 0 2 0 4"
    ascent="861"
    descent="-242"
    alphabetic="0" />
<missing-glyph horiz-adv-x="475" d="M50 0V667H425V0H50ZM112 63H362V605H112V63Z" />
<glyph unicode=" " glyph-name="space" horiz-adv-x="233" />
<glyph unicode="!" glyph-name="exclam" horiz-adv-x="290" d="M235 226H50L34 667H256L235 226ZM42 0V191H245V0H42Z" />
<glyph unicode="&quot;" glyph-name="quotedbl" horiz-adv-x="372" d="M157 498H37L30 716H165L157 498ZM335 498H215L208 716H342L335 498Z" />
<glyph unicode="#" glyph-name="numbersign" horiz-adv-x="710" d="M592 390L578 283H666V185H563L539 0H350L377 185H294L270 0H82L108 185H20V283H121L135 390H45V489H149L173 667H361L336 489H418L441 667H629L604 489H690V390H592ZM322 391L307 283H390L404 391H322Z" />
<glyph unicode="$" glyph-name="dollar" horiz-adv-x="648" d="M618 213Q618 152 605 113T566 50T504 17T422 3V-122H212V3Q164 5 130 9T74 19Q48 24 32 30V187H261V139Q265 137 272 136Q278 135 287 135T310 134Q325 134 334 138T349 150T356 165T358 182Q358
208 337 221T287 245L177 285Q149 295 123 308T76 343T43 394T30 469Q30 524 45 560T86 617T150 649T232 663V780H442V663Q477 660 506 656T555 648Q579 644 598 638V484H369V528L360 531Q355 532 348 533T329 534Q301 534 291 522T281 488Q281 467 292 455T324
435L491 379Q561 356 589 315T618 213Z" />
<glyph unicode="%" glyph-name="percent" horiz-adv-x="1076" d="M1036 119Q1036 99 1033 78T1015 38T970 7T885 -5Q831 -5 799 3T749 27T726 62T720 107V339Q720 369 726 391T749 429T798 452T881 460Q934 460 965 451T1011 426T1031 392T1036 354V119ZM481 333Q481
314 478 292T461 252T416 221T330 208Q276 208 244 217T194 241T171 276T165 321V551Q165 581 171 603T194 641T243 664T326 672Q379 672 410 663T456 638T476 604T481 566V333ZM542 -15H414L657 686H786L542 -15ZM898 336Q898 346 894 349T878 352Q866 352 864
347T862 337V118Q862 112 865 109T879 106Q890 106 894 109T898 119V336ZM341 549Q341 558 337 561T322 564Q310 564 308 559T306 549V333Q306 326 309 323T323 320Q334 320 337 323T341 333V549Z" />
<glyph unicode="&amp;" glyph-name="ampersand" horiz-adv-x="840" d="M575 0Q560 14 551 23T534 42Q487 13 432 1T293 -12Q227 -12 183 -2T111 31T73 88T61 170Q61 202 65 232T83 288T125 337T202 374Q186 389 175 409Q164 426 156 452T148 515Q148 551 157 581T191
633T263 667T385 679Q452 679 494 668T559 636T591 586T600 522Q600 462 567 422T461 348Q468 339 480 327T507 301T535 276T559 254Q572 272 580 285T593 313T601 344T607 386H776Q774 343 768 310T750 249T719 196T670 142L804 0H575ZM431 509Q431 521 430 531T423
549T408 561T379 566Q362 566 352 562T337 550T331 533T330 513Q330 488 342 468T374 430Q409 454 420 471T431 509ZM439 144Q407 175 378 202Q353 225 329 248T290 286Q267 274 262 252T257 198Q257 173 263 158T283 135T316 124T361 121Q379 121 393 124T418
132Q429 137 439 144Z" />
<glyph unicode="&apos;" glyph-name="quotesingle" horiz-adv-x="195" d="M157 498H37L30 716H165L157 498Z" />
<glyph unicode="(" glyph-name="parenleft" horiz-adv-x="372" d="M155 -42Q105 45 77 139T48 334Q48 434 76 528T155 708H318Q277 620 251 526T225 334Q225 235 251 141T318 -42H155Z" />
<glyph unicode=")" glyph-name="parenright" horiz-adv-x="372" d="M324 334Q324 233 296 139T217 -42H54Q95 47 121 141T147 334Q147 432 121 526T54 708H217Q267 622 295 528T324 334Z" />
<glyph unicode="*" glyph-name="asterisk" horiz-adv-x="333" d="M227 580L292 508L213 451L164 537L116 452L37 510L104 583L9 603L40 695L130 655L119 751H216L205 652L294 692L324 599L227 580Z" />
<glyph unicode="+" glyph-name="plus" horiz-adv-x="500" d="M316 204V41H186V204H33V324H186V487H316V324H467V204H316Z" />
<glyph unicode="," glyph-name="comma" horiz-adv-x="263" d="M179 -51H34L43 191H244L179 -51Z" />
<glyph unicode="-" glyph-name="hyphen" horiz-adv-x="328" d="M10 192V352H318V192H10Z" />
<glyph unicode="." glyph-name="period" horiz-adv-x="263" d="M30 0V191H233V0H30Z" />
<glyph unicode="/" glyph-name="slash" horiz-adv-x="475" d="M244 -43H46L236 700H437L244 -43Z" />
<glyph unicode="0" glyph-name="zero" horiz-adv-x="647" d="M621 184Q621 117 600 79T540 23T446 0T324 -5Q253 -5 198 -1T104 22T46 79T26 184V466Q26 535 42 576T93 638T185 665T324 672Q405 672 461 666T553 638T605 576T621 466V184ZM360 483Q360 487 360
492T356 503T345 511T324 515Q310 515 303 512T292 504T287 494T286 484V191Q286 171 293 162T324 152Q347 152 353 162T360 191V483Z" />
<glyph unicode="1" glyph-name="one" horiz-adv-x="402" d="M98 0V468L10 451V627L154 667H361V0H98Z" />
<glyph unicode="2" glyph-name="two" horiz-adv-x="634" d="M614 473Q614 412 595 370T545 297T480 247T413 212T360 182T333 150H601V0H20V94Q20 143 44 182T103 253T180 314T257 368T317 422T341 481Q341 501 332 508T306 515Q295 515 288 514T276 512Q271 511
267 510V451H31V652Q66 658 107 662Q142 666 190 669T293 672Q363 672 422 668T523 645T590 585T614 473Z" />
<glyph unicode="3" glyph-name="three" horiz-adv-x="636" d="M616 197Q616 132 602 92T551 31T452 2T296 -6Q239 -6 190 -3T102 5Q58 9 21 16V206H281V152Q285 151 290 151Q295 150 301 150H317Q344 150 347 165T351 207V233Q351 259 340 268T303 277H196V404H297Q323
404 334 413T345 451V466Q345 492 341 503T312 515Q298 515 288 513Q284 512 281 512V466H28V652Q66 658 107 662Q142 666 186 669T276 672Q363 672 425 668T528 647T587 594T606 498Q606 445 589 407T519 354Q553 345 572 329T601 292T613 247T616 197Z" />
<glyph unicode="4" glyph-name="four" horiz-adv-x="680" d="M595 133V0H331V133H21V271L199 667H595V283H660V133H595ZM340 554L223 283H340V554Z" />
<glyph unicode="5" glyph-name="five" horiz-adv-x="653" d="M627 174Q627 105 605 68T544 15T455 -4T348 -6Q277 -6 219 -3T119 5Q70 9 32 16V216H296V158Q301 156 307 154Q317 151 333 151Q354 151 361 159T369 187V272Q369 295 363 304T330 313Q325 313 319
311T308 307L296 301H32V667H602V517H296V428Q307 434 324 439Q338 443 361 446T418 450Q464 450 502 446T568 424T611 372T627 279V174Z" />
<glyph unicode="6" glyph-name="six" horiz-adv-x="652" d="M632 170Q632 108 607 73T541 21T447 -1T338 -5H296Q244 -5 196 -1T110 21T49 76T26 180V479Q26 537 40 574T88 634T181 664T326 672Q385 672 437 669T529 662Q576 658 616 652V458H366V510Q361 511
355 512Q350 513 343 514T328 515Q314 515 307 512T297 503T293 491T292 480V398Q313 400 333 403Q350 405 368 407T398 409Q437 409 478 406T553 389T610 348T632 272V170ZM366 245Q366 249 365 254T360 265T349 274T328 278Q322 278 316 277T304 275Q298 273
292 272V193Q292 168 299 160T327 152Q353 152 359 162T366 191V245Z" />
<glyph unicode="7" glyph-name="seven" horiz-adv-x="581" d="M355 0H88L317 517H224V450H10V667H571V521L355 0Z" />
<glyph unicode="8" glyph-name="eight" horiz-adv-x="633" d="M614 137Q614 89 592 61T529 19T435 0T316 -5Q251 -5 197 -1T103 18T41 61T19 137V225Q19 280 39 310T99 352Q85 356 73 364T52 386T38 422T32 476V527Q32 572 50 600T104 644T193 666T316 672Q383
672 436 666T527 644T583 600T603 527V476Q603 441 599 419T587 384T565 364T533 353Q580 344 597 311T614 225V137ZM355 499Q355 503 354 509T350 520T338 529T316 533Q302 533 294 530T282 521T278 510T277 500V451Q277 425 283 416T316 406Q344 406 349 417T355
448V499ZM355 237Q355 241 354 247T350 259T338 268T316 272Q302 272 294 269T282 260T278 248T277 238V178Q277 152 283 143T316 134Q344 134 349 145T355 176V237Z" />
<glyph unicode="9" glyph-name="nine" horiz-adv-x="652" d="M626 188Q626 129 612 92T563 33T471 3T326 -5Q267 -5 215 -2T122 5Q75 9 36 16V209H286V157Q291 155 297 154Q302 153 309 153T324 152Q337 152 344 155T355 164T359 175T360 187V269L324 263Q307
261 287 260T244 258Q205 258 166 261T94 278T41 322T20 405V497Q20 561 45 596T111 648T205 668T314 672H356Q408 672 456 668T542 646T603 591T626 487V188ZM360 474Q360 499 353 507T325 515Q299 515 293 505T286 476V422Q286 418 287 413T292 402T303 393T324
389Q337 389 348 392Q354 393 360 395V474Z" />
<glyph unicode=":" glyph-name="colon" horiz-adv-x="263" d="M40 326V517H243V326H40ZM40 0V191H243V0H40Z" />
<glyph unicode=";" glyph-name="semicolon" horiz-adv-x="263" d="M177 -51H32L41 191H242L177 -51ZM40 326V517H243V326H40Z" />
<glyph unicode="&lt;" glyph-name="less" horiz-adv-x="500" d="M33 211V320L467 490V362L160 265L467 167V39L33 211Z" />
<glyph unicode="=" glyph-name="equal" horiz-adv-x="500" d="M33 304V424H467V304H33ZM33 104V224H467V104H33Z" />
<glyph unicode="&gt;" glyph-name="greater" horiz-adv-x="500" d="M33 39V167L340 265L33 362V490L467 320V211L33 39Z" />
<glyph unicode="?" glyph-name="question" horiz-adv-x="492" d="M472 513Q472 481 459 448T420 392L361 339Q335 316 319 299T303 259V226H100V249Q100 292 109 323T152 386L226 454Q239 465 247 476T256 510Q256 515 256 521T252 532T242 540T221 544Q213 544
207 543T196 541Q191 540 187 539V482H0V651Q29 659 66 666Q98 672 142 677T241 682Q315 682 360 669T430 633T463 579T472 513ZM100 0V191H303V0H100Z" />
<glyph unicode="@" glyph-name="at" horiz-adv-x="1026" d="M956 186Q956 135 949 100T922 43T863 11T763 1H557L556 26Q551 21 541 16T515 7T483 0T448 -3Q403 -3 374 10T329 42T306 81T299 116V357Q299 384 305 405T326 441T368 464T434 472Q490 472 517 462T555
444L554 467H725V124H739Q762 124 774 128T792 142T799 169T800 215V375Q800 434 795 467T762 517T675 537T510 541Q417 541 362 536T277 517T238 475T228 403V80Q228 39 236 11T274 -34T359 -58T508 -65Q546 -65 590 -64T673 -60Q718 -58 763 -55L772 -162Q749
-165 717 -168Q690 -170 650 -171T557 -173Q441 -173 361 -167T226 -145T141 -106T95 -46T75 35T71 142V411Q71 483 90 529T158 601T292 636T510 646Q615 646 689 643T813 629T891 600T934 552T952 480T956 381V186ZM550 326Q542 328 534 331Q527 333 519 334T503
336Q483 336 477 330T470 304V174Q470 159 479 150T507 141Q525 141 534 145T550 155V326Z" />
<glyph unicode="A" glyph-name="A" horiz-adv-x="664" d="M398 0L377 152H278L256 0H0L126 667H532L664 0H398ZM329 543L292 298H365L329 543Z" />
<glyph unicode="B" glyph-name="B" horiz-adv-x="642" d="M619 176Q619 131 609 98T577 43T517 11T425 0H30V667H394Q439 667 478 664T547 646T592 602T609 520V489Q609 466 607 444T596 402T570 368T524 348Q559 339 578 324T607 289T617 251T619 213V176ZM364
240Q364 254 357 261T328 269H285V152H328Q343 152 350 156T361 165T364 176V240ZM354 505Q354 516 348 522T321 528H285V423H321Q344 423 349 431T354 452V505Z" />
<glyph unicode="C" glyph-name="C" horiz-adv-x="606" d="M576 14Q548 7 508 2Q474 -3 424 -6T306 -10Q233 -10 179 -4T89 23T36 82T18 185V499Q18 564 44 600T111 653T205 673T311 677Q382 677 432 673T514 664Q552 659 576 652V443H336V517Q331 517 327 518Q317
520 307 520Q283 520 278 510T273 476V196Q273 166 278 157T311 147Q324 147 329 148Q333 149 336 150V243H576V14Z" />
<glyph unicode="D" glyph-name="D" horiz-adv-x="638" d="M609 185Q609 131 598 95T563 38T499 9T404 0H30V667H398Q450 667 490 660T556 633T595 580T609 494V185ZM354 485Q354 515 346 521T313 528H285V152H313Q337 152 345 159T354 192V485Z" />
<glyph unicode="E" glyph-name="E" horiz-adv-x="502" d="M30 0V667H478V528H285V423H467V269H285V152H478V0H30Z" />
<glyph unicode="F" glyph-name="F" horiz-adv-x="470" d="M285 528V423H445V269H285V0H30V667H460V528H285Z" />
<glyph unicode="G" glyph-name="G" horiz-adv-x="616" d="M378 0L368 34Q353 21 336 14T302 2T270 -3T243 -5Q177 -5 135 10T70 51T37 110T28 182V487Q28 552 48 589T106 646T200 671T327 677Q392 677 440 673T521 664Q559 659 586 652V453H346V517Q342 517 337
518Q332 519 326 519T312 520Q291 520 287 507T283 478V184Q283 176 285 169T294 157T315 152H326Q332 152 337 153Q342 154 346 155V242H321V366H586V0H378Z" />
<glyph unicode="H" glyph-name="H" horiz-adv-x="633" d="M348 0V269H285V0H30V667H285V423H348V667H603V0H348Z" />
<glyph unicode="I" glyph-name="I" horiz-adv-x="315" d="M30 0V667H285V0H30Z" />
<glyph unicode="J" glyph-name="J" horiz-adv-x="378" d="M349 182Q349 129 336 92T295 33T226 0T129 -10Q98 -10 64 -7T10 0V128Q15 126 22 125Q28 124 36 124T53 123Q80 123 87 135T94 170V667H349V182Z" />
<glyph unicode="K" glyph-name="K" horiz-adv-x="659" d="M397 0L285 254V0H30V667H285V436L384 667H646L497 355L664 0H397Z" />
<glyph unicode="L" glyph-name="L" horiz-adv-x="471" d="M30 0V667H285V152H460V0H30Z" />
<glyph unicode="M" glyph-name="M" horiz-adv-x="840" d="M573 0V375L498 2H340L264 374V0H30V667H348L419 305L488 667H810V0H573Z" />
<glyph unicode="N" glyph-name="N" horiz-adv-x="669" d="M387 0L274 313V0H30V667H286L395 391V667H639V0H387Z" />
<glyph unicode="O" glyph-name="O" horiz-adv-x="633" d="M606 185Q606 117 589 78T537 20T447 -5T317 -10Q245 -10 191 -6T100 18T45 76T26 183V471Q26 540 41 581T90 643T179 670T317 677Q401 677 456 671T545 643T592 581T606 471V185ZM351 491Q351 499 347
509T318 520Q305 520 298 517T287 510T282 500T281 491V186Q281 166 287 157T317 147Q340 147 345 157T351 186V491Z" />
<glyph unicode="P" glyph-name="P" horiz-adv-x="634" d="M619 404Q619 352 607 319T573 268T518 242T446 235H285V0H30V667H436Q534 667 576 631T619 513V404ZM364 480Q364 510 357 519T319 528H285V374H319Q346 374 355 384T364 418V480Z" />
<glyph unicode="Q" glyph-name="Q" horiz-adv-x="629" d="M600 185Q600 114 583 75T528 17L595 -15L522 -127L315 -10H314Q242 -10 188 -6T98 18T44 76T26 183V471Q26 540 40 581T88 643T177 670T314 677Q398 677 453 671T540 643T586 581T600 471V185ZM345 186V500Q345
505 342 509T333 517T315 520Q302 520 295 517T285 510T282 500T281 491V186Q281 166 285 157T314 147Q337 147 341 157T345 186Z" />
<glyph unicode="R" glyph-name="R" horiz-adv-x="653" d="M376 0L290 283H284V0H30V667H405Q458 667 498 662T566 641T606 593T620 507V460Q620 431 617 406T605 360T580 326T539 307L653 0H376ZM365 505Q365 516 359 522T332 528H285V407H332Q355 407 360 415T365
436V505Z" />
<glyph unicode="S" glyph-name="S" horiz-adv-x="628" d="M608 203Q608 125 586 82T524 19T427 -6T300 -10Q225 -10 173 -7T87 2Q47 7 22 15V208H261V145Q266 144 273 143Q279 142 286 142H305Q322 142 331 147T346 158T352 172T353 183Q353 210 337 225T277 257L167
296Q138 306 112 317T65 347T33 397T20 479Q20 550 44 590T112 649T213 673T337 677Q391 677 436 674T516 665Q556 660 588 653V467H349V523Q342 523 335 524Q329 525 322 525T309 526Q288 526 280 513T271 485Q271 463 282 453T314 435L481 379Q516 367 540 354T579
321T601 273T608 203Z" />
<glyph unicode="T" glyph-name="T" horiz-adv-x="566" d="M411 515V0H154V515H15V667H551V515H411Z" />
<glyph unicode="U" glyph-name="U" horiz-adv-x="630" d="M602 192Q602 122 583 82T528 21T438 -4T315 -10Q252 -10 200 -6T109 18T49 78T28 192V667H283V184Q283 159 290 153T315 147Q334 147 340 153T347 184V667H602V192Z" />
<glyph unicode="V" glyph-name="V" horiz-adv-x="646" d="M489 0H158L0 666H271L323 303L375 666H646L489 0Z" />
<glyph unicode="W" glyph-name="W" horiz-adv-x="912" d="M780 0H509L458 304L406 0H133L0 667H266L306 355L361 667H549L605 355L645 667H912L780 0Z" />
<glyph unicode="X" glyph-name="X" horiz-adv-x="648" d="M517 360L647 0H375L326 249L276 0H6L133 360L0 667H270L326 458L380 667H648L517 360Z" />
<glyph unicode="Y" glyph-name="Y" horiz-adv-x="640" d="M448 252V0H193V252L0 666H258L317 466L377 666H640L448 252Z" />
<glyph unicode="Z" glyph-name="Z" horiz-adv-x="571" d="M30 0V152L266 515H61V667H535V514L299 152H541V0H30Z" />
<glyph unicode="[" glyph-name="bracketleft" horiz-adv-x="358" d="M53 -42V708H326V569H229V97H326V-42H53Z" />
<glyph unicode="\" glyph-name="backslash" horiz-adv-x="475" d="M239 -43L46 700H247L437 -43H239Z" />
<glyph unicode="]" glyph-name="bracketright" horiz-adv-x="358" d="M32 -42V97H129V569H32V708H305V-42H32Z" />
<glyph unicode="^" glyph-name="asciicircum" horiz-adv-x="500" d="M350 414L251 646L151 414H14L164 750H335L486 414H350Z" />
<glyph unicode="_" glyph-name="underscore" horiz-adv-x="500" d="M-10 -250V-152H510V-250H-10Z" />
<glyph unicode="`" glyph-name="grave" horiz-adv-x="500" d="M212 566L141 677H321L359 566H212Z" />
<glyph unicode="a" glyph-name="a" horiz-adv-x="501" d="M286 0V50Q274 34 256 22Q240 11 217 3T160 -5Q132 -5 107 -2T63 14T33 50T21 115V167Q21 208 31 238T69 288T147 319T279 330V397Q279 410 274 421T249 432Q241 432 235 431T225 429L217 427V377H44V518Q72
524 105 528Q133 532 169 535T244 538Q294 538 336 535T409 519T457 476T475 395V0H286ZM279 244Q258 244 246 239T227 225T218 203T216 175V165Q216 146 219 134T247 122Q253 122 258 122T269 124L279 126V244Z" />
<glyph unicode="b" glyph-name="b" horiz-adv-x="511" d="M486 118Q486 83 469 56Q455 33 422 14T326 -5Q299 -5 279 1T247 16T227 32Q221 38 220 40V0H30V667H226L227 499Q237 508 251 516Q264 522 282 527T327 533Q410 533 448 503T486 397V118ZM290 380Q290
406 261 406Q253 406 247 405T236 403Q231 401 226 400V126L236 124Q241 123 246 123T259 122Q276 122 283 128T290 144V380Z" />
<glyph unicode="c" glyph-name="c" horiz-adv-x="501" d="M473 10Q444 4 411 0Q382 -4 346 -7T267 -10Q192 -10 145 -4T72 20T36 72T26 162V368Q26 424 36 457T74 509T148 532T269 538Q306 538 341 535T406 528Q439 524 470 518V330H286V407Q282 408 277 409Q272
410 267 410T255 411Q241 411 235 408T225 399T222 389V146Q222 132 227 125T255 117H268Q274 117 278 118L286 120V207H473V10Z" />
<glyph unicode="d" glyph-name="d" horiz-adv-x="511" d="M290 0V41Q289 40 283 33T264 18T232 2T185 -5Q122 -5 90 14T43 56Q26 83 26 118V397Q26 472 64 502T185 533Q211 533 229 528T260 516Q274 508 284 499V667H480V0H290ZM284 400Q279 401 274 403Q269 404
263 405T251 406Q222 406 222 380V144Q222 135 229 129T253 122Q258 122 263 122T274 124L284 126V400Z" />
<glyph unicode="e" glyph-name="e" horiz-adv-x="512" d="M222 232V150Q222 130 226 119T255 107Q261 107 266 107T276 109Q281 110 286 112V180H473V10Q442 4 407 0Q377 -4 337 -7T251 -10Q195 -10 153 -6T83 14T41 58T26 139V383Q26 436 38 467T78 513T147 533T250
538Q307 538 350 534T422 515T467 471T482 392V232H222ZM286 379Q286 399 281 409T256 420Q232 420 227 410T222 379V328H286V379Z" />
<glyph unicode="f" glyph-name="f" horiz-adv-x="306" d="M306 586Q302 587 297 588Q292 589 287 589T274 590Q256 590 251 581T246 560V528H298V406H246V0H50V406H10V528H50V579Q50 591 53 611T70 649T115 681T200 695Q224 695 243 694T277 691Q293 689 306 688V586Z" />
<glyph unicode="g" glyph-name="g" horiz-adv-x="514" d="M484 -4Q484 -58 471 -89T428 -136T354 -156T246 -160Q204 -160 167 -158T102 -151Q69 -147 43 -142V-3H216V-43Q220 -44 225 -45Q229 -46 234 -46H246Q273 -46 280 -34T288 -2V71Q266 53 238 47T180 41Q107
41 68 73T28 172V371Q28 407 34 436T55 487T98 521T167 533Q199 533 223 526T264 510Q282 500 296 488V528H484V-4ZM288 402L278 404Q273 405 268 405T255 406Q237 406 231 397T224 374V187Q224 173 230 163T255 152Q263 152 268 152T279 154Q284 155 288 156V402Z"
/>
<glyph unicode="h" glyph-name="h" horiz-adv-x="502" d="M277 0V376Q277 390 275 398T254 406Q247 406 242 405T233 403Q229 402 226 401V0H30V667H226V499Q236 508 251 516Q263 522 282 527T329 533Q404 533 438 499T473 392V0H277Z" />
<glyph unicode="i" glyph-name="i" horiz-adv-x="256" d="M30 0V528H226V0H30ZM30 586V667H226V586H30Z" />
<glyph unicode="j" glyph-name="j" horiz-adv-x="253" d="M225 -5Q225 -34 220 -61T198 -109T146 -144T53 -157Q32 -157 12 -156T-26 -153Q-45 -151 -63 -149V-47Q-59 -49 -52 -50Q-46 -51 -38 -51T-16 -52Q1 -52 10 -48T24 -36T28 -20T29 -1V528H225V-5ZM29 586V667H225V586H29Z"
/>
<glyph unicode="k" glyph-name="k" horiz-adv-x="529" d="M318 0L226 193V0H30V667H226V395L304 528H524L374 302L534 0H318Z" />
<glyph unicode="l" glyph-name="l" horiz-adv-x="256" d="M30 0V667H226V0H30Z" />
<glyph unicode="m" glyph-name="m" horiz-adv-x="743" d="M521 0V381Q521 393 517 399T499 406Q493 406 488 405T479 403Q475 402 470 401V0H274V381Q274 390 271 398T252 406Q241 406 231 404Q227 403 224 402V0H30V528H211V486Q212 488 217 494Q224 502 239
510T279 526T340 533Q370 533 390 525T422 507Q436 496 444 481Q457 496 475 507Q491 517 516 525T578 533Q626 533 653 519T695 485T713 440T717 394V0H521Z" />
<glyph unicode="n" glyph-name="n" horiz-adv-x="500" d="M277 0V376Q277 390 275 398T254 406Q250 406 246 406T236 404L226 402V0H30V528H214V486Q215 488 220 494Q226 502 240 510T276 526T334 533Q473 533 473 391V0H277Z" />
<glyph unicode="o" glyph-name="o" horiz-adv-x="508" d="M482 125Q482 76 464 49T414 9T342 -7T255 -10Q207 -10 165 -7T93 9T44 49T26 125V402Q26 451 43 478T91 518T164 535T255 538Q303 538 344 535T416 519T464 478T482 402V125ZM286 372Q286 388 283 399T255
411Q241 411 235 407T225 397T222 383V150Q222 136 227 127T255 117Q277 117 281 127T286 150V372Z" />
<glyph unicode="p" glyph-name="p" horiz-adv-x="511" d="M486 131Q486 56 448 26T326 -5Q300 -5 281 0T250 12Q236 19 226 29V-152H30V528H220V486Q221 488 226 494Q233 502 245 510T278 526T326 533Q388 533 421 514T469 471Q486 444 486 410V131ZM290 384Q290
393 283 399T259 406Q251 406 246 406T236 404L226 402V128Q231 126 236 125Q245 122 261 122Q290 122 290 148V384Z" />
<glyph unicode="q" glyph-name="q" horiz-adv-x="511" d="M284 -152V29Q274 19 260 12Q248 5 230 0T185 -5Q102 -5 64 25T26 131V410Q26 444 43 471Q57 494 89 513T185 533Q213 533 233 526T266 509Q281 498 290 486V528H480V-152H284ZM284 402L274 404Q269 405
264 405T253 406Q236 406 229 400T222 384V148Q222 122 251 122Q265 122 274 125Q279 126 284 128V402Z" />
<glyph unicode="r" glyph-name="r" horiz-adv-x="373" d="M373 342L355 346Q347 348 338 349T319 350Q288 350 270 341T242 319T229 290T226 261V0H30V528H214V453Q221 481 236 497T271 521T310 531T344 533Q349 533 353 533T363 532Q368 531 373 531V342Z" />
<glyph unicode="s" glyph-name="s" horiz-adv-x="473" d="M460 153Q460 99 446 67T403 18T331 -5T232 -10Q190 -10 152 -7T85 0Q51 4 20 10V149H202V101Q207 100 213 99Q218 98 224 98H237Q258 98 262 109T266 134Q266 144 263 151T250 166T222 183T173 206Q133
223 105 238T58 273T31 319T22 387Q22 439 39 469T85 514T156 534T245 538Q288 538 326 535T392 528Q425 524 452 518V386H277V432Q274 432 270 433Q266 433 261 433T250 434Q226 434 222 424T218 403Q218 389 224 380T244 363T281 345T340 321Q381 304 405 287T441
249T456 205T460 153Z" />
<glyph unicode="t" glyph-name="t" horiz-adv-x="318" d="M313 2Q304 0 290 -2Q278 -4 260 -5T215 -6Q158 -6 126 8T76 43T55 89T50 138V406H10V528H55V626L246 672V528H308V406H246V152Q246 144 246 135T249 118T258 105T277 99H292Q299 99 304 100Q309 101 313 102V2Z" />
<glyph unicode="u" glyph-name="u" horiz-adv-x="500" d="M286 0V41Q285 40 279 33T260 18T223 2T166 -5Q26 -5 26 137V528H222V152Q222 138 224 130T245 122Q250 122 254 122T264 124L274 126V528H470V0H286Z" />
<glyph unicode="v" glyph-name="v" horiz-adv-x="464" d="M368 0H95L0 528H194L231 173L269 528H464L368 0Z" />
<glyph unicode="w" glyph-name="w" horiz-adv-x="671" d="M556 0H380L335 247L291 0H115L0 528H185L226 294L265 528H405L444 294L485 528H671L556 0Z" />
<glyph unicode="x" glyph-name="x" horiz-adv-x="486" d="M284 0L244 221L203 0H0L80 276L16 528H211L243 327L276 528H470L406 276L486 0H284Z" />
<glyph unicode="y" glyph-name="y" horiz-adv-x="530" d="M338 -151L142 -152L177 0L109 1L0 528H223L257 213L314 528H530L338 -151Z" />
<glyph unicode="z" glyph-name="z" horiz-adv-x="427" d="M20 0V116L181 399H31V528H403V411L241 127H412V0H20Z" />
<glyph unicode="{" glyph-name="braceleft" horiz-adv-x="358" d="M220 -42Q160 -42 126 -21T92 59V166Q92 183 90 202T77 235Q67 248 52 252T21 258V405Q44 406 58 413T79 433T89 462T92 499V606Q92 665 125 686T220 708H348V579H321Q289 579 276 570T263 532V445Q263
396 245 369T175 333V330Q224 321 243 296T263 221V133Q263 104 276 96T321 87H348V-42H220Z" />
<glyph unicode="|" glyph-name="bar" horiz-adv-x="498" d="M151 -103V777H347V-103H151Z" />
<glyph unicode="}" glyph-name="braceright" horiz-adv-x="358" d="M337 258Q322 257 307 253T281 235Q271 221 269 202T266 166V59Q266 0 232 -21T138 -42H10V87H37Q69 87 82 95T95 133V221Q95 270 114 295T183 330V333Q132 341 114 368T95 445V532Q95 561 82
570T37 579H10V708H138Q199 708 232 687T266 606V499Q266 479 268 463T278 434T300 414T337 405V258Z" />
<glyph unicode="~" glyph-name="asciitilde" horiz-adv-x="500" d="M484 312Q472 286 458 262T424 218T381 188T325 177Q303 177 283 185T244 202T204 219T162 227Q146 227 136 223T117 213T102 196T87 174L16 216Q28 237 41 261T72 305T111 338T161 352Q179 352
202 345T249 328T297 312T339 304Q364 304 381 319T410 355L484 312Z" />
<glyph unicode="&#xa0;" glyph-name="space" horiz-adv-x="233" />
<glyph unicode="&#xa1;" glyph-name="exclamdown" horiz-adv-x="290" d="M34 0L55 441H240L256 0H34ZM45 476V667H248V476H45Z" />
<glyph unicode="&#xa2;" glyph-name="cent" horiz-adv-x="501" d="M179 -7Q132 -4 103 5T57 34T34 85T27 162V368Q27 414 34 444T58 494T105 522T179 535V654H350V535Q375 533 396 530T435 524Q454 520 470 518V350H286V417Q282 418 277 419Q272 420 267 420T255
421Q242 421 236 418T226 409T223 399V136Q223 122 228 115T255 107H268Q274 107 278 108L286 110V187H473V10Q457 7 438 4Q421 2 399 -1T350 -6V-129H179V-7Z" />
<glyph unicode="&#xa3;" glyph-name="sterling" horiz-adv-x="639" d="M68 0V242H4V360H68V499Q68 564 94 600T161 653T255 673T361 677Q432 677 480 673T559 664Q594 659 616 652V463H396V527Q390 527 384 528Q379 529 373 529T361 530Q338 530 332 520T325 486V360H510V242H325V152H621V0H68Z"
/>
<glyph unicode="&#xa4;" glyph-name="currency" horiz-adv-x="626" d="M553 32L451 133Q413 110 382 100T313 90Q275 90 245 99T177 133L73 32L3 102L107 202Q82 238 73 267T63 332Q63 351 65 366T72 397T85 427T107 463L3 565L73 635L177 534Q216 557 245 566T314
575Q351 575 381 566T447 534L550 635L618 565L518 463Q544 426 553 397T562 332Q562 297 553 266T518 202L622 102L553 32ZM388 333Q388 365 366 386T311 407Q279 407 257 386T234 333Q234 301 256 280T311 259Q343 259 365 277T388 333Z" />
<glyph unicode="&#xa5;" glyph-name="yen" horiz-adv-x="640" d="M448 184V0H193V184H43V264H193V292L166 344H33V424H125L0 666H248L317 440L387 666H640L515 424H607V344H474L448 292V264H597V184H448Z" />
<glyph unicode="&#xa6;" glyph-name="brokenbar" horiz-adv-x="498" d="M151 477V777H347V477H151ZM151 -103V197H347V-103H151Z" />
<glyph unicode="&#xa7;" glyph-name="section" horiz-adv-x="658" d="M49 240Q49 285 75 319T139 374Q106 396 87 428T67 506Q67 558 86 591T140 644T225 670T337 677Q391 677 437 674T516 667Q555 663 586 657V515H386V561Q379 561 371 562Q364 562 355 562T338
563Q312 563 301 551T290 527Q290 504 317 488T404 452L455 434Q502 417 532 400T579 361T602 314T608 256Q608 231 599 209T576 169T543 138T505 116Q525 105 541 94T570 67T589 33T596 -12Q596 -64 575 -97T516 -150T427 -176T314 -183Q258 -183 213 -180T135
-173Q97 -169 67 -163V-11H271V-67Q278 -68 287 -68Q294 -69 303 -69H322Q346 -69 357 -56T368 -31Q368 -20 364 -10T348 9T315 30T259 54L190 80Q143 98 115 116T73 153T54 194T49 240ZM426 227Q426 246 418 256T380 278L263 325Q255 320 249 313Q244 307 240
298T235 276Q235 262 243 252T279 230L395 183Q403 188 410 194Q416 199 421 207T426 227Z" />
<glyph unicode="&#xa8;" glyph-name="dieresis" horiz-adv-x="500" d="M277 566V667H423V566H277ZM77 566V667H223V566H77Z" />
<glyph unicode="&#xa9;" glyph-name="copyright" horiz-adv-x="695" d="M695 334Q695 256 672 192T605 83T497 12T349 -13Q267 -13 202 12T92 83T24 192T0 334Q0 412 24 475T93 584T202 655T349 680Q431 680 495 655T603 585T671 475T695 334ZM613 334Q613 392
596 442T546 530T463 589T349 610Q284 610 234 589T150 532T99 445T82 334Q82 274 99 223T149 136T233 78T349 57Q415 57 464 78T547 135T596 223T613 334ZM484 151Q464 147 441 143Q421 140 397 138T346 136Q302 136 274 145T228 168T204 201T197 238V428Q197
448 204 467T228 500T274 524T344 533Q373 533 398 531T442 525Q463 521 481 517V410H374V453Q370 453 366 454Q362 454 357 454T344 455Q323 455 317 444T311 419V253Q311 236 317 225T345 214H357Q363 214 367 215Q371 215 375 216V267H484V151Z" />
<glyph unicode="&#xaa;" glyph-name="ordfeminine" horiz-adv-x="332" d="M190 366V394Q182 385 171 378Q161 372 147 368T115 363Q100 363 84 365T56 373T35 393T27 430V465Q27 511 61 533T186 556V598Q186 606 181 612T159 618Q151 618 143 616Q139 615 137
615V587H40V666Q57 668 76 671Q93 673 113 675T157 677Q185 677 210 676T255 667T285 643T296 597V366H190ZM27 211V298H298V211H27ZM186 508Q154 508 145 497T136 469V458Q136 447 140 441T158 434H166Q171 434 176 435L186 437V508Z" />
<glyph unicode="&#xab;" glyph-name="guillemotleft" horiz-adv-x="483" d="M412 264L456 46H299L240 263L301 485H457L412 264ZM198 264L242 46H85L26 263L87 485H243L198 264Z" />
<glyph unicode="&#xac;" glyph-name="logicalnot" horiz-adv-x="500" d="M337 15V207H33V327H467V15H337Z" />
<glyph unicode="&#xad;" glyph-name="hyphen" horiz-adv-x="328" d="M10 192V352H318V192H10Z" />
<glyph unicode="&#xae;" glyph-name="registered" horiz-adv-x="472" d="M448 563Q448 521 435 486T396 426T336 386T256 372Q212 372 177 386T116 425T76 486T62 563Q62 605 76 640T115 700T176 740T256 755Q299 755 334 741T395 701T434 640T448 563ZM401 563Q401
594 391 621T362 669T317 702T256 714Q221 714 194 702T148 670T118 622T108 563Q108 531 118 504T147 456T193 425T256 413Q290 413 317 424T363 456T391 504T401 563ZM282 462L249 547H237V462H181V667H271Q306 667 318 654T331 612Q331 586 325 574T303 557L342
462H282ZM273 610Q273 621 270 625T256 630H237V584H256Q268 584 270 591T273 610Z" />
<glyph unicode="&#xaf;" glyph-name="macron" horiz-adv-x="500" d="M87 566V667H412V566H87Z" />
<glyph unicode="&#xb0;" glyph-name="degree" horiz-adv-x="370" d="M350 592Q350 517 304 476T185 434Q149 434 119 445T67 476T33 526T20 592Q20 629 32 658T66 708T118 739T185 750Q221 750 251 739T303 708T337 659T350 592ZM251 592Q251 623 234 641T185
659Q153 659 136 641T119 592Q119 561 136 543T185 525Q217 525 234 543T251 592Z" />
<glyph unicode="&#xb1;" glyph-name="plusminus" horiz-adv-x="500" d="M316 278V168H186V278H33V398H186V515H316V398H467V278H316ZM33 15V135H467V15H33Z" />
<glyph unicode="&#xb2;" glyph-name="twosuperior" horiz-adv-x="419" d="M397 551Q397 514 385 489T353 445T312 415T271 394T237 377T220 357H388V267H22V323Q22 352 37 375T74 419T123 455T172 488T210 520T225 556Q225 568 220 572T203 576Q192 576 184 574Q180
573 178 573V538H29V657Q51 660 77 663Q100 665 129 667T194 670Q238 670 275 668T340 654T382 618T397 551Z" />
<glyph unicode="&#xb3;" glyph-name="threesuperior" horiz-adv-x="413" d="M394 385Q394 346 385 322T353 285T291 268T192 263Q156 263 125 265T70 270Q43 273 19 277V390H183V358Q185 357 189 357H205Q222 357 224 366T227 391V406Q227 422 221 427T197 433H129V510H193Q210
510 216 515T223 538V547Q223 562 221 568T202 575Q197 575 193 575T187 574H183V547H23V657Q47 660 73 663Q96 665 123 667T180 670Q235 670 274 668T339 655T376 624T388 566Q388 534 378 512T333 480Q354 474 366 465T385 443T392 415T394 385Z" />
<glyph unicode="&#xb4;" glyph-name="acute" horiz-adv-x="500" d="M288 566H141L179 677H359L288 566Z" />
<glyph unicode="&#xb5;" glyph-name="mu" horiz-adv-x="500" d="M325 0V47Q319 30 309 18Q300 7 286 -1T251 -10Q227 -10 212 -2T189 18Q179 30 174 47V-153H44V528H174V237Q174 212 175 190T184 150T207 123T252 113Q280 113 295 124T316 152T324 193T325 240V528H455V0H325Z"
/>
<glyph unicode="&#xb6;" glyph-name="paragraph" horiz-adv-x="679" d="M540 567V-177H430V567H357V-177H247V281H237Q198 281 165 295T108 335T70 395T56 471Q56 523 75 560T126 621T200 656T287 667H603V567H540Z" />
<glyph unicode="&#xb7;" glyph-name="periodcentered" horiz-adv-x="263" d="M30 239V430H233V239H30Z" />
<glyph unicode="&#xb8;" glyph-name="cedilla" horiz-adv-x="500" d="M376 -143Q376 -170 364 -188T331 -218T280 -235T214 -240Q205 -240 193 -240T168 -238T144 -234T124 -228V-157Q137 -161 155 -163T188 -165Q195 -165 205 -164T223 -160T238 -150T244 -133Q244
-113 230 -107T196 -100Q191 -100 185 -100T173 -102Q166 -103 160 -103L208 0H280L253 -54Q277 -54 299 -57T338 -70T365 -97T376 -143Z" />
<glyph unicode="&#xb9;" glyph-name="onesuperior" horiz-adv-x="260" d="M69 267V548L20 532V631L104 667H236V267H69Z" />
<glyph unicode="&#xba;" glyph-name="ordmasculine" horiz-adv-x="326" d="M300 441Q300 414 288 398T257 373T213 363T163 360Q136 360 111 362T67 373T37 398T25 441V596Q25 623 36 639T67 664T111 674T163 677Q193 677 218 675T261 664T289 640T300 596V441ZM190
582Q190 596 184 601T163 606Q148 606 141 601T134 582V456Q134 441 141 437T163 432Q175 432 182 436T190 456V582ZM27 211V298H298V211H27Z" />
<glyph unicode="&#xbb;" glyph-name="guillemotright" horiz-adv-x="483" d="M398 46H241L285 264L240 485H396L457 263L398 46ZM184 46H27L71 264L26 485H182L243 263L184 46Z" />
<glyph unicode="&#xbc;" glyph-name="onequarter" horiz-adv-x="899" d="M79 267V548L30 532V631L114 667H246V267H79ZM288 -10H171L473 677H592L288 -10ZM816 80V0H650V80H454V163L567 400H816V170H867V80H816ZM655 310L594 170H655V310Z" />
<glyph unicode="&#xbd;" glyph-name="onehalf" horiz-adv-x="871" d="M79 267V548L30 532V631L114 667H246V267H79ZM268 -10H150L453 677H572L268 -10ZM839 284Q839 247 827 222T796 178T755 148T713 127T679 110T662 90H830V0H464V56Q464 85 479 108T516 152T565
188T614 221T652 253T667 289Q667 301 662 305T645 309Q634 309 626 307Q622 306 620 306V271H471V390Q493 393 519 396Q542 398 571 400T636 403Q680 403 717 401T782 387T824 351T839 284Z" />
<glyph unicode="&#xbe;" glyph-name="threequarters" horiz-adv-x="1052" d="M404 385Q404 346 395 322T363 285T301 268T202 263Q166 263 135 265T80 270Q53 273 29 277V390H193V358Q195 357 199 357H215Q232 357 234 366T237 391V406Q237 422 231 427T207 433H139V510H203Q220
510 226 515T233 538V547Q233 562 231 568T212 575Q207 575 203 575T197 574H193V547H33V657Q57 660 83 663Q106 665 133 667T190 670Q245 670 284 668T349 655T386 624T398 566Q398 534 388 512T343 480Q364 474 376 465T395 443T402 415T404 385ZM421 -10H303L606
677H725L421 -10ZM959 80V0H793V80H597V163L710 400H959V170H1020V80H959ZM798 310L737 170H798V310Z" />
<glyph unicode="&#xbf;" glyph-name="questiondown" horiz-adv-x="492" d="M492 16Q463 7 426 0Q394 -6 350 -10T251 -15Q177 -15 132 -2T62 34T29 88T20 154Q20 186 33 219T72 275L131 328Q157 351 173 368T189 408V441H392V418Q392 375 383 344T340 281L266
213Q253 202 245 191T236 157Q236 152 236 146T240 135T250 127T271 123Q279 123 285 123T296 125Q301 126 305 128V185H492V16ZM189 476V667H392V476H189Z" />
<glyph unicode="&#xc0;" glyph-name="Agrave" horiz-adv-x="664" d="M398 0L377 152H278L256 0H0L126 667H532L664 0H398ZM167 819H387L425 708H238L167 819ZM329 543L292 298H365L329 543Z" />
<glyph unicode="&#xc1;" glyph-name="Aacute" horiz-adv-x="664" d="M398 0L377 152H278L256 0H0L126 667H532L664 0H398ZM414 706H227L265 817H485L414 706ZM329 543L292 298H365L329 543Z" />
<glyph unicode="&#xc2;" glyph-name="Acircumflex" horiz-adv-x="664" d="M398 0L377 152H278L256 0H0L126 667H532L664 0H398ZM365 705L326 760L284 705H148L230 826H425L505 705H365ZM329 543L292 298H365L329 543Z" />
<glyph unicode="&#xc3;" glyph-name="Atilde" horiz-adv-x="664" d="M398 0L377 152H278L256 0H0L126 667H532L664 0H398ZM504 741Q474 724 446 712T380 700Q364 700 350 705T321 715T292 726T262 731Q245 731 223 722T187 702L134 784Q158 804 193 819T260 835Q276
835 290 830T319 820T348 809T378 804Q384 804 395 807T419 814T443 824T460 832L504 741ZM329 543L292 298H365L329 543Z" />
<glyph unicode="&#xc4;" glyph-name="Adieresis" horiz-adv-x="664" d="M398 0L377 152H278L256 0H0L126 667H532L664 0H398ZM156 705V806H302V705H156ZM356 705V806H502V705H356ZM329 543L292 298H365L329 543Z" />
<glyph unicode="&#xc5;" glyph-name="Aring" horiz-adv-x="664" d="M398 0L377 152H278L256 0H0L126 667H532L664 0H398ZM470 776Q470 732 432 712T332 691Q303 691 278 696T234 711T205 738T194 775Q194 818 232 839T332 861Q394 861 432 840T470 776ZM329 543L292
298H365L329 543ZM370 776Q370 792 361 797T332 802Q312 802 303 797T294 776Q294 760 303 755T332 750Q352 750 361 755T370 776Z" />
<glyph unicode="&#xc6;" glyph-name="AE" horiz-adv-x="836" d="M360 0V152H288L266 0H0L130 667H808V528H615V423H797V269H615V152H808V0H360ZM360 528H339L305 298H360V528Z" />
<glyph unicode="&#xc7;" glyph-name="Ccedilla" horiz-adv-x="606" d="M448 -143Q448 -170 436 -188T403 -218T352 -235T286 -240Q277 -240 265 -240T239 -238T215 -234T195 -228V-157Q208 -161 227 -163T260 -165Q267 -165 277 -164T295 -160T310 -150T316 -133Q316
-113 302 -107T268 -100Q262 -100 256 -100T244 -102Q237 -103 231 -103L275 -10Q210 -9 162 -1T81 28T34 87T18 185V499Q18 564 44 600T111 653T205 673T311 677Q382 677 432 673T514 664Q552 659 576 652V443H336V517Q331 517 327 518Q317 520 307 520Q283 520
278 510T273 476V197Q273 167 278 158T311 148Q324 148 329 149Q333 150 336 151V243H576V14Q551 8 517 4Q488 0 445 -4T344 -9L325 -54Q349 -54 371 -57T410 -70T437 -97T448 -143Z" />
<glyph unicode="&#xc8;" glyph-name="Egrave" horiz-adv-x="506" d="M30 0V667H478V528H285V423H467V269H285V152H478V0H30ZM97 819H317L355 708H168L97 819Z" />
<glyph unicode="&#xc9;" glyph-name="Eacute" horiz-adv-x="506" d="M30 0V667H478V528H285V423H467V269H285V152H478V0H30ZM343 706H156L194 817H414L343 706Z" />
<glyph unicode="&#xca;" glyph-name="Ecircumflex" horiz-adv-x="506" d="M30 0V667H478V528H285V423H467V269H285V152H478V0H30ZM289 705L250 760L208 705H72L154 826H349L429 705H289Z" />
<glyph unicode="&#xcb;" glyph-name="Edieresis" horiz-adv-x="506" d="M30 0V667H478V528H285V423H467V269H285V152H478V0H30ZM291 706V807H437V706H291ZM71 706V807H217V706H71Z" />
<glyph unicode="&#xcc;" glyph-name="Igrave" horiz-adv-x="315" d="M30 0V667H285V0H30ZM-3 819H217L255 708H68L-3 819Z" />
<glyph unicode="&#xcd;" glyph-name="Iacute" horiz-adv-x="315" d="M30 0V667H285V0H30ZM244 706H57L95 817H315L244 706Z" />
<glyph unicode="&#xce;" glyph-name="Icircumflex" horiz-adv-x="315" d="M30 0V667H285V0H30ZM197 705L158 760L116 705H-20L62 826H257L337 705H197Z" />
<glyph unicode="&#xcf;" glyph-name="Idieresis" horiz-adv-x="315" d="M30 0V667H285V0H30ZM185 706V807H331V706H185ZM-15 706V807H131V706H-15Z" />
<glyph unicode="&#xd0;" glyph-name="Eth" horiz-adv-x="638" d="M609 185Q609 131 598 95T563 38T499 9T404 0H30V269H-15V423H30V667H398Q450 667 490 660T556 633T595 580T609 494V185ZM354 485Q354 515 346 521T313 528H285V423H308V269H285V152H313Q337 152
345 159T354 192V485Z" />
<glyph unicode="&#xd1;" glyph-name="Ntilde" horiz-adv-x="669" d="M387 0L274 313V0H30V667H286L395 391V667H639V0H387ZM519 735Q489 718 461 706T395 694Q379 694 365 699T336 709T307 720T277 725Q260 725 238 716T202 696L149 778Q173 798 208 813T275 829Q291
829 305 824T334 814T363 803T393 798Q399 798 410 801T434 808T458 818T475 826L519 735Z" />
<glyph unicode="&#xd2;" glyph-name="Ograve" horiz-adv-x="633" d="M606 185Q606 117 589 78T537 20T447 -5T317 -10Q245 -10 191 -6T100 18T45 76T26 183V471Q26 540 41 581T90 643T179 670T317 677Q401 677 456 671T545 643T592 581T606 471V185ZM351 491Q351
499 347 509T318 520Q305 520 298 517T287 510T282 500T281 491V186Q281 166 287 157T317 147Q340 147 345 157T351 186V491ZM157 819H377L415 708H228L157 819Z" />
<glyph unicode="&#xd3;" glyph-name="Oacute" horiz-adv-x="633" d="M606 185Q606 117 589 78T537 20T447 -5T317 -10Q245 -10 191 -6T100 18T45 76T26 183V471Q26 540 41 581T90 643T179 670T317 677Q401 677 456 671T545 643T592 581T606 471V185ZM351 491Q351
499 347 509T318 520Q305 520 298 517T287 510T282 500T281 491V186Q281 166 287 157T317 147Q340 147 345 157T351 186V491ZM404 706H217L255 817H475L404 706Z" />
<glyph unicode="&#xd4;" glyph-name="Ocircumflex" horiz-adv-x="633" d="M606 185Q606 117 589 78T537 20T447 -5T317 -10Q245 -10 191 -6T100 18T45 76T26 183V471Q26 540 41 581T90 643T179 670T317 677Q401 677 456 671T545 643T592 581T606 471V185ZM358
705L319 760L277 705H141L223 826H418L498 705H358ZM351 491Q351 499 347 509T318 520Q305 520 298 517T287 510T282 500T281 491V186Q281 166 287 157T317 147Q340 147 345 157T351 186V491Z" />
<glyph unicode="&#xd5;" glyph-name="Otilde" horiz-adv-x="633" d="M606 185Q606 117 589 78T537 20T447 -5T317 -10Q245 -10 191 -6T100 18T45 76T26 183V471Q26 540 41 581T90 643T179 670T317 677Q401 677 456 671T545 643T592 581T606 471V185ZM497 756Q467
739 439 727T373 715Q357 715 343 720T314 730T285 741T255 746Q238 746 216 737T180 717L127 799Q151 819 186 834T253 850Q269 850 283 845T312 835T341 824T371 819Q377 819 388 822T412 829T436 839T453 847L497 756ZM351 491Q351 499 347 509T318 520Q305
520 298 517T287 510T282 500T281 491V186Q281 166 287 157T317 147Q340 147 345 157T351 186V491Z" />
<glyph unicode="&#xd6;" glyph-name="Odieresis" horiz-adv-x="632" d="M606 185Q606 117 589 78T537 20T447 -5T317 -10Q245 -10 191 -6T100 18T45 76T26 183V471Q26 540 41 581T90 643T179 670T317 677Q401 677 456 671T545 643T592 581T606 471V185ZM351 491Q351
499 347 509T318 520Q305 520 298 517T287 510T282 500T281 491V186Q281 166 287 157T317 147Q340 147 345 157T351 186V491ZM363 706V807H509V706H363ZM123 706V807H269V706H123Z" />
<glyph unicode="&#xd7;" glyph-name="multiply" horiz-adv-x="500" d="M339 268L461 146L370 54L247 176L132 61L47 146L162 261L40 384L132 475L254 353L368 467L453 382L339 268Z" />
<glyph unicode="&#xd8;" glyph-name="Oslash" horiz-adv-x="633" d="M587 740L541 645Q576 624 591 583T606 471V185Q606 117 589 78T537 20T447 -5T317 -10H287L252 -83H54L101 17Q63 37 45 75T26 183V471Q26 540 41 581T90 643T179 670T317 677H356L386 740H587ZM351
491Q351 499 347 509T318 520Q305 520 298 517T287 510T282 500T281 491V186Q281 166 287 157T317 147Q340 147 345 157T351 186V491Z" />
<glyph unicode="&#xd9;" glyph-name="Ugrave" horiz-adv-x="630" d="M602 197Q602 127 583 87T528 26T438 1T315 -5Q252 -5 200 -1T109 23T49 83T28 197V667H283V189Q283 164 290 158T315 152Q334 152 340 158T347 189V667H602V197ZM157 819H377L415 708H228L157 819Z" />
<glyph unicode="&#xda;" glyph-name="Uacute" horiz-adv-x="630" d="M602 197Q602 127 583 87T528 26T438 1T315 -5Q252 -5 200 -1T109 23T49 83T28 197V667H283V189Q283 164 290 158T315 152Q334 152 340 158T347 189V667H602V197ZM394 706H207L245 817H465L394 706Z" />
<glyph unicode="&#xdb;" glyph-name="Ucircumflex" horiz-adv-x="630" d="M602 197Q602 127 583 87T528 26T438 1T315 -5Q252 -5 200 -1T109 23T49 83T28 197V667H283V189Q283 164 290 158T315 152Q334 152 340 158T347 189V667H602V197ZM354 705L315 760L273
705H137L219 826H414L494 705H354Z" />
<glyph unicode="&#xdc;" glyph-name="Udieresis" horiz-adv-x="630" d="M602 192Q602 122 583 82T528 21T438 -4T315 -10Q252 -10 200 -6T109 18T49 78T28 192V667H283V184Q283 159 290 153T315 147Q334 147 340 153T347 184V667H602V192ZM371 706V807H517V706H371ZM111
706V807H257V706H111Z" />
<glyph unicode="&#xdd;" glyph-name="Yacute" horiz-adv-x="640" d="M448 252V0H193V252L0 666H258L317 466L377 666H640L448 252ZM404 706H217L255 817H475L404 706Z" />
<glyph unicode="&#xde;" glyph-name="Thorn" horiz-adv-x="634" d="M619 292Q619 240 607 207T573 156T518 130T446 123H285V0H30V667H285V555H437Q534 555 576 519T619 401V292ZM364 368Q364 398 357 407T319 416H285V262H319Q346 262 355 272T364 306V368Z" />
<glyph unicode="&#xdf;" glyph-name="germandbls" horiz-adv-x="570" d="M554 163Q554 113 544 81T512 30T459 3T384 -5Q367 -5 347 -4T310 -1Q290 1 271 3V103L287 101Q294 100 301 100H313Q329 100 338 106T351 120T357 138T358 155Q358 171 349 188T328 220L284
278Q272 294 267 315T262 359Q262 385 267 403T278 439L293 491Q296 502 300 519T305 548V562Q305 570 302 576T290 586T266 590Q251 590 243 587T231 579T227 565T226 547V0H30V529Q30 573 37 604T69 656T139 685T264 695Q338 695 384 686T457 659T492 616T501
559Q501 539 494 520T481 485L466 444Q461 430 456 416T450 388Q450 374 458 362T477 333L512 281Q528 258 541 231T554 163Z" />
<glyph unicode="&#xe0;" glyph-name="agrave" horiz-adv-x="499" d="M282 0V50Q270 34 252 22Q236 11 213 3T156 -5Q128 -5 103 -2T59 14T29 50T17 115V167Q17 208 27 238T65 288T143 319T275 330V397Q275 410 270 421T245 432Q237 432 231 431T221 429L213 427V377H40V518Q68
524 101 528Q129 532 165 535T240 538Q290 538 332 535T405 519T453 476T471 395V0H282ZM188 576L117 677H297L335 576H188ZM275 244Q254 244 242 239T223 225T214 203T212 175V165Q212 146 215 134T243 122Q249 122 254 122T265 124L275 126V244Z" />
<glyph unicode="&#xe1;" glyph-name="aacute" horiz-adv-x="499" d="M282 0V50Q270 34 252 22Q236 11 213 3T156 -5Q128 -5 103 -2T59 14T29 50T17 115V167Q17 208 27 238T65 288T143 319T275 330V397Q275 410 270 421T245 432Q237 432 231 431T221 429L213 427V377H40V518Q68
524 101 528Q129 532 165 535T240 538Q290 538 332 535T405 519T453 476T471 395V0H282ZM321 576H174L212 677H392L321 576ZM275 244Q254 244 242 239T223 225T214 203T212 175V165Q212 146 215 134T243 122Q249 122 254 122T265 124L275 126V244Z" />
<glyph unicode="&#xe2;" glyph-name="acircumflex" horiz-adv-x="499" d="M282 0V50Q270 34 252 22Q236 11 213 3T156 -5Q128 -5 103 -2T59 14T29 50T17 115V167Q17 208 27 238T65 288T143 319T275 330V397Q275 410 270 421T245 432Q237 432 231 431T221 429L213
427V377H40V518Q68 524 101 528Q129 532 165 535T240 538Q290 538 332 535T405 519T453 476T471 395V0H282ZM284 566L245 621L203 566H67L149 687H344L424 566H284ZM275 244Q254 244 242 239T223 225T214 203T212 175V165Q212 146 215 134T243 122Q249 122 254
122T265 124L275 126V244Z" />
<glyph unicode="&#xe3;" glyph-name="atilde" horiz-adv-x="499" d="M282 0V50Q270 34 252 22Q236 11 213 3T156 -5Q128 -5 103 -2T59 14T29 50T17 115V167Q17 208 27 238T65 288T143 319T275 330V397Q275 410 270 421T245 432Q237 432 231 431T221 429L213 427V377H40V518Q68
524 101 528Q129 532 165 535T240 538Q290 538 332 535T405 519T453 476T471 395V0H282ZM438 614Q408 597 380 585T314 573Q298 573 284 578T255 588T226 599T196 604Q179 604 157 595T121 575L68 657Q92 677 127 692T194 708Q210 708 224 703T253 693T282 682T312
677Q318 677 329 680T353 687T377 697T394 705L438 614ZM275 244Q254 244 242 239T223 225T214 203T212 175V165Q212 146 215 134T243 122Q249 122 254 122T265 124L275 126V244Z" />
<glyph unicode="&#xe4;" glyph-name="adieresis" horiz-adv-x="499" d="M282 0V50Q270 34 252 22Q236 11 213 3T156 -5Q128 -5 103 -2T59 14T29 50T17 115V167Q17 208 27 238T65 288T143 319T275 330V397Q275 410 270 421T245 432Q237 432 231 431T221 429L213
427V377H40V518Q68 524 101 528Q129 532 165 535T240 538Q290 538 332 535T405 519T453 476T471 395V0H282ZM76 586V667H222V586H76ZM276 586V667H421V586H276ZM275 244Q254 244 242 239T223 225T214 203T212 175V165Q212 146 215 134T243 122Q249 122 254 122T265
124L275 126V244Z" />
<glyph unicode="&#xe5;" glyph-name="aring" horiz-adv-x="499" d="M282 0V50Q270 34 252 22Q236 11 213 3T156 -5Q128 -5 103 -2T59 14T29 50T17 115V167Q17 208 27 238T65 288T143 319T275 330V397Q275 410 270 421T245 432Q237 432 231 431T221 429L213 427V377H40V518Q68
524 101 528Q129 532 165 535T240 538Q290 538 332 535T405 519T453 476T471 395V0H282ZM395 654Q395 610 357 590T257 569Q228 569 203 574T159 589T130 616T119 653Q119 696 157 717T257 739Q319 739 357 718T395 654ZM275 244Q254 244 242 239T223 225T214 203T212
175V165Q212 146 215 134T243 122Q249 122 254 122T265 124L275 126V244ZM295 654Q295 670 286 675T257 680Q237 680 228 675T219 654Q219 638 228 633T257 628Q277 628 286 633T295 654Z" />
<glyph unicode="&#xe6;" glyph-name="ae" horiz-adv-x="798" d="M509 232V150Q509 130 513 119T541 107Q547 107 552 107T562 109Q567 110 572 112V180H759V10Q728 4 693 0Q663 -4 623 -7T537 -10Q499 -10 473 -4T429 10Q410 19 397 31Q387 19 363 10Q343 2 307
-4T212 -10Q179 -10 146 -7T85 11T40 52T22 126V167Q22 208 32 238T71 288T150 319T282 330V397Q282 410 277 421T252 432Q244 432 238 431T227 429Q222 428 218 427V377H43V518Q73 524 106 528Q135 532 171 535T247 538Q296 538 325 532T369 517Q387 508 393 497Q405
508 424 517Q441 525 468 531T536 538Q593 538 636 534T708 515T753 471T768 392V232H509ZM282 244Q261 244 248 239T229 225T220 203T218 175V160Q218 141 222 129T250 117Q256 117 261 117T272 119L282 121V244ZM572 379Q572 399 567 409T542 420Q519 420 514
410T509 379V328H572V379Z" />
<glyph unicode="&#xe7;" glyph-name="ccedilla" horiz-adv-x="501" d="M393 -143Q393 -170 381 -188T348 -218T297 -235T231 -240Q222 -240 210 -240T185 -238T160 -234T140 -228V-157Q153 -161 172 -163T205 -165Q212 -165 222 -164T240 -160T255 -150T261 -133Q261
-113 247 -107T213 -100Q208 -100 201 -100T189 -102Q182 -103 176 -103L219 -9Q159 -8 122 0T63 27T34 78T26 162V368Q26 424 36 457T74 509T148 532T269 538Q306 538 341 535T406 528Q439 524 470 518V330H286V407Q282 408 277 409Q272 410 267 410T255 411Q241
411 235 408T225 399T222 389V147Q222 133 227 126T255 118H268Q274 118 278 119L286 121V207H473V10Q449 5 420 1Q395 -3 362 -5T292 -9L270 -54Q294 -54 316 -57T355 -70T382 -97T393 -143Z" />
<glyph unicode="&#xe8;" glyph-name="egrave" horiz-adv-x="506" d="M218 232V150Q218 130 222 119T251 107Q257 107 262 107T272 109Q277 110 282 112V180H469V10Q438 4 403 0Q373 -4 333 -7T247 -10Q191 -10 149 -6T79 14T37 58T22 139V383Q22 436 34 467T74
513T143 533T246 538Q303 538 346 534T418 515T463 471T478 392V232H218ZM201 576L129 677H310L348 576H201ZM282 379Q282 399 277 409T252 420Q228 420 223 410T218 379V328H282V379Z" />
<glyph unicode="&#xe9;" glyph-name="eacute" horiz-adv-x="506" d="M218 232V150Q218 130 222 119T251 107Q257 107 262 107T272 109Q277 110 282 112V180H469V10Q438 4 403 0Q373 -4 333 -7T247 -10Q191 -10 149 -6T79 14T37 58T22 139V383Q22 436 34 467T74
513T143 533T246 538Q303 538 346 534T418 515T463 471T478 392V232H218ZM314 576H166L204 677H385L314 576ZM282 379Q282 399 277 409T252 420Q228 420 223 410T218 379V328H282V379Z" />
<glyph unicode="&#xea;" glyph-name="ecircumflex" horiz-adv-x="506" d="M218 232V150Q218 130 222 119T251 107Q257 107 262 107T272 109Q277 110 282 112V180H469V10Q438 4 403 0Q373 -4 333 -7T247 -10Q191 -10 149 -6T79 14T37 58T22 139V383Q22 436 34 467T74
513T143 533T246 538Q303 538 346 534T418 515T463 471T478 392V232H218ZM292 566L253 621L211 566H76L158 687H353L433 566H292ZM282 379Q282 399 277 409T252 420Q228 420 223 410T218 379V328H282V379Z" />
<glyph unicode="&#xeb;" glyph-name="edieresis" horiz-adv-x="506" d="M219 232V150Q219 130 223 119T251 107Q257 107 262 107T272 109Q277 110 282 112V180H469V10Q438 4 403 0Q373 -4 333 -7T247 -10Q191 -10 149 -6T79 14T37 58T22 139V383Q22 436 34 467T74
513T143 533T246 538Q303 538 346 534T418 515T463 471T478 392V232H219ZM76 586V667H222V586H76ZM276 586V667H422V586H276ZM282 379Q282 399 277 409T252 420Q229 420 224 410T219 379V328H282V379Z" />
<glyph unicode="&#xec;" glyph-name="igrave" horiz-adv-x="256" d="M30 0V528H226V0H30ZM60 576L-11 677H169L207 576H60Z" />
<glyph unicode="&#xed;" glyph-name="iacute" horiz-adv-x="256" d="M30 0V528H226V0H30ZM199 576H52L90 677H270L199 576Z" />
<glyph unicode="&#xee;" glyph-name="icircumflex" horiz-adv-x="256" d="M30 0V528H226V0H30ZM156 566L127 631L95 566H-31L31 687H226L286 566H156Z" />
<glyph unicode="&#xef;" glyph-name="idieresis" horiz-adv-x="256" d="M30 0V528H226V0H30ZM155 586V667H271V586H155ZM-15 586V667H101V586H-15Z" />
<glyph unicode="&#xf0;" glyph-name="eth" horiz-adv-x="508" d="M482 125Q482 76 464 49T414 9T342 -7T255 -10Q207 -10 165 -7T93 9T44 49T26 125V332Q26 381 42 408T85 448T141 465T201 468Q224 468 245 463T286 450Q284 479 277 504T252 548L157 500L130 554L187
583Q150 593 86 593V696Q161 696 220 685T326 652L417 698L444 644L386 615Q435 577 458 523T482 403V125ZM286 315Q286 326 280 333T255 341Q241 341 235 337T225 327T222 313V150Q222 136 227 127T255 117Q277 117 281 127T286 150V315Z" />
<glyph unicode="&#xf1;" glyph-name="ntilde" horiz-adv-x="502" d="M277 0V376Q277 390 275 398T254 406Q250 406 246 406T236 404L226 402V0H30V528H214V486Q215 488 220 494Q226 502 240 510T276 526T334 533Q473 533 473 391V0H277ZM425 609Q395 592 367 580T301
568Q285 568 271 573T242 583T213 594T183 599Q166 599 144 590T108 570L55 652Q79 672 114 687T181 703Q197 703 211 698T240 688T269 677T299 672Q305 672 316 675T340 682T364 692T381 700L425 609Z" />
<glyph unicode="&#xf2;" glyph-name="ograve" horiz-adv-x="500" d="M478 125Q478 76 460 49T410 9T338 -7T251 -10Q203 -10 161 -7T89 9T40 49T22 125V402Q22 451 39 478T87 518T160 535T251 538Q299 538 340 535T412 519T460 478T478 402V125ZM282 372Q282 388
279 399T251 411Q237 411 231 407T221 397T218 383V150Q218 136 223 127T251 117Q273 117 277 127T282 150V372ZM184 576L113 677H293L331 576H184Z" />
<glyph unicode="&#xf3;" glyph-name="oacute" horiz-adv-x="500" d="M478 125Q478 76 460 49T410 9T338 -7T251 -10Q203 -10 161 -7T89 9T40 49T22 125V402Q22 451 39 478T87 518T160 535T251 538Q299 538 340 535T412 519T460 478T478 402V125ZM282 372Q282 388
279 399T251 411Q237 411 231 407T221 397T218 383V150Q218 136 223 127T251 117Q273 117 277 127T282 150V372ZM319 576H172L210 677H390L319 576Z" />
<glyph unicode="&#xf4;" glyph-name="ocircumflex" horiz-adv-x="500" d="M478 125Q478 76 460 49T410 9T338 -7T251 -10Q203 -10 161 -7T89 9T40 49T22 125V402Q22 451 39 478T87 518T160 535T251 538Q299 538 340 535T412 519T460 478T478 402V125ZM293 566L254
621L212 566H76L158 687H353L433 566H293ZM282 372Q282 388 279 399T251 411Q237 411 231 407T221 397T218 383V150Q218 136 223 127T251 117Q273 117 277 127T282 150V372Z" />
<glyph unicode="&#xf5;" glyph-name="otilde" horiz-adv-x="500" d="M478 125Q478 76 460 49T410 9T338 -7T251 -10Q203 -10 161 -7T89 9T40 49T22 125V402Q22 451 39 478T87 518T160 535T251 538Q299 538 340 535T412 519T460 478T478 402V125ZM427 609Q398 592
371 580T309 568Q294 568 280 573T253 583T226 594T197 599Q180 599 159 590T126 570L75 652Q98 672 131 687T195 703Q210 703 224 698T251 688T278 677T307 672Q313 672 324 675T346 682T368 692T385 700L427 609ZM282 372Q282 388 279 399T251 411Q237 411 231
407T221 397T218 383V150Q218 136 223 127T251 117Q273 117 277 127T282 150V372Z" />
<glyph unicode="&#xf6;" glyph-name="odieresis" horiz-adv-x="500" d="M478 125Q478 76 460 49T410 9T338 -7T251 -10Q203 -10 161 -7T89 9T40 49T22 125V402Q22 451 39 478T87 518T160 535T251 538Q299 538 340 535T412 519T460 478T478 402V125ZM282 372Q282
388 279 399T251 411Q237 411 231 407T221 397T218 383V150Q218 136 223 127T251 117Q273 117 277 127T282 150V372ZM278 586V667H424V586H278ZM78 586V667H224V586H78Z" />
<glyph unicode="&#xf7;" glyph-name="divide" horiz-adv-x="500" d="M323 434Q323 403 302 382T249 360Q217 360 196 381T175 434Q175 466 196 487T249 508Q280 508 301 487T323 434ZM33 204V324H466V204H33ZM323 94Q323 63 302 42T249 20Q217 20 196 41T175 94Q175
126 196 147T249 168Q280 168 301 147T323 94Z" />
<glyph unicode="&#xf8;" glyph-name="oslash" horiz-adv-x="508" d="M474 578L438 506Q459 491 470 466T482 402V125Q482 76 464 49T414 9T342 -7T255 -10H218L197 -53H29L65 24Q46 39 36 63T26 125V402Q26 451 43 478T91 518T164 535T255 538H284L303 578H474ZM286
372Q286 388 283 399T255 411Q241 411 235 407T225 397T222 383V150Q222 136 227 127T255 117Q277 117 281 127T286 150V372Z" />
<glyph unicode="&#xf9;" glyph-name="ugrave" horiz-adv-x="502" d="M288 0V41Q287 40 281 33T262 18T225 2T168 -5Q28 -5 28 137V528H224V152Q224 138 226 130T247 122Q252 122 256 122T266 124L276 126V528H472V0H288ZM201 576L129 677H310L348 576H201Z" />
<glyph unicode="&#xfa;" glyph-name="uacute" horiz-adv-x="502" d="M288 0V41Q287 40 281 33T262 18T225 2T168 -5Q28 -5 28 137V528H224V152Q224 138 226 130T247 122Q252 122 256 122T266 124L276 126V528H472V0H288ZM314 576H166L204 677H385L314 576Z" />
<glyph unicode="&#xfb;" glyph-name="ucircumflex" horiz-adv-x="502" d="M288 0V41Q287 40 281 33T262 18T225 2T168 -5Q28 -5 28 137V528H224V152Q224 138 226 130T247 122Q252 122 256 122T266 124L276 126V528H472V0H288ZM291 566L252 621L210 566H74L156
687H351L431 566H291Z" />
<glyph unicode="&#xfc;" glyph-name="udieresis" horiz-adv-x="502" d="M288 0V41Q287 40 281 33T262 18T225 2T168 -5Q28 -5 28 137V528H224V152Q224 138 226 130T247 122Q252 122 256 122T266 124L276 126V528H472V0H288ZM67 586V667H213V586H67ZM287 586V667H433V586H287Z"
/>
<glyph unicode="&#xfd;" glyph-name="yacute" horiz-adv-x="530" d="M338 -151L142 -152L177 0L109 1L0 528H223L257 213L314 528H530L338 -151ZM336 576H189L227 677H407L336 576Z" />
<glyph unicode="&#xfe;" glyph-name="thorn" horiz-adv-x="511" d="M486 131Q486 56 448 26T326 -5Q300 -5 281 0T250 12Q236 19 226 29V-152H30V667H226L227 494Q236 504 260 518T327 533Q389 533 422 514T469 471Q486 444 486 410V131ZM290 384Q290 393 283
399T259 406Q251 406 246 406T236 404L226 402V128Q231 126 236 125Q245 122 261 122Q290 122 290 148V384Z" />
<glyph unicode="&#xff;" glyph-name="ydieresis" horiz-adv-x="530" d="M338 -151L142 -152L177 0L109 1L0 528H223L257 213L314 528H530L338 -151ZM292 576V677H438V576H292ZM92 576V677H238V576H92Z" />
<glyph unicode="&#x100;" glyph-name="Amacron" horiz-adv-x="664" d="M398 0L377 152H278L256 0H0L126 667H532L664 0H398ZM329 543L292 298H365L329 543ZM164 707V808H499V707H164Z" />
<glyph unicode="&#x101;" glyph-name="amacron" horiz-adv-x="501" d="M286 0V50Q274 34 256 22Q240 11 217 3T160 -5Q132 -5 107 -2T63 14T33 50T21 115V167Q21 208 31 238T69 288T147 319T279 330V397Q279 410 274 421T249 432Q241 432 235 431T225 429L217
427V377H44V518Q72 524 105 528Q133 532 169 535T244 538Q294 538 336 535T409 519T457 476T475 395V0H286ZM96 576V677H421V576H96ZM279 244Q258 244 246 239T227 225T218 203T216 175V165Q216 146 219 134T247 122Q253 122 258 122T269 124L279 126V244Z" />
<glyph unicode="&#x102;" glyph-name="Abreve" horiz-adv-x="664" d="M398 0L377 152H278L256 0H0L126 667H532L664 0H398ZM329 543L292 298H365L329 543ZM499 842Q497 807 488 780T458 735T407 707T331 697Q286 697 256 707T206 736T177 782T165 842H277Q282
790 331 790Q360 790 373 801T388 842H499Z" />
<glyph unicode="&#x103;" glyph-name="abreve" horiz-adv-x="501" d="M286 0V50Q274 34 256 22Q240 11 217 3T160 -5Q132 -5 107 -2T63 14T33 50T21 115V167Q21 208 31 238T69 288T147 319T279 330V397Q279 410 274 421T249 432Q241 432 235 431T225 429L217 427V377H44V518Q72
524 105 528Q133 532 169 535T244 538Q294 538 336 535T409 519T457 476T475 395V0H286ZM425 696Q423 661 414 637T384 596T333 573T257 566Q168 566 132 596T91 696H203Q205 677 217 667T257 657Q286 657 299 666T314 696H425ZM279 244Q258 244 246 239T227 225T218
203T216 175V165Q216 146 219 134T247 122Q253 122 258 122T269 124L279 126V244Z" />
<glyph unicode="&#x104;" glyph-name="Aogonek" horiz-adv-x="664" d="M699 -207Q689 -209 672 -210Q643 -213 580 -213Q556 -213 531 -211T486 -199T452 -174T439 -129Q439 -83 464 -52T532 0H398L377 152H278L256 0H0L126 667H532L664 0H663Q651 -5 637 -11T610
-27T589 -48T580 -75Q580 -87 585 -94T599 -106T618 -111T638 -113Q646 -113 656 -113T676 -111Q687 -110 699 -109V-207ZM329 543L292 298H365L329 543Z" />
<glyph unicode="&#x105;" glyph-name="aogonek" horiz-adv-x="501" d="M521 -207Q511 -209 495 -211Q468 -214 413 -214Q389 -214 364 -210T319 -196T285 -167T271 -120Q271 -80 293 -51T354 0H286V50Q274 34 256 22Q240 11 217 3T160 -5Q132 -5 107 -2T63 14T33
50T21 115V167Q21 208 31 238T69 288T147 319T279 330V397Q279 410 274 421T249 432Q241 432 235 431T225 429L217 427V377H44V518Q72 524 105 528Q133 532 169 535T244 538Q294 538 336 535T409 519T457 476T475 395V0Q451 -10 432 -27T412 -75Q412 -99 428 -106T465
-113Q473 -113 483 -113T502 -111Q512 -110 521 -109V-207ZM279 244Q258 244 246 239T227 225T218 203T216 175V165Q216 146 219 134T247 122Q253 122 258 122T269 124L279 126V244Z" />
<glyph unicode="&#x106;" glyph-name="Cacute" horiz-adv-x="606" d="M576 14Q548 7 508 2Q474 -3 424 -6T306 -10Q233 -10 179 -4T89 23T36 82T18 185V499Q18 564 44 600T111 653T205 673T311 677Q382 677 432 673T514 664Q552 659 576 652V443H336V517Q331 517
327 518Q317 520 307 520Q283 520 278 510T273 476V196Q273 166 278 157T311 147Q324 147 329 148Q333 149 336 150V243H576V14ZM401 706H213L251 817H472L401 706Z" />
<glyph unicode="&#x107;" glyph-name="cacute" horiz-adv-x="501" d="M473 10Q444 4 411 0Q382 -4 346 -7T267 -10Q192 -10 145 -4T72 20T36 72T26 162V368Q26 424 36 457T74 509T148 532T269 538Q306 538 341 535T406 528Q439 524 470 518V330H286V407Q282 408
277 409Q272 410 267 410T255 411Q241 411 235 408T225 399T222 389V146Q222 132 227 125T255 117H268Q274 117 278 118L286 120V207H473V10ZM314 576H166L204 677H385L314 576Z" />
<glyph unicode="&#x108;" glyph-name="Ccircumflex" horiz-adv-x="606" d="M576 14Q548 7 508 2Q474 -3 424 -6T306 -10Q233 -10 179 -4T89 23T36 82T18 185V499Q18 564 44 600T111 653T205 673T311 677Q382 677 432 673T514 664Q552 659 576 652V443H336V517Q331
517 327 518Q317 520 307 520Q283 520 278 510T273 476V196Q273 166 278 157T311 147Q324 147 329 148Q333 149 336 150V243H576V14ZM214 826H409L491 705H355L313 760L274 705H134L214 826Z" />
<glyph unicode="&#x109;" glyph-name="ccircumflex" horiz-adv-x="501" d="M473 10Q444 4 411 0Q382 -4 346 -7T267 -10Q192 -10 145 -4T72 20T36 72T26 162V368Q26 424 36 457T74 509T148 532T269 538Q306 538 341 535T406 528Q439 524 470 518V330H286V407Q282
408 277 409Q272 410 267 410T255 411Q241 411 235 408T225 399T222 389V146Q222 132 227 125T255 117H268Q274 117 278 118L286 120V207H473V10ZM298 566L259 621L217 566H81L163 687H358L438 566H298Z" />
<glyph unicode="&#x10a;" glyph-name="Cdotaccent" horiz-adv-x="606" d="M576 14Q548 7 508 2Q474 -3 424 -6T306 -10Q233 -10 179 -4T89 23T36 82T18 185V499Q18 564 44 600T111 653T205 673T311 677Q382 677 432 673T514 664Q552 659 576 652V443H336V517Q331
517 327 518Q317 520 307 520Q283 520 278 510T273 476V196Q273 166 278 157T311 147Q324 147 329 148Q333 149 336 150V243H576V14ZM240 706V807H386V706H240Z" />
<glyph unicode="&#x10b;" glyph-name="cdotaccent" horiz-adv-x="501" d="M473 10Q444 4 411 0Q382 -4 346 -7T267 -10Q192 -10 145 -4T72 20T36 72T26 162V368Q26 424 36 457T74 509T148 532T269 538Q306 538 341 535T406 528Q439 524 470 518V330H286V407Q282
408 277 409Q272 410 267 410T255 411Q241 411 235 408T225 399T222 389V146Q222 132 227 125T255 117H268Q274 117 278 118L286 120V207H473V10ZM152 576V677H348V576H152Z" />
<glyph unicode="&#x10c;" glyph-name="Ccaron" horiz-adv-x="606" d="M576 14Q548 7 508 2Q474 -3 424 -6T306 -10Q233 -10 179 -4T89 23T36 82T18 185V499Q18 564 44 600T111 653T205 673T311 677Q382 677 432 673T514 664Q552 659 576 652V443H336V517Q331 517
327 518Q317 520 307 520Q283 520 278 510T273 476V196Q273 166 278 157T311 147Q324 147 329 148Q333 149 336 150V243H576V14ZM411 705H216L134 826H269L311 771L350 826H491L411 705Z" />
<glyph unicode="&#x10d;" glyph-name="ccaron" horiz-adv-x="501" d="M473 10Q444 4 411 0Q382 -4 346 -7T267 -10Q192 -10 145 -4T72 20T36 72T26 162V368Q26 424 36 457T74 509T148 532T269 538Q306 538 341 535T406 528Q439 524 470 518V330H286V407Q282 408
277 409Q272 410 267 410T255 411Q241 411 235 408T225 399T222 389V146Q222 132 227 125T255 117H268Q274 117 278 118L286 120V207H473V10ZM363 566H168L88 687H227L266 632L308 687H445L363 566Z" />
<glyph unicode="&#x10e;" glyph-name="Dcaron" horiz-adv-x="638" d="M609 185Q609 131 598 95T563 38T499 9T404 0H30V667H398Q450 667 490 660T556 633T595 580T609 494V185ZM394 705H199L117 826H253L295 771L334 826H474L394 705ZM354 485Q354 515 346 521T313
528H285V152H313Q337 152 345 159T354 192V485Z" />
<glyph unicode="&#x10f;" glyph-name="dcaron" horiz-adv-x="511" d="M290 0V41Q289 40 283 33T264 18T232 2T185 -5Q122 -5 90 14T43 56Q26 83 26 118V397Q26 472 64 502T185 533Q211 533 229 528T260 516Q274 508 284 499V667H480V0H290ZM284 400Q279 401 274
403Q269 404 263 405T251 406Q222 406 222 380V144Q222 135 229 129T253 122Q258 122 263 122T274 124L284 126V400ZM629 566H522L531 687H661L629 566Z" />
<glyph unicode="&#x110;" glyph-name="Dcroat" horiz-adv-x="638" d="M609 185Q609 131 598 95T563 38T499 9T404 0H30V269H-15V423H30V667H398Q450 667 490 660T556 633T595 580T609 494V185ZM354 485Q354 515 346 521T313 528H285V423H308V269H285V152H313Q337
152 345 159T354 192V485Z" />
<glyph unicode="&#x111;" glyph-name="dcroat" horiz-adv-x="511" d="M290 0V41Q289 40 283 33T264 18T232 2T185 -5Q122 -5 90 14T43 56Q26 83 26 118V357Q26 432 64 462T185 493Q211 493 229 488T260 476Q274 468 284 459V552H151V617H284V667H480V617H511V552H480V0H290ZM284
360Q279 361 274 363Q269 364 263 365T251 366Q222 366 222 340V144Q222 135 229 129T253 122Q258 122 263 122T274 124L284 126V360Z" />
<glyph unicode="&#x112;" glyph-name="Emacron" horiz-adv-x="502" d="M30 0V667H478V528H285V423H467V269H285V152H478V0H30ZM83 707V808H418V707H83Z" />
<glyph unicode="&#x113;" glyph-name="emacron" horiz-adv-x="512" d="M222 232V150Q222 130 226 119T255 107Q261 107 266 107T276 109Q281 110 286 112V180H473V10Q442 4 407 0Q377 -4 337 -7T251 -10Q195 -10 153 -6T83 14T41 58T26 139V383Q26 436 38 467T78
513T147 533T250 538Q307 538 350 534T422 515T467 471T482 392V232H222ZM286 379Q286 399 281 409T256 420Q232 420 227 410T222 379V328H286V379ZM93 576V677H418V576H93Z" />
<glyph unicode="&#x114;" glyph-name="Ebreve" horiz-adv-x="502" d="M30 0V667H478V528H285V423H467V269H285V152H478V0H30ZM418 832Q416 797 407 770T377 725T326 697T250 687Q205 687 175 697T125 726T96 772T84 832H196Q201 780 250 780Q279 780 292 791T307
832H418Z" />
<glyph unicode="&#x115;" glyph-name="ebreve" horiz-adv-x="512" d="M222 232V150Q222 130 226 119T255 107Q261 107 266 107T276 109Q281 110 286 112V180H473V10Q442 4 407 0Q377 -4 337 -7T251 -10Q195 -10 153 -6T83 14T41 58T26 139V383Q26 436 38 467T78
513T147 533T250 538Q307 538 350 534T422 515T467 471T482 392V232H222ZM286 379Q286 399 281 409T256 420Q232 420 227 410T222 379V328H286V379ZM423 706Q421 671 412 647T382 606T331 583T255 576Q166 576 130 606T89 706H201Q203 687 215 677T255 667Q284
667 297 676T312 706H423Z" />
<glyph unicode="&#x116;" glyph-name="Edotaccent" horiz-adv-x="502" d="M30 0V667H478V528H285V423H467V269H285V152H478V0H30ZM178 706V807H324V706H178Z" />
<glyph unicode="&#x117;" glyph-name="edotaccent" horiz-adv-x="512" d="M222 232V150Q222 130 226 119T255 107Q261 107 266 107T276 109Q281 110 286 112V180H473V10Q442 4 407 0Q377 -4 337 -7T251 -10Q195 -10 153 -6T83 14T41 58T26 139V383Q26 436 38 467T78
513T147 533T250 538Q307 538 350 534T422 515T467 471T482 392V232H222ZM151 586V667H347V586H151ZM286 379Q286 399 281 409T256 420Q232 420 227 410T222 379V328H286V379Z" />
<glyph unicode="&#x118;" glyph-name="Eogonek" horiz-adv-x="502" d="M514 -207Q504 -209 487 -210Q458 -213 395 -213Q371 -213 346 -211T301 -199T267 -174T254 -129Q254 -83 279 -52T347 0H30V667H478V528H285V423H467V269H285V152H478V0Q466 -5 452 -11T425
-27T404 -48T395 -75Q395 -87 400 -94T414 -106T433 -111T453 -113Q461 -113 471 -113T491 -111Q502 -110 514 -109V-207Z" />
<glyph unicode="&#x119;" glyph-name="eogonek" horiz-adv-x="512" d="M452 -207Q442 -209 426 -211Q399 -214 344 -214Q320 -214 295 -210T250 -196T216 -167T202 -120Q202 -85 219 -58T268 -10H251Q195 -10 154 -6T84 14T42 58T27 139V383Q27 436 39 467T79
513T148 533T251 538Q307 538 350 534T422 515T467 471T482 392V232H223V150Q223 130 227 119T255 107Q261 107 266 107T276 109Q281 110 286 112V180H473V10Q465 9 454 7Q434 4 405 -4Q379 -10 361 -27T343 -75Q343 -99 359 -106T396 -113Q404 -113 414 -113T433
-111Q443 -110 452 -109V-207ZM286 379Q286 399 281 409T256 420Q233 420 228 410T223 379V328H286V379Z" />
<glyph unicode="&#x11a;" glyph-name="Ecaron" horiz-adv-x="502" d="M30 0V667H478V528H285V423H467V269H285V152H478V0H30ZM344 705H149L67 826H203L245 771L284 826H424L344 705Z" />
<glyph unicode="&#x11b;" glyph-name="ecaron" horiz-adv-x="512" d="M222 232V150Q222 130 226 119T255 107Q261 107 266 107T276 109Q281 110 286 112V180H473V10Q442 4 407 0Q377 -4 337 -7T251 -10Q195 -10 153 -6T83 14T41 58T26 139V383Q26 436 38 467T78
513T147 533T250 538Q307 538 350 534T422 515T467 471T482 392V232H222ZM351 566H156L76 687H215L254 632L296 687H433L351 566ZM286 379Q286 399 281 409T256 420Q232 420 227 410T222 379V328H286V379Z" />
<glyph unicode="&#x11c;" glyph-name="Gcircumflex" horiz-adv-x="616" d="M378 0L368 34Q353 21 336 14T302 2T270 -3T243 -5Q177 -5 135 10T70 51T37 110T28 182V487Q28 552 48 589T106 646T200 671T327 677Q392 677 440 673T521 664Q559 659 586 652V453H346V517Q342
517 337 518Q332 519 326 519T312 520Q291 520 287 507T283 478V184Q283 176 285 169T294 157T315 152H326Q332 152 337 153Q342 154 346 155V242H321V366H586V0H378ZM226 826H421L503 705H367L325 760L286 705H146L226 826Z" />
<glyph unicode="&#x11d;" glyph-name="gcircumflex" horiz-adv-x="514" d="M484 -4Q484 -58 471 -89T428 -136T354 -156T246 -160Q204 -160 167 -158T102 -151Q69 -147 43 -142V-3H216V-43Q220 -44 225 -45Q229 -46 234 -46H246Q273 -46 280 -34T288 -2V71Q266
53 238 47T180 41Q107 41 68 73T28 172V371Q28 407 34 436T55 487T98 521T167 533Q199 533 223 526T264 510Q282 500 296 488V528H484V-4ZM308 566L269 621L227 566H91L173 687H368L448 566H308ZM288 402L278 404Q273 405 268 405T255 406Q237 406 231 397T224
374V187Q224 173 230 163T255 152Q263 152 268 152T279 154Q284 155 288 156V402Z" />
<glyph unicode="&#x11e;" glyph-name="Gbreve" horiz-adv-x="616" d="M378 0L368 34Q353 21 336 14T302 2T270 -3T243 -5Q177 -5 135 10T70 51T37 110T28 182V487Q28 552 48 589T106 646T200 671T327 677Q392 677 440 673T521 664Q559 659 586 652V453H346V517Q342
517 337 518Q332 519 326 519T312 520Q291 520 287 507T283 478V184Q283 176 285 169T294 157T315 152H326Q332 152 337 153Q342 154 346 155V242H321V366H586V0H378ZM492 842Q490 807 481 780T451 735T400 707T324 697Q279 697 249 707T199 736T170 782T158 842H270Q275
790 324 790Q353 790 366 801T381 842H492Z" />
<glyph unicode="&#x11f;" glyph-name="gbreve" horiz-adv-x="514" d="M484 -4Q484 -58 471 -89T428 -136T354 -156T246 -160Q204 -160 167 -158T102 -151Q69 -147 43 -142V-3H216V-43Q220 -44 225 -45Q229 -46 234 -46H246Q273 -46 280 -34T288 -2V71Q266 53 238
47T180 41Q107 41 68 73T28 172V371Q28 407 34 436T55 487T98 521T167 533Q199 533 223 526T264 510Q282 500 296 488V528H484V-4ZM436 686Q434 651 425 627T395 586T344 563T268 556Q179 556 143 586T102 686H214Q216 667 228 657T268 647Q297 647 310 656T325
686H436ZM288 402L278 404Q273 405 268 405T255 406Q237 406 231 397T224 374V187Q224 173 230 163T255 152Q263 152 268 152T279 154Q284 155 288 156V402Z" />
<glyph unicode="&#x120;" glyph-name="Gdotaccent" horiz-adv-x="616" d="M378 0L368 34Q353 21 336 14T302 2T270 -3T243 -5Q177 -5 135 10T70 51T37 110T28 182V487Q28 552 48 589T106 646T200 671T327 677Q392 677 440 673T521 664Q559 659 586 652V453H346V517Q342
517 337 518Q332 519 326 519T312 520Q291 520 287 507T283 478V184Q283 176 285 169T294 157T315 152H326Q332 152 337 153Q342 154 346 155V242H321V366H586V0H378ZM249 706V807H395V706H249Z" />
<glyph unicode="&#x121;" glyph-name="gdotaccent" horiz-adv-x="514" d="M484 -4Q484 -58 471 -89T428 -136T354 -156T246 -160Q204 -160 167 -158T102 -151Q69 -147 43 -142V-3H216V-43Q220 -44 225 -45Q229 -46 234 -46H246Q273 -46 280 -34T288 -2V71Q266
53 238 47T180 41Q107 41 68 73T28 172V371Q28 407 34 436T55 487T98 521T167 533Q199 533 223 526T264 510Q282 500 296 488V528H484V-4ZM171 566V667H367V566H171ZM288 402L278 404Q273 405 268 405T255 406Q237 406 231 397T224 374V187Q224 173 230 163T255
152Q263 152 268 152T279 154Q284 155 288 156V402Z" />
<glyph unicode="&#x122;" glyph-name="Gcommaaccent" horiz-adv-x="616" d="M378 0L368 34Q353 21 336 14T302 2T270 -3T243 -5Q177 -5 135 10T70 51T37 110T28 182V487Q28 552 48 589T106 646T200 671T327 677Q392 677 440 673T521 664Q559 659 586 652V453H346V517Q342
517 337 518Q332 519 326 519T312 520Q291 520 287 507T283 478V184Q283 176 285 169T294 157T315 152H326Q332 152 337 153Q342 154 346 155V242H321V366H586V0H378ZM376 -161H229L237 -40H417L376 -161Z" />
<glyph unicode="&#x123;" glyph-name="gcommaaccent" horiz-adv-x="514" d="M484 -4Q484 -58 471 -89T428 -136T354 -156T246 -160Q204 -160 167 -158T102 -151Q69 -147 43 -142V-3H216V-43Q220 -44 225 -45Q229 -46 234 -46H246Q273 -46 280 -34T288 -2V71Q266
53 238 47T180 41Q107 41 68 73T28 172V371Q28 407 34 436T55 487T98 521T167 533Q199 533 223 526T264 510Q282 500 296 488V528H484V-4ZM222 676H369L361 565H181L222 676ZM288 402L278 404Q273 405 268 405T255 406Q237 406 231 397T224 374V187Q224 173 230
163T255 152Q263 152 268 152T279 154Q284 155 288 156V402Z" />
<glyph unicode="&#x124;" glyph-name="Hcircumflex" horiz-adv-x="633" d="M348 0V269H285V0H30V667H285V423H348V667H603V0H348ZM218 826H413L495 705H359L317 760L278 705H138L218 826Z" />
<glyph unicode="&#x125;" glyph-name="hcircumflex" horiz-adv-x="502" d="M277 0V376Q277 390 275 398T254 406Q247 406 242 405T233 403Q229 402 226 401V0H30V667H226V499Q236 508 251 516Q264 522 283 527T330 533Q404 533 438 499T473 392V0H277ZM169 696L130
751L88 696H-48L34 817H229L309 696H169Z" />
<glyph unicode="&#x126;" glyph-name="Hbar" horiz-adv-x="633" d="M653 510H603V0H348V269H285V0H30V510H-20V594H30V667H285V594H348V667H603V594H653V510ZM348 423V510H285V423H348Z" />
<glyph unicode="&#x127;" glyph-name="hbar" horiz-adv-x="502" d="M226 562V469Q236 478 251 486Q263 492 282 497T329 503Q404 503 438 469T473 362V0H277V346Q277 360 275 368T254 376Q247 376 242 375T233 373Q229 372 226 371V0H30V562H-19V627H30V667H226V627H342V562H226Z"
/>
<glyph unicode="&#x128;" glyph-name="Itilde" horiz-adv-x="315" d="M30 0V667H285V0H30Z" />
<glyph unicode="&#x129;" glyph-name="itilde" horiz-adv-x="256" d="M30 0V528H226V0H30ZM295 604Q268 587 242 577T183 566Q169 566 156 570T130 578T104 587T77 591Q61 591 41 584T9 565L-39 647Q-17 667 14 681T75 695Q89 695 102 691T128 683T154 674T181
670Q187 670 197 672T218 679T240 687T255 695L295 604Z" />
<glyph unicode="&#x12a;" glyph-name="Imacron" horiz-adv-x="315" d="M30 0V667H285V0H30ZM-11 707V808H327V707H-11Z" />
<glyph unicode="&#x12b;" glyph-name="imacron" horiz-adv-x="256" d="M30 0V528H226V0H30ZM-3 586V667H260V586H-3Z" />
<glyph unicode="&#x12c;" glyph-name="Ibreve" horiz-adv-x="315" d="M30 0V667H285V0H30ZM325 832Q323 797 314 770T284 725T233 697T157 687Q112 687 82 697T32 726T3 772T-9 832H103Q108 780 157 780Q186 780 199 791T214 832H325Z" />
<glyph unicode="&#x12d;" glyph-name="ibreve" horiz-adv-x="256" d="M30 0V528H226V0H30ZM285 696Q283 661 275 637T249 596T202 573T127 566Q82 566 53 574T7 598T-19 638T-29 696H83Q85 679 96 668T127 657Q153 657 162 665T174 696H285Z" />
<glyph unicode="&#x12e;" glyph-name="Iogonek" horiz-adv-x="315" d="M305 -207Q295 -209 278 -210Q249 -213 186 -213Q162 -213 137 -210T92 -197T58 -170T45 -124Q45 -78 73 -49T144 0H30V667H285V0Q269 -5 252 -11T220 -27T196 -48T186 -75Q186 -87 191 -94T205
-106T224 -111T244 -113Q252 -113 262 -113T282 -111Q293 -110 305 -109V-207Z" />
<glyph unicode="&#x12f;" glyph-name="iogonek" horiz-adv-x="256" d="M262 -207Q252 -209 236 -211Q209 -214 154 -214Q130 -214 105 -210T60 -196T26 -167T12 -120Q12 -80 39 -47T105 0H30V528H226V0Q214 -5 201 -11T178 -27T160 -48T153 -75Q153 -99 169 -106T206
-113Q214 -113 224 -113T243 -111Q253 -110 262 -109V-207ZM30 586V667H226V586H30Z" />
<glyph unicode="&#x130;" glyph-name="Idotaccent" horiz-adv-x="315" d="M30 0V667H285V0H30ZM85 706V807H231V706H85Z" />
<glyph unicode="&#x131;" glyph-name="dotlessi" horiz-adv-x="256" d="M30 0V528H226V0H30Z" />
<glyph unicode="&#x132;" glyph-name="IJ" horiz-adv-x="683" d="M30 0V667H285V0H30ZM654 182Q654 129 641 92T600 33T531 0T434 -10Q403 -10 369 -7T315 0V128Q320 126 327 125Q333 124 341 124T358 123Q385 123 392 135T399 170V667H654V182Z" />
<glyph unicode="&#x133;" glyph-name="ij" horiz-adv-x="509" d="M30 0V528H226V0H30ZM30 586V667H226V586H30ZM481 -5Q481 -34 476 -61T454 -109T402 -144T309 -157Q288 -157 268 -156T230 -153Q211 -151 193 -149V-47Q197 -49 204 -50Q210 -51 218 -51T240 -52Q257
-52 266 -48T280 -36T284 -20T285 -1V528H481V-5ZM285 586V667H481V586H285Z" />
<glyph unicode="&#x134;" glyph-name="Jcircumflex" horiz-adv-x="368" d="M339 182Q339 129 326 92T285 33T216 0T119 -10Q88 -10 54 -7T0 0V128Q5 126 12 125Q18 124 26 124T43 123Q70 123 77 135T84 170V667H339V182ZM116 826H311L393 705H257L215 760L176
705H36L116 826Z" />
<glyph unicode="&#x135;" glyph-name="jcircumflex" horiz-adv-x="253" d="M225 -5Q225 -34 220 -61T198 -109T146 -144T53 -157Q32 -157 12 -156T-26 -153Q-45 -151 -63 -149V-47Q-59 -49 -52 -50Q-46 -51 -38 -51T-16 -52Q1 -52 10 -48T24 -36T28 -20T29 -1V528H225V-5ZM165
566L126 621L84 566H-52L30 687H225L305 566H165Z" />
<glyph unicode="&#x136;" glyph-name="Kcommaaccent" horiz-adv-x="659" d="M397 0L285 254V0H30V667H285V436L384 667H646L497 355L664 0H397ZM377 -151H230L238 -40H418L377 -151Z" />
<glyph unicode="&#x137;" glyph-name="kcommaaccent" horiz-adv-x="529" d="M318 0L226 193V0H30V667H226V395L304 528H524L374 302L534 0H318ZM316 -161H169L177 -40H357L316 -161Z" />
<glyph unicode="&#x138;" glyph-name="kgreenlandic" horiz-adv-x="529" d="M318 0L226 179V0H30V528H226V381L304 528H524L374 288L534 0H318Z" />
<glyph unicode="&#x139;" glyph-name="Lacute" horiz-adv-x="471" d="M30 0V667H285V152H460V0H30ZM244 706H57L95 817H315L244 706Z" />
<glyph unicode="&#x13a;" glyph-name="lacute" horiz-adv-x="256" d="M30 0V667H226V0H30ZM202 706H55L93 817H273L202 706Z" />
<glyph unicode="&#x13b;" glyph-name="Lcommaaccent" horiz-adv-x="471" d="M30 0V667H285V152H460V0H30ZM284 -161H137L145 -40H325L284 -161Z" />
<glyph unicode="&#x13c;" glyph-name="lcommaaccent" horiz-adv-x="256" d="M30 0V667H226V0H30ZM179 -161H32L40 -40H220L179 -161Z" />
<glyph unicode="&#x13d;" glyph-name="Lcaron" horiz-adv-x="471" d="M30 0V667H285V152H460V0H30ZM442 557H325L334 668H484L442 557Z" />
<glyph unicode="&#x13e;" glyph-name="lcaron" horiz-adv-x="256" d="M30 0V667H226V0H30ZM373 566H266L275 687H405L373 566Z" />
<glyph unicode="&#x13f;" glyph-name="Ldot" horiz-adv-x="471" d="M335 326V461H450V326H335ZM30 0V667H285V152H460V0H30Z" />
<glyph unicode="&#x140;" glyph-name="ldot" horiz-adv-x="371" d="M30 0V667H226V0H30ZM256 206V341H371V206H256Z" />
<glyph unicode="&#x141;" glyph-name="Lslash" horiz-adv-x="471" d="M30 0V217L-17 197V351L30 371V667H285V451L382 492V338L285 297V152H460V0H30Z" />
<glyph unicode="&#x142;" glyph-name="lslash" horiz-adv-x="256" d="M226 295V0H30V231L-8 215V369L30 385V667H226V449L269 467V313L226 295Z" />
<glyph unicode="&#x143;" glyph-name="Nacute" horiz-adv-x="669" d="M387 0L274 313V0H30V667H286L395 391V667H639V0H387ZM414 706H227L265 817H485L414 706Z" />
<glyph unicode="&#x144;" glyph-name="nacute" horiz-adv-x="500" d="M277 0V376Q277 390 275 398T254 406Q250 406 246 406T236 404L226 402V0H30V528H214V486Q215 488 220 494Q226 502 240 510T276 526T334 533Q473 533 473 391V0H277ZM304 566H157L195 677H375L304
566Z" />
<glyph unicode="&#x145;" glyph-name="Ncommaaccent" horiz-adv-x="669" d="M387 0L274 313V0H30V667H286L395 391V667H639V0H387ZM380 -161H233L241 -40H421L380 -161Z" />
<glyph unicode="&#x146;" glyph-name="ncommaaccent" horiz-adv-x="500" d="M277 0V376Q277 390 275 398T254 406Q250 406 246 406T236 404L226 402V0H30V528H214V486Q215 488 220 494Q226 502 240 510T276 526T334 533Q473 533 473 391V0H277ZM296 -161H149L157
-40H337L296 -161Z" />
<glyph unicode="&#x147;" glyph-name="Ncaron" horiz-adv-x="669" d="M387 0L274 313V0H30V667H286L395 391V667H639V0H387ZM427 705H232L150 826H286L328 771L367 826H507L427 705Z" />
<glyph unicode="&#x148;" glyph-name="ncaron" horiz-adv-x="500" d="M277 0V376Q277 390 275 398T254 406Q250 406 246 406T236 404L226 402V0H30V528H214V486Q215 488 220 494Q226 502 240 510T276 526T334 533Q473 533 473 391V0H277ZM342 566H148L68 687H208L247
632L288 687H424L342 566Z" />
<glyph unicode="&#x149;" glyph-name="napostrophe" horiz-adv-x="500" d="M277 0V376Q277 390 275 398T254 406Q250 406 246 406T236 404L226 402V0H30V528H214V486Q215 488 220 494Q226 502 240 510T276 526T334 533Q473 533 473 391V0H277ZM127 565H0L8 666H168L127
565Z" />
<glyph unicode="&#x14a;" glyph-name="Eng" horiz-adv-x="669" d="M639 12Q639 -200 412 -200Q381 -200 347 -197T293 -190V-62Q298 -64 305 -65Q311 -66 319 -66T336 -67Q363 -67 375 -55T387 -20V20L274 313V0H30V667H286L395 391V667H639V12Z" />
<glyph unicode="&#x14b;" glyph-name="eng" horiz-adv-x="500" d="M473 5Q473 -24 468 -52T446 -104T394 -142T302 -157Q281 -157 261 -156T223 -153Q204 -151 186 -149V-47Q190 -49 197 -50Q203 -51 211 -51T233 -52Q250 -52 259 -46T272 -30T276 -10T277 10V376Q277
390 275 398T254 406Q250 406 246 406T236 404L226 402V0H30V528H214V486Q215 488 221 495T241 511T277 526T333 533Q473 533 473 391V5Z" />
<glyph unicode="&#x14c;" glyph-name="Omacron" horiz-adv-x="633" d="M606 185Q606 117 589 78T537 20T447 -5T317 -10Q245 -10 191 -6T100 18T45 76T26 183V471Q26 540 41 581T90 643T179 670T317 677Q401 677 456 671T545 643T592 581T606 471V185ZM351 491Q351
499 347 509T318 520Q305 520 298 517T287 510T282 500T281 491V186Q281 166 287 157T317 147Q340 147 345 157T351 186V491ZM149 707V808H484V707H149Z" />
<glyph unicode="&#x14d;" glyph-name="omacron" horiz-adv-x="508" d="M482 125Q482 76 464 49T414 9T342 -7T255 -10Q207 -10 165 -7T93 9T44 49T26 125V402Q26 451 43 478T91 518T164 535T255 538Q303 538 344 535T416 519T464 478T482 402V125ZM110 586V667H395V586H110ZM286
372Q286 388 283 399T255 411Q241 411 235 407T225 397T222 383V150Q222 136 227 127T255 117Q277 117 281 127T286 150V372Z" />
<glyph unicode="&#x14e;" glyph-name="Obreve" horiz-adv-x="633" d="M606 185Q606 117 589 78T537 20T447 -5T317 -10Q245 -10 191 -6T100 18T45 76T26 183V471Q26 540 41 581T90 643T179 670T317 677Q401 677 456 671T545 643T592 581T606 471V185ZM351 491Q351
499 347 509T318 520Q305 520 298 517T287 510T282 500T281 491V186Q281 166 287 157T317 147Q340 147 345 157T351 186V491ZM483 842Q481 807 472 780T442 735T391 707T315 697Q270 697 240 707T190 736T161 782T149 842H261Q266 790 315 790Q344 790 357 801T372
842H483Z" />
<glyph unicode="&#x14f;" glyph-name="obreve" horiz-adv-x="508" d="M482 125Q482 76 464 49T414 9T342 -7T255 -10Q207 -10 165 -7T93 9T44 49T26 125V402Q26 451 43 478T91 518T164 535T255 538Q303 538 344 535T416 519T464 478T482 402V125ZM426 706Q424
671 415 647T385 606T334 583T258 576Q169 576 133 606T92 706H204Q206 687 218 677T258 667Q287 667 300 676T315 706H426ZM286 372Q286 388 283 399T255 411Q241 411 235 407T225 397T222 383V150Q222 136 227 127T255 117Q277 117 281 127T286 150V372Z" />
<glyph unicode="&#x150;" glyph-name="Ohungarumlaut" horiz-adv-x="633" d="M606 185Q606 117 589 78T537 20T447 -5T317 -10Q245 -10 191 -6T100 18T45 76T26 183V471Q26 540 41 581T90 643T179 670T317 677Q401 677 456 671T545 643T592 581T606 471V185ZM351
491Q351 499 347 509T318 520Q305 520 298 517T287 510T282 500T281 491V186Q281 166 287 157T317 147Q340 147 345 157T351 186V491ZM474 706H337L375 817H545L474 706ZM264 706H127L165 817H335L264 706Z" />
<glyph unicode="&#x151;" glyph-name="ohungarumlaut" horiz-adv-x="508" d="M482 125Q482 76 464 49T414 9T342 -7T255 -10Q207 -10 165 -7T93 9T44 49T26 125V402Q26 451 43 478T91 518T164 535T255 538Q303 538 344 535T416 519T464 478T482 402V125ZM286 372Q286
388 283 399T255 411Q241 411 235 407T225 397T222 383V150Q222 136 227 127T255 117Q277 117 281 127T286 150V372ZM394 576H277L315 677H465L394 576ZM204 576H87L125 677H275L204 576Z" />
<glyph unicode="&#x152;" glyph-name="OE" horiz-adv-x="826" d="M443 0Q418 -3 387 -4T318 -5Q245 -5 191 -1T100 23T45 81T26 188V466Q26 535 41 576T90 638T179 665T318 672Q356 672 386 671T440 667H799V528H606V423H788V269H606V152H799V0H443ZM351 486Q351
494 347 504T318 515Q305 515 298 512T287 505T282 495T281 486V191Q281 171 287 162T317 152Q340 152 345 162T351 191V486Z" />
<glyph unicode="&#x153;" glyph-name="oe" horiz-adv-x="802" d="M513 232V150Q513 130 517 119T545 107Q551 107 556 107T566 109Q571 110 576 112V180H763V10Q732 4 697 0Q667 -4 627 -7T541 -10Q488 -10 453 -2T397 21Q373 7 338 -1T255 -10Q207 -10 165 -7T93
9T44 49T26 125V402Q26 451 43 478T91 518T164 535T255 538Q303 538 338 531T396 509Q416 521 451 529T540 538Q597 538 640 534T712 515T757 471T772 392V232H513ZM286 372Q286 388 283 399T255 411Q241 411 235 407T225 397T222 383V150Q222 136 227 127T255
117Q277 117 281 127T286 150V372ZM576 379Q576 399 571 409T546 420Q523 420 518 410T513 379V328H576V379Z" />
<glyph unicode="&#x154;" glyph-name="Racute" horiz-adv-x="653" d="M376 0L290 283H284V0H30V667H405Q458 667 498 662T566 641T606 593T620 507V460Q620 431 617 406T605 360T580 326T539 307L653 0H376ZM384 706H197L235 817H455L384 706ZM365 505Q365 516
359 522T332 528H285V407H332Q355 407 360 415T365 436V505Z" />
<glyph unicode="&#x155;" glyph-name="racute" horiz-adv-x="373" d="M373 342L355 346Q347 348 338 349T319 350Q288 350 270 341T242 319T229 290T226 261V0H30V528H214V453Q221 481 236 497T271 521T310 531T344 533Q349 533 353 533T363 532Q368 531 373 531V342ZM207
566H60L98 677H278L207 566Z" />
<glyph unicode="&#x156;" glyph-name="Rcommaaccent" horiz-adv-x="653" d="M376 0L290 283H284V0H30V667H405Q458 667 498 662T566 641T606 593T620 507V460Q620 431 617 406T605 360T580 326T539 307L653 0H376ZM366 -161H219L227 -40H407L366 -161ZM365 505Q365
516 359 522T332 528H285V407H332Q355 407 360 415T365 436V505Z" />
<glyph unicode="&#x157;" glyph-name="rcommaaccent" horiz-adv-x="373" d="M373 342L355 346Q347 348 338 349T319 350Q288 350 270 341T242 319T229 290T226 261V0H30V528H214V453Q221 481 236 497T271 521T310 531T344 533Q349 533 353 533T363 532Q368 531
373 531V342ZM179 -161H32L40 -40H220L179 -161Z" />
<glyph unicode="&#x158;" glyph-name="Rcaron" horiz-adv-x="653" d="M376 0L290 283H284V0H30V667H405Q458 667 498 662T566 641T606 593T620 507V460Q620 431 617 406T605 360T580 326T539 307L653 0H376ZM398 705H203L121 826H257L299 771L338 826H478L398
705ZM365 505Q365 516 359 522T332 528H285V407H332Q355 407 360 415T365 436V505Z" />
<glyph unicode="&#x159;" glyph-name="rcaron" horiz-adv-x="373" d="M373 342L355 346Q347 348 338 349T319 350Q288 350 270 341T242 319T229 290T226 261V0H30V528H214V453Q221 481 236 497T271 521T310 531T344 533Q349 533 353 533T363 532Q368 531 373 531V342ZM282
566H87L17 687H157L186 632L218 687H354L282 566Z" />
<glyph unicode="&#x15a;" glyph-name="Sacute" horiz-adv-x="628" d="M608 203Q608 125 586 82T524 19T427 -6T300 -10Q225 -10 173 -7T87 2Q47 7 22 15V208H261V145Q266 144 273 143Q279 142 286 142H305Q322 142 331 147T346 158T352 172T353 183Q353 210 337
225T277 257L167 296Q138 306 112 317T65 347T33 397T20 479Q20 550 44 590T112 649T213 673T337 677Q391 677 436 674T516 665Q556 660 588 653V467H349V523Q342 523 335 524Q329 525 322 525T309 526Q288 526 280 513T271 485Q271 463 282 453T314 435L481 379Q516
367 540 354T579 321T601 273T608 203ZM404 706H217L255 817H475L404 706Z" />
<glyph unicode="&#x15b;" glyph-name="sacute" horiz-adv-x="473" d="M460 153Q460 99 446 67T403 18T331 -5T232 -10Q190 -10 152 -7T85 0Q51 4 20 10V149H202V101Q207 100 213 99Q218 98 224 98H237Q258 98 262 109T266 134Q266 144 263 151T250 166T222 183T173
206Q133 223 105 238T58 273T31 319T22 387Q22 439 39 469T85 514T156 534T245 538Q288 538 326 535T392 528Q425 524 452 518V386H277V432Q274 432 270 433Q266 433 261 433T250 434Q226 434 222 424T218 403Q218 389 224 380T244 363T281 345T340 321Q381 304
405 287T441 249T456 205T460 153ZM304 576H156L194 677H375L304 576Z" />
<glyph unicode="&#x15c;" glyph-name="Scircumflex" horiz-adv-x="628" d="M608 203Q608 125 586 82T524 19T427 -6T300 -10Q225 -10 173 -7T87 2Q47 7 22 15V208H261V145Q266 144 273 143Q279 142 286 142H305Q322 142 331 147T346 158T352 172T353 183Q353 210
337 225T277 257L167 296Q138 306 112 317T65 347T33 397T20 479Q20 550 44 590T112 649T213 673T337 677Q391 677 436 674T516 665Q556 660 588 653V467H349V523Q342 523 335 524Q329 525 322 525T309 526Q288 526 280 513T271 485Q271 463 282 453T314 435L481
379Q516 367 540 354T579 321T601 273T608 203ZM229 826H424L506 705H370L328 760L289 705H149L229 826Z" />
<glyph unicode="&#x15d;" glyph-name="scircumflex" horiz-adv-x="473" d="M460 153Q460 99 446 67T403 18T331 -5T232 -10Q190 -10 152 -7T85 0Q51 4 20 10V149H202V101Q207 100 213 99Q218 98 224 98H237Q258 98 262 109T266 134Q266 144 263 151T250 166T222
183T173 206Q133 223 105 238T58 273T31 319T22 387Q22 439 39 469T85 514T156 534T245 538Q288 538 326 535T392 528Q425 524 452 518V386H277V432Q274 432 270 433Q266 433 261 433T250 434Q226 434 222 424T218 403Q218 389 224 380T244 363T281 345T340 321Q381
304 405 287T441 249T456 205T460 153ZM291 576L252 631L210 576H74L156 697H351L431 576H291Z" />
<glyph unicode="&#x15e;" glyph-name="Scedilla" horiz-adv-x="628" d="M440 -143Q440 -170 428 -188T395 -218T344 -235T278 -240Q269 -240 257 -240T232 -238T208 -234T188 -228V-157Q201 -161 219 -163T252 -165Q259 -165 269 -164T287 -160T302 -150T308 -133Q308
-113 294 -107T260 -100Q255 -100 249 -100T237 -102Q230 -103 224 -103L267 -10Q201 -9 155 -5T79 4Q44 9 22 15V207H261V144Q266 143 273 142Q279 141 286 141H305Q322 141 331 146T346 157T352 171T353 182Q353 209 337 224T277 256L167 295Q138 305 112 316T65
346T33 397T20 479Q20 550 44 590T112 649T213 673T337 677Q391 677 436 674T516 665Q556 660 588 653V467H349V523Q342 523 335 524Q329 525 322 525T309 526Q288 526 280 513T271 485Q271 463 282 453T314 435L481 379Q516 367 540 354T579 321T601 273T608 203Q608
131 589 89T535 25T450 -3T339 -10L317 -54Q341 -54 363 -57T402 -70T429 -97T440 -143Z" />
<glyph unicode="&#x15f;" glyph-name="scedilla" horiz-adv-x="473" d="M365 -143Q365 -170 353 -188T320 -218T269 -235T203 -240Q194 -240 182 -240T157 -238T133 -234T113 -228V-157Q126 -161 144 -163T177 -165Q184 -165 194 -164T212 -160T227 -150T233 -133Q233
-113 219 -107T185 -100Q180 -100 174 -100T162 -102Q155 -103 149 -103L192 -9Q157 -7 126 -4T71 2Q44 6 20 10V149H202V101Q207 100 213 99Q218 98 224 98H237Q258 98 262 109T266 134Q266 144 263 151T250 166T222 183T173 206Q133 223 105 238T58 273T31 319T22
387Q22 439 39 469T85 514T156 534T245 538Q288 538 326 535T392 528Q425 524 452 518V386H277V432Q274 432 270 433Q266 433 261 433T250 434Q227 434 223 424T219 403Q219 389 225 380T245 363T282 345T340 321Q381 304 405 287T441 249T456 205T460 153Q460
103 448 72T411 23T349 -2T264 -10L242 -54Q266 -54 288 -57T327 -70T354 -97T365 -143Z" />
<glyph unicode="&#x160;" glyph-name="Scaron" horiz-adv-x="628" d="M608 203Q608 125 586 82T524 19T427 -6T300 -10Q225 -10 173 -7T87 2Q47 7 22 15V208H261V145Q266 144 273 143Q279 142 286 142H305Q322 142 331 147T346 158T352 172T353 183Q353 210 337
225T277 257L167 296Q138 306 112 317T65 347T33 397T20 479Q20 550 44 590T112 649T213 673T337 677Q391 677 436 674T516 665Q556 660 588 653V467H349V523Q342 523 335 524Q329 525 322 525T309 526Q288 526 280 513T271 485Q271 463 282 453T314 435L481 379Q516
367 540 354T579 321T601 273T608 203ZM434 705H239L157 826H293L335 771L374 826H514L434 705Z" />
<glyph unicode="&#x161;" glyph-name="scaron" horiz-adv-x="463" d="M450 153Q450 99 436 67T393 18T321 -5T222 -10Q180 -10 142 -7T75 2Q41 7 10 15V149H192V101Q197 100 203 99Q208 98 214 98H227Q248 98 252 109T256 134Q256 144 253 151T240 166T212 183T163
206Q123 223 95 238T48 273T21 319T12 387Q12 439 29 469T75 514T146 534T235 538Q278 538 316 535T382 528Q415 524 442 518V386H267V432Q264 432 260 433Q256 433 251 433T240 434Q216 434 212 424T208 403Q208 389 214 380T234 363T271 345T330 321Q371 304
395 287T431 249T446 205T450 153ZM333 566H138L58 687H198L237 632L279 687H415L333 566Z" />
<glyph unicode="&#x162;" glyph-name="Tcedilla" horiz-adv-x="566" d="M409 -143Q409 -170 397 -188T364 -218T313 -235T247 -240Q238 -240 226 -240T201 -238T177 -234T157 -228V-157Q170 -161 188 -163T221 -165Q228 -165 238 -164T256 -160T271 -150T277 -133Q277
-113 263 -107T229 -100Q224 -100 218 -100T206 -102Q199 -103 193 -103L241 0H154V515H15V667H551V515H411V0H313L286 -54Q310 -54 332 -57T371 -70T398 -97T409 -143Z" />
<glyph unicode="&#x163;" glyph-name="tcedilla" horiz-adv-x="318" d="M301 -143Q301 -170 289 -188T256 -218T205 -235T139 -240Q130 -240 118 -240T93 -238T69 -234T49 -228V-157Q62 -161 80 -163T113 -165Q120 -165 130 -164T148 -160T163 -150T169 -133Q169
-113 155 -107T121 -100Q116 -100 110 -100T98 -102Q91 -103 85 -103L131 6Q104 15 88 30T63 64T53 101T50 138V406H10V528H55V626L246 672V528H308V406H246V152Q246 144 246 135T249 118T258 105T277 99H292Q299 99 304 100Q309 101 313 102V2Q304 0 290 -2Q278
-4 260 -5T215 -6Q210 -6 207 -6T198 -5L178 -54Q202 -54 224 -57T263 -70T290 -97T301 -143Z" />
<glyph unicode="&#x164;" glyph-name="Tcaron" horiz-adv-x="566" d="M411 515V0H154V515H15V667H551V515H411ZM382 705H187L105 826H241L283 771L322 826H462L382 705Z" />
<glyph unicode="&#x165;" glyph-name="tcaron" horiz-adv-x="318" d="M313 2Q304 0 290 -2Q278 -4 260 -5T215 -6Q158 -6 126 8T76 43T55 89T50 138V406H10V528H55V626L246 672V528H308V406H246V152Q246 144 246 135T249 118T258 105T277 99H292Q299 99 304 100Q309
101 313 102V2ZM396 570H289L298 691H428L396 570Z" />
<glyph unicode="&#x166;" glyph-name="Tbar" horiz-adv-x="566" d="M411 515V351H498V250H411V0H154V250H62V351H154V515H15V667H551V515H411Z" />
<glyph unicode="&#x167;" glyph-name="tbar" horiz-adv-x="318" d="M246 236V152Q246 144 246 135T249 118T258 105T277 99H292Q299 99 304 100Q309 101 313 102V2Q304 0 290 -2Q278 -4 260 -5T215 -6Q158 -6 126 8T76 43T55 89T50 138V236H8V337H50V406H10V528H55V626L246
672V528H308V406H246V337H291V236H246Z" />
<glyph unicode="&#x168;" glyph-name="Utilde" horiz-adv-x="630" d="M602 192Q602 122 583 82T528 21T438 -4T315 -10Q252 -10 200 -6T109 18T49 78T28 192V667H283V184Q283 159 290 153T315 147Q334 147 340 153T347 184V667H602V192ZM500 735Q470 718 442 706T376
694Q360 694 346 699T317 709T288 720T258 725Q241 725 219 716T183 696L130 778Q154 798 189 813T256 829Q272 829 286 824T315 814T344 803T374 798Q380 798 391 801T415 808T439 818T456 826L500 735Z" />
<glyph unicode="&#x169;" glyph-name="utilde" horiz-adv-x="500" d="M286 0V41Q285 40 279 33T260 18T223 2T166 -5Q26 -5 26 137V528H222V152Q222 138 224 130T245 122Q250 122 254 122T264 124L274 126V528H470V0H286ZM435 604Q405 587 377 575T311 563Q295
563 281 568T252 578T223 589T193 594Q176 594 154 585T118 565L65 647Q89 667 124 682T191 698Q207 698 221 693T250 683T279 672T309 667Q315 667 326 670T350 677T374 687T391 695L435 604Z" />
<glyph unicode="&#x16a;" glyph-name="Umacron" horiz-adv-x="630" d="M602 192Q602 122 583 82T528 21T438 -4T315 -10Q252 -10 200 -6T109 18T49 78T28 192V667H283V184Q283 159 290 153T315 147Q334 147 340 153T347 184V667H602V192ZM131 707V808H496V707H131Z" />
<glyph unicode="&#x16b;" glyph-name="umacron" horiz-adv-x="500" d="M286 0V41Q285 40 279 33T260 18T223 2T166 -5Q26 -5 26 137V528H222V152Q222 138 224 130T245 122Q250 122 254 122T264 124L274 126V528H470V0H286ZM108 586V667H393V586H108Z" />
<glyph unicode="&#x16c;" glyph-name="Ubreve" horiz-adv-x="630" d="M602 192Q602 122 583 82T528 21T438 -4T315 -10Q252 -10 200 -6T109 18T49 78T28 192V667H283V184Q283 159 290 153T315 147Q334 147 340 153T347 184V667H602V192ZM482 832Q480 797 471 770T441
725T390 697T314 687Q269 687 239 697T189 726T160 772T148 832H260Q265 780 314 780Q343 780 356 791T371 832H482Z" />
<glyph unicode="&#x16d;" glyph-name="ubreve" horiz-adv-x="500" d="M286 0V41Q285 40 279 33T260 18T223 2T166 -5Q26 -5 26 137V528H222V152Q222 138 224 130T245 122Q250 122 254 122T264 124L274 126V528H470V0H286ZM417 696Q415 661 406 637T376 596T325
573T249 566Q160 566 124 596T83 696H195Q197 677 209 667T249 657Q278 657 291 666T306 696H417Z" />
<glyph unicode="&#x16e;" glyph-name="Uring" horiz-adv-x="630" d="M602 192Q602 122 583 82T528 21T438 -4T315 -10Q252 -10 200 -6T109 18T49 78T28 192V667H283V184Q283 159 290 153T315 147Q334 147 340 153T347 184V667H602V192ZM451 776Q451 732 413 712T313
691Q284 691 259 696T215 711T186 738T175 775Q175 818 213 839T313 861Q375 861 413 840T451 776ZM351 776Q351 792 342 797T313 802Q293 802 284 797T275 776Q275 760 284 755T313 750Q333 750 342 755T351 776Z" />
<glyph unicode="&#x16f;" glyph-name="uring" horiz-adv-x="500" d="M286 0V41Q285 40 279 33T260 18T223 2T166 -5Q26 -5 26 137V528H222V152Q222 138 224 130T245 122Q250 122 254 122T264 124L274 126V528H470V0H286ZM386 654Q386 610 348 590T248 569Q219
569 194 574T150 589T121 616T110 653Q110 696 148 717T248 739Q310 739 348 718T386 654ZM286 654Q286 670 277 675T248 680Q228 680 219 675T210 654Q210 638 219 633T248 628Q268 628 277 633T286 654Z" />
<glyph unicode="&#x170;" glyph-name="Uhungarumlaut" horiz-adv-x="630" d="M602 192Q602 122 583 82T528 21T438 -4T315 -10Q252 -10 200 -6T109 18T49 78T28 192V667H283V184Q283 159 290 153T315 147Q334 147 340 153T347 184V667H602V192ZM264 706H127L165
817H335L264 706ZM474 706H337L375 817H545L474 706Z" />
<glyph unicode="&#x171;" glyph-name="uhungarumlaut" horiz-adv-x="500" d="M286 0V41Q285 40 279 33T260 18T223 2T166 -5Q26 -5 26 137V528H222V152Q222 138 224 130T245 122Q250 122 254 122T264 124L274 126V528H470V0H286ZM384 576H267L305 677H455L384
576ZM194 576H77L115 677H265L194 576Z" />
<glyph unicode="&#x172;" glyph-name="Uogonek" horiz-adv-x="630" d="M450 -207Q440 -209 423 -210Q394 -213 331 -213Q307 -213 282 -211T237 -199T203 -174T190 -129Q190 -84 213 -57T276 -10Q221 -9 176 -3T97 25T46 85T28 192V667H283V184Q283 159 290 153T315
147Q334 147 340 153T347 184V667H602V192Q602 135 589 98T552 38T493 4T413 -13Q378 -17 355 -29T331 -75Q331 -87 336 -94T350 -106T369 -111T389 -113Q397 -113 407 -113T427 -111Q438 -110 450 -109V-207Z" />
<glyph unicode="&#x173;" glyph-name="uogonek" horiz-adv-x="500" d="M498 -207Q485 -209 471 -210Q445 -213 407 -213Q383 -213 358 -211T313 -199T279 -174T266 -129Q266 -106 273 -88T291 -55T318 -26T349 0H286V41Q285 40 279 33T260 18T223 2T166 -5Q26
-5 26 137V528H222V152Q222 138 224 130T245 122Q250 122 254 122T264 124L274 126V528H470V0Q446 -10 427 -27T407 -75Q407 -99 422 -106T458 -113Q466 -113 472 -113T485 -111Q491 -110 498 -109V-207Z" />
<glyph unicode="&#x174;" glyph-name="Wcircumflex" horiz-adv-x="912" d="M780 0H509L458 304L406 0H133L0 667H266L306 355L361 667H549L605 355L645 667H912L780 0ZM357 826H552L634 705H498L456 760L417 705H277L357 826Z" />
<glyph unicode="&#x175;" glyph-name="wcircumflex" horiz-adv-x="671" d="M556 0H380L335 247L291 0H115L0 528H185L226 294L265 528H405L444 294L485 528H671L556 0ZM374 566L335 621L293 566H157L239 687H434L514 566H374Z" />
<glyph unicode="&#x176;" glyph-name="Ycircumflex" horiz-adv-x="640" d="M448 252V0H193V252L0 666H258L317 466L377 666H640L448 252ZM221 826H416L498 705H362L320 760L281 705H141L221 826Z" />
<glyph unicode="&#x177;" glyph-name="ycircumflex" horiz-adv-x="530" d="M338 -151L142 -152L177 0L109 1L0 528H223L257 213L314 528H530L338 -151ZM303 566L264 621L222 566H86L168 687H363L443 566H303Z" />
<glyph unicode="&#x178;" glyph-name="Ydieresis" horiz-adv-x="640" d="M448 252V0H193V252L0 666H258L317 466L377 666H640L448 252ZM137 706V807H283V706H137ZM357 706V807H503V706H357Z" />
<glyph unicode="&#x179;" glyph-name="Zacute" horiz-adv-x="561" d="M25 0V152L261 515H56V667H530V514L294 152H536V0H25ZM374 706H187L225 817H445L374 706Z" />
<glyph unicode="&#x17a;" glyph-name="zacute" horiz-adv-x="427" d="M20 0V116L181 399H31V528H403V411L241 127H412V0H20ZM286 576H139L177 677H357L286 576Z" />
<glyph unicode="&#x17b;" glyph-name="Zdotaccent" horiz-adv-x="561" d="M25 0V152L261 515H56V667H530V514L294 152H536V0H25ZM227 706V807H373V706H227Z" />
<glyph unicode="&#x17c;" glyph-name="zdotaccent" horiz-adv-x="437" d="M20 0V116L181 399H31V528H403V411L241 127H412V0H20ZM126 586V667H322V586H126Z" />
<glyph unicode="&#x17d;" glyph-name="Zcaron" horiz-adv-x="551" d="M20 0V152L256 515H51V667H525V514L289 152H531V0H20ZM375 705H180L98 826H234L276 771L315 826H455L375 705Z" />
<glyph unicode="&#x17e;" glyph-name="zcaron" horiz-adv-x="427" d="M20 0V116L181 399H31V528H403V411L241 127H412V0H20ZM323 566H128L48 687H188L227 632L269 687H405L323 566Z" />
<glyph unicode="&#x1cd;" glyph-name="Acaron" horiz-adv-x="664" d="M398 0L377 152H278L256 0H0L126 667H532L664 0H398ZM329 543L292 298H365L329 543ZM430 705H235L153 826H289L331 771L370 826H510L430 705Z" />
<glyph unicode="&#x1ce;" glyph-name="acaron" horiz-adv-x="501" d="M286 0V50Q274 34 256 22Q240 11 217 3T160 -5Q132 -5 107 -2T63 14T33 50T21 115V167Q21 208 31 238T69 288T147 319T279 330V397Q279 410 274 421T249 432Q241 432 235 431T225 429L217 427V377H44V518Q72
524 105 528Q133 532 169 535T244 538Q294 538 336 535T409 519T457 476T475 395V0H286ZM361 564H166L86 685H226L265 630L307 685H443L361 564ZM279 244Q258 244 246 239T227 225T218 203T216 175V165Q216 146 219 134T247 122Q253 122 258 122T269 124L279 126V244Z"
/>
<glyph unicode="&#x218;" glyph-name="Scommaaccent" horiz-adv-x="628" d="M608 203Q608 125 586 82T524 19T427 -6T300 -10Q225 -10 173 -7T87 2Q47 7 22 15V208H261V145Q266 144 273 143Q279 142 286 142H305Q322 142 331 147T346 158T352 172T353 183Q353
210 337 225T277 257L167 296Q138 306 112 317T65 347T33 397T20 479Q20 550 44 590T112 649T213 673T337 677Q391 677 436 674T516 665Q556 660 588 653V467H349V523Q342 523 335 524Q329 525 322 525T309 526Q288 526 280 513T271 485Q271 463 282 453T314 435L481
379Q516 367 540 354T579 321T601 273T608 203ZM361 -161H214L222 -40H402L361 -161Z" />
<glyph unicode="&#x219;" glyph-name="scommaaccent" horiz-adv-x="473" d="M460 153Q460 99 446 67T403 18T331 -5T232 -10Q190 -10 152 -7T85 0Q51 4 20 10V149H202V101Q207 100 213 99Q218 98 224 98H237Q258 98 262 109T266 134Q266 144 263 151T250 166T222
183T173 206Q133 223 105 238T58 273T31 319T22 387Q22 439 39 469T85 514T156 534T245 538Q288 538 326 535T392 528Q425 524 452 518V386H277V432Q274 432 270 433Q266 433 261 433T250 434Q226 434 222 424T218 403Q218 389 224 380T244 363T281 345T340 321Q381
304 405 287T441 249T456 205T460 153ZM291 -161H144L152 -40H332L291 -161Z" />
<glyph unicode="&#x21a;" glyph-name="Tcommaaccent" horiz-adv-x="566" d="M411 515V0H154V515H15V667H551V515H411ZM334 -161H187L195 -40H375L334 -161Z" />
<glyph unicode="&#x21b;" glyph-name="tcommaaccent" horiz-adv-x="318" d="M313 2Q304 0 290 -2Q278 -4 260 -5T215 -6Q158 -6 126 8T76 43T55 89T50 138V406H10V528H55V626L246 672V528H308V406H246V152Q246 144 246 135T249 118T258 105T277 99H292Q299 99
304 100Q309 101 313 102V2ZM236 -161H89L97 -40H277L236 -161Z" />
<glyph unicode="&#x226;" glyph-name="Adotaccent" horiz-adv-x="664" d="M398 0L377 152H278L256 0H0L126 667H532L664 0H398ZM329 543L292 298H365L329 543ZM259 706V807H405V706H259Z" />
<glyph unicode="&#x227;" glyph-name="adotaccent" horiz-adv-x="501" d="M286 0V50Q274 34 256 22Q240 11 217 3T160 -5Q132 -5 107 -2T63 14T33 50T21 115V167Q21 208 31 238T69 288T147 319T279 330V397Q279 410 274 421T249 432Q241 432 235 431T225 429L217
427V377H44V518Q72 524 105 528Q133 532 169 535T244 538Q294 538 336 535T409 519T457 476T475 395V0H286ZM155 576V677H351V576H155ZM279 244Q258 244 246 239T227 225T218 203T216 175V165Q216 146 219 134T247 122Q253 122 258 122T269 124L279 126V244Z" />
<glyph unicode="&#x22e;" glyph-name="Odotaccent" horiz-adv-x="633" d="M606 185Q606 117 589 78T537 20T447 -5T317 -10Q245 -10 191 -6T100 18T45 76T26 183V471Q26 540 41 581T90 643T179 670T317 677Q401 677 456 671T545 643T592 581T606 471V185ZM351
491Q351 499 347 509T318 520Q305 520 298 517T287 510T282 500T281 491V186Q281 166 287 157T317 147Q340 147 345 157T351 186V491ZM243 706V807H389V706H243Z" />
<glyph unicode="&#x22f;" glyph-name="odotaccent" horiz-adv-x="508" d="M482 125Q482 76 464 49T414 9T342 -7T255 -10Q207 -10 165 -7T93 9T44 49T26 125V402Q26 451 43 478T91 518T164 535T255 538Q303 538 344 535T416 519T464 478T482 402V125ZM156 576V677H352V576H156ZM286
372Q286 388 283 399T255 411Q241 411 235 407T225 397T222 383V150Q222 136 227 127T255 117Q277 117 281 127T286 150V372Z" />
<glyph unicode="&#x232;" glyph-name="Ymacron" horiz-adv-x="640" d="M448 252V0H193V252L0 666H258L317 466L377 666H640L448 252ZM152 707V808H487V707H152Z" />
<glyph unicode="&#x233;" glyph-name="ymacron" horiz-adv-x="530" d="M338 -151L142 -152L177 0L109 1L0 528H223L257 213L314 528H530L338 -151ZM102 576V677H427V576H102Z" />
<glyph unicode="&#x2c6;" glyph-name="circumflex" horiz-adv-x="500" d="M288 566L249 621L207 566H71L153 687H348L428 566H288Z" />
<glyph unicode="&#x2c7;" glyph-name="caron" horiz-adv-x="500" d="M346 566H151L71 687H211L250 632L292 687H428L346 566Z" />
<glyph unicode="&#x2d8;" glyph-name="breve" horiz-adv-x="500" d="M417 686Q415 651 406 627T376 586T325 563T249 556Q160 556 124 586T83 686H195Q197 667 209 657T249 647Q278 647 291 656T306 686H417Z" />
<glyph unicode="&#x2d9;" glyph-name="dotaccent" horiz-adv-x="500" d="M152 566V667H348V566H152Z" />
<glyph unicode="&#x2da;" glyph-name="ring" horiz-adv-x="500" d="M388 644Q388 600 350 580T250 559Q221 559 196 564T152 579T123 606T112 643Q112 686 150 707T250 729Q312 729 350 708T388 644ZM288 644Q288 660 279 665T250 670Q230 670 221 665T212 644Q212
628 221 623T250 618Q270 618 279 623T288 644Z" />
<glyph unicode="&#x2db;" glyph-name="ogonek" horiz-adv-x="500" d="M376 -207Q366 -209 350 -211Q323 -214 268 -214Q244 -214 219 -210T174 -196T140 -167T126 -120Q126 -80 148 -51T209 0H330Q306 -10 287 -27T267 -75Q267 -99 283 -106T320 -113Q328 -113
338 -113T357 -111Q367 -110 376 -109V-207Z" />
<glyph unicode="&#x2dc;" glyph-name="tilde" horiz-adv-x="500" d="M435 594Q405 577 377 565T311 553Q295 553 281 558T252 568T223 579T193 584Q176 584 154 575T118 555L65 637Q89 657 124 672T191 688Q207 688 221 683T250 673T279 662T309 657Q315 657 326
660T350 667T374 677T391 685L435 594Z" />
<glyph unicode="&#x2dd;" glyph-name="hungarumlaut" horiz-adv-x="500" d="M368 566H251L289 677H439L368 566ZM178 566H61L99 677H249L178 566Z" />
<glyph unicode="&#x3c0;" glyph-name="pi" horiz-adv-x="500" d="M423 379V0H293V379H209V0H79V379H22V499H478V379H423Z" />
<glyph unicode="&#x401;" glyph-name="afii10023" horiz-adv-x="506" d="M291 706V807H437V706H291ZM71 706V807H217V706H71ZM30 0V667H478V515H285V423H467V269H285V152H478V0H30Z" />
<glyph unicode="&#x402;" glyph-name="afii10051" horiz-adv-x="759" d="M729 162Q729 109 719 76T686 25T624 1T529 -6H512Q501 -6 490 -6T467 -5T449 -3V128Q466 132 470 139T474 167V232Q474 246 468 254T444 262Q438 262 433 261T422 259L412 257V0H157V515H15V667H552V515H412V402Q429
406 449 410Q466 413 488 416T536 419Q589 419 626 410T686 382T719 336T729 272V162Z" />
<glyph unicode="&#x403;" glyph-name="afii10052" horiz-adv-x="471" d="M315 706H128L166 817H386L315 706ZM285 515V0H30V667H460V515H285Z" />
<glyph unicode="&#x404;" glyph-name="afii10053" horiz-adv-x="610" d="M584 14Q556 7 516 2Q482 -3 432 -6T314 -10Q241 -10 187 -4T97 23T44 82T26 185V499Q26 564 52 600T119 653T213 673T319 677Q390 677 440 673T522 664Q560 659 584 652V463H344V517Q339
517 335 518Q325 520 315 520Q291 520 286 510T281 476V423H474V269H281V196Q281 166 286 157T319 147Q332 147 337 148Q341 149 344 150V223H584V14Z" />
<glyph unicode="&#x405;" glyph-name="afii10054" horiz-adv-x="628" d="M608 203Q608 125 586 82T524 19T427 -6T300 -10Q225 -10 173 -7T87 2Q47 7 22 15V208H261V145Q266 144 273 143Q279 142 286 142H305Q322 142 331 147T346 158T352 172T353 183Q353 210
337 225T277 257L167 296Q138 306 112 317T65 347T33 397T20 479Q20 550 44 590T112 649T213 673T337 677Q391 677 436 674T516 665Q556 660 588 653V467H349V523Q345 523 340 524Q335 525 328 525T311 526Q287 526 279 513T271 485Q271 463 282 453T314 435L481
379Q516 367 540 354T579 321T601 273T608 203Z" />
<glyph unicode="&#x406;" glyph-name="afii10055" horiz-adv-x="315" d="M30 0V667H285V0H30Z" />
<glyph unicode="&#x407;" glyph-name="afii10056" horiz-adv-x="315" d="M185 706V807H331V706H185ZM-15 706V807H131V706H-15ZM30 0V667H285V0H30Z" />
<glyph unicode="&#x408;" glyph-name="afii10057" horiz-adv-x="368" d="M339 182Q339 129 326 92T285 33T216 0T119 -10Q88 -10 54 -7T0 0V128Q5 126 12 125Q18 124 26 124T43 123Q70 123 77 135T84 170V667H339V182Z" />
<glyph unicode="&#x409;" glyph-name="afii10058" horiz-adv-x="971" d="M957 154Q957 72 915 36T774 0H367V515H323V398Q323 309 313 237T291 111Q277 49 260 0H0Q24 55 43 126Q59 187 72 273T86 467V667H622V423H782Q824 423 856 416T910 391T945 339T957 254V154ZM702
240Q702 263 693 273T656 284H622V139H656Q687 139 694 148T702 187V240Z" />
<glyph unicode="&#x40a;" glyph-name="afii10059" horiz-adv-x="952" d="M937 154Q937 72 895 36T754 0H348V271H285V0H30V667H285V423H348V667H603V423H763Q804 423 836 416T890 391T925 339T937 254V154ZM682 240Q682 263 673 273T636 284H603V139H636Q667 139
674 148T682 187V240Z" />
<glyph unicode="&#x40b;" glyph-name="afii10060" horiz-adv-x="759" d="M474 0V232Q474 246 468 254T444 262Q438 262 433 261T422 259L412 257V0H157V515H15V667H552V515H412V402Q429 406 449 410Q466 413 488 416T536 419Q589 419 626 410T686 382T719 336T729
272V0H474Z" />
<glyph unicode="&#x40c;" glyph-name="afii10061" horiz-adv-x="659" d="M386 706H199L237 817H457L386 706ZM397 0L285 254V0H30V667H285V436L384 667H646L497 355L664 0H397Z" />
<glyph unicode="&#x40e;" glyph-name="afii10062" horiz-adv-x="640" d="M511 836Q511 766 461 730T313 694Q216 694 167 732T117 836H249Q249 811 263 797T313 782Q354 782 367 796T380 836H511ZM338 0H83L193 252L0 667H258L289 539Q297 504 301 479T309 433T313
397T317 366Q322 395 327 435T347 539L377 667H640L338 0Z" />
<glyph unicode="&#x40f;" glyph-name="afii10145" horiz-adv-x="633" d="M216 -102V0H30V667H285V154H348V667H603V0H412V-102H216Z" />
<glyph unicode="&#x410;" glyph-name="afii10017" horiz-adv-x="664" d="M398 0L377 152H278L256 0H0L126 667H532L664 0H398ZM329 543L292 298H365L329 543Z" />
<glyph unicode="&#x411;" glyph-name="afii10018" horiz-adv-x="634" d="M619 154Q619 72 577 36T436 0H30V667H558V528H285V423H446Q486 423 518 416T572 391T607 339T619 254V154ZM364 240Q364 263 355 273T319 284H285V139H319Q349 139 356 148T364 187V240Z" />
<glyph unicode="&#x412;" glyph-name="afii10019" horiz-adv-x="642" d="M619 176Q619 131 609 98T577 43T517 11T425 0H30V667H394Q439 667 478 664T547 646T592 602T609 520V489Q609 466 607 444T596 402T570 368T524 348Q559 339 578 324T607 289T617 251T619
213V176ZM364 240Q364 254 357 261T328 269H285V152H328Q343 152 350 156T361 165T364 176V240ZM354 505Q354 516 348 522T321 528H285V423H321Q344 423 349 431T354 452V505Z" />
<glyph unicode="&#x413;" glyph-name="afii10020" horiz-adv-x="471" d="M285 515V0H30V667H460V515H285Z" />
<glyph unicode="&#x414;" glyph-name="afii10021" horiz-adv-x="634" d="M436 -102V0H198V-102H2V154H22Q38 174 50 215Q61 250 70 313T79 477V668H595V154H632V-102H436ZM353 516H303V399Q303 335 295 274T260 154H353V516Z" />
<glyph unicode="&#x415;" glyph-name="afii10022" horiz-adv-x="502" d="M30 0V667H478V515H285V423H467V269H285V152H478V0H30Z" />
<glyph unicode="&#x416;" glyph-name="afii10024" horiz-adv-x="1003" d="M741 0L629 294V0H374V292L262 0H-5L162 355L13 667H275L374 398V667H629V396L728 667H990L841 355L1008 0H741Z" />
<glyph unicode="&#x417;" glyph-name="afii10025" horiz-adv-x="613" d="M591 197Q591 126 577 85T527 23T432 -4T282 -10Q225 -10 179 -7T99 0Q59 4 28 10V209H266V151L278 149Q283 148 289 148T302 147Q324 147 330 156T336 183V220Q336 246 326 255T289 264H152V416H284Q310
416 323 425T336 462V486Q336 503 330 511T299 520Q284 520 274 518Q269 517 266 516V466H28V657Q59 663 97 667Q129 671 172 674T267 677Q352 677 412 673T511 650T567 597T585 498Q585 472 582 448T571 405T548 372T509 352Q538 347 554 334T579 301T589 255T591
197Z" />
<glyph unicode="&#x418;" glyph-name="afii10026" horiz-adv-x="669" d="M395 0V313L282 0H30V667H274V391L383 667H639V0H395Z" />
<glyph unicode="&#x419;" glyph-name="afii10027" horiz-adv-x="669" d="M529 836Q529 766 479 730T331 694Q234 694 185 732T135 836H267Q267 811 281 797T331 782Q372 782 385 796T398 836H529ZM395 0V313L282 0H30V667H274V391L383 667H639V0H395Z" />
<glyph unicode="&#x41a;" glyph-name="afii10028" horiz-adv-x="659" d="M397 0L285 254V0H30V667H285V436L384 667H646L497 355L664 0H397Z" />
<glyph unicode="&#x41b;" glyph-name="afii10029" horiz-adv-x="633" d="M348 0V515H294V479Q294 352 286 263T267 114Q256 45 241 0H1Q18 41 32 111Q43 171 53 265T63 498V667H603V0H348Z" />
<glyph unicode="&#x41c;" glyph-name="afii10030" horiz-adv-x="840" d="M568 375L498 2H340L269 374H259L264 0H30V667H348L414 305H424L488 667H810V0H573L578 375H568Z" />
<glyph unicode="&#x41d;" glyph-name="afii10031" horiz-adv-x="633" d="M348 0V271H285V0H30V667H285V423H348V667H603V0H348Z" />
<glyph unicode="&#x41e;" glyph-name="afii10032" horiz-adv-x="632" d="M606 185Q606 117 589 78T537 20T447 -5T317 -10Q245 -10 191 -6T100 18T45 76T26 183V471Q26 540 41 581T90 643T179 670T317 677Q401 677 456 671T545 643T592 581T606 471V185ZM351 491Q351
499 347 509T318 520Q305 520 298 517T287 510T282 500T281 491V186Q281 166 287 157T317 147Q340 147 345 157T351 186V491Z" />
<glyph unicode="&#x41f;" glyph-name="afii10033" horiz-adv-x="633" d="M348 0V515H285V0H30V667H603V0H348Z" />
<glyph unicode="&#x420;" glyph-name="afii10034" horiz-adv-x="634" d="M619 404Q619 352 607 319T573 268T518 242T446 235H285V0H30V667H436Q534 667 576 631T619 513V404ZM364 480Q364 510 357 519T319 528H285V374H319Q346 374 355 384T364 418V480Z" />
<glyph unicode="&#x421;" glyph-name="afii10035" horiz-adv-x="606" d="M576 14Q548 7 508 2Q474 -3 424 -6T306 -10Q233 -10 179 -4T89 23T36 82T18 185V499Q18 564 44 600T111 653T205 673T311 677Q382 677 432 673T514 664Q552 659 576 652V443H336V517Q331
517 327 518Q317 520 307 520Q283 520 278 510T273 476V196Q273 166 278 157T311 147Q324 147 329 148Q333 149 336 150V243H576V14Z" />
<glyph unicode="&#x422;" glyph-name="afii10036" horiz-adv-x="566" d="M411 515V0H154V515H15V667H551V515H411Z" />
<glyph unicode="&#x423;" glyph-name="afii10037" horiz-adv-x="640" d="M338 0H83L193 252L0 667H258L289 539Q297 504 301 479T309 433T313 397T317 366Q322 395 327 435T347 539L377 667H640L338 0Z" />
<glyph unicode="&#x424;" glyph-name="afii10038" horiz-adv-x="888" d="M307 40Q235 40 182 44T95 68T43 126T26 233V421Q26 490 39 531T84 593T171 620T307 627H320Q319 635 319 647T318 670Q317 683 317 697H572Q571 683 570 670Q569 659 569 647T568 627H581Q663
627 717 621T803 593T848 531T862 421V233Q862 165 845 126T794 68T706 45T581 40H567Q567 32 568 20T570 -3Q571 -16 572 -31H317Q317 -16 318 -3Q319 8 319 20T320 40H307ZM562 470Q561 428 561 386T560 301V249Q560 223 561 197H581Q605 197 611 206T617 236V441Q617
445 616 450T612 459T601 467T580 470H562ZM308 470Q295 470 288 467T277 460T272 450T271 441V236Q271 216 277 207T307 197H325Q326 235 326 274V412Q326 441 325 470H308Z" />
<glyph unicode="&#x425;" glyph-name="afii10039" horiz-adv-x="648" d="M517 360L647 0H375L326 249L276 0H6L133 360L0 667H270L326 458L380 667H648L517 360Z" />
<glyph unicode="&#x426;" glyph-name="afii10040" horiz-adv-x="634" d="M436 -102V0H30V667H285V154H348V667H603V154H632V-102H436Z" />
<glyph unicode="&#x427;" glyph-name="afii10041" horiz-adv-x="632" d="M348 0V265Q331 260 311 256Q294 253 272 251T224 248Q170 248 133 257T73 285T40 331T30 395V667H285V448Q285 434 291 426T315 418Q322 418 327 418T338 420Q343 421 348 423V667H603V0H348Z" />
<glyph unicode="&#x428;" glyph-name="afii10042" horiz-adv-x="952" d="M30 0V667H285V154H348V667H603V154H666V667H921V0H30Z" />
<glyph unicode="&#x429;" glyph-name="afii10043" horiz-adv-x="952" d="M754 -102V0H30V667H285V154H348V667H603V154H666V667H921V154H950V-102H754Z" />
<glyph unicode="&#x42a;" glyph-name="afii10044" horiz-adv-x="758" d="M743 154Q743 72 701 36T560 0H154V515H15V667H409V423H570Q610 423 642 416T696 391T731 339T743 254V154ZM488 240Q488 263 479 273T443 284H409V139H443Q473 139 480 148T488 187V240Z" />
<glyph unicode="&#x42b;" glyph-name="afii10045" horiz-adv-x="949" d="M664 0V667H919V0H664ZM619 154Q619 72 577 36T436 0H30V667H285V423H446Q486 423 518 416T572 391T607 339T619 254V154ZM364 240Q364 263 355 273T319 284H285V139H319Q349 139 356 148T364
187V240Z" />
<glyph unicode="&#x42c;" glyph-name="afii10046" horiz-adv-x="634" d="M619 154Q619 72 577 36T436 0H30V667H285V423H446Q486 423 518 416T572 391T607 339T619 254V154ZM364 240Q364 263 355 273T319 284H285V139H319Q349 139 356 148T364 187V240Z" />
<glyph unicode="&#x42d;" glyph-name="afii10047" horiz-adv-x="610" d="M135 269V423H328V476Q328 499 323 509T295 520Q285 520 275 518Q271 517 266 517V463H26V652Q50 659 88 664Q120 669 170 673T291 677Q343 677 395 674T489 653T557 600T583 499V185Q583
121 566 83T512 24T422 -3T296 -10Q228 -10 178 -7T93 2Q53 7 26 14V223H266V150Q269 149 273 148Q276 147 281 147H291Q317 147 322 156T328 196V269H135Z" />
<glyph unicode="&#x42e;" glyph-name="afii10048" horiz-adv-x="954" d="M285 269V0H30V667H285V423H348V471Q348 540 363 581T412 643T501 670T639 677Q723 677 778 671T867 643T914 581T928 471V185Q928 117 911 78T859 20T769 -5T639 -10Q567 -10 513 -6T422
18T367 76T348 183V269H285ZM673 491Q673 499 669 509T640 520Q627 520 620 517T609 510T604 500T603 491V186Q603 166 609 157T639 147Q662 147 667 157T673 186V491Z" />
<glyph unicode="&#x42f;" glyph-name="afii10049" horiz-adv-x="647" d="M363 0V283H357L271 0H-6L108 307Q83 312 67 325T42 359T30 405T27 460V507Q27 561 40 592T81 640T148 662T242 667H617V0H363ZM362 528H315Q295 528 289 522T282 505V436Q282 423 287 415T315
407H362V528Z" />
<glyph unicode="&#x430;" glyph-name="afii10065" horiz-adv-x="501" d="M286 0V50Q274 34 256 22Q240 11 217 3T160 -5Q132 -5 107 -2T63 14T33 50T21 115V167Q21 208 31 238T69 288T147 319T279 330V397Q279 410 274 421T249 432Q241 432 235 431T225 429L217
427V377H44V518Q72 524 105 528Q133 532 169 535T244 538Q294 538 336 535T409 519T457 476T475 395V0H286ZM279 244Q258 244 246 239T227 225T218 203T216 175V165Q216 146 219 134T247 122Q253 122 258 122T269 124L279 126V244Z" />
<glyph unicode="&#x431;" glyph-name="afii10066" horiz-adv-x="508" d="M481 567Q470 565 453 563Q439 561 418 560T368 556Q341 554 317 552T274 541T240 514T216 462Q224 472 236 480Q247 487 264 492T309 498Q338 498 369 495T425 479T466 438T482 362V125Q482
76 464 49T414 9T342 -7T255 -10Q207 -10 165 -7T93 9T44 49T26 125V376Q26 383 27 389Q30 440 39 486T73 570T145 634T273 671Q299 674 323 675T371 678T422 682T481 689V567ZM286 332Q286 348 283 359T255 371Q241 371 235 367T225 357T222 343V150Q222 136 227
127T255 117Q277 117 281 127T286 150V332Z" />
<glyph unicode="&#x432;" glyph-name="afii10067" horiz-adv-x="506" d="M485 126Q485 89 478 65T452 26T402 6T321 0H30V528H309Q347 528 377 526T430 512T463 476T475 410V372Q475 337 462 318T433 290Q415 279 392 278Q417 273 438 262Q455 251 470 230T485
171V126ZM289 174Q289 201 276 204T238 208H221V122H239Q252 122 261 122T277 126T286 136T289 157V174ZM279 369Q279 384 277 391T269 402T255 405T234 406H221V319H235Q260 319 269 323T279 357V369Z" />
<glyph unicode="&#x433;" glyph-name="afii10068" horiz-adv-x="405" d="M30 0V528H395V391H226V0H30Z" />
<glyph unicode="&#x434;" glyph-name="afii10069" horiz-adv-x="515" d="M293 154V406H243V382Q243 352 242 317T237 249T230 190T220 154H293ZM339 -102V0H176V-102H0V154H29Q34 161 40 180T51 228T59 292T62 368V528H479V154H515V-102H339Z" />
<glyph unicode="&#x435;" glyph-name="afii10070" horiz-adv-x="512" d="M222 232V150Q222 130 226 119T255 107Q261 107 266 107T276 109Q281 110 286 112V180H473V10Q442 4 407 0Q377 -4 337 -7T251 -10Q195 -10 153 -6T83 14T41 58T26 139V383Q26 436 38 467T78
513T147 533T250 538Q307 538 350 534T422 515T467 471T482 392V232H222ZM286 379Q286 399 281 409T256 420Q232 420 227 410T222 379V328H286V379Z" />
<glyph unicode="&#x436;" glyph-name="afii10072" horiz-adv-x="802" d="M591 0L499 203V0H303V203L211 0H-5L155 282L5 528H225L303 345V528H499V345L577 528H797L647 282L807 0H591Z" />
<glyph unicode="&#x437;" glyph-name="afii10073" horiz-adv-x="491" d="M469 127Q469 84 457 58T416 16T342 -4T229 -10Q187 -10 151 -7T85 0Q52 4 23 10V180H206V120Q210 119 215 118Q220 117 225 117H239Q263 117 268 126T274 163V191Q274 218 261 225T210
232H138V328H210Q245 328 259 333T274 367V377Q274 381 274 387T271 398T262 407T245 411Q238 411 232 411T219 409Q212 408 206 407V370H26V518Q57 524 93 528Q123 532 162 535T242 538Q307 538 350 532T420 510T458 469T470 407V366Q470 342 462 326T439 299T405
283T364 276Q392 272 412 265T445 244T463 210T469 162V127Z" />
<glyph unicode="&#x438;" glyph-name="afii10074" horiz-adv-x="535" d="M319 0V128Q319 140 320 168T323 228T327 290Q330 319 331 337Q328 323 323 303Q317 282 310 258T296 211T283 168L231 0H30V528H216V409Q216 389 215 359T211 298T206 239L203 200Q206
213 212 235T225 281T239 329T253 370L304 528H505V0H319Z" />
<glyph unicode="&#x439;" glyph-name="afii10075" horiz-adv-x="535" d="M319 0V128Q319 140 320 168T323 228T327 290Q330 319 331 337Q328 323 323 303Q317 282 310 258T296 211T283 168L231 0H30V528H216V409Q216 389 215 359T211 298T206 239L203 200Q206
213 212 235T225 281T239 329T253 370L304 528H505V0H319ZM449 702Q449 632 405 596T263 560Q166 560 126 598T85 702H207Q207 677 220 663T263 648Q295 648 306 662T318 702H449Z" />
<glyph unicode="&#x43a;" glyph-name="afii10076" horiz-adv-x="529" d="M318 0L226 213V0H30V528H226V345L304 528H524L374 282L534 0H318Z" />
<glyph unicode="&#x43b;" glyph-name="afii10077" horiz-adv-x="553" d="M327 0V406H272V291Q272 202 264 146T245 57Q234 19 219 0H0Q21 25 38 73Q52 114 64 183T76 360V528H523V0H327Z" />
<glyph unicode="&#x43c;" glyph-name="afii10078" horiz-adv-x="681" d="M465 365Q464 348 462 323T456 272T448 221T441 177L410 2H272L242 168Q239 187 235 213T228 266T221 320T216 364H206L216 168V0H30V528H290L313 385Q317 362 320 333T327 273T332 214T336
165H346Q347 184 349 212T352 271T356 332T362 386L380 528H651V0H465V174L475 365H465Z" />
<glyph unicode="&#x43d;" glyph-name="afii10079" horiz-adv-x="515" d="M289 0V224H226V0H30V528H226V345H289V528H485V0H289Z" />
<glyph unicode="&#x43e;" glyph-name="afii10080" horiz-adv-x="508" d="M482 125Q482 76 464 49T414 9T342 -7T255 -10Q207 -10 165 -7T93 9T44 49T26 125V402Q26 451 43 478T91 518T164 535T255 538Q303 538 344 535T416 519T464 478T482 402V125ZM286 372Q286
388 283 399T255 411Q241 411 235 407T225 397T222 383V150Q222 136 227 127T255 117Q277 117 281 127T286 150V372Z" />
<glyph unicode="&#x43f;" glyph-name="afii10081" horiz-adv-x="515" d="M289 0V406H226V0H30V528H485V0H289Z" />
<glyph unicode="&#x440;" glyph-name="afii10082" horiz-adv-x="511" d="M486 131Q486 56 448 26T326 -5Q300 -5 281 0T250 12Q236 19 226 29V-152H30V528H220V486Q221 488 226 494Q233 502 245 510T278 526T326 533Q388 533 421 514T469 471Q486 444 486 410V131ZM290
382Q290 390 285 398T259 406Q251 406 246 405L226 401V128Q231 126 236 125Q245 122 261 122Q290 122 290 148V382Z" />
<glyph unicode="&#x441;" glyph-name="afii10083" horiz-adv-x="501" d="M473 10Q444 4 411 0Q382 -4 346 -7T267 -10Q192 -10 145 -4T72 20T36 72T26 162V368Q26 424 36 457T74 509T148 532T269 538Q306 538 341 535T406 528Q439 524 470 518V330H286V407Q282
408 277 409Q272 410 267 410T255 411Q241 411 235 408T225 399T222 389V146Q222 132 227 125T255 117H268Q274 117 278 118L286 120V207H473V10Z" />
<glyph unicode="&#x442;" glyph-name="afii10084" horiz-adv-x="466" d="M140 0V391H21V528H456V391H336V0H140Z" />
<glyph unicode="&#x443;" glyph-name="afii10085" horiz-adv-x="530" d="M334 -152H148L182 0H114Q85 133 57 264T2 528H216L252 198H262Q277 279 292 363T322 528H526L334 -152Z" />
<glyph unicode="&#x444;" glyph-name="afii10086" horiz-adv-x="765" d="M740 131Q740 56 702 26T580 -5Q554 -5 535 0T504 12Q490 19 480 29V-152H284V29Q274 19 260 12Q248 5 230 0T185 -5Q102 -5 64 25T26 131V410Q26 444 43 471Q57 494 89 513T185 533Q212
533 231 526T262 509Q276 498 284 486V667H480L481 486Q489 498 503 509Q515 518 533 525T580 533Q643 533 676 514T723 471Q740 444 740 410V131ZM284 402L274 404Q269 405 264 405T253 406Q236 406 229 400T222 384V148Q222 122 251 122Q265 122 274 125Q279
126 284 128V402ZM544 384Q544 393 537 399T513 406Q505 406 500 406T490 404L480 402V128Q485 126 490 125Q499 122 515 122Q544 122 544 148V384Z" />
<glyph unicode="&#x445;" glyph-name="afii10087" horiz-adv-x="486" d="M284 0L244 221L203 0H0L80 276L16 528H211L243 327L276 528H470L406 276L486 0H284Z" />
<glyph unicode="&#x446;" glyph-name="afii10088" horiz-adv-x="515" d="M339 -102V0H30V528H226V122H289V528H485V122H515V-102H339Z" />
<glyph unicode="&#x447;" glyph-name="afii10089" horiz-adv-x="502" d="M276 0V189Q266 185 251 181Q238 178 219 176T172 174Q97 174 63 208T28 315V528H224V351Q224 337 226 329T248 321Q259 321 269 323Q273 324 276 326V528H472V0H276Z" />
<glyph unicode="&#x448;" glyph-name="afii10090" horiz-adv-x="774" d="M30 0V528H226V122H289V528H485V122H548V528H744V0H30Z" />
<glyph unicode="&#x449;" glyph-name="afii10091" horiz-adv-x="774" d="M598 -102V0H30V528H226V123H289V528H485V123H548V528H744V123H774V-102H598Z" />
<glyph unicode="&#x44a;" glyph-name="afii10092" horiz-adv-x="555" d="M544 149Q544 105 535 77T506 31T454 7T375 0H89V391H10V528H285V322L379 337Q411 337 441 335T494 319T530 275T544 187V149ZM348 177Q348 206 337 210T302 214H285V122H303Q328 122 338
126T348 160V177Z" />
<glyph unicode="&#x44b;" glyph-name="afii10093" horiz-adv-x="748" d="M522 0V528H718V0H522ZM485 149Q485 105 476 77T447 31T395 7T316 0H30V528H226V337H320Q352 337 382 335T435 319T471 275T485 187V149ZM289 177Q289 206 278 210T243 214H226V122H244Q269
122 279 126T289 160V177Z" />
<glyph unicode="&#x44c;" glyph-name="afii10094" horiz-adv-x="496" d="M485 149Q485 105 476 77T447 31T395 7T316 0H30V528H226V337H320Q352 337 382 335T435 319T471 275T485 187V149ZM289 177Q289 206 278 210T243 214H226V122H244Q269 122 279 126T289 160V177Z" />
<glyph unicode="&#x44d;" glyph-name="afii10095" horiz-adv-x="501" d="M474 162Q474 106 465 73T429 21T355 -4T234 -10Q192 -10 156 -7T90 0Q57 4 28 10V180H215V120L223 118Q228 117 246 117Q268 117 273 124T278 146V232H123V328H278V389Q278 394 275 399T266
407T246 411Q239 411 234 411T224 409Q219 408 215 407V370H31V518Q62 524 95 528Q124 532 159 535T232 538Q305 538 352 533T426 509T463 458T474 368V162Z" />
<glyph unicode="&#x44e;" glyph-name="afii10096" horiz-adv-x="771" d="M226 223V0H30V528H226V345H289V402Q289 451 306 478T354 518T427 535T518 538Q566 538 607 535T679 519T727 478T745 402V125Q745 76 727 49T677 9T605 -7T518 -10Q470 -10 428 -7T356
9T307 49T289 125V223H226ZM549 372Q549 388 546 399T518 411Q504 411 498 407T488 397T485 383V150Q485 136 490 127T518 117Q540 117 544 127T549 150V372Z" />
<glyph unicode="&#x44f;" glyph-name="afii10097" horiz-adv-x="507" d="M291 0V198H277L213 0H16L101 219Q93 220 80 224T54 241T32 279T22 348V379Q22 422 31 451T60 497T112 521T191 528H477V0H291ZM291 406H263Q250 406 242 406T228 402T220 391T218 368V357Q218
328 229 324T264 320H291V406Z" />
<glyph unicode="&#x451;" glyph-name="afii10071" horiz-adv-x="512" d="M280 586V667H426V586H280ZM80 586V667H226V586H80ZM223 232V150Q223 130 227 119T255 107Q261 107 266 107T276 109Q281 110 286 112V180H473V10Q442 4 407 0Q377 -4 337 -7T251 -10Q195
-10 153 -6T83 14T41 58T26 139V383Q26 436 38 467T78 513T147 533T250 538Q307 538 350 534T422 515T467 471T482 392V232H223ZM286 379Q286 399 281 409T256 420Q233 420 228 410T223 379V328H286V379Z" />
<glyph unicode="&#x452;" glyph-name="afii10099" horiz-adv-x="502" d="M473 -5Q473 -34 468 -61T446 -109T394 -144T301 -157Q280 -157 260 -156T222 -153Q203 -151 185 -149V-47Q189 -49 196 -50Q202 -51 210 -51T232 -52Q249 -52 258 -48T272 -36T276 -20T277
-1V376Q277 390 275 398T254 406Q247 406 242 405T233 403Q229 402 226 401V0H30V582H10V644H30V667H226V644H348V582H226V499Q236 508 251 516Q263 522 282 527T329 533Q404 533 438 499T473 392V-5Z" />
<glyph unicode="&#x453;" glyph-name="afii10100" horiz-adv-x="405" d="M266 576H119L157 677H337L266 576ZM30 0V528H395V391H226V0H30Z" />
<glyph unicode="&#x454;" glyph-name="afii10101" horiz-adv-x="501" d="M222 232V146Q222 132 227 125T255 117H268Q274 117 278 118L286 120V180H473V10Q444 4 411 0Q382 -4 346 -7T267 -10Q192 -10 145 -4T72 20T36 72T26 162V368Q26 424 36 457T74 509T148
532T269 538Q306 538 341 535T406 528Q439 524 470 518V370H286V407Q282 408 277 409Q272 410 267 410T255 411Q241 411 235 408T225 399T222 389V328H377V232H222Z" />
<glyph unicode="&#x455;" glyph-name="afii10102" horiz-adv-x="473" d="M460 153Q460 99 446 67T403 18T331 -5T232 -10Q190 -10 152 -7T85 0Q51 4 20 10V149H202V101Q206 100 211 99Q216 98 221 98H234Q255 98 260 109T266 134Q266 144 263 151T250 166T222
183T173 206Q133 223 104 238T56 273T28 319T18 387Q18 439 35 469T81 514T152 534T241 538Q284 538 322 535T388 528Q421 524 448 518V386H273V432Q270 432 266 433Q262 433 257 433T246 434Q222 434 218 424T214 403Q214 389 220 380T241 363T280 345T340 321Q381
304 405 287T441 249T456 205T460 153Z" />
<glyph unicode="&#x456;" glyph-name="afii10103" horiz-adv-x="256" d="M30 586V667H226V586H30ZM30 0V528H226V0H30Z" />
<glyph unicode="&#x457;" glyph-name="afii10104" horiz-adv-x="256" d="M155 586V667H271V586H155ZM-15 586V667H101V586H-15ZM30 0V528H226V0H30Z" />
<glyph unicode="&#x458;" glyph-name="afii10105" horiz-adv-x="253" d="M29 586V667H225V586H29ZM225 -5Q225 -34 220 -61T198 -109T146 -144T53 -157Q32 -157 12 -156T-26 -153Q-45 -151 -63 -149V-47Q-59 -49 -52 -50Q-46 -51 -38 -51T-16 -52Q1 -52 10 -48T24
-36T28 -20T29 -1V528H225V-5Z" />
<glyph unicode="&#x459;" glyph-name="afii10106" horiz-adv-x="779" d="M768 149Q768 105 759 77T730 31T678 7T599 0H313V406H258V341Q258 269 249 208T229 100Q216 45 200 0H-3Q15 39 29 98Q41 149 51 225T62 410V528H509V337H603Q635 337 665 335T718 319T754
275T768 187V149ZM572 177Q572 206 561 210T526 214H509V122H527Q552 122 562 126T572 160V177Z" />
<glyph unicode="&#x45a;" glyph-name="afii10107" horiz-adv-x="755" d="M744 149Q744 105 735 77T706 31T654 7T575 0H289V214H226V0H30V528H226V337H289V528H485V337H579Q611 337 641 335T694 319T730 275T744 187V149ZM548 178Q548 207 537 211T502 215H485V122H503Q528
122 538 126T548 160V178Z" />
<glyph unicode="&#x45b;" glyph-name="afii10108" horiz-adv-x="502" d="M277 0V376Q277 390 275 398T254 406Q247 406 242 405T233 403Q229 402 226 401V0H30V582H10V644H30V667H226V644H348V582H226V499Q236 508 251 516Q263 522 282 527T329 533Q404 533 438
499T473 392V0H277Z" />
<glyph unicode="&#x45c;" glyph-name="afii10109" horiz-adv-x="529" d="M314 576H167L205 677H385L314 576ZM318 0L226 203V0H30V528H226V355L304 528H524L374 282L534 0H318Z" />
<glyph unicode="&#x45e;" glyph-name="afii10110" horiz-adv-x="530" d="M462 702Q462 632 412 596T264 560Q167 560 118 598T68 702H200Q200 677 214 663T264 648Q305 648 318 662T331 702H462ZM338 -152H142L177 0H109L0 528H223L257 213L314 528H530L338 -152Z" />
<glyph unicode="&#x45f;" glyph-name="afii10193" horiz-adv-x="515" d="M169 -102V0H30V528H226V122H289V528H485V0H345V-102H169Z" />
<glyph unicode="&#x490;" glyph-name="afii10050" horiz-adv-x="512" d="M285 515V0H30V667H316V750H512V515H285Z" />
<glyph unicode="&#x491;" glyph-name="afii10098" horiz-adv-x="445" d="M30 0V528H279V617H435V391H226V0H30Z" />
<glyph unicode="&#x492;" glyph-name="Ghestroke.cyr" horiz-adv-x="471" d="M-10 383H30V667H460V515H285V383H406V231H285V0H30V231H-10V383Z" />
<glyph unicode="&#x493;" glyph-name="ghestroke.cyr" horiz-adv-x="405" d="M-10 299H30V528H395V391H226V299H337V162H226V0H30V162H-10V299Z" />
<glyph unicode="&#x49a;" glyph-name="Kadescender.cyr" horiz-adv-x="659" d="M479 -102V0H397L285 254V0H30V667H285V436L384 667H646L497 355L591 154H665V-102H479Z" />
<glyph unicode="&#x49b;" glyph-name="kadescender.cyr" horiz-adv-x="529" d="M368 -102V0H318L226 213V0H30V528H226V345L305 528H525L374 282L465 123H535V-102H368Z" />
<glyph unicode="&#x4a2;" glyph-name="Endescender.cyr" horiz-adv-x="633" d="M447 -102V0H348V271H285V0H30V667H285V423H348V667H603V154H633V-102H447Z" />
<glyph unicode="&#x4a3;" glyph-name="endescender.cyr" horiz-adv-x="515" d="M349 -102V0H290V224H226V0H30V528H226V345H290V528H486V123H516V-102H349Z" />
<glyph unicode="&#x4ae;" glyph-name="Ustraight.cyr" horiz-adv-x="640" d="M448 252V0H193V252L0 667H258L317 466L377 667H640L448 252Z" />
<glyph unicode="&#x4af;" glyph-name="ustraight.cyr" horiz-adv-x="483" d="M338 109V-152H142V109L0 528H194L241 283L288 528H483L338 109Z" />
<glyph unicode="&#x4b0;" glyph-name="Ustraightstroke.cyr" horiz-adv-x="640" d="M30 343L158 342L0 667H258L317 456L377 667H640L482 343H611V191H448V0H193V191H30V343Z" />
<glyph unicode="&#x4b1;" glyph-name="ustraightstroke.cyr" horiz-adv-x="483" d="M20 137H142V149L0 528H194L241 293L288 528H483L338 149V137H459V0H338V-152H142V0H20V137Z" />
<glyph unicode="&#x4ba;" glyph-name="Shha.cyr" horiz-adv-x="629" d="M348 0V245Q348 267 346 278T326 289Q317 289 309 287T296 283Q290 280 285 278V0H30V667H285V422Q303 429 327 434Q347 439 375 442T437 446Q483 446 515 438T566 411T594 360T603 278V0H348Z" />
<glyph unicode="&#x4bb;" glyph-name="shha.cyr" horiz-adv-x="502" d="M277 0V380Q277 394 275 402T254 410Q247 410 242 409T233 407Q229 406 226 405V0H30V667H226V503Q236 512 251 520Q263 526 282 531T329 537Q404 537 438 503T473 396V0H277Z" />
<glyph unicode="&#x4d8;" glyph-name="Schwa.cyr" horiz-adv-x="632" d="M351 367V481Q351 501 345 510T315 520Q309 520 303 520T292 518Q286 517 281 516V447H35V657Q71 663 114 667Q150 671 198 674T301 677Q406 677 466 664T558 625T597 560T606 469V186Q606
117 589 78T537 20T447 -5T318 -10H274Q223 -10 178 -6T100 17T46 75T26 183V367H351ZM281 188Q281 168 288 158T315 147Q338 147 344 157T351 188V271H281V188Z" />
<glyph unicode="&#x4d9;" glyph-name="schwa.cyr" horiz-adv-x="512" d="M289 296V378Q289 398 285 409T257 421Q251 421 246 420T235 418Q230 417 226 416V348H39V518Q70 524 105 528Q135 532 175 535T261 538Q316 538 358 534T428 514T470 470T485 389V145Q485
92 473 61T433 15T364 -5T261 -10Q205 -10 162 -6T90 13T45 57T30 136V296H289ZM226 149Q226 129 231 119T256 108Q279 108 284 118T289 149V200H226V149Z" />
<glyph unicode="&#x4e8;" glyph-name="Obarred.cyr" horiz-adv-x="632" d="M606 185Q606 117 589 78T537 20T447 -5T317 -10Q245 -10 191 -6T100 18T45 76T26 183V471Q26 540 41 581T90 643T179 670T317 677Q401 677 456 671T545 643T592 581T606 471V185ZM351
271H281V186Q281 166 287 157T317 147Q340 147 345 157T351 186V271ZM281 402H351V491Q351 499 347 509T318 520Q305 520 298 517T287 510T282 500T281 491V402Z" />
<glyph unicode="&#x4e9;" glyph-name="obarred.cyr" horiz-adv-x="508" d="M482 125Q482 76 464 49T414 9T342 -7T255 -10Q207 -10 165 -7T93 9T44 49T26 125V402Q26 451 43 478T91 518T164 535T255 538Q303 538 344 535T416 519T464 478T482 402V125ZM286 213H222V150Q222
136 227 127T255 117Q277 117 281 127T286 150V213ZM222 320H286V372Q286 388 283 399T255 411Q241 411 235 407T225 397T222 383V320Z" />
<glyph unicode="&#x1e80;" glyph-name="Wgrave" horiz-adv-x="912" d="M780 0H509L458 304L406 0H133L0 667H266L306 355L361 667H549L605 355L645 667H912L780 0ZM327 819H547L585 708H398L327 819Z" />
<glyph unicode="&#x1e81;" glyph-name="wgrave" horiz-adv-x="671" d="M556 0H380L335 247L291 0H115L0 528H185L226 294L265 528H405L444 294L485 528H671L556 0ZM286 576L215 687H395L433 576H286Z" />
<glyph unicode="&#x1e82;" glyph-name="Wacute" horiz-adv-x="912" d="M780 0H509L458 304L406 0H133L0 667H266L306 355L361 667H549L605 355L645 667H912L780 0ZM514 706H327L365 817H585L514 706Z" />
<glyph unicode="&#x1e83;" glyph-name="wacute" horiz-adv-x="671" d="M556 0H380L335 247L291 0H115L0 528H185L226 294L265 528H405L444 294L485 528H671L556 0ZM373 576H226L264 687H444L373 576Z" />
<glyph unicode="&#x1e84;" glyph-name="Wdieresis" horiz-adv-x="912" d="M780 0H509L458 304L406 0H133L0 667H266L306 355L361 667H549L605 355L645 667H912L780 0ZM498 706V807H644V706H498ZM268 706V807H414V706H268Z" />
<glyph unicode="&#x1e85;" glyph-name="wdieresis" horiz-adv-x="671" d="M556 0H380L335 247L291 0H115L0 528H185L226 294L265 528H405L444 294L485 528H671L556 0ZM362 576V677H508V576H362ZM162 576V677H308V576H162Z" />
<glyph unicode="&#x1ef2;" glyph-name="Ygrave" horiz-adv-x="640" d="M448 252V0H193V252L0 666H258L317 466L377 666H640L448 252ZM161 819H381L419 708H232L161 819Z" />
<glyph unicode="&#x1ef3;" glyph-name="ygrave" horiz-adv-x="530" d="M338 -151L142 -152L177 0L109 1L0 528H223L257 213L314 528H530L338 -151ZM198 576L127 687H307L345 576H198Z" />
<glyph unicode="&#x2013;" glyph-name="endash" horiz-adv-x="694" d="M125 192V352H569V192H125Z" />
<glyph unicode="&#x2014;" glyph-name="emdash" horiz-adv-x="686" d="M0 192V352H686V192H0Z" />
<glyph unicode="&#x2018;" glyph-name="quoteleft" horiz-adv-x="263" d="M220 484H19L84 726H229L220 484Z" />
<glyph unicode="&#x2019;" glyph-name="quoteright" horiz-adv-x="263" d="M179 484H34L43 726H244L179 484Z" />
<glyph unicode="&#x201a;" glyph-name="quotesinglbase" horiz-adv-x="263" d="M179 -71H34L43 191H244L179 -71Z" />
<glyph unicode="&#x201c;" glyph-name="quotedblleft" horiz-adv-x="463" d="M420 485H239L304 727H429L420 485ZM200 485H19L84 727H209L200 485Z" />
<glyph unicode="&#x201d;" glyph-name="quotedblright" horiz-adv-x="463" d="M379 485H254L263 727H444L379 485ZM159 485H34L43 727H224L159 485Z" />
<glyph unicode="&#x201e;" glyph-name="quotedblbase" horiz-adv-x="463" d="M379 -51H254L263 191H444L379 -51ZM159 -51H34L43 191H224L159 -51Z" />
<glyph unicode="&#x2020;" glyph-name="dagger" horiz-adv-x="518" d="M355 350V0H164V350H42V509H164V667H355V509H477V350H355Z" />
<glyph unicode="&#x2021;" glyph-name="daggerdbl" horiz-adv-x="518" d="M42 145V294H164V379H42V528H164V667H355V528H477V379H355V294H477V145H355V0H164V145H42Z" />
<glyph unicode="&#x2022;" glyph-name="bullet" horiz-adv-x="295" d="M294 333Q294 310 287 284T262 237T217 201T149 186Q116 186 89 198T42 231T12 278T1 334Q1 362 12 388T44 435T91 468T150 480Q179 480 205 470T251 440T282 394T294 333Z" />
<glyph unicode="&#x2026;" glyph-name="ellipsis" horiz-adv-x="779" d="M30 0V191H233V0H30ZM291 0V191H494V0H291ZM548 0V191H751V0H548Z" />
<glyph unicode="&#x2030;" glyph-name="perthousand" horiz-adv-x="1436" d="M1036 119Q1036 99 1033 78T1015 38T970 7T885 -5Q831 -5 799 3T749 27T726 62T720 107V339Q720 369 726 391T749 429T798 452T881 460Q934 460 965 451T1011 426T1031 392T1036 354V119ZM481
333Q481 314 478 292T461 252T416 221T330 208Q276 208 244 217T194 241T171 276T165 321V551Q165 581 171 603T194 641T243 664T326 672Q379 672 410 663T456 638T476 604T481 566V333ZM542 -15H414L657 686H786L542 -15ZM898 336Q898 346 894 349T878 352Q866
352 864 347T862 337V118Q862 112 865 109T879 106Q890 106 894 109T898 119V336ZM341 549Q341 558 337 561T322 564Q310 564 308 559T306 549V333Q306 326 309 323T323 320Q334 320 337 323T341 333V549ZM1396 119Q1396 99 1393 78T1375 38T1330 7T1245 -5Q1191
-5 1159 3T1109 27T1086 62T1080 107V339Q1080 369 1086 391T1109 429T1158 452T1241 460Q1294 460 1325 451T1371 426T1391 392T1396 354V119ZM1258 336Q1258 346 1254 349T1238 352Q1226 352 1224 347T1222 337V118Q1222 112 1225 109T1239 106Q1250 106 1254
109T1258 119V336Z" />
<glyph unicode="&#x2032;" glyph-name="minute" horiz-adv-x="195" d="M157 498H37L30 716H165L157 498Z" />
<glyph unicode="&#x2033;" glyph-name="second" horiz-adv-x="372" d="M157 498H37L30 716H165L157 498ZM335 498H215L208 716H342L335 498Z" />
<glyph unicode="&#x2039;" glyph-name="guilsinglleft" horiz-adv-x="269" d="M198 264L242 46H85L26 263L87 485H243L198 264Z" />
<glyph unicode="&#x203a;" glyph-name="guilsinglright" horiz-adv-x="269" d="M184 46H27L71 264L26 485H182L243 263L184 46Z" />
<glyph unicode="&#x2044;" glyph-name="fraction" horiz-adv-x="152" d="M-12 -10H-130L173 677H292L-12 -10Z" />
<glyph unicode="&#x2070;" glyph-name="zero.superior" horiz-adv-x="420" d="M397 377Q397 337 384 315T346 281T287 267T210 264Q165 264 130 266T71 280T35 314T22 377V547Q22 588 32 612T64 649T123 666T210 670Q261 670 296 666T354 650T387 613T397 547V377ZM233
557Q233 562 230 569T210 577Q193 577 190 570T186 558V381Q186 369 190 364T210 358Q224 358 228 364T233 381V557Z" />
<glyph unicode="&#x2074;" glyph-name="four.superior" horiz-adv-x="447" d="M384 347V267H218V347H22V430L135 667H384V437H425V347H384ZM223 587L162 437H223V587Z" />
<glyph unicode="&#x2075;" glyph-name="five.superior" horiz-adv-x="423" d="M401 371Q401 330 387 308T349 276T293 265T225 263Q180 263 144 265T81 270Q50 273 26 277V397H193V362Q196 361 200 360Q208 358 217 358Q230 358 234 362T238 379V430Q238 444 235
449T215 455Q209 455 201 451Q197 449 193 448H26V667H386V577H193L192 524Q198 527 209 530Q218 532 233 534T269 537Q298 537 322 535T363 522T391 491T401 434V371Z" />
<glyph unicode="&#x2076;" glyph-name="six.superior" horiz-adv-x="423" d="M404 369Q404 332 389 311T347 280T288 267T219 264Q183 264 148 265T85 275T40 308T22 375V554Q22 589 31 611T61 647T119 665T211 670Q261 670 295 668T352 663Q378 660 394 657V547H237V573Q234
573 230 574Q222 576 213 576Q195 576 192 569T189 555V500Q200 501 211 503Q220 504 230 505T249 506Q273 506 301 504T351 494T389 470T404 424V369ZM237 414Q237 419 234 426T212 434Q207 434 197 432L189 430V382Q189 367 193 363T211 358Q229 358 233 364T237
381V414Z" />
<glyph unicode="&#x2077;" glyph-name="seven.superior" horiz-adv-x="378" d="M230 267H61L199 577H147V537H12V667H366V574L230 267Z" />
<glyph unicode="&#x2078;" glyph-name="eight.superior" horiz-adv-x="411" d="M393 349Q393 320 379 304T339 278T280 267T205 264Q164 264 130 266T71 278T32 303T18 349V402Q18 466 68 478Q51 483 39 499T26 553V583Q26 636 71 653T205 670Q290 670 338 653T386
583V553Q386 511 376 498T342 479Q372 474 382 454T393 402V349ZM228 561Q228 566 225 573T205 581Q188 581 185 574T182 562V534Q182 519 186 514T205 509Q222 509 225 515T228 533V561ZM228 412Q228 417 225 424T205 432Q188 432 185 425T182 413V379Q182 364
186 359T205 353Q222 353 225 359T228 377V412Z" />
<glyph unicode="&#x2079;" glyph-name="nine.superior" horiz-adv-x="423" d="M400 380Q400 345 391 323T360 287T302 269T211 264Q174 264 141 266T83 270Q54 273 29 277V387H186V361Q189 360 193 359Q197 358 210 358Q227 358 230 365T233 379V434Q225 432 214
431Q196 428 166 428Q142 428 116 430T69 440T33 466T19 516V565Q19 603 34 624T76 656T135 668T204 670Q240 670 275 669T338 659T383 626T400 559V380ZM233 552Q233 567 229 572T211 577Q194 577 190 571T186 553V520Q186 515 189 508T210 500Q215 500 225 502L233
504V552Z" />
<glyph unicode="&#x2080;" glyph-name="zero.inferior" horiz-adv-x="420" d="M397 -40Q397 -80 384 -102T346 -136T287 -150T210 -153Q165 -153 130 -151T71 -137T35 -103T22 -40V130Q22 171 32 195T64 232T123 249T210 253Q261 253 296 249T354 233T387 196T397
130V-40ZM233 140Q233 145 230 152T210 160Q193 160 190 153T186 141V-36Q186 -48 190 -53T210 -59Q224 -59 228 -53T233 -36V140Z" />
<glyph unicode="&#x2081;" glyph-name="one.inferior" horiz-adv-x="260" d="M69 -150V131L20 115V214L104 250H236V-150H69Z" />
<glyph unicode="&#x2082;" glyph-name="two.inferior" horiz-adv-x="419" d="M397 134Q397 97 385 72T353 28T312 -2T271 -23T237 -40T220 -60H388V-150H22V-94Q22 -65 37 -42T74 2T123 38T172 71T210 103T225 139Q225 151 220 155T203 159Q192 159 184 157Q180
156 178 156V121H29V240Q51 243 77 246Q100 248 129 250T194 253Q238 253 275 251T340 237T382 201T397 134Z" />
<glyph unicode="&#x2083;" glyph-name="three.inferior" horiz-adv-x="413" d="M394 -32Q394 -71 385 -95T353 -132T291 -149T192 -154Q156 -154 125 -152T70 -147Q43 -144 19 -140V-26H183V-58Q185 -59 189 -59H205Q222 -59 224 -50T227 -25V-10Q227 5 221 10T197
16H129V93H193Q210 93 216 98T223 121V130Q223 145 221 151T202 158Q197 158 193 158T187 157H183V130H23V240Q47 243 73 246Q96 248 123 250T180 253Q235 253 274 251T339 238T376 207T388 149Q388 117 378 95T333 63Q354 57 366 48T385 26T392 -2T394 -32Z" />
<glyph unicode="&#x2084;" glyph-name="four.inferior" horiz-adv-x="447" d="M384 -70V-150H218V-70H22V13L135 250H384V20H425V-70H384ZM223 170L162 20H223V170Z" />
<glyph unicode="&#x2085;" glyph-name="five.inferior" horiz-adv-x="423" d="M401 -46Q401 -87 387 -109T349 -141T293 -152T225 -154Q180 -154 144 -152T81 -147Q50 -144 26 -140V-20H193V-55Q196 -56 200 -57Q208 -59 217 -59Q230 -59 234 -55T238 -38V13Q238
27 235 32T215 38Q209 38 201 34Q197 32 193 31H26V250H386V160H193L192 107Q198 110 209 113Q218 115 233 117T269 120Q298 120 322 118T363 105T391 74T401 17V-46Z" />
<glyph unicode="&#x2086;" glyph-name="six.inferior" horiz-adv-x="423" d="M404 -48Q404 -85 389 -106T347 -137T288 -150T219 -153Q183 -153 148 -152T85 -142T40 -109T22 -42V136Q22 171 31 193T61 229T119 247T211 252Q261 252 295 250T352 245Q378 242 394
239V125H237V156Q234 156 230 157Q222 159 213 159Q195 159 192 152T189 138V83Q200 84 211 86Q220 87 230 88T249 89Q273 89 301 87T351 77T389 53T404 7V-48ZM237 -3Q237 2 234 9T212 17Q207 17 197 15L189 13V-35Q189 -50 193 -54T211 -59Q229 -59 233 -53T237
-36V-3Z" />
<glyph unicode="&#x2087;" glyph-name="seven.inferior" horiz-adv-x="378" d="M230 -150H61L199 160H147V120H12V250H366V157L230 -150Z" />
<glyph unicode="&#x2088;" glyph-name="eight.inferior" horiz-adv-x="411" d="M393 -68Q393 -97 379 -113T339 -139T280 -150T205 -153Q164 -153 130 -151T71 -139T32 -114T18 -68V-15Q18 49 68 61Q51 66 39 82T26 136V166Q26 219 71 236T205 253Q290 253 338
236T386 166V136Q386 94 376 81T342 62Q372 57 382 37T393 -15V-68ZM228 144Q228 149 225 156T205 164Q188 164 185 157T182 145V117Q182 102 186 97T205 92Q222 92 225 98T228 116V144ZM228 -5Q228 0 225 7T205 15Q188 15 185 8T182 -4V-38Q182 -53 186 -58T205
-64Q222 -64 225 -58T228 -40V-5Z" />
<glyph unicode="&#x2089;" glyph-name="nine.inferior" horiz-adv-x="423" d="M400 -37Q400 -72 391 -94T360 -130T302 -148T211 -153Q174 -153 141 -151T83 -147Q54 -144 29 -140V-25H186V-56Q189 -57 193 -58Q197 -59 210 -59Q227 -59 230 -52T233 -38V17Q225
15 214 14Q196 11 166 11Q142 11 116 13T69 23T33 49T19 99V148Q19 186 34 207T76 239T135 251T204 253Q240 253 275 252T338 242T383 209T400 142V-37ZM233 135Q233 150 229 155T211 160Q194 160 190 154T186 136V103Q186 98 189 91T210 83Q215 83 225 85L233
87V135Z" />
<glyph unicode="&#x20ac;" glyph-name="Euro" horiz-adv-x="627" d="M618 10Q590 4 550 0Q516 -4 466 -7T348 -10Q275 -10 221 -4T131 23T78 82T60 185V244H0V312H60V374H0V442H60V499Q60 564 86 600T153 653T247 673T353 677Q424 677 474 674T556 667Q594 663
618 657V513H378V547Q373 547 369 548Q359 550 349 550Q326 550 321 540T315 506V442H522V374H315V312H522V244H315V166Q315 136 321 127T353 117Q366 117 371 118Q375 119 378 120V163H618V10Z" />
<glyph unicode="&#x2113;" glyph-name="litre" horiz-adv-x="375" d="M81 194Q51 164 41 164Q36 164 32 169T27 180Q27 190 47 207Q56 215 68 227T97 259Q139 477 186 578T293 680Q321 680 338 659T356 603Q356 526 314 447T181 270Q172 224 166 191T156 133T151
91T149 62Q149 37 167 37Q193 37 217 91Q225 109 236 109Q249 109 249 96Q249 71 223 35Q188 -13 147 -13Q115 -13 97 12T79 80Q79 100 81 123T88 189L90 202L81 194ZM192 334Q253 402 285 469T317 598Q317 615 311 626T295 637Q278 637 265 617T238 547Q233 530
228 507T217 458T205 405T195 353L192 334Z" />
<glyph unicode="&#x2116;" glyph-name="numero" horiz-adv-x="1031" d="M996 443Q996 424 993 402T976 362T931 331T845 318Q791 318 759 327T709 351T686 386T680 431V551Q680 581 686 603T709 641T758 664T841 672Q894 672 925 663T971 638T991 604T996 566V443ZM856
549Q856 558 852 561T837 564Q825 564 823 559T821 549V443Q821 436 824 433T838 430Q849 430 852 433T856 443V549ZM681 188V282H997V188H681ZM387 0L274 313V0H30V667H286L395 391V667H639V0H387Z" />
<glyph unicode="&#x2122;" glyph-name="trademark" horiz-adv-x="689" d="M600 427V563Q600 597 601 626Q603 654 607 685L542 431H479L412 688Q415 656 417 628T419 567V427H330V750H464L496 631Q502 607 506 582Q510 559 512 536Q513 558 517 580Q521 605 526
628L555 750H689V427H600ZM226 674V428H137V674H70V750H293V674H226Z" />
<glyph unicode="&#x212e;" glyph-name="estimated" horiz-adv-x="687" d="M126 320V121Q180 64 234 45T352 26Q419 26 484 50T589 123H639Q592 63 517 27T351 -9Q277 -9 213 18T101 91T27 200T0 333Q0 404 27 466T100 575T209 649T343 676Q414 676 477 649T586
576T660 467T687 333V320H126ZM561 549Q514 597 459 620T342 643Q318 643 288 638T229 621T172 592T126 550V354H561V549Z" />
<glyph unicode="&#x2153;" glyph-name="onethird" horiz-adv-x="865" d="M79 267V548L30 532V631L114 667H246V267H79ZM268 -10H150L453 677H572L268 -10ZM836 118Q836 79 827 55T795 18T733 1T634 -4Q598 -4 569 -2T517 3Q491 6 471 10V124H625V92Q627 91 631
91H647Q664 91 666 100T669 125V140Q669 155 663 160T639 166H571V243H635Q652 243 658 248T665 271V280Q665 295 663 301T644 308Q639 308 635 308T629 307H625V280H475V390Q496 393 520 396Q540 398 566 400T622 403Q677 403 716 401T781 388T818 357T830 299Q830
267 820 245T775 213Q796 207 808 198T827 176T834 148T836 118Z" />
<glyph unicode="&#x2154;" glyph-name="twothirds" horiz-adv-x="1024" d="M407 551Q407 514 395 489T363 445T322 415T281 394T247 377T230 357H398V267H32V323Q32 352 47 375T84 419T133 455T182 488T220 520T235 556Q235 568 230 572T213 576Q202 576 194 574Q190
573 188 573V538H39V657Q61 660 87 663Q110 665 139 667T204 670Q248 670 285 668T350 654T392 618T407 551ZM427 -10H309L612 677H731L427 -10ZM995 118Q995 79 986 55T954 18T892 1T793 -4Q757 -4 728 -2T676 3Q650 6 630 10V124H784V92Q786 91 790 91H806Q823
91 825 100T828 125V140Q828 155 822 160T798 166H730V243H794Q811 243 817 248T824 271V280Q824 295 822 301T803 308Q798 308 794 308T788 307H784V280H634V390Q655 393 679 396Q699 398 725 400T781 403Q836 403 875 401T940 388T977 357T989 299Q989 267 979
245T934 213Q955 207 967 198T986 176T993 148T995 118Z" />
<glyph unicode="&#x2155;" glyph-name="onefifth" horiz-adv-x="875" d="M79 267V548L30 532V631L114 667H246V267H79ZM268 -10H150L453 677H572L268 -10ZM843 104Q843 63 829 41T791 9T735 -2T667 -4Q622 -4 587 -2T528 3Q499 6 478 10V130H634V95Q637 94 641
93Q649 91 658 91Q672 91 676 95T680 112V163Q680 177 677 182T656 188Q650 188 642 184Q638 182 634 181H478V400H817V310H634V257Q640 260 651 263Q660 265 675 267T711 270Q740 270 764 268T805 255T833 224T843 167V104Z" />
<glyph unicode="&#x2156;" glyph-name="twofifths" horiz-adv-x="1034" d="M407 551Q407 514 395 489T363 445T322 415T281 394T247 377T230 357H398V267H32V323Q32 352 47 375T84 419T133 455T182 488T220 520T235 556Q235 568 230 572T213 576Q202 576 194 574Q190
573 188 573V538H39V657Q61 660 87 663Q110 665 139 667T204 670Q248 670 285 668T350 654T392 618T407 551ZM427 -10H309L612 677H731L427 -10ZM1002 104Q1002 63 988 41T950 9T894 -2T826 -4Q781 -4 746 -2T687 3Q658 6 637 10V130H793V95Q796 94 800 93Q808
91 817 91Q831 91 835 95T839 112V163Q839 177 836 182T815 188Q809 188 801 184Q797 182 793 181H637V400H976V310H793V257Q799 260 810 263Q819 265 834 267T870 270Q899 270 923 268T964 255T992 224T1002 167V104Z" />
<glyph unicode="&#x2157;" glyph-name="threefifths" horiz-adv-x="1028" d="M404 385Q404 346 395 322T363 285T301 268T202 263Q166 263 135 265T80 270Q53 273 29 277V390H193V358Q195 357 199 357H215Q232 357 234 366T237 391V406Q237 422 231 427T207 433H139V510H203Q220
510 226 515T233 538V547Q233 562 231 568T212 575Q207 575 203 575T197 574H193V547H33V657Q57 660 83 663Q106 665 133 667T190 670Q245 670 284 668T349 655T386 624T398 566Q398 534 388 512T343 480Q364 474 376 465T395 443T402 415T404 385ZM421 -10H303L606
677H725L421 -10ZM996 104Q996 63 982 41T944 9T888 -2T820 -4Q775 -4 740 -2T681 3Q652 6 631 10V130H787V95Q790 94 794 93Q802 91 811 91Q825 91 829 95T833 112V163Q833 177 830 182T809 188Q803 188 795 184Q791 182 787 181H631V400H970V310H787V257Q793
260 804 263Q813 265 828 267T864 270Q893 270 917 268T958 255T986 224T996 167V104Z" />
<glyph unicode="&#x2158;" glyph-name="fourfifths" horiz-adv-x="1062" d="M394 347V267H228V347H32V430L145 667H394V437H435V347H394ZM233 577L172 437H233V577ZM455 -10H337L640 677H759L455 -10ZM1030 104Q1030 63 1016 41T978 9T922 -2T854 -4Q809 -4 774
-2T715 3Q686 6 665 10V130H821V95Q824 94 828 93Q836 91 845 91Q859 91 863 95T867 112V163Q867 177 864 182T843 188Q837 188 829 184Q825 182 821 181H665V400H1014V310H821V257Q827 260 838 263Q847 265 862 267T898 270Q927 270 951 268T992 255T1020 224T1030
167V104Z" />
<glyph unicode="&#x2159;" glyph-name="onesixth" horiz-adv-x="875" d="M846 102Q846 65 831 44T789 13T730 0T661 -3Q625 -3 590 -2T527 8T482 41T464 108V286Q464 321 473 343T503 379T561 397T653 402Q703 402 737 400T794 395Q820 392 836 389V275H679V306Q676
306 672 307Q664 309 654 309Q637 309 634 302T631 288V233Q642 234 653 236Q662 237 672 238T691 239Q715 239 743 237T793 227T831 203T846 157V102ZM268 -10H150L453 677H571L268 -10ZM79 267V548L30 532V631L114 667H246V267H79ZM679 147Q679 152 676 159T654
167Q649 167 639 165L631 163V115Q631 100 635 96T653 91Q671 91 675 97T679 114V147Z" />
<glyph unicode="&#x215a;" glyph-name="fivesixths" horiz-adv-x="1038" d="M1009 102Q1009 65 994 44T952 13T893 0T824 -3Q788 -3 753 -2T690 8T645 41T627 108V287Q627 322 636 344T666 380T724 398T816 403Q866 403 900 401T957 396Q983 393 999 390V276H842V307Q839
307 835 308Q827 310 817 310Q800 310 797 303T794 289V233Q805 234 816 236Q825 237 835 238T854 239Q878 239 906 237T956 227T994 203T1009 157V102ZM411 371Q411 330 397 308T359 276T303 265T235 263Q190 263 154 265T91 270Q60 273 36 278V397H203V362Q206
361 210 360Q218 358 226 358Q240 358 244 362T248 379V430Q248 444 245 449T224 455Q218 455 210 451Q206 449 202 448H36V667H396V577H203L202 524Q208 527 219 530Q228 532 243 534T279 537Q308 537 332 535T373 522T401 491T411 434V371ZM431 -10H313L616 677H734L431
-10ZM842 147Q842 152 839 159T817 167Q812 167 802 165L794 163V115Q794 100 798 96T816 91Q834 91 838 97T842 114V147Z" />
<glyph unicode="&#x215b;" glyph-name="oneeighth" horiz-adv-x="863" d="M79 267V548L30 532V631L114 667H246V267H79ZM268 -10H150L453 677H572L268 -10ZM835 82Q835 53 821 37T781 11T722 0T647 -3Q606 -3 572 -1T513 11T474 36T460 82V135Q460 199 510 211Q493
216 481 232T468 286V316Q468 369 513 386T647 403Q732 403 780 386T828 316V286Q828 244 818 231T784 212Q814 207 824 187T835 135V82ZM670 294Q670 299 667 306T647 314Q630 314 627 307T624 295V267Q624 252 628 247T647 242Q664 242 667 248T670 266V294ZM670
145Q670 150 667 157T647 165Q630 165 627 158T624 146V112Q624 97 628 92T647 86Q664 86 667 92T670 110V145Z" />
<glyph unicode="&#x215c;" glyph-name="threeeighths" horiz-adv-x="1016" d="M404 385Q404 346 395 322T363 285T301 268T202 263Q166 263 135 265T80 270Q53 273 29 277V390H193V358Q195 357 199 357H215Q232 357 234 366T237 391V406Q237 422 231 427T207 433H139V510H203Q220
510 226 515T233 538V547Q233 562 231 568T212 575Q207 575 203 575T197 574H193V547H33V657Q57 660 83 663Q106 665 133 667T190 670Q245 670 284 668T349 655T386 624T398 566Q398 534 388 512T343 480Q364 474 376 465T395 443T402 415T404 385ZM421 -10H303L606
677H725L421 -10ZM988 82Q988 53 974 37T934 11T875 0T800 -3Q759 -3 725 -1T666 11T627 36T613 82V135Q613 199 663 211Q646 216 634 232T621 286V316Q621 369 666 386T800 403Q885 403 933 386T981 316V286Q981 244 971 231T937 212Q967 207 977 187T988 135V82ZM823
294Q823 299 820 306T800 314Q783 314 780 307T777 295V267Q777 252 781 247T800 242Q817 242 820 248T823 266V294ZM823 145Q823 150 820 157T800 165Q783 165 780 158T777 146V112Q777 97 781 92T800 86Q817 86 820 92T823 110V145Z" />
<glyph unicode="&#x215d;" glyph-name="fiveeighths" horiz-adv-x="1026" d="M411 371Q411 330 397 308T359 276T303 265T235 263Q190 263 154 265T91 270Q60 273 36 277V397H203V362Q206 361 210 360Q218 358 226 358Q240 358 244 362T248 379V430Q248 444 245
449T224 455Q218 455 210 451Q206 449 202 448H36V667H396V577H203L202 524Q208 527 219 530Q228 532 243 534T279 537Q308 537 332 535T373 522T401 491T411 434V371ZM431 -10H313L616 677H735L431 -10ZM998 82Q998 53 984 37T944 11T885 0T810 -3Q769 -3 735
-1T676 11T637 36T623 82V135Q623 199 673 211Q656 216 644 232T631 286V316Q631 369 676 386T810 403Q895 403 943 386T991 316V286Q991 244 981 231T947 212Q977 207 987 187T998 135V82ZM833 294Q833 299 830 306T810 314Q793 314 790 307T787 295V267Q787 252
791 247T810 242Q827 242 830 248T833 266V294ZM833 145Q833 150 830 157T810 165Q793 165 790 158T787 146V112Q787 97 791 92T810 86Q827 86 830 92T833 110V145Z" />
<glyph unicode="&#x215e;" glyph-name="seveneighths" horiz-adv-x="981" d="M270 267H101L239 577H167V537H32V667H406V574L270 267ZM366 -10H248L551 677H670L366 -10ZM943 82Q943 53 929 37T889 11T830 0T755 -3Q714 -3 680 -1T621 11T582 36T568 82V135Q568
199 618 211Q601 216 589 232T576 286V316Q576 369 621 386T755 403Q840 403 888 386T936 316V286Q936 244 926 231T892 212Q922 207 932 187T943 135V82ZM778 294Q778 299 775 306T755 314Q738 314 735 307T732 295V267Q732 252 736 247T755 242Q772 242 775 248T778
266V294ZM778 145Q778 150 775 157T755 165Q738 165 735 158T732 146V112Q732 97 736 92T755 86Q772 86 775 92T778 110V145Z" />
<glyph unicode="&#x215f;" glyph-name="onefraction" horiz-adv-x="432" d="M79 267V548L30 532V631L114 667H246V267H79ZM268 -10H150L453 677H572L268 -10Z" />
<glyph unicode="&#x2190;" glyph-name="arrowleft" horiz-adv-x="667" d="M148 111L-1 332L148 554L301 552L198 402H667V263H198L301 113L148 111Z" />
<glyph unicode="&#x2191;" glyph-name="arrowup" horiz-adv-x="667" d="M112 519L333 667L555 519L553 365L403 469L402 0H265L264 469L114 365L112 519Z" />
<glyph unicode="&#x2192;" glyph-name="arrowright" horiz-adv-x="667" d="M365 113L468 263H-1V402H468L365 552L518 554L667 332L518 111L365 113Z" />
<glyph unicode="&#x2193;" glyph-name="arrowdown" horiz-adv-x="667" d="M114 302L264 198L265 667H402L403 198L553 302L555 148L333 0L112 148L114 302Z" />
<glyph unicode="&#x2194;" glyph-name="arrowboth" horiz-adv-x="667" d="M538 554L667 334L538 111L385 113L478 263H188L281 113L128 111L-1 334L128 554L281 552L188 402H478L385 552L538 554Z" />
<glyph unicode="&#x2195;" glyph-name="arrowupdn" horiz-adv-x="667" d="M554 127L334 -2L112 127L114 280L264 187V477L114 384L112 537L334 666L554 537L552 384L402 477V187L552 280L554 127Z" />
<glyph unicode="&#x2196;" glyph-name="arrownowe" horiz-adv-x="667" d="M466 508L287 476L619 144L521 47L189 379L158 200L47 306L99 568L359 619L466 508Z" />
<glyph unicode="&#x2197;" glyph-name="arrownoea" horiz-adv-x="667" d="M509 200L477 379L145 47L48 145L378 478L200 509L307 619L569 567L620 307L509 200Z" />
<glyph unicode="&#x2198;" glyph-name="arrowsoea" horiz-adv-x="667" d="M201 157L380 189L48 521L146 618L479 287L510 466L620 359L568 97L308 46L201 157Z" />
<glyph unicode="&#x2199;" glyph-name="arrowsowe" horiz-adv-x="667" d="M158 465L190 286L522 618L619 520L288 188L467 156L360 46L98 98L47 358L158 465Z" />
<glyph unicode="&#x2212;" glyph-name="minus" horiz-adv-x="500" d="M33 203V323H467V203H33Z" />
<glyph unicode="&#x2215;" glyph-name="fraction" horiz-adv-x="152" d="M-12 -10H-130L173 677H292L-12 -10Z" />
<glyph unicode="&#x2219;" glyph-name="periodcentered" horiz-adv-x="263" d="M30 239V430H233V239H30Z" />
<glyph unicode="&#x221e;" glyph-name="infinity" horiz-adv-x="679" d="M656 267Q656 231 644 201T610 150T558 116T492 104Q447 104 410 127T343 183Q311 151 272 128T186 104Q150 104 120 116T69 150T35 202T23 269Q23 304 35 333T68 384T120 418T185 430Q210
430 230 425T269 409T303 384T337 352Q369 385 407 407T494 430Q530 430 559 418T610 384T644 333T656 267ZM522 267Q522 287 507 300T472 313Q450 313 432 300T404 267Q416 251 433 236T472 221Q492 221 507 234T522 267ZM276 267Q264 283 247 298T207 313Q187
313 172 300T157 267Q157 247 172 234T207 221Q229 221 245 236T276 267Z" />
<glyph unicode="&#x2248;" glyph-name="approxequal" horiz-adv-x="500" d="M484 412Q472 386 458 362T424 318T381 288T325 277Q303 277 283 285T244 302T204 319T162 327Q146 327 136 323T117 313T102 296T87 274L16 316Q28 337 41 361T72 405T111 438T161 452Q179
452 202 445T249 428T297 412T339 404Q364 404 381 419T410 455L484 412ZM484 213Q472 187 458 163T424 119T381 89T325 78Q303 78 283 86T244 103T204 120T162 128Q146 128 136 124T117 114T102 97T87 75L16 117Q28 138 41 162T72 206T111 239T161 253Q179 253
202 246T249 229T297 213T339 205Q364 205 381 220T410 256L484 213Z" />
<glyph unicode="&#x2260;" glyph-name="notequal" horiz-adv-x="500" d="M226 107L180 15H77L123 107H33V224H174L210 290H33V407H261L316 515H419L364 407H467V290H312L278 224H467V107H226Z" />
<glyph unicode="&#x2264;" glyph-name="lessequal" horiz-adv-x="500" d="M33 287V396L467 514V396L160 345L467 287V169L33 287ZM33 15V131H467V15H33Z" />
<glyph unicode="&#x2265;" glyph-name="greaterequal" horiz-adv-x="500" d="M33 169V287L340 345L33 396V514L467 396V287L33 169ZM33 15V131H467V15H33Z" />
<glyph unicode="&#x2300;" glyph-name="diameter" horiz-adv-x="754" d="M102 128Q36 219 36 334Q36 409 62 472T134 581T242 652T377 676Q407 675 433 673T481 664T525 649T567 624L662 725L747 645L650 546Q688 499 704 445T720 334Q720 257 695 194T625 86T516
17T377 -8Q324 -8 277 2T185 44L91 -54L5 28L102 128ZM448 504Q431 514 409 519T367 524Q328 524 297 511T244 473T209 416T197 345Q197 322 202 299T218 256L448 504ZM303 167Q323 154 344 149T388 144Q429 144 461 158T514 196T547 253T558 325Q558 349 553 372T537
416L303 167Z" />
<glyph unicode="&#x2302;" glyph-name="house" horiz-adv-x="667" d="M0 381L333 709L667 381V0H0V381ZM616 51V359L332 636L51 359V51H616Z" />
<glyph unicode="&#x25a0;" glyph-name="filledbox" horiz-adv-x="667" d="M0 0V667H667V0H0Z" />
<glyph unicode="&#x25a1;" glyph-name="whitebox" horiz-adv-x="667" d="M0 0V667H667V0H0ZM620 620H47V47H620V620Z" />
<glyph unicode="&#x25aa;" glyph-name="filledboxsm" horiz-adv-x="367" d="M0 150V517H367V150H0Z" />
<glyph unicode="&#x25ab;" glyph-name="whiteboxsm" horiz-adv-x="367" d="M0 150V517H367V150H0ZM320 470H47V197H320V470Z" />
<glyph unicode="&#x25b2;" glyph-name="triagup" horiz-adv-x="667" d="M33 67L333 628L633 67H33Z" />
<glyph unicode="&#x25b4;" glyph-name="triagsmup" horiz-adv-x="500" d="M33 147L250 552L466 147H33Z" />
<glyph unicode="&#x25b6;" glyph-name="triagright" horiz-adv-x="667" d="M63 633L624 333L63 33V633Z" />
<glyph unicode="&#x25b8;" glyph-name="triagsmright" horiz-adv-x="500" d="M468 334L63 117V550L468 334Z" />
<glyph unicode="&#x25bc;" glyph-name="triagdn" horiz-adv-x="667" d="M633 600L333 39L33 600H633Z" />
<glyph unicode="&#x25be;" glyph-name="triagsmdn" horiz-adv-x="500" d="M466 520L250 115L33 520H466Z" />
<glyph unicode="&#x25c0;" glyph-name="triagleft" horiz-adv-x="667" d="M604 33L43 333L604 633V33Z" />
<glyph unicode="&#x25c2;" glyph-name="triagsmleft" horiz-adv-x="500" d="M468 550V117L63 334L468 550Z" />
<glyph unicode="&#x25cb;" glyph-name="circle" horiz-adv-x="521" d="M264 589Q316 589 363 569T445 513T500 432T521 333Q521 280 501 234T445 152T362 97T260 77Q207 77 160 97T77 152T21 233T0 332Q0 386 20 432T77 514T161 569T264 589ZM258 543Q214 543
176 527T109 482T64 415T47 333Q47 289 63 251T109 185T177 140T260 123Q304 123 343 139T411 184T457 251T474 332Q474 376 458 414T412 481T343 526T258 543Z" />
<glyph unicode="&#x25cf;" glyph-name="blackcircle" horiz-adv-x="521" d="M264 589Q316 589 363 569T445 513T500 432T521 333Q521 280 501 234T445 152T362 97T260 77Q207 77 160 97T77 152T21 233T0 332Q0 386 20 432T77 514T161 569T264 589Z" />
<glyph unicode="&#x25d8;" glyph-name="invbullet" horiz-adv-x="667" d="M0 667H667V0H0V667ZM332 473Q304 473 279 462T236 432T207 388T196 333Q196 304 206 279T236 235T279 205T333 194Q361 194 386 205T430 234T460 278T471 333Q471 362 460 387T431 432T387
462T332 473Z" />
<glyph unicode="&#x25d9;" glyph-name="invcircle" horiz-adv-x="667" d="M336 543Q379 543 417 527T485 482T530 415T547 333Q547 289 531 251T485 185T417 140T333 123Q289 123 250 139T182 184T137 251T120 333Q120 377 136 415T182 481T251 526T336 543ZM0
0V667H667V0H0ZM330 590Q277 590 231 570T149 514T94 432T73 333Q73 280 93 234T149 153T232 98T333 77Q387 77 434 97T517 152T573 233T594 333Q594 387 574 433T517 515T433 570T330 590Z" />
<glyph unicode="&#x25e6;" glyph-name="whitebullet" horiz-adv-x="275" d="M139 472Q168 472 193 462T236 433T264 389T275 334Q275 304 265 279T236 236T192 208T138 197Q109 197 84 207T40 236T11 279T0 334Q0 364 10 389T39 433T83 462T139 472ZM136 426Q98
426 74 399T49 334Q49 315 55 299T74 270T102 250T137 243Q176 243 201 269T226 334Q226 372 201 399T136 426Z" />
<glyph unicode="&#x25fb;" glyph-name="whitemedbox" horiz-adv-x="527" d="M0 70V597H527V70H0ZM480 550H47V117H480V550Z" />
<glyph unicode="&#x25fc;" glyph-name="filledmedbox" horiz-adv-x="527" d="M0 70V597H527V70H0Z" />
<glyph unicode="&#x25fd;" glyph-name="whitemedboxsm" horiz-adv-x="427" d="M0 120V547H427V120H0ZM380 500H47V167H380V500Z" />
<glyph unicode="&#x25fe;" glyph-name="blackmedboxsm" horiz-adv-x="427" d="M0 120V547H427V120H0Z" />
<glyph unicode="&#x263a;" glyph-name="smileface" horiz-adv-x="633" d="M224 466Q241 466 254 453T267 422Q267 404 254 391T223 378Q205 378 192 391T179 422Q179 441 192 453T224 466ZM412 466Q429 466 442 453T455 422Q455 404 442 391T411 378Q393 378 380
391T367 422Q367 441 380 453T412 466ZM111 372Q129 295 182 254T317 213Q399 213 452 254T523 372Q507 141 317 141Q129 141 111 372ZM321 650Q385 650 441 625T540 557T608 456T633 333Q633 268 608 211T540 110T440 42T317 17Q251 17 194 42T93 110T25 210T0
333Q0 399 25 457T93 558T194 625T321 650ZM313 609Q257 609 208 587T121 528T63 440T41 333Q41 276 62 226T121 139T209 80T316 58Q373 58 423 79T510 138T570 226T592 333Q592 391 571 441T511 528T422 587T313 609Z" />
<glyph unicode="&#x263b;" glyph-name="invsmileface" horiz-adv-x="633" d="M321 650Q385 650 441 625T540 557T608 456T633 333Q633 268 608 211T540 110T440 42T317 17Q251 17 194 42T93 110T25 210T0 333Q0 399 25 457T93 558T194 625T321 650ZM222 466Q205
466 192 453T179 422Q179 404 192 391T223 378Q241 378 254 391T267 422Q267 441 254 453T222 466ZM410 466Q393 466 380 453T367 422Q367 404 379 391T410 378Q429 378 441 391T454 422Q454 440 442 453T410 466ZM111 372Q129 141 317 141Q507 141 523 372Q506
295 453 254T317 213Q236 213 183 254T111 372Z" />
<glyph unicode="&#x263c;" glyph-name="sun" horiz-adv-x="633" d="M71 543L106 577L180 504Q205 524 232 534T290 548V653H339V548Q371 544 400 533T451 504L524 577L558 543L486 469Q523 423 532 358H633V309H532Q523 244 486 198L558 124L524 90L450 163Q427
143 399 133T339 119V14H290V119Q261 122 235 132T179 162L106 90L71 124L144 197Q125 220 113 249T97 309H0V358H97Q102 391 113 417T144 469L71 543ZM313 492Q278 492 250 480T201 446T169 396T158 334Q158 301 170 272T203 222T253 189T315 177Q348 177 376
189T426 222T459 272T471 335Q471 368 460 397T427 447T377 480T313 492Z" />
<glyph unicode="&#x2640;" glyph-name="female" horiz-adv-x="478" d="M215 0V166H53V209H215V320Q181 325 153 341T103 380T71 434T59 499Q59 537 72 570T110 627T167 665T239 679Q281 679 314 665T370 627T406 570T419 499Q419 464 408 434T375 381T326 341T263
320V209H425V166H263V0H215ZM237 635Q210 635 187 626T146 598T118 555T107 499Q107 471 117 446T146 403T188 374T239 363Q266 363 290 373T332 402T360 446T371 499Q371 527 362 552T334 595T292 624T237 635Z" />
<glyph unicode="&#x2642;" glyph-name="male" horiz-adv-x="661" d="M494 533Q469 539 446 547T406 563T378 580T367 596Q367 608 380 608Q384 608 388 608T400 605Q425 600 442 598T483 596Q540 596 576 606Q588 610 591 610T599 611Q609 611 609 600Q609 598
609 596T606 585Q598 560 596 540T593 491Q593 466 595 449T603 407Q605 398 605 395T606 388Q606 374 593 374Q586 374 577 385T558 413T541 453T527 499L377 349Q414 295 414 239Q414 195 400 161T360 104T302 69T231 56Q194 56 161 69T104 106T65 163T51 238Q51
277 64 310T102 368T159 407T231 421Q263 421 289 412T343 382L494 533ZM229 374Q202 374 179 364T139 337T111 294T101 239Q101 211 111 186T138 143T180 114T231 103Q258 103 282 112T325 139T353 181T364 238Q364 266 354 291T325 334T282 363T229 374Z" />
<glyph unicode="&#x2660;" glyph-name="spade" horiz-adv-x="667" d="M106 0V18Q213 32 269 91T327 255Q306 206 270 180T187 153Q161 153 139 163T100 190T74 230T64 279Q64 302 70 322T91 364T130 410T190 465Q311 566 334 686Q356 567 477 465Q513 435 537
411T576 365T597 323T603 279Q603 253 594 230T567 190T528 163T480 153Q434 153 398 179T340 255Q343 151 398 92T561 18V0H106Z" />
<glyph unicode="&#x2663;" glyph-name="club" horiz-adv-x="667" d="M106 0V18Q219 34 273 96T327 274Q254 147 150 147Q119 147 93 159T46 191T15 239T3 299Q3 330 13 356T41 403T83 434T134 446Q144 446 151 446T168 442T189 433L221 417Q201 445 193 468T185
517Q185 546 196 572T228 617T276 648T333 660Q363 660 390 649T437 618T469 572T481 517Q481 491 473 469T446 417Q465 427 477 433T499 442T515 445T533 446Q560 446 584 435T626 403T654 357T664 299Q664 267 653 240T621 192T575 159T517 147Q413 147 340 274Q340
159 394 97T561 18V0H106Z" />
<glyph unicode="&#x2665;" glyph-name="heart" horiz-adv-x="667" d="M333 -11Q325 22 313 52T281 117T228 199T147 310Q120 346 102 373T74 422T60 463T56 504Q56 532 66 557T93 600T134 628T186 639Q291 639 333 509Q351 573 388 606T479 640Q507 640 531 630T573
601T601 557T611 503Q611 473 599 438T563 364Q557 355 552 347T538 327T514 295T475 244Q418 173 382 107T333 -11Z" />
<glyph unicode="&#x2666;" glyph-name="diamond" horiz-adv-x="667" d="M80 333Q107 363 141 406T209 499T277 598T334 693Q358 649 390 599T457 499T526 407T587 333Q560 304 526 261T458 168T391 68T334 -26Q309 17 277 68T210 168T141 260T80 333Z" />
<glyph unicode="&#x266a;" glyph-name="musicalnote" horiz-adv-x="457" d="M231 667V606L298 525Q389 416 389 300Q389 255 375 214T332 138H304Q322 180 329 213T337 283Q337 317 329 347T306 402T273 441T231 460V163Q231 85 190 38T81 -9Q49 -9 30 7T10 51Q10
74 20 95T46 132T85 157T132 167Q157 167 185 156V667H231Z" />
<glyph unicode="&#x266b;" glyph-name="musicalnotedbl" horiz-adv-x="747" d="M589 694L586 199Q586 121 545 74T436 27Q404 27 385 43T365 87Q365 110 375 131T401 168T440 193T487 203Q515 203 540 192L543 462L224 372L221 143Q221 65 180 18T71 -29Q39 -29
20 -13T0 31Q0 54 10 75T36 112T75 137T122 147Q150 147 175 136L178 587L589 694ZM543 538V608L224 518V448L543 538Z" />
<glyph unicode="&#xe00e;" glyph-name="j.alt" horiz-adv-x="256" d="M30 -152V528H226V-152H30ZM30 586V667H226V586H30Z" />
<glyph unicode="&#xe00f;" glyph-name="r.alt" horiz-adv-x="465" d="M281 320V379Q281 399 275 404T254 409Q248 409 243 408T234 406Q230 404 226 403V0H30V527H213V494Q241 513 271 521T335 530Q398 530 431 492T465 378V320H281Z" />
<glyph unicode="&#xe010;" glyph-name="commahyphen" horiz-adv-x="318" d="M60 282V442H318V282H60ZM160 0H15L24 192H215L160 0Z" />
<glyph unicode="&#xe011;" glyph-name="comma.alt" horiz-adv-x="231" d="M160 0H15L24 192H215L160 0Z" />
<glyph unicode="&#xe012;" glyph-name="hyphen.alt" horiz-adv-x="328" d="M10 192V352H318V192H10Z" />
<glyph unicode="&#xe013;" glyph-name="eight.alt" horiz-adv-x="633" d="M614 137Q614 89 592 61T529 19T435 0T316 -5Q251 -5 197 -1T103 18T41 61T19 137V225Q19 280 39 310T99 351Q85 355 73 363T52 385T38 421T32 476V527Q32 572 50 600T104 644T193 666T316
672Q383 672 436 666T527 644T583 600T603 527V476Q603 441 599 419T587 383T565 363T533 352Q580 343 597 310T614 225V137ZM353 490Q353 494 352 499T348 510T337 519T316 523Q302 523 295 520T284 511T280 501T279 491V444Q279 419 285 411T316 402Q342 402
347 412T353 442V490ZM353 242Q353 246 352 251T348 262T337 271T316 275Q302 275 295 272T284 263T280 253T279 243V186Q279 161 285 153T316 144Q342 144 347 154T353 184V242Z" />
<glyph unicode="&#xefed;" glyph-name="Dotaccent" horiz-adv-x="500" d="M177 706V807H323V706H177Z" />
<glyph unicode="&#xefee;" glyph-name="Breve" horiz-adv-x="500" d="M417 832Q415 797 406 770T376 725T325 697T249 687Q204 687 174 697T124 726T95 772T83 832H195Q200 780 249 780Q278 780 291 791T306 832H417Z" />
<glyph unicode="&#xeff1;" glyph-name="Ogonek" horiz-adv-x="500" d="M380 -207Q370 -209 353 -210Q324 -213 261 -213Q237 -213 212 -211T167 -199T133 -174T120 -129Q120 -83 145 -52T213 0H344Q332 -5 318 -11T291 -27T270 -48T261 -75Q261 -87 266 -94T280
-106T299 -111T319 -113Q327 -113 337 -113T357 -111Q368 -110 380 -109V-207Z" />
<glyph unicode="&#xeff2;" glyph-name="Cedilla" horiz-adv-x="500" d="M376 -143Q376 -170 364 -188T331 -218T280 -235T214 -240Q205 -240 193 -240T168 -238T144 -234T124 -228V-157Q137 -161 155 -163T188 -165Q195 -165 205 -164T223 -160T238 -150T244 -133Q244
-113 230 -107T196 -100Q191 -100 185 -100T173 -102Q166 -103 160 -103L208 0H280L253 -54Q277 -54 299 -57T338 -70T365 -97T376 -143Z" />
<glyph unicode="&#xeff3;" glyph-name="Ring" horiz-adv-x="500" d="M388 776Q388 732 350 712T250 691Q221 691 196 696T152 711T123 738T112 775Q112 818 150 839T250 861Q312 861 350 840T388 776ZM288 776Q288 792 279 797T250 802Q230 802 221 797T212 776Q212
760 221 755T250 750Q270 750 279 755T288 776Z" />
<glyph unicode="&#xeff5;" glyph-name="Tilde" horiz-adv-x="500" d="M435 735Q405 718 377 706T311 694Q295 694 281 699T252 709T223 720T193 725Q176 725 154 716T118 696L65 778Q89 798 124 813T191 829Q207 829 221 824T250 814T279 803T309 798Q315 798
326 801T350 808T374 818T391 826L435 735Z" />
<glyph unicode="&#xeff7;" glyph-name="Circumflex" horiz-adv-x="500" d="M151 826H346L428 705H292L250 760L211 705H71L151 826Z" />
<glyph unicode="&#xf06d;" glyph-name="one.superior" horiz-adv-x="260" d="M69 267V548L20 532V631L104 667H236V267H69Z" />
<glyph unicode="&#xf06e;" glyph-name="two.superior" horiz-adv-x="419" d="M397 551Q397 514 385 489T353 445T312 415T271 394T237 377T220 357H388V267H22V323Q22 352 37 375T74 419T123 455T172 488T210 520T225 556Q225 568 220 572T203 576Q192 576 184
574Q180 573 178 573V538H29V657Q51 660 77 663Q100 665 129 667T194 670Q238 670 275 668T340 654T382 618T397 551Z" />
<glyph unicode="&#xf06f;" glyph-name="three.superior" horiz-adv-x="413" d="M394 385Q394 346 385 322T353 285T291 268T192 263Q156 263 125 265T70 270Q43 273 19 277V390H183V358Q185 357 189 357H205Q222 357 224 366T227 391V406Q227 422 221 427T197
433H129V510H193Q210 510 216 515T223 538V547Q223 562 221 568T202 575Q197 575 193 575T187 574H183V547H23V657Q47 660 73 663Q96 665 123 667T180 670Q235 670 274 668T339 655T376 624T388 566Q388 534 378 512T333 480Q354 474 366 465T385 443T392 415T394
385Z" />
<glyph unicode="&#xf116;" glyph-name="Mcircumflex" horiz-adv-x="840" d="M573 0V375L498 2H340L264 374V0H30V667H348L419 305L488 667H810V0H573ZM321 826H516L598 705H462L420 760L381 705H241L321 826Z" />
<glyph unicode="&#xf117;" glyph-name="mcircumflex" horiz-adv-x="743" d="M521 0V381Q521 393 517 399T499 406Q493 406 488 405T479 403Q475 402 470 401V0H274V381Q274 390 271 398T252 406Q241 406 231 404Q227 403 224 402V0H30V528H211V486Q212 488 217
494Q224 502 239 510T279 526T340 533Q370 533 390 525T422 507Q436 496 444 481Q457 496 475 507Q491 517 516 525T578 533Q626 533 653 519T695 485T713 440T717 394V0H521ZM410 566L371 621L329 566H193L275 687H470L550 566H410Z" />
<glyph unicode="&#xf11b;" glyph-name="Gtilde" horiz-adv-x="616" d="M378 0L368 34Q353 21 336 14T302 2T270 -3T243 -5Q177 -5 135 10T70 51T37 110T28 182V487Q28 552 48 589T106 646T200 671T327 677Q392 677 440 673T521 664Q559 659 586 652V453H346V517Q342
517 337 518Q332 519 326 519T312 520Q291 520 287 507T283 478V184Q283 176 285 169T294 157T315 152H326Q332 152 337 153Q342 154 346 155V242H321V366H586V0H378ZM513 745Q483 728 455 716T389 704Q373 704 359 709T330 719T301 730T271 735Q254 735 232 726T196
706L143 788Q167 808 202 823T269 839Q285 839 299 834T328 824T357 813T387 808Q393 808 404 811T428 818T452 828T469 836L513 745Z" />
<glyph unicode="&#xf11c;" glyph-name="gtilde" horiz-adv-x="514" d="M484 -4Q484 -58 471 -89T428 -136T354 -156T246 -160Q204 -160 167 -158T102 -151Q69 -147 43 -142V-3H216V-43Q220 -44 225 -45Q229 -46 234 -46H246Q273 -46 280 -34T288 -2V71Q266 53
238 47T180 41Q107 41 68 73T28 172V371Q28 407 34 436T55 487T98 521T167 533Q199 533 223 526T264 510Q282 500 296 488V528H484V-4ZM454 606Q424 589 396 577T330 565Q314 565 300 570T271 580T242 591T212 596Q195 596 173 587T137 567L84 649Q108 669 143
684T210 700Q226 700 240 695T269 685T298 674T328 669Q334 669 345 672T369 679T393 689T410 697L454 606ZM288 402L278 404Q273 405 268 405T255 406Q237 406 231 397T224 374V187Q224 173 230 163T255 152Q263 152 268 152T279 154Q284 155 288 156V402Z" />
<glyph unicode="&#xf127;" glyph-name="Ncircumflex" horiz-adv-x="669" d="M387 0L274 313V0H30V667H286L395 391V667H639V0H387ZM236 826H431L513 705H377L335 760L296 705H156L236 826Z" />
<glyph unicode="&#xf128;" glyph-name="ncircumflex" horiz-adv-x="500" d="M277 0V376Q277 390 275 398T254 406Q250 406 246 406T236 404L226 402V0H30V528H214V486Q215 488 220 494Q226 502 240 510T276 526T333 533Q473 533 473 391V0H277ZM287 566L248 621L206
566H70L152 687H347L427 566H287Z" />
<glyph unicode="&#xf12a;" glyph-name="Commaaccent" horiz-adv-x="500" d="M303 -151H156L164 -40H344L303 -151Z" />
<glyph unicode="&#xf12c;" glyph-name="Ndieresis" horiz-adv-x="669" d="M387 0L274 313V0H30V667H286L395 391V667H639V0H387ZM376 706V807H522V706H376ZM146 706V807H292V706H146Z" />
<glyph unicode="&#xf12d;" glyph-name="ndieresis" horiz-adv-x="500" d="M277 0V376Q277 390 275 398T254 406Q250 406 246 406T236 404L226 402V0H30V528H214V486Q215 488 220 494Q226 502 240 510T276 526T334 533Q473 533 473 391V0H277ZM69 576V677H215V576H69ZM268
576V677H414V576H268Z" />
<glyph unicode="&#xf150;" glyph-name="zeroone" horiz-adv-x="892" d="M417 377Q417 337 404 315T366 281T307 267T230 264Q185 264 150 266T91 280T55 314T42 377V547Q42 588 52 612T84 649T143 666T230 670Q281 670 316 666T374 650T407 613T417 547V377ZM253
557Q253 562 250 569T230 577Q213 577 210 570T206 558V381Q206 369 210 364T230 358Q244 358 248 364T253 381V557ZM448 -10H330L633 677H752L448 -10ZM691 0V281L643 265V364L727 400H858V0H691Z" />
<glyph unicode="&#xf151;" glyph-name="oneone" horiz-adv-x="712" d="M79 267V548L30 532V631L114 667H246V267H79ZM268 -10H150L453 677H572L268 -10ZM511 0V281L463 265V364L547 400H678V0H511Z" />
<glyph unicode="&#xf206;" glyph-name="commaascender" horiz-adv-x="500" d="M287 566H180L189 687H319L287 566Z" />
<glyph unicode="&#xf211;" glyph-name="Germandbls" horiz-adv-x="1260" d="M608 203Q608 125 586 82T524 19T427 -6T300 -10Q225 -10 173 -7T87 2Q47 7 22 15V208H261V145Q266 144 273 143Q279 142 286 142H305Q322 142 331 147T346 158T352 172T353 183Q353
210 337 225T277 257L167 296Q138 306 112 317T65 347T33 397T20 479Q20 550 44 590T112 649T213 673T337 677Q391 677 436 674T516 665Q556 660 588 653V467H349V523Q342 523 335 524Q329 525 322 525T309 526Q288 526 280 513T271 485Q271 463 282 453T314 435L481
379Q516 367 540 354T579 321T601 273T608 203ZM1240 203Q1240 125 1218 82T1156 19T1059 -6T932 -10Q857 -10 805 -7T719 2Q679 7 654 15V208H893V145Q898 144 905 143Q911 142 918 142H937Q954 142 963 147T978 158T984 172T985 183Q985 210 969 225T909 257L799
296Q770 306 744 317T697 347T665 397T652 479Q652 550 676 590T744 649T845 673T969 677Q1023 677 1068 674T1148 665Q1188 660 1220 653V467H981V523Q974 523 967 524Q961 525 954 525T941 526Q920 526 912 513T903 485Q903 463 914 453T946 435L1113 379Q1148
367 1172 354T1211 321T1233 273T1240 203Z" />
<glyph unicode="&#xf303;" glyph-name="zerozero" horiz-adv-x="1037" d="M417 377Q417 337 404 315T366 281T307 267T230 264Q185 264 150 266T91 280T55 314T42 377V547Q42 588 52 612T84 649T143 666T230 670Q281 670 316 666T374 650T407 613T417 547V377ZM253
557Q253 562 250 569T230 577Q213 577 210 570T206 558V381Q206 369 210 364T230 358Q244 358 248 364T253 381V557ZM428 -10H310L613 677H732L428 -10ZM999 110Q999 70 986 48T948 14T889 0T812 -3Q767 -3 732 -1T673 13T637 47T624 110V280Q624 321 634 345T666
382T725 399T812 403Q863 403 898 399T956 383T989 346T999 280V110ZM835 290Q835 295 832 302T812 310Q795 310 792 303T788 291V114Q788 102 792 97T812 91Q826 91 830 97T835 114V290Z" />
<glyph unicode="&#xf639;" glyph-name="zero.fitted" horiz-adv-x="626" d="M600 185Q600 117 584 78T533 20T444 -5T314 -10Q242 -10 188 -6T98 18T44 76T26 183V471Q26 540 40 581T88 643T177 670T314 677Q398 677 453 671T540 643T586 581T600 471V185ZM345
186V500Q345 505 342 509T333 517T315 520Q302 520 295 517T285 510T282 500T281 491V186Q281 166 285 157T314 147Q337 147 341 157T345 186Z" />
<glyph unicode="&#xf63a;" glyph-name="two.fitted" horiz-adv-x="626" d="M603 478Q603 417 583 375T531 302T464 251T395 214T339 184T312 152H590V0H22V114Q22 163 46 201T107 270T186 326T265 377T325 428T350 486Q350 506 341 513T315 520Q304 520 297 519T285
517Q280 516 276 515V456H43V656Q73 662 110 666Q142 670 185 673T282 677Q361 677 421 673T521 650T582 590T603 478Z" />
<glyph unicode="&#xf63b;" glyph-name="three.fitted" horiz-adv-x="626" d="M591 197Q591 126 576 85T527 23T438 -4T302 -10Q245 -10 197 -7T112 0Q70 4 34 10V192H272V134L282 132Q287 131 292 131H302Q315 131 322 135T332 145T335 160T336 178V220Q336 246
328 255T294 264H186V416H289Q315 416 325 425T336 462V492Q336 517 333 526T304 536Q290 536 280 534L272 532V482H34V657Q68 663 108 667Q142 671 186 674T282 677Q358 677 415 673T509 650T564 597T583 498Q583 472 581 448T570 405T548 372T509 352Q538 347
554 334T579 301T589 255T591 197Z" />
<glyph unicode="&#xf63c;" glyph-name="four.fitted" horiz-adv-x="626" d="M561 133V0H306V133H0V271L167 667H561V285H626V133H561ZM306 556L189 285H306V556Z" />
<glyph unicode="&#xf63d;" glyph-name="five.fitted" horiz-adv-x="626" d="M591 190Q591 115 573 74T516 15T421 -7T285 -10Q237 -10 193 -7T113 0Q72 4 34 10V203H272V134L284 132Q289 131 294 131H303Q324 131 330 140T336 170V264Q336 287 333 300T307 313Q297
313 291 311T281 307Q277 304 274 302H34L44 667H570V528H267L263 425Q273 432 289 436T322 444T356 448T385 449Q452 449 492 437T555 400T584 341T591 259V190Z" />
<glyph unicode="&#xf63e;" glyph-name="six.fitted" horiz-adv-x="626" d="M604 170Q604 105 583 69T527 15T448 -6T355 -10H326Q257 -10 203 -7T110 13T51 69T30 176V475Q30 542 50 582T108 643T199 670T316 677Q375 677 424 674T509 667Q551 663 586 657V474H349V517Q346
517 342 518Q332 520 318 520Q304 520 298 517T288 510T285 499V389Q298 395 316 399Q331 403 352 406T401 410Q440 410 476 407T541 390T587 349T604 273V170ZM349 168V245Q349 251 347 256T338 265T318 269Q312 269 307 268T296 266Q291 264 285 263V178Q285
161 290 154T317 147Q330 147 336 150T346 158T349 168Z" />
<glyph unicode="&#xf63f;" glyph-name="seven.fitted" horiz-adv-x="626" d="M378 0H106L355 528H254V461H31V667H594V516L378 0Z" />
<glyph unicode="&#xf640;" glyph-name="eight.fitted" horiz-adv-x="626" d="M600 178Q600 111 583 74T530 18T440 -5T314 -10Q242 -10 188 -6T98 17T44 74T26 178V225Q26 290 49 318T108 352Q94 357 82 363T60 382T45 417T39 476V493Q39 560 60 597T117 652T204
673T314 677Q381 677 432 673T517 650T570 594T588 493V476Q588 418 572 390T518 353Q566 344 583 311T600 225V178ZM348 143V256Q348 262 345 266T335 274T315 278Q302 278 295 275T285 268T282 258T281 248V164Q281 151 281 142T285 128T295 120T315 117Q328
117 335 120T345 129T348 143ZM348 526Q348 538 344 549T315 561Q302 561 295 558T285 549T282 537T281 527V440Q281 428 281 420T285 408T295 401T315 399Q341 399 344 408T348 438V526Z" />
<glyph unicode="&#xf641;" glyph-name="nine.fitted" horiz-adv-x="626" d="M596 192Q596 124 576 84T518 23T427 -4T310 -10Q251 -10 202 -7T116 0Q74 4 40 10V203H277V150Q280 149 284 148Q289 147 308 147Q321 147 328 150T338 157T341 168V288Q331 281 315
277Q301 273 279 270T225 267Q186 267 150 272T85 292T39 337T22 414V497Q22 562 43 598T99 652T178 673T271 677H300Q369 677 423 673T516 649T575 590T596 481V192ZM341 489Q341 506 336 513T309 520Q296 520 290 517T280 509T277 498V431Q277 426 279 421T288
412T308 408Q321 408 330 411Q335 412 341 414V489Z" />
<glyph unicode="&#xf655;" glyph-name="zero.numerator" horiz-adv-x="460" d="M417 377Q417 337 404 315T366 281T307 267T230 264Q185 264 150 266T91 280T55 314T42 377V547Q42 588 52 612T84 649T143 666T230 670Q281 670 316 666T374 650T407 613T417 547V377ZM253
557Q253 562 250 569T230 577Q213 577 210 570T206 558V381Q206 369 210 364T230 358Q244 358 248 364T253 381V557Z" />
<glyph unicode="&#xf656;" glyph-name="one.numerator" horiz-adv-x="280" d="M79 267V548L30 532V631L114 667H246V267H79Z" />
<glyph unicode="&#xf657;" glyph-name="two.numerator" horiz-adv-x="439" d="M407 551Q407 514 395 489T363 445T322 415T281 394T247 377T230 357H398V267H32V323Q32 352 47 375T84 419T133 455T182 488T220 520T235 556Q235 568 230 572T213 576Q202 576 194
574Q190 573 188 573V538H39V657Q61 660 87 663Q110 665 139 667T204 670Q248 670 285 668T350 654T392 618T407 551Z" />
<glyph unicode="&#xf658;" glyph-name="three.numerator" horiz-adv-x="433" d="M404 385Q404 346 395 322T363 285T301 268T202 263Q166 263 135 265T80 270Q53 273 29 277V390H193V358Q195 357 199 357H215Q232 357 234 366T237 391V406Q237 422 231 427T207
433H139V510H203Q220 510 226 515T233 538V547Q233 562 231 568T212 575Q207 575 203 575T197 574H193V547H33V657Q57 660 83 663Q106 665 133 667T190 670Q245 670 284 668T349 655T386 624T398 566Q398 534 388 512T343 480Q364 474 376 465T395 443T402 415T404
385Z" />
<glyph unicode="&#xf659;" glyph-name="four.numerator" horiz-adv-x="467" d="M394 347V267H228V347H32V430L145 667H394V437H435V347H394ZM233 587L172 437H233V587Z" />
<glyph unicode="&#xf65a;" glyph-name="five.numerator" horiz-adv-x="443" d="M411 371Q411 330 397 308T359 276T303 265T235 263Q190 263 154 265T91 270Q60 273 36 277V397H203V362Q206 361 210 360Q218 358 227 358Q240 358 244 362T248 379V430Q248 444
245 449T225 455Q219 455 211 451Q207 449 203 448H36V667H396V577H203L202 524Q208 527 219 530Q228 532 243 534T279 537Q308 537 332 535T373 522T401 491T411 434V371Z" />
<glyph unicode="&#xf65b;" glyph-name="six.numerator" horiz-adv-x="443" d="M414 369Q414 332 399 311T357 280T298 267T229 264Q193 264 158 265T95 275T50 308T32 375V554Q32 589 41 611T71 647T129 665T221 670Q271 670 305 668T362 663Q388 660 404 657V542H247V573Q244
573 240 574Q232 576 223 576Q205 576 202 569T199 555V500Q210 501 221 503Q230 504 240 505T259 506Q283 506 311 504T361 494T399 470T414 424V369ZM247 414Q247 419 244 426T222 434Q217 434 207 432L199 430V382Q199 367 203 363T221 358Q239 358 243 364T247
381V414Z" />
<glyph unicode="&#xf65c;" glyph-name="seven.numerator" horiz-adv-x="398" d="M240 267H71L209 577H157V537H22V667H376V574L240 267Z" />
<glyph unicode="&#xf65d;" glyph-name="eight.numerator" horiz-adv-x="431" d="M403 349Q403 320 389 304T349 278T290 267T215 264Q174 264 140 266T81 278T42 303T28 349V402Q28 466 78 478Q61 483 49 499T36 553V583Q36 636 81 653T215 670Q300 670 348 653T396
583V553Q396 511 386 498T352 479Q382 474 392 454T403 402V349ZM238 561Q238 566 235 573T215 581Q198 581 195 574T192 562V534Q192 519 196 514T215 509Q232 509 235 515T238 533V561ZM238 412Q238 417 235 424T215 432Q198 432 195 425T192 413V379Q192 364
196 359T215 353Q232 353 235 359T238 377V412Z" />
<glyph unicode="&#xf65e;" glyph-name="nine.numerator" horiz-adv-x="463" d="M420 380Q420 345 411 323T380 287T322 269T231 264Q194 264 161 266T103 270Q74 273 49 277V391H206V360Q209 359 213 358Q217 357 230 357Q247 357 250 364T253 378V434Q245 432
234 431Q216 428 186 428Q162 428 136 430T89 440T53 466T39 516V565Q39 603 54 624T96 656T155 668T224 670Q260 670 295 669T358 659T403 626T420 559V380ZM253 552Q253 567 249 572T231 577Q214 577 210 571T206 553V520Q206 515 209 508T230 500Q235 500 245
502L253 504V552Z" />
<glyph unicode="&#xf661;" glyph-name="zero.denominator" horiz-adv-x="440" d="M407 110Q407 70 394 48T356 14T297 0T220 -3Q175 -3 140 -1T81 13T45 47T32 110V280Q32 321 42 345T74 382T133 399T220 403Q271 403 306 399T364 383T397 346T407 280V110ZM243
290Q243 295 240 302T220 310Q203 310 200 303T196 291V114Q196 102 200 97T220 91Q234 91 238 97T243 114V290Z" />
<glyph unicode="&#xf662;" glyph-name="one.denominator" horiz-adv-x="280" d="M79 0V281L30 265V364L114 400H246V0H79Z" />
<glyph unicode="&#xf663;" glyph-name="two.denominator" horiz-adv-x="439" d="M407 284Q407 247 395 222T363 178T322 148T281 127T247 110T230 90H398V0H32V56Q32 85 47 108T84 152T133 188T182 221T220 253T235 289Q235 301 230 305T213 309Q202 309 194 307Q190
306 188 306V271H39V390Q61 393 87 396Q110 398 139 400T204 403Q248 403 285 401T350 387T392 351T407 284Z" />
<glyph unicode="&#xf664;" glyph-name="three.denominator" horiz-adv-x="433" d="M404 118Q404 79 395 55T363 18T301 1T202 -4Q166 -4 135 -2T80 3Q53 6 29 10V124H193V92Q195 91 199 91H215Q232 91 234 100T237 125V140Q237 155 231 160T207 166H139V243H203Q220
243 226 248T233 271V280Q233 295 231 301T212 308Q207 308 203 308T197 307H193V280H33V390Q57 393 83 396Q106 398 133 400T190 403Q245 403 284 401T349 388T386 357T398 299Q398 267 388 245T343 213Q364 207 376 198T395 176T402 148T404 118Z" />
<glyph unicode="&#xf665;" glyph-name="four.denominator" horiz-adv-x="467" d="M394 80V0H228V80H32V163L145 400H394V170H435V80H394ZM233 320L172 170H233V320Z" />
<glyph unicode="&#xf666;" glyph-name="five.denominator" horiz-adv-x="443" d="M411 104Q411 63 397 41T359 9T303 -2T235 -4Q190 -4 154 -2T91 3Q60 6 36 10V130H203V95Q206 94 210 93Q218 91 227 91Q240 91 244 95T248 112V163Q248 177 245 182T225 188Q219
188 211 184Q207 182 203 181H36V400H396V310H203L202 257Q208 260 219 263Q228 265 243 267T279 270Q308 270 332 268T373 255T401 224T411 167V104Z" />
<glyph unicode="&#xf667;" glyph-name="six.denominator" horiz-adv-x="443" d="M414 102Q414 65 399 44T357 13T298 0T229 -3Q193 -3 158 -2T95 8T50 41T32 108V286Q32 321 41 343T71 379T129 397T221 402Q271 402 305 400T362 395Q388 392 404 389V275H247V306Q244
306 240 307Q232 309 223 309Q205 309 202 302T199 288V233Q210 234 221 236Q230 237 240 238T259 239Q283 239 311 237T361 227T399 203T414 157V102ZM247 147Q247 152 244 159T222 167Q217 167 207 165L199 163V115Q199 100 203 96T221 91Q239 91 243 97T247
114V147Z" />
<glyph unicode="&#xf668;" glyph-name="seven.denominator" horiz-adv-x="398" d="M240 0H71L209 310H157V270H22V400H376V307L240 0Z" />
<glyph unicode="&#xf669;" glyph-name="eight.denominator" horiz-adv-x="431" d="M403 82Q403 53 389 37T349 11T290 0T215 -3Q174 -3 140 -1T81 11T42 36T28 82V135Q28 199 78 211Q61 216 49 232T36 286V316Q36 369 81 386T215 403Q300 403 348 386T396 316V286Q396
244 386 231T352 212Q382 207 392 187T403 135V82ZM238 294Q238 299 235 306T215 314Q198 314 195 307T192 295V267Q192 252 196 247T215 242Q232 242 235 248T238 266V294ZM238 145Q238 150 235 157T215 165Q198 165 195 158T192 146V112Q192 97 196 92T215 86Q232
86 235 92T238 110V145Z" />
<glyph unicode="&#xf66a;" glyph-name="nine.denominator" horiz-adv-x="443" d="M410 113Q410 78 401 56T370 20T312 2T221 -3Q184 -3 151 -1T93 3Q64 6 39 10V125H196V94Q199 93 203 92Q207 91 220 91Q237 91 240 98T243 112V167Q235 165 224 164Q206 161 176
161Q152 161 126 163T79 173T43 199T29 249V298Q29 336 44 357T86 389T145 401T214 403Q250 403 285 402T348 392T393 359T410 292V113ZM243 285Q243 300 239 305T221 310Q204 310 200 304T196 286V253Q196 248 199 241T220 233Q225 233 235 235L243 237V285Z"
/>
<glyph unicode="&#xf6bc;" glyph-name="Emdash" horiz-adv-x="686" d="M0 253V413H686V253H0Z" />
<glyph unicode="&#xf6be;" glyph-name="dotlessj" horiz-adv-x="253" d="M225 -5Q225 -34 220 -61T198 -109T146 -144T53 -157Q32 -157 12 -156T-26 -153Q-45 -151 -63 -149V-47Q-59 -49 -52 -50Q-46 -51 -38 -51T-16 -52Q1 -52 10 -48T24 -36T28 -20T29 -1V528H225V-5Z" />
<glyph unicode="&#xf6c3;" glyph-name="commaaccent" horiz-adv-x="500" d="M303 -151H156L164 -40H344L303 -151Z" />
<glyph unicode="&#xf6c9;" glyph-name="Acute" horiz-adv-x="500" d="M308 706H121L159 817H379L308 706Z" />
<glyph unicode="&#xf6ca;" glyph-name="Caron" horiz-adv-x="500" d="M348 705H153L71 826H207L249 771L288 826H428L348 705Z" />
<glyph unicode="&#xf6cb;" glyph-name="Dieresis" horiz-adv-x="500" d="M292 706V807H438V706H292ZM62 706V807H208V706H62Z" />
<glyph unicode="&#xf6ce;" glyph-name="Grave" horiz-adv-x="500" d="M121 819H341L379 708H192L121 819Z" />
<glyph unicode="&#xf6cf;" glyph-name="Hungarumlaut" horiz-adv-x="500" d="M388 706H251L289 817H459L388 706ZM178 706H41L79 817H249L178 706Z" />
<glyph unicode="&#xf6d0;" glyph-name="Macron" horiz-adv-x="500" d="M82 707V808H417V707H82Z" />
<glyph unicode="&#xf6dc;" glyph-name="one.fitted" horiz-adv-x="626" d="M213 0L212 468L101 428V594L258 667H467V0H213Z" />
<glyph unicode="&#xfb01;" glyph-name="fi" horiz-adv-x="572" d="M306 586Q302 587 297 588Q292 589 287 589T274 590Q256 590 251 581T246 560V528H298V406H246V0H50V406H10V528H50V579Q50 591 53 611T70 649T115 681T200 695Q224 695 243 694T277 691Q293 689
306 688V586ZM346 0V528H542V0H346ZM346 586V667H542V586H346Z" />
<glyph unicode="&#xfb02;" glyph-name="fl" horiz-adv-x="562" d="M306 586Q302 587 297 588Q292 589 287 589T274 590Q256 590 251 581T246 560V528H298V406H246V0H50V406H10V528H50V579Q50 591 53 611T70 649T115 681T200 695Q224 695 243 694T277 691Q293 689
306 688V586ZM336 0V667H532V0H336Z" />
</font>
</defs>
</svg>
