<?xml version="1.0" standalone="no"?>
<!DOCTYPE svg PUBLIC "-//W3C//DTD SVG 1.1//EN" "http://www.w3.org/Graphics/SVG/1.1/DTD/svg11.dtd">
<svg xmlns="http://www.w3.org/2000/svg">
<defs >
<font id="Mina" horiz-adv-x="466" ><font-face
    font-family="Mina"
    units-per-em="1000"
    panose-1="2 0 8 3 0 0 0 0 0 0"
    ascent="1075"
    descent="-515"
    alphabetic="0" />
<glyph unicode=" " glyph-name="space" horiz-adv-x="325" />
<glyph unicode="!" glyph-name="exclam" horiz-adv-x="273" d="M67 23V113Q67 138 91 138H179Q189 138 195 131T202 113V23Q202 0 179 0H91Q80 0 74 6T67 23ZM65 731H206L191 196H77L65 731Z" />
<glyph unicode="&quot;" glyph-name="quotedbl" horiz-adv-x="444" d="M65 665V732H200V665L190 531H76L65 665ZM245 665V732H380V665L370 531H256L245 665Z" />
<glyph unicode="#" glyph-name="numbersign" horiz-adv-x="721" d="M15 210L30 306H182L203 427H49L65 523H220L257 732H353L316 523H440L476 732H572L536 523H707L693 427H521L500 305H672L659 209H480L443 0H347L384 209L260 210L223 0H127L164 210H15ZM278
306L404 305L425 427H299L278 306Z" />
<glyph unicode="$" glyph-name="dollar" horiz-adv-x="570" d="M238 824H323V737Q416 731 502 709V600Q359 609 316 610Q274 610 270 610Q225 610 204 597Q182 584 182 538V502Q182 464 202 448Q221 432 262 432H355Q470 432 510 341Q529 296 529 238V189Q529
73 464 29Q409 -8 329 -8H323V-90H238V-6Q146 -1 65 22V130Q224 121 298 121Q389 121 389 184V223Q389 257 374 274Q360 292 322 292H231Q182 292 146 306Q110 321 90 342Q71 363 59 391Q42 435 42 486V549Q43 732 238 738V824Z" />
<glyph unicode="%" glyph-name="percent" horiz-adv-x="962" d="M32 480V602Q32 668 62 700T167 732H268Q339 732 369 700T400 602V480Q400 413 370 381T266 349H165Q116 349 87 364T45 407T32 480ZM130 496Q130 469 140 458T178 447H252Q283 447 292 458T302
496V585Q302 614 292 624T254 634H180Q151 634 141 624T130 585V496ZM208 0L655 732H755L312 0H208ZM563 133V255Q563 299 575 327T617 370T697 386H798Q869 386 900 354T931 255V133Q931 67 900 35T796 3H695Q658 3 633 11T592 36T570 76T563 133ZM661 150Q661
132 664 122T678 106T709 101H782Q798 101 808 103T824 113T831 128T833 150V239Q833 259 828 269T812 284T784 288H711Q682 288 672 278T661 239V150Z" />
<glyph unicode="&amp;" glyph-name="ampersand" horiz-adv-x="679" d="M320 608Q253 608 253 576Q253 553 284 510L453 279L574 393L623 334L563 227L526 183L662 0H498L427 96L362 38Q313 -6 238 -6Q199 -6 159 9Q101 30 64 86Q26 142 26 202Q26 296 110 369L179
430L128 504Q95 551 95 594Q95 649 130 686Q166 724 207 730Q253 737 314 737Q375 737 484 710V608H320ZM197 284Q158 251 158 220Q158 189 176 166Q194 144 211 135T240 125H256Q279 128 299 147L350 196L249 330L197 284Z" />
<glyph unicode="&apos;" glyph-name="quotesingle" horiz-adv-x="224" d="M42 665V732H183V665L173 531H53L42 665Z" />
<glyph unicode="(" glyph-name="parenleft" horiz-adv-x="377" d="M57 326Q57 578 187 794Q213 836 232 860H363Q356 850 345 831T305 754T255 636T215 491T197 326Q197 240 214 153T255 4T304 -109T345 -184T363 -210H232Q232 -210 202 -173Q87 -15 63 216Q57
270 57 326Z" />
<glyph unicode=")" glyph-name="parenright" horiz-adv-x="377" d="M15 -210Q22 -201 33 -184T72 -111T123 4T163 151T181 326Q181 405 164 489T123 636T74 752T32 832L15 860H146Q153 851 164 835T206 766T260 654T302 507T321 326Q321 252 312 183T287 62T252
-36T215 -113T181 -166T155 -200L146 -210H15Z" />
<glyph unicode="*" glyph-name="asterisk" horiz-adv-x="427" d="M38 566V622L177 646L182 561L38 566ZM95 416L119 553L202 532L148 399L95 416ZM166 720L220 739L287 617L208 584L166 720ZM190 467L237 538L349 448L317 403L190 467ZM239 571L359 650L390 603L294
506L239 571Z" />
<glyph unicode="+" glyph-name="plus" horiz-adv-x="483" d="M34 297V415H182V564H300V415H450V297H300V148H182V297H34Z" />
<glyph unicode="," glyph-name="comma" horiz-adv-x="261" d="M65 25V112Q65 139 90 139H174Q198 139 198 112V-11Q198 -93 112 -93Q89 -93 70 -88V-40Q83 -40 90 -36T99 -26T101 -14V0H90Q79 0 72 6T65 25Z" />
<glyph unicode="-" glyph-name="hyphen" horiz-adv-x="354" d="M20 231V349H334V231H20Z" />
<glyph unicode="." glyph-name="period" horiz-adv-x="263" d="M65 23V113Q65 138 89 138H175Q200 138 200 113V23Q200 0 175 0H89Q78 0 72 6T65 23Z" />
<glyph unicode="/" glyph-name="slash" horiz-adv-x="456" d="M15 -72L296 770H441L160 -72H15Z" />
<glyph unicode="0" glyph-name="zero" horiz-adv-x="630" d="M53 178V548Q53 637 102 684Q152 732 237 732H401Q537 732 569 622Q578 591 578 554V178Q578 91 532 46Q485 0 400 0H236Q150 0 102 45Q53 90 53 178ZM193 201Q193 129 268 129H365Q402 129 420 145Q438
161 438 200V532Q438 603 370 603H265Q224 603 208 582Q193 560 193 532V201Z" />
<glyph unicode="1" glyph-name="one" horiz-adv-x="371" d="M311 732V0H171V593L30 558V649L172 732H311Z" />
<glyph unicode="2" glyph-name="two" horiz-adv-x="588" d="M30 612V716Q177 742 334 742Q445 742 499 675Q551 611 551 515Q551 348 275 129H551V0H38V123Q118 177 190 239Q263 301 306 345Q350 389 380 436Q410 482 410 515Q410 548 398 570Q374 612 290 612H30Z" />
<glyph unicode="3" glyph-name="three" horiz-adv-x="583" d="M339 -7H281H262Q256 -7 228 -6Q201 -6 191 -6Q181 -5 158 -4Q135 -2 122 0Q110 2 91 5Q61 10 29 21L30 123H284Q341 123 364 135Q386 147 386 191V223Q386 265 362 280Q339 296 290 298L91 306V418L290
428Q343 431 366 446Q388 462 388 500V536Q388 563 374 579Q359 595 339 600Q319 605 290 605H23V706Q105 735 282 735Q315 735 346 734Q429 732 478 685Q527 638 527 558V506Q527 392 451 364Q527 332 527 214V172Q527 85 479 39Q431 -7 339 -7Z" />
<glyph unicode="4" glyph-name="four" horiz-adv-x="620" d="M392 292V459L424 536H532V292H606V184L532 160V2H392V160H49L15 224L276 732H430L211 292H392Z" />
<glyph unicode="5" glyph-name="five" horiz-adv-x="596" d="M208 438Q240 464 315 464Q342 464 392 462Q443 460 481 435Q553 389 553 280V177Q553 66 468 20Q423 -4 367 -4Q265 -4 208 0Q152 4 58 20V130H340Q383 130 398 150Q413 171 413 201V268Q413 320 382
333Q368 339 346 339H252Q224 339 208 324Q191 310 191 280H59L81 732H526V603H216L208 438Z" />
<glyph unicode="6" glyph-name="six" horiz-adv-x="608" d="M50 384Q50 461 60 522Q69 582 85 620Q101 659 124 684Q164 730 222 735Q260 739 301 739Q410 739 540 715V609H290Q245 609 223 578Q201 546 197 514Q190 467 190 424Q272 444 392 444Q495 444 531
394Q564 350 564 274V164Q564 -1 387 -1H244Q145 -1 103 74Q50 167 50 384ZM190 321Q190 208 214 167Q238 128 285 128H361Q395 128 410 140Q425 153 425 190V257Q425 309 391 318Q380 321 364 321H190Z" />
<glyph unicode="7" glyph-name="seven" horiz-adv-x="554" d="M23 603V732H494L532 668L287 0H134L359 603H23Z" />
<glyph unicode="8" glyph-name="eight" horiz-adv-x="624" d="M57 168V241Q57 286 78 316Q99 345 136 354Q86 375 70 417Q57 451 57 499V564Q57 664 112 702Q162 737 244 737H395Q483 737 526 696Q568 655 568 563V510Q569 483 559 455Q541 402 493 394Q515 390
531 374Q547 358 555 337Q569 296 568 257V171Q568 53 491 18Q452 0 394 0H244Q86 0 62 111Q57 137 57 168ZM197 183Q197 142 227 130Q243 124 269 124H362Q428 124 428 183V253Q428 283 412 299Q396 315 365 315H264Q197 315 197 253V183ZM197 494Q197 432 264
432H364Q405 432 418 451Q428 467 428 494V541Q428 583 412 598Q396 614 363 614H269Q230 614 214 600Q197 587 197 541V494Z" />
<glyph unicode="9" glyph-name="nine" horiz-adv-x="608" d="M306 -4Q180 -4 70 19V125H320Q365 125 386 156Q408 188 413 220Q420 267 420 311Q338 290 218 290Q115 290 78 340Q46 385 46 461V570Q46 735 223 735H366Q403 735 431 726Q459 716 484 690Q510 664
526 622Q560 530 560 350Q560 134 486 50Q445 4 388 -1Q348 -4 306 -4ZM185 477Q185 440 199 426Q213 413 246 413H420Q420 526 395 568Q372 606 325 606H248Q215 606 200 594Q185 581 185 544V477Z" />
<glyph unicode=":" glyph-name="colon" horiz-adv-x="263" d="M65 23V113Q65 138 89 138H175Q200 138 200 113V23Q200 0 175 0H89Q78 0 72 6T65 23ZM65 416V506Q65 531 89 531H175Q200 531 200 506V416Q200 393 175 393H89Q78 393 72 399T65 416Z" />
<glyph unicode=";" glyph-name="semicolon" horiz-adv-x="264" d="M65 25V112Q65 124 71 131T90 139H174Q198 139 198 112V-11Q198 -93 112 -93Q89 -93 70 -88V-40Q83 -40 90 -36T99 -26T101 -14V0H90Q84 0 80 2T72 7T67 15T65 25ZM66 417V507Q66 532 90 532H176Q201
532 201 507V417Q201 394 176 394H90Q79 394 73 400T66 417Z" />
<glyph unicode="&lt;" glyph-name="less" horiz-adv-x="450" d="M38 288V417L413 562V432L187 353L413 265V134L38 288Z" />
<glyph unicode="=" glyph-name="equal" horiz-adv-x="467" d="M20 184V302H447V184H20ZM20 399V517H447V399H20Z" />
<glyph unicode="&gt;" glyph-name="greater" horiz-adv-x="450" d="M38 134V265L264 353L38 432V562L413 417V288L38 134Z" />
<glyph unicode="?" glyph-name="question" horiz-adv-x="542" d="M15 609V714Q96 730 157 736T297 739Q352 739 394 723T462 678T500 615T513 543V470Q513 266 286 285V195H173V390H287Q327 392 350 411T374 472V525Q374 543 370 557T357 580T335 596T305 606T264
609H15ZM162 23V113Q162 138 186 138H273Q297 138 297 113V23Q297 0 273 0H186Q175 0 169 6T162 23Z" />
<glyph unicode="@" glyph-name="at" horiz-adv-x="868" d="M256 512H448Q545 512 586 470Q623 432 623 356V0H533L513 59L506 52Q498 45 484 35Q470 25 452 15Q409 -9 354 -9Q298 -9 264 30Q230 70 230 125V167Q230 234 268 270Q306 305 376 305H511Q512 326 512
337Q512 348 511 348Q511 379 497 390Q483 400 449 400H256Q186 400 170 357Q162 338 162 310V22Q162 -63 224 -82Q239 -86 256 -86H589Q647 -86 670 -60Q692 -33 692 22V479Q692 535 664 566Q636 596 589 596H185V681Q231 691 315 699T441 708H489H589Q677 708
738 657Q804 601 804 479V22Q804 -89 752 -144Q701 -200 594 -200H256Q164 -200 107 -148Q50 -97 50 11V315Q50 460 169 499Q207 512 256 512ZM394 103H396H397Q465 103 511 147V226L392 215Q348 211 348 169V156V142Q348 126 360 114Q373 103 394 103Z" />
<glyph unicode="A" glyph-name="A" horiz-adv-x="692" d="M34 0L281 732H440L678 0H529L477 162H237L184 0H34ZM274 286H444L362 548L274 286Z" />
<glyph unicode="B" glyph-name="B" horiz-adv-x="604" d="M61 0V732H363Q469 732 519 678T569 536Q569 480 544 435T469 380Q517 371 549 327T581 215Q581 163 569 124T531 57T464 15T365 0H61ZM201 124L360 123Q441 123 441 221Q441 250 434 272T407 309T360
324H201V124ZM201 442H354Q392 442 411 463T431 525Q431 541 428 554T419 577T406 592T390 602T373 606T354 608H201V442Z" />
<glyph unicode="C" glyph-name="C" horiz-adv-x="571" d="M42 368Q42 442 48 497T72 599T117 677T188 723T291 740Q434 740 546 707V597Q546 597 542 597T529 599T510 601T485 603T456 605T425 607T392 609T357 610T324 611Q296 611 278 609T242 597T214 572T196
528T185 462T182 366Q182 236 211 180T324 123Q371 123 426 125T514 129L546 131V22Q448 -8 291 -6Q223 -5 174 20T97 95T55 211T42 368Z" />
<glyph unicode="D" glyph-name="D" horiz-adv-x="662" d="M61 0V732H372Q626 732 626 363Q626 281 611 216T566 101T487 26T372 0H61ZM201 125H361Q486 125 486 364Q486 422 480 464T464 534T438 578T404 601T361 608H201V125Z" />
<glyph unicode="E" glyph-name="E" horiz-adv-x="567" d="M58 144V580Q58 617 68 645T94 689T131 715T173 729T217 732Q475 725 539 716V600H250Q231 600 220 596T205 582T199 565T198 544V430L494 420V304L198 295V181Q198 162 203 151T219 135T237 130T260 129H539V14Q514
11 436 7T292 0L227 -3Q204 -4 184 -2T140 9T99 33T70 76T58 144Z" />
<glyph unicode="F" glyph-name="F" horiz-adv-x="567" d="M58 0V578Q58 621 72 652T109 701T159 725T217 732Q475 725 539 716V600H250Q231 600 220 596T205 582T199 565T198 544V430L494 420V304L198 295V0H58Z" />
<glyph unicode="G" glyph-name="G" horiz-adv-x="614" d="M42 370Q42 438 47 490T68 591T110 671T179 721T281 740Q366 740 425 734T562 708V599Q561 599 546 601T505 605T449 610T383 614T314 616Q286 616 266 611T231 592T207 561T192 513T184 450T182 368Q182
223 206 175T307 126Q326 126 346 130T381 141T408 155T427 167T433 172V303H331V392Q390 416 505 416Q537 416 573 414V0H473L435 49Q425 39 415 32T391 18T362 7T326 -1T280 -5Q220 -7 176 12T107 63T66 146T47 249T42 370Z" />
<glyph unicode="H" glyph-name="H" horiz-adv-x="636" d="M61 0V732H201V418H452V732H592V0H452V290H201V0H61Z" />
<glyph unicode="I" glyph-name="I" horiz-adv-x="245" d="M61 0V732H201V0H61Z" />
<glyph unicode="J" glyph-name="J" horiz-adv-x="356" d="M27 23L29 132Q74 128 106 129T154 153T172 226V732H312V165Q312 134 310 112T295 62T259 18Q218 -7 142 -5T27 23Z" />
<glyph unicode="K" glyph-name="K" horiz-adv-x="628" d="M61 0V732H195V426H254L440 732H603L379 365L603 0H440L254 302H196V0H61Z" />
<glyph unicode="L" glyph-name="L" horiz-adv-x="539" d="M61 142V732H201V181Q201 162 205 151T221 135T240 130T263 129H514V0H213Q61 0 61 142Z" />
<glyph unicode="M" glyph-name="M" horiz-adv-x="847" d="M42 0L106 732H301L423 232L544 732H738L806 0H668L620 489L502 0H346L223 489L180 0H42Z" />
<glyph unicode="N" glyph-name="N" horiz-adv-x="678" d="M61 0V732H203L493 259V732H633V0H493L202 468V0H61Z" />
<glyph unicode="O" glyph-name="O" horiz-adv-x="671" d="M50 361Q50 412 53 455T64 532T81 593T105 641T133 677T168 703T206 720T249 730T294 735T344 737Q380 737 406 735T462 727T513 708T555 678T591 631T616 565T632 476T638 361Q638 293 631 240T611 148T579
82T536 38T481 12T418 -1T344 -4Q307 -4 280 -2T223 6T172 23T130 53T95 99T71 163T55 249T50 361ZM190 361Q190 299 194 260T207 192T236 150T279 131T344 125Q406 125 437 143T483 211T498 361Q498 418 495 458T482 526T463 570T433 594T395 605T344 608Q318
608 302 607T267 600T238 585T217 556T201 512T193 448T190 361Z" />
<glyph unicode="P" glyph-name="P" horiz-adv-x="602" d="M51 0V732H366Q397 732 422 728T476 709T524 671T556 605T569 506Q569 466 564 432T549 375T527 333T499 304T467 285T433 275T399 271T366 270Q337 272 266 280T191 290V0H51ZM191 394H355Q391 394 409
418T428 505Q427 608 355 608H191V394Z" />
<glyph unicode="Q" glyph-name="Q" horiz-adv-x="671" d="M50 361Q50 433 57 489T78 585T112 653T156 697T211 722T273 734T343 737Q379 737 405 735T461 727T512 708T555 678T590 631T615 565T632 476T638 361Q638 293 631 240T611 148T578 82T535 39T480 13T417
0T343 -4Q306 -4 279 -2T222 6T171 23T129 53T95 99T71 163T55 249T50 361ZM190 361Q190 299 194 260T207 192T235 150T279 131T343 125Q390 125 417 134T464 169T490 240T498 361Q498 404 496 437T489 495T478 539T462 570T442 590T415 601T382 607T343 608Q317
608 301 607T266 600T237 585T217 556T201 512T193 448T190 361ZM300 -33H379Q416 -95 542 -61V-174Q511 -180 479 -180T416 -171T360 -145T319 -99T300 -33Z" />
<glyph unicode="R" glyph-name="R" horiz-adv-x="607" d="M51 0V732H371Q416 732 451 721T513 684T556 613T571 504Q571 452 562 413T542 354T512 318T483 298T454 288L593 0H435L314 277L191 291V0H51ZM192 401H358Q378 401 390 404T411 419T425 450T430 504Q430
563 412 585T358 608H192V401Z" />
<glyph unicode="S" glyph-name="S" horiz-adv-x="590" d="M50 486V549Q50 591 60 624T87 678T129 712T183 731T248 738Q324 740 405 731T531 709V599Q417 609 286 609Q233 610 212 598T190 538V502Q190 460 207 446T268 432H384Q410 432 432 427T471 413T501 392T524
365T540 335T550 302T555 270T557 238V189Q557 141 545 105T515 48T469 14T414 -3T355 -8Q174 -8 72 22V132Q182 121 327 121Q346 121 359 123T387 131T409 150T417 184V223Q417 258 403 275T351 292H239Q50 293 50 486Z" />
<glyph unicode="T" glyph-name="T" horiz-adv-x="593" d="M31 603V732H572V603H369V0H229V603H31Z" />
<glyph unicode="U" glyph-name="U" horiz-adv-x="664" d="M61 320V732H201V320Q201 257 208 219T233 160T276 131T343 124Q380 124 404 132T445 161T471 221T479 320V732H620V320Q620 267 614 224T599 149T575 92T545 52T508 25T469 8T427 -1T385 -4T343 -5Q340
-5 333 -5Q295 -5 276 -4T222 3T170 20T127 55T91 113T70 199T61 320Z" />
<glyph unicode="V" glyph-name="V" horiz-adv-x="685" d="M34 732H183L346 184L518 732H667L426 0H264L34 732Z" />
<glyph unicode="W" glyph-name="W" horiz-adv-x="992" d="M34 732H183L345 189L477 732H627L576 543L692 186L826 732H974L773 0H611L512 300L426 0H264L34 732Z" />
<glyph unicode="X" glyph-name="X" horiz-adv-x="641" d="M34 732H189L327 482L468 732H623L403 367L618 0H463L327 246L192 0H37L252 367L34 732Z" />
<glyph unicode="Y" glyph-name="Y" horiz-adv-x="656" d="M34 732H186L329 381L486 732H638L397 227V0H257V227L34 732Z" />
<glyph unicode="Z" glyph-name="Z" horiz-adv-x="556" d="M27 0V129L362 603H27V732H531V603L212 129H531V0H27Z" />
<glyph unicode="[" glyph-name="bracketleft" horiz-adv-x="333" d="M65 -10V654Q65 693 73 725T99 785T152 827T234 842H319V724H267Q237 724 221 703T205 637V-5Q205 -92 267 -92H319V-210H234Q191 -210 160 -197T111 -164T82 -116T68 -63T65 -10Z" />
<glyph unicode="\" glyph-name="backslash" horiz-adv-x="456" d="M15 770H160L441 -72H296L15 770Z" />
<glyph unicode="]" glyph-name="bracketright" horiz-adv-x="333" d="M15 -92H68Q130 -92 130 -5V637Q130 724 68 724H15V842H101Q148 842 182 827T234 785T261 726T270 654V-10Q270 -38 267 -62T253 -115T224 -163T175 -196T101 -210H15V-92Z" />
<glyph unicode="^" glyph-name="asciicircum" horiz-adv-x="384" d="M38 531L146 666H250L346 531H253L195 591L132 531H38Z" />
<glyph unicode="_" glyph-name="underscore" horiz-adv-x="674" d="M20 -1V117H654V-1H20Z" />
<glyph unicode="`" glyph-name="grave" horiz-adv-x="243" d="M15 670H138L228 531H137L15 670Z" />
<glyph unicode="a" glyph-name="a" horiz-adv-x="519" d="M30 135V185Q30 216 38 241T65 287T113 319T186 331Q225 331 263 331T342 331Q343 364 342 365Q342 386 338 399T323 419T301 428T271 430Q206 430 48 419V505Q137 540 290 541Q382 541 432 503T482 370V0H371L342
58Q338 51 317 37T256 8T180 -6Q108 -4 69 37T30 135ZM170 155Q170 125 183 116T220 106Q232 106 245 108T269 114T292 122T312 131T327 139T338 145T342 148V245L213 235Q200 234 191 229T178 215T172 199T170 181V155Z" />
<glyph unicode="b" glyph-name="b" horiz-adv-x="556" d="M46 0V785H185V504Q202 513 224 519T267 530T308 536T346 539Q389 539 420 526T471 490T501 431T515 356T519 263Q519 134 479 64T346 -6Q303 -6 259 12T186 54L161 0H46ZM186 146Q237 114 310 114Q333
114 348 127T371 175T379 268Q379 334 371 370T348 417T310 429Q273 429 243 425T186 409V146Z" />
<glyph unicode="c" glyph-name="c" horiz-adv-x="494" d="M38 266Q38 346 50 400T87 483T142 524T213 536Q360 536 457 505V418Q362 424 273 424Q249 424 238 422T212 412T192 387T182 340T178 263Q178 195 187 162T215 119T273 108Q314 108 362 110T437 115L464
117V29Q442 18 419 11T364 0T318 -4T261 -5T213 -5Q99 -5 61 99Q38 162 38 266Z" />
<glyph unicode="d" glyph-name="d" horiz-adv-x="556" d="M38 263Q38 318 42 357T57 433T87 491T137 526T211 539Q234 539 262 535T319 523T372 504V785H512V0H396L372 54Q343 30 299 12T211 -6Q192 -6 175 -3T144 6T117 20T94 41T76 66T61 96T51 131T44 171T40
215T38 263ZM178 268Q178 183 195 149T248 114Q285 114 316 122T372 146V409Q358 415 344 418T314 424T283 428T248 429Q233 429 223 426T204 412T190 384T181 338T178 268Z" />
<glyph unicode="e" glyph-name="e" horiz-adv-x="525" d="M38 268Q38 337 46 383T71 460T116 507T180 529T270 535Q306 535 331 534T381 528T423 515T454 492T477 457T490 408T495 342Q495 272 458 240T347 208H178Q178 162 191 140T225 112T290 107Q413 107 485
118V23Q410 -5 213 -5Q162 -5 129 10T75 59T47 143T38 268ZM178 309H311Q355 309 355 349Q355 399 342 413T278 428Q246 428 231 426T201 412T182 376T178 309Z" />
<glyph unicode="f" glyph-name="f" horiz-adv-x="403" d="M15 424V514L98 531V630Q98 666 106 693T131 741T180 774T255 786Q330 786 389 762V679L293 680Q277 680 266 676T250 668T242 650T239 628T238 597V531H359V424H238V0H98V424H15Z" />
<glyph unicode="g" glyph-name="g" horiz-adv-x="560" d="M35 102Q35 136 50 161T97 197Q89 202 82 209T70 224T60 241T52 261T46 281T42 302T40 323T39 344Q39 533 223 533H546V449L487 431Q487 431 490 424T493 415T496 406T500 395T502 383T504 368T506 350T507
327Q507 312 505 298T499 267T489 237T472 210T448 185T417 166T376 154T325 149H202Q191 149 184 148T170 142T162 126Q162 110 172 105T202 99H365Q439 99 480 60T522 -59V-116Q522 -131 520 -144T515 -172T504 -198T488 -222T466 -241T437 -256T401 -266T356
-270H206Q157 -270 121 -254T62 -203T40 -116V-49L87 0Q76 6 67 15T51 38T39 67T35 102ZM181 -99Q181 -118 185 -130T199 -148T218 -156T244 -158H326Q345 -158 356 -154T373 -141T381 -124T383 -102V-63Q383 -57 382 -52T380 -43T377 -35T371 -28T364 -22T355
-18T344 -15T331 -14H223L181 -11V-99ZM179 344Q179 262 243 262H299Q368 262 367 344Q366 386 351 403T298 421H245Q224 421 211 415T191 397T182 373T179 344Z" />
<glyph unicode="h" glyph-name="h" horiz-adv-x="550" d="M46 0V783H185V474Q200 485 204 488T223 501T245 514T267 523T293 532T321 537T354 540Q513 540 513 354V0H373V356Q373 394 358 411T314 428Q286 428 265 423T226 408T186 382V0H46Z" />
<glyph unicode="i" glyph-name="i" horiz-adv-x="227" d="M38 610V698Q38 724 62 724H167Q189 724 189 698V610Q189 599 184 593T167 587H62Q55 587 50 589T41 597T38 610ZM43 0V531H183V0H43Z" />
<glyph unicode="j" glyph-name="j" horiz-adv-x="242" d="M46 610V698Q46 724 70 724H175Q186 724 192 717T198 698V610Q198 587 175 587H70Q63 587 58 589T49 597T46 610ZM52 -270V531H192V-4Q193 -87 186 -152T155 -270H52Z" />
<glyph unicode="k" glyph-name="k" horiz-adv-x="557" d="M46 0V782H186V353H215L365 531H543L344 300L543 0H376L215 246H186V0H46Z" />
<glyph unicode="l" glyph-name="l" horiz-adv-x="313" d="M46 189V783H186V211Q186 158 197 137T232 107Q292 86 299 86V0H183Q150 0 125 10T82 41T55 100T46 189Z" />
<glyph unicode="m" glyph-name="m" horiz-adv-x="875" d="M46 0V531H158L186 474Q189 476 194 480Q216 495 227 502T259 520T302 534T351 539Q454 539 489 470Q583 539 680 539Q838 539 838 352V0H698V354Q698 390 683 408T639 426Q626 426 614 425T591 422T569
417T548 410T529 399T509 384Q509 383 509 379T510 369T510 359T510 353V0H370V354Q370 372 366 386T354 408T335 421T311 426Q284 426 263 421T225 407T186 381V0H46Z" />
<glyph unicode="n" glyph-name="n" horiz-adv-x="550" d="M46 0V531H158L186 474Q211 493 221 499T255 518T301 535T354 540Q513 540 513 354V0H373V356Q373 394 358 411T314 428T265 423T226 408T186 382V0H46Z" />
<glyph unicode="o" glyph-name="o" horiz-adv-x="560" d="M38 258Q38 340 50 393T92 478T166 523T280 536Q417 536 469 476T522 258Q522 109 471 52T280 -5Q225 -5 185 4T116 33T70 83T46 157T38 258ZM178 258Q178 207 183 177T201 132T232 112T280 108Q307 108
321 110T349 120T369 145T379 188T382 258Q382 304 380 332T371 380T352 408T323 420T280 424Q258 424 244 422T217 414T198 397T186 367T180 322T178 258Z" />
<glyph unicode="p" glyph-name="p" horiz-adv-x="556" d="M46 -270V531H161L185 478Q214 501 258 519T346 537Q385 537 414 524T463 488T496 431T514 357T519 268Q519 227 517 194T507 129T488 72T457 30T410 2T346 -8Q310 -8 265 1T185 26V-270H46ZM185 122Q237
102 310 102Q334 102 348 113T370 161T379 262Q379 348 362 382T310 417Q236 417 185 385V122Z" />
<glyph unicode="q" glyph-name="q" horiz-adv-x="555" d="M38 268Q38 537 232 537Q263 537 297 535T361 530T420 524T471 516T510 507V-270H370V29Q312 -10 232 -10Q194 -10 165 -2T114 23T78 63T55 118T42 186T38 268ZM178 272Q178 240 178 224T181 184T188 148T202
123T225 105T259 100Q282 100 298 102T331 108T370 122V430H260Q243 430 230 424T209 410T194 387T185 360T181 330T179 301T178 272Z" />
<glyph unicode="r" glyph-name="r" horiz-adv-x="417" d="M46 0V531H164L186 464Q261 536 338 536Q381 536 397 530V395Q369 398 320 398Q273 398 242 386T186 339V0H46Z" />
<glyph unicode="s" glyph-name="s" horiz-adv-x="508" d="M30 347V393Q30 536 168 536Q405 536 452 509V421H211Q198 421 190 419T177 412T172 401T170 384V360Q170 337 180 332T211 326H337Q374 326 401 316T445 286T470 243T478 189V134Q478 14 377 -3Q363 -5
348 -5Q96 -5 52 24V111H303Q338 111 338 145V170Q338 182 336 189T325 200T303 204H179Q106 204 68 238T30 347Z" />
<glyph unicode="t" glyph-name="t" horiz-adv-x="381" d="M15 425V503L101 532L124 680H241V532H360V425H241V212Q241 175 247 153T262 122T286 107Q346 86 353 86V0H231Q169 0 135 44T101 190V425H15Z" />
<glyph unicode="u" glyph-name="u" horiz-adv-x="550" d="M38 178V531H178V175Q178 104 237 104Q264 104 286 109T325 123T365 150V531H505V0H392L365 56Q356 51 336 38T306 19T277 5T239 -6T196 -9Q38 -9 38 178Z" />
<glyph unicode="v" glyph-name="v" horiz-adv-x="564" d="M15 531H165L281 164L400 531H550L357 0H200L15 531Z" />
<glyph unicode="w" glyph-name="w" horiz-adv-x="826" d="M15 531H165L271 164L366 531H506L469 388L557 164L662 531H812L640 0H484L404 192L344 0H185L15 531Z" />
<glyph unicode="x" glyph-name="x" horiz-adv-x="572" d="M18 0L202 266L18 531H188L285 372L385 531H554L368 263L546 0H385L286 157L188 0H18Z" />
<glyph unicode="y" glyph-name="y" horiz-adv-x="578" d="M16 531H163L255 159Q257 151 260 144T269 133T278 127T287 123T296 121T303 121T308 120L414 531H560L376 -168L303 -270H203L278 0Q156 0 120 135L16 531Z" />
<glyph unicode="z" glyph-name="z" horiz-adv-x="474" d="M23 413V531H452V413L224 119H452V1H38V118L276 413H23Z" />
<glyph unicode="{" glyph-name="braceleft" horiz-adv-x="321" d="M15 281V386Q31 388 41 390T63 397T82 413T89 439V656Q89 742 143 792T306 842V724Q279 724 263 715T238 682T229 612V431Q229 345 133 334Q161 329 182 317T216 285T228 240V0Q228 -50 246 -74T306
-98V-210Q189 -210 139 -166T88 -38V228Q88 255 67 269T15 281Z" />
<glyph unicode="|" glyph-name="bar" horiz-adv-x="247" d="M65 -72V770H183V-72H65Z" />
<glyph unicode="}" glyph-name="braceright" horiz-adv-x="321" d="M15 -98Q57 -99 75 -75T94 0V240Q94 265 105 284T138 316T189 334Q93 345 93 431V612Q93 677 75 700T15 724V842Q124 842 178 792T233 656V439Q233 427 237 418T248 403T266 394T285 389T306
386V281Q275 283 255 269T234 228V-38Q234 -121 183 -165T15 -210V-98Z" />
<glyph unicode="~" glyph-name="asciitilde" horiz-adv-x="419" d="M38 586Q54 604 63 613T89 634T122 652T158 658Q181 658 213 641T264 623Q308 621 357 663L381 583Q365 563 352 550T316 524T268 511Q245 511 210 528T155 546Q149 546 143 546T132 544T122
542T112 538T102 534T92 529T83 523T73 517T62 511L38 586Z" />
<glyph unicode="&#xa0;" glyph-name="nbspace" horiz-adv-x="325" />
<glyph unicode="&#xa1;" glyph-name="exclamdown" horiz-adv-x="276" d="M70 351V438Q70 459 94 461H179Q192 460 198 451Q203 442 203 435V351Q202 324 180 324H94Q70 324 70 351ZM65 -270L79 263H194L208 -270H65Z" />
<glyph unicode="&#xa2;" glyph-name="cent" horiz-adv-x="487" d="M43 130Q30 185 30 266Q30 347 43 402Q66 500 138 526Q167 537 188 537H213V634H299V534Q386 525 450 504V417Q354 424 298 424Q242 424 230 422Q218 421 204 413Q191 405 184 387Q170 347 170
271Q170 195 180 162Q189 128 208 118Q226 107 266 107Q347 107 429 114L457 116V28Q395 -3 297 -5V-95H211V-6Q168 -6 138 6Q107 18 82 47Q56 76 43 130Z" />
<glyph unicode="&#xa3;" glyph-name="sterling" horiz-adv-x="582" d="M38 0V108L104 129V314H38V386L104 408V483Q104 567 118 604Q132 640 144 659Q156 678 174 690Q191 703 210 711T254 724Q298 732 342 732Q411 732 511 720L545 716V604H356Q319 604 302 602Q284
599 268 588Q253 577 248 556Q244 534 244 495V408L466 392V314H244V129H544V0H38Z" />
<glyph unicode="&#xa4;" glyph-name="currency" horiz-adv-x="446" d="M133 442Q173 470 222 470Q271 470 312 442L358 489L408 442L359 392Q381 356 381 308Q381 259 352 218L400 170L353 120L300 171Q264 149 220 149Q176 149 137 175L91 127L42 177L89 225Q64
265 64 310Q64 356 86 392L39 438L87 487L133 442ZM166 368Q142 344 142 310Q142 277 166 252Q189 228 222 228Q256 228 280 252Q303 277 303 310Q303 344 280 368Q256 392 222 392Q189 392 166 368Z" />
<glyph unicode="&#xa5;" glyph-name="yen" horiz-adv-x="634" d="M525 338V256H378V220H525V139H378V0H238V139H98V220H238V256H98V338H204L15 732H168L310 402L465 732H619L414 338H525Z" />
<glyph unicode="&#xa6;" glyph-name="brokenbar" horiz-adv-x="248" d="M65 -72V256H183V-72H65ZM65 429V770H183V429H65Z" />
<glyph unicode="&#xa7;" glyph-name="section" horiz-adv-x="541" d="M42 590V638Q42 746 124 775Q150 784 198 784Q246 784 336 778Q425 773 462 765V666H221Q195 666 186 651Q182 643 182 630V595Q182 561 222 561H345Q428 561 464 530Q501 499 500 435V400Q500
308 442 293Q499 283 499 194V138Q499 -8 361 -8Q292 -8 202 -2Q113 3 79 11V110H316Q345 110 352 119Q360 128 360 141V181Q360 200 350 207Q341 214 318 214H194Q119 214 81 240Q43 267 43 336V371Q43 443 69 467Q82 479 103 486Q42 512 42 590ZM182 366Q182
340 191 334Q204 326 227 326H313Q345 326 351 334Q360 345 360 367V405Q360 440 339 445Q329 448 313 448H227Q199 448 190 438Q182 429 182 403V366Z" />
<glyph unicode="&#xa8;" glyph-name="dieresis" horiz-adv-x="448" d="M38 582Q38 606 56 623Q73 640 97 640Q121 640 138 623Q155 606 155 582Q155 558 138 540Q121 523 97 523Q73 523 56 540Q38 558 38 582ZM293 582Q293 606 310 623Q328 640 352 640Q376 640
393 623Q410 606 410 582Q410 558 393 540Q376 523 352 523Q328 523 310 540Q293 558 293 582Z" />
<glyph unicode="&#xa9;" glyph-name="copyright" horiz-adv-x="800" d="M42 377Q42 427 48 475T70 574Q87 623 114 656Q142 690 188 711Q235 732 296 732H528Q586 732 628 710Q671 688 696 654Q720 621 735 571Q759 489 759 368Q759 194 700 97Q640 0 528 0H296Q183
0 117 88Q42 187 42 377ZM133 370Q133 289 150 227Q166 165 204 126Q242 86 296 86H522Q566 86 598 114Q629 141 648 205Q668 269 668 368Q668 499 647 553Q622 616 584 634Q559 646 528 646H296Q225 646 182 593Q133 532 133 370ZM223 365Q223 583 367 583Q404
583 458 576Q512 570 551 559V485Q467 497 389 497Q349 497 332 466Q315 436 315 366Q315 296 332 264Q350 233 393 233Q466 233 557 249V175Q488 147 372 147Q264 147 235 257Q223 301 223 365Z" />
<glyph unicode="&#xaa;" glyph-name="ordfeminine" horiz-adv-x="366" d="M23 262V332H344V262H23ZM35 712Q114 738 202 738Q245 738 276 728Q306 719 324 693Q343 667 343 625V378H261L235 423Q230 411 198 392Q166 374 133 374Q81 374 52 402Q23 429 23 466V501Q23
543 50 570Q77 596 130 596H210H235Q236 612 236 621T228 639Q218 653 180 653Q143 653 90 649Q37 645 35 645V712ZM124 485Q124 467 134 461Q143 455 161 455Q179 455 198 461T226 474L235 480V539L155 532Q124 530 124 499V485Z" />
<glyph unicode="&#xab;" glyph-name="guillemotleft" horiz-adv-x="580" d="M38 354L244 557L321 481L190 354L323 223L249 146L38 354ZM257 354L463 557L540 481L410 354L543 223L468 146L257 354Z" />
<glyph unicode="&#xac;" glyph-name="logicalnot" horiz-adv-x="494" d="M34 240V352H460V159H348V240H34Z" />
<glyph unicode="&#xad;" glyph-name="uni00AD" horiz-adv-x="354" d="M20 231V349H334V231H20Z" />
<glyph unicode="&#xae;" glyph-name="registered" horiz-adv-x="800" d="M42 377Q42 427 48 475T70 574Q87 623 114 656Q142 690 188 711Q235 732 296 732H528Q586 732 628 710Q671 688 696 654Q720 621 735 571Q759 489 759 368Q759 194 700 97Q640 0 528 0H296Q183
0 117 88Q42 187 42 377ZM133 370Q133 289 150 227Q166 165 204 126Q242 86 296 86H522Q566 86 598 114Q629 141 648 205Q668 269 668 368Q668 499 647 553Q622 616 584 634Q559 646 528 646H296Q225 646 182 593Q133 532 133 370ZM430 580Q564 580 564 446Q564
382 543 354Q522 326 486 316L573 153H474L391 312L339 324V153H248V580H430ZM339 390H414Q453 390 463 400Q473 409 473 443Q473 477 460 486Q446 494 414 494H339V390Z" />
<glyph unicode="&#xaf;" glyph-name="overscore" horiz-adv-x="367" d="M38 501V610H330V501H38Z" />
<glyph unicode="&#xb0;" glyph-name="degree" horiz-adv-x="290" d="M2 632Q2 692 44 734T145 777T246 735T288 632Q288 602 277 576T246 530T201 499T146 488Q107 488 74 507T22 559T2 632ZM105 632Q105 614 118 601T149 588T180 601T193 632T181 663T150 677T119
664T105 632Z" />
<glyph unicode="&#xb1;" glyph-name="plusminus" horiz-adv-x="500" d="M43 70V188H459V70H43ZM43 382V500H191V648H309V500H459V382H309V232H191V382H43Z" />
<glyph unicode="&#xb2;" glyph-name="uni00B2" horiz-adv-x="400" d="M24 767Q23 767 23 790V828L24 848Q131 867 196 867Q261 867 290 856Q318 845 335 825Q369 786 369 721Q369 616 196 478H368V378H27V473Q144 555 196 607Q220 631 240 660Q259 689 259 716Q259
742 242 754Q225 767 183 767H24Z" />
<glyph unicode="&#xb3;" glyph-name="uni00B3" horiz-adv-x="408" d="M193 373Q81 373 27 393L28 473H187Q227 473 241 481Q255 489 255 513V525Q255 550 239 560Q223 569 191 570L68 575V661L191 668Q226 669 242 678Q257 688 257 710V722Q257 745 240 754Q224
762 191 762H23V841Q79 862 191 862H237Q296 861 330 828Q364 795 364 741V711Q364 637 307 618Q364 596 364 519V496Q364 373 232 373H193Z" />
<glyph unicode="&#xb4;" glyph-name="acute" horiz-adv-x="243" d="M15 511L106 670H263L141 511H15Z" />
<glyph unicode="&#xb5;" glyph-name="mu" horiz-adv-x="588" d="M209 531V175Q209 104 267 104Q319 104 356 123Q374 133 396 150V531H536V0H423L396 56Q390 53 376 44Q361 35 354 32Q348 28 336 22Q323 15 314 11Q257 -11 209 4V-270H69V178V531H209Z" />
<glyph unicode="&#xb6;" glyph-name="paragraph" horiz-adv-x="577" d="M30 499V592Q30 660 74 696Q118 732 186 732H563V628H510V0H408V630H342V-270H240V372L232 367Q212 355 186 355Q109 355 70 396Q30 436 30 499ZM132 511Q132 476 151 465Q167 457 192 457H240V631H192Q156
631 144 616Q132 602 132 572V511Z" />
<glyph unicode="&#xb7;" glyph-name="middot" horiz-adv-x="263" d="M65 340V430Q65 455 89 455H175Q200 455 200 430V340Q200 317 175 317H89Q78 317 72 323T65 340Z" />
<glyph unicode="&#xb8;" glyph-name="cedilla" horiz-adv-x="244" d="M38 -118L82 -103Q96 -98 102 -89T110 -70T112 -37H206Q206 -115 182 -146T94 -178H38V-118Z" />
<glyph unicode="&#xb9;" glyph-name="uni00B9" horiz-adv-x="270" d="M221 860V378H113V762L12 739V805L114 860H221Z" />
<glyph unicode="&#xba;" glyph-name="ordmasculine" horiz-adv-x="394" d="M62 414Q23 454 23 556Q23 657 60 696Q98 736 198 736Q297 736 334 696Q372 656 372 554Q372 452 334 413Q297 374 198 374Q100 374 62 414ZM36 264V333H358V264H36ZM134 604Q131 585
131 548Q131 510 139 490Q147 471 159 466Q171 461 195 461Q219 461 229 463Q239 465 248 474Q264 488 264 542Q264 597 258 618Q251 638 238 644Q226 649 201 649Q176 649 165 646Q154 643 146 633Q137 623 134 604Z" />
<glyph unicode="&#xbb;" glyph-name="guillemotright" horiz-adv-x="580" d="M38 223L171 354L41 481L117 557L323 354L112 146L38 223ZM257 223L390 354L260 481L337 557L543 354L332 146L257 223Z" />
<glyph unicode="&#xbc;" glyph-name="onequarter" horiz-adv-x="1015" d="M825 259Q867 259 867 295V321Q866 342 856 350T825 358H723Q702 358 692 350T680 321V294Q680 259 723 259H825ZM860 448Q877 448 890 446T917 439T939 423T954 394T960 352V301Q960 287
960 279T956 258T946 237T927 224Q982 207 983 157V30V27Q983 -30 959 -51T873 -72H677Q621 -72 594 -51T567 29V153Q567 208 624 225Q618 227 613 230T605 238T599 246T595 257T592 268T591 279T591 290T590 301V353Q590 377 596 394T611 421T635 438T664 446T697
448H860ZM657 60Q657 24 702 22Q707 22 713 22H834Q866 22 878 32T890 61V130Q890 151 878 161T834 171H713Q684 171 671 163T657 128V60ZM244 649Q250 637 271 614T319 566T371 515T414 463T431 419Q431 396 420 367T390 310T348 258T298 219T247 204Q235 204
225 205T202 209T177 218T148 233T112 255Q104 262 94 269T76 283T59 297T44 310T32 320T24 327L21 330L72 398Q130 358 160 339Q162 338 169 334T178 328T187 323T196 318T206 314T217 312T228 311Q259 311 287 350T316 413Q316 429 303 448T270 487T228 526T186
570T155 618Q149 630 146 658T142 708L141 730L218 748Q233 674 244 649ZM301 -72L582 770H694L413 -72H301Z" />
<glyph unicode="&#xbd;" glyph-name="onehalf" horiz-adv-x="1020" d="M244 649Q250 637 271 614T319 566T371 515T414 463T431 419Q431 396 420 367T390 310T348 258T298 219T247 204Q235 204 225 205T202 209T177 218T148 233T112 255Q104 262 94 269T76 283T59
297T44 310T32 320T24 327L21 330L72 398Q130 358 160 339Q162 338 169 334T178 328T187 323T196 318T206 314T217 312T228 311Q259 311 287 350T316 413Q316 429 303 448T270 487T228 526T186 570T155 618Q149 630 146 658T142 708L141 730L218 748Q233 674 244
649ZM301 -72L582 770H694L413 -72H301ZM967 208Q929 172 811 128L988 7L939 -73Q918 -63 883 -45T754 34T584 157L641 243L700 208Q706 209 717 211T755 222T804 238T842 259T859 284Q859 318 787 362Q784 364 782 365L624 466L672 545Q843 457 913 407Q944 385
970 353T996 285Q996 236 967 208Z" />
<glyph unicode="&#xbe;" glyph-name="threequarters" horiz-adv-x="1115" d="M322 265Q298 265 277 270T234 286T191 316T145 361Q90 422 27 535L85 576L190 449Q256 368 316 368Q370 368 416 423T462 541Q462 583 431 606T355 629Q334 629 291 626T216 618L184
614L166 690Q177 693 197 699T278 714T394 724Q436 724 470 709T524 669T554 616T564 558Q564 534 558 504T540 441T508 377T462 321T400 281T322 265ZM391 -72L672 770H784L503 -72H391ZM914 259Q956 259 956 295V321Q955 342 945 350T914 358H812Q791 358 781
350T769 321V294Q769 259 812 259H914ZM949 448Q961 448 970 447T990 444T1009 437T1025 426T1038 408T1046 384T1049 352V301Q1049 292 1049 287T1048 272T1045 257T1039 244T1029 232T1016 224Q1071 207 1072 157V30V27Q1072 -12 1062 -33T1028 -63T962 -72H766Q710
-72 683 -51T656 29V153Q656 208 713 225Q707 227 702 230T694 238T688 246T684 257T681 268T680 279T680 290T679 301V353Q679 377 685 394T700 421T724 438T753 446T786 448H949ZM746 60Q746 24 791 22Q796 22 802 22H923Q955 22 967 32T979 61V130Q979 151 967
161T923 171H802Q773 171 760 163T746 128V60Z" />
<glyph unicode="&#xbf;" glyph-name="questiondown" horiz-adv-x="543" d="M528 -137V-179V-231V-242Q393 -269 299 -269Q273 -269 259 -268L245 -267Q188 -267 145 -250Q102 -232 78 -203Q30 -145 30 -70V4Q29 101 86 148Q134 188 220 188Q237 188 256 187V277H370L371
82H304Q275 82 246 81Q218 80 198 59Q177 38 176 -4Q175 -46 175 -55Q175 -93 200 -116Q226 -138 274 -138H279L528 -137ZM246 447Q246 471 271 472H355Q366 471 372 465Q379 459 379 449V360Q378 336 356 335H269Q247 337 246 360V447Z" />
<glyph unicode="&#xc0;" glyph-name="Agrave" horiz-adv-x="692" d="M193 936H316L406 797H315L193 936ZM34 0L281 732H440L678 0H529L477 162H237L184 0H34ZM274 286H444L362 548L274 286Z" />
<glyph unicode="&#xc1;" glyph-name="Aacute" horiz-adv-x="692" d="M315 797L406 936H528L406 797H315ZM34 0L281 732H440L678 0H529L477 162H237L184 0H34ZM274 286H444L362 548L274 286Z" />
<glyph unicode="&#xc2;" glyph-name="Acircumflex" horiz-adv-x="692" d="M206 797L314 932H418L515 797H422L363 857L300 797H206ZM34 0L281 732H440L678 0H529L477 162H237L184 0H34ZM274 286H444L362 548L274 286Z" />
<glyph unicode="&#xc3;" glyph-name="Atilde" horiz-adv-x="692" d="M420 887Q458 887 508 925L532 865Q470 797 420 797Q395 797 360 814Q325 832 312 832Q298 832 288 830Q278 829 272 828Q266 826 256 822Q247 817 244 815Q240 813 228 806Q217 799 213 797L189
852Q253 922 310 922Q334 921 367 904Q400 887 409 887H420ZM34 0L281 732H440L678 0H529L477 162H237L184 0H34ZM274 286H444L362 548L274 286Z" />
<glyph unicode="&#xc4;" glyph-name="Adieresis" horiz-adv-x="692" d="M192 814Q174 832 174 852Q174 872 182 886Q200 915 229 914Q258 914 275 898Q292 881 292 856Q292 832 275 814Q258 797 234 797Q209 797 192 814ZM429 856Q429 880 446 897Q464 914 488
914Q513 914 530 898Q547 881 547 856Q547 832 530 814Q513 797 488 797Q464 797 446 814Q429 832 429 856ZM34 0L281 732H440L678 0H529L477 162H237L184 0H34ZM274 286H444L362 548L274 286Z" />
<glyph unicode="&#xc5;" glyph-name="Aring" horiz-adv-x="692" d="M273 780Q287 757 310 744Q334 730 362 730Q389 730 412 744Q435 757 448 780Q462 804 462 840Q462 875 432 905Q403 935 361 935Q319 935 289 905Q259 875 259 840Q259 804 273 780ZM330 863Q343
876 361 876Q379 876 392 863Q404 850 404 832Q404 814 392 802Q379 790 361 790Q343 790 330 802Q325 808 322 815T318 836Q318 850 330 863ZM34 0L281 732H440L678 0H529L477 162H237L184 0H34ZM274 286H444L362 548L274 286Z" />
<glyph unicode="&#xc6;" glyph-name="AE" horiz-adv-x="954" d="M496 728Q522 731 542 732Q563 733 577 733Q591 733 607 732Q856 725 920 716V600H640Q604 600 596 582Q590 568 589 545V428L874 417V302L589 293V180Q589 144 608 136Q622 130 636 130H651H920V13Q869
6 681 -1L618 -4H595Q581 -4 558 -1Q536 2 508 14Q481 26 465 54Q449 81 449 121V194H274L178 0H23L306 575Q343 651 393 686Q442 721 496 728ZM449 317V558L333 317H449Z" />
<glyph unicode="&#xc7;" glyph-name="Ccedilla" horiz-adv-x="571" d="M188 -37H282Q282 -115 258 -146Q234 -178 170 -178H114V-118L158 -103Q177 -95 182 -82Q188 -68 188 -37ZM92 642Q132 708 203 729Q242 740 291 740Q434 740 546 707V597L538 598Q531 599
519 600T489 602T452 606Q431 607 411 608Q364 611 327 611Q290 611 270 606Q249 602 230 589T202 548Q182 490 182 366Q182 234 210 183Q242 123 324 123Q418 123 514 129L546 131V22Q456 -6 314 -6H291Q157 -5 100 90Q42 185 42 372Q42 560 92 642Z" />
<glyph unicode="&#xc8;" glyph-name="Egrave" horiz-adv-x="567" d="M164 934H287L377 795H286L164 934ZM58 144V580Q58 671 112 704Q157 732 209 732Q213 732 344 728Q475 725 539 716V600H250Q213 600 204 582Q198 568 198 544V430L494 420V304L198 295V181Q198
143 219 135Q234 129 260 129H539V14Q489 7 292 0L227 -3H208Q198 -3 181 -2Q164 0 140 9Q116 18 98 33Q58 69 58 144Z" />
<glyph unicode="&#xc9;" glyph-name="Eacute" horiz-adv-x="567" d="M275 795L366 933H488L366 795H275ZM58 144V580Q58 671 112 704Q157 732 209 732Q213 732 344 728Q475 725 539 716V600H250Q213 600 204 582Q198 568 198 544V430L494 420V304L198 295V181Q198
143 219 135Q234 129 260 129H539V14Q489 7 292 0L227 -3H208Q198 -3 181 -2Q164 0 140 9Q116 18 98 33Q58 69 58 144Z" />
<glyph unicode="&#xca;" glyph-name="Ecircumflex" horiz-adv-x="567" d="M163 797L271 932H375L472 797H379L320 857L257 797H163ZM58 144V580Q58 671 112 704Q157 732 209 732Q213 732 344 728Q475 725 539 716V600H250Q213 600 204 582Q198 568 198 544V430L494
420V304L198 295V181Q198 143 219 135Q234 129 260 129H539V14Q489 7 292 0L227 -3H208Q198 -3 181 -2Q164 0 140 9Q116 18 98 33Q58 69 58 144Z" />
<glyph unicode="&#xcb;" glyph-name="Edieresis" horiz-adv-x="567" d="M126 854Q126 878 144 895Q161 912 186 912Q210 912 227 895Q244 878 244 854Q244 830 227 812Q210 795 186 795Q161 795 144 812Q126 830 126 854ZM381 854Q381 878 398 895Q416 912 440
912Q465 912 482 895Q499 878 499 854Q499 830 482 812Q465 795 440 795Q416 795 398 812Q381 830 381 854ZM58 144V580Q58 671 112 704Q157 732 209 732Q213 732 344 728Q475 725 539 716V600H250Q213 600 204 582Q198 568 198 544V430L494 420V304L198 295V181Q198
143 219 135Q234 129 260 129H539V14Q489 7 292 0L227 -3H208Q198 -3 181 -2Q164 0 140 9Q116 18 98 33Q58 69 58 144Z" />
<glyph unicode="&#xcc;" glyph-name="Igrave" horiz-adv-x="245" d="M-37 936H86L176 797H85L-37 936ZM61 0V732H201V0H61Z" />
<glyph unicode="&#xcd;" glyph-name="Iacute" horiz-adv-x="245" d="M85 797L176 936H298L176 797H85ZM61 0V732H201V0H61Z" />
<glyph unicode="&#xce;" glyph-name="Icircumflex" horiz-adv-x="245" d="M-24 797L84 932H188L285 797H192L133 857L70 797H-24ZM61 0V732H201V0H61Z" />
<glyph unicode="&#xcf;" glyph-name="Idieresis" horiz-adv-x="245" d="M-56 856Q-56 880 -38 897Q-21 914 4 914Q28 914 45 898Q62 881 62 856Q62 832 45 814Q28 797 4 797Q-21 797 -38 814Q-56 832 -56 856ZM200 856Q200 880 217 897Q234 914 258 914Q283 914
300 898Q317 881 317 856Q317 832 300 814Q283 797 258 797Q234 797 217 814Q200 832 200 856ZM61 0V732H201V0H61Z" />
<glyph unicode="&#xd0;" glyph-name="Eth" horiz-adv-x="662" d="M-4 340V406H61V732H372Q600 732 623 441Q626 404 626 342Q626 281 611 216Q596 150 566 101Q504 0 372 0H61V340H-4ZM472 236Q484 288 484 362Q484 435 476 484Q467 532 450 558Q420 606 361 606H201V406H312V340H201V125H361Q405
125 433 155Q461 185 472 236Z" />
<glyph unicode="&#xd1;" glyph-name="Ntilde" horiz-adv-x="678" d="M406 887Q445 887 495 925L519 865Q456 797 407 797Q386 797 365 806Q344 816 326 824Q309 832 302 832H288Q283 832 274 830Q265 829 259 828Q253 826 244 822Q234 817 230 815Q226 813 214
806Q203 799 200 797L175 852Q239 922 296 922Q321 921 354 904Q386 887 395 887H406ZM61 0V732H203L493 259V732H633V0H493L202 468V0H61Z" />
<glyph unicode="&#xd2;" glyph-name="Ograve" horiz-adv-x="671" d="M177 936H299L390 797H299L177 936ZM54 261Q50 306 50 370Q50 433 58 490Q65 546 78 586Q91 625 113 653Q135 681 157 697T213 722Q265 737 322 737Q380 737 406 735Q433 733 462 726Q492 720
513 708Q534 696 555 678T591 630Q605 602 616 565Q638 491 638 392Q638 293 630 240Q623 186 611 148Q599 109 578 82Q558 54 536 38Q513 21 481 12Q407 -10 286 -2Q224 1 196 13Q168 25 148 38Q127 52 113 72Q99 91 86 118Q73 146 66 181Q58 216 54 261ZM193
448Q190 411 190 355Q190 299 194 260Q198 220 208 192Q217 164 236 150Q270 125 344 125Q414 125 449 151Q498 188 498 361Q498 478 486 516Q473 554 462 570Q452 586 433 595Q402 608 360 608Q318 608 302 606Q285 605 266 600Q248 595 238 584Q227 574 216 556Q206
538 201 512Q196 485 193 448Z" />
<glyph unicode="&#xd3;" glyph-name="Oacute" horiz-adv-x="671" d="M299 797L389 936H512L390 797H299ZM54 261Q50 306 50 370Q50 433 58 490Q65 546 78 586Q91 625 113 653Q135 681 157 697T213 722Q265 737 322 737Q380 737 406 735Q433 733 462 726Q492 720
513 708Q534 696 555 678T591 630Q605 602 616 565Q638 491 638 392Q638 293 630 240Q623 186 611 148Q599 109 578 82Q558 54 536 38Q513 21 481 12Q407 -10 286 -2Q224 1 196 13Q168 25 148 38Q127 52 113 72Q99 91 86 118Q73 146 66 181Q58 216 54 261ZM193
448Q190 411 190 355Q190 299 194 260Q198 220 208 192Q217 164 236 150Q270 125 344 125Q414 125 449 151Q498 188 498 361Q498 478 486 516Q473 554 462 570Q452 586 433 595Q402 608 360 608Q318 608 302 606Q285 605 266 600Q248 595 238 584Q227 574 216 556Q206
538 201 512Q196 485 193 448Z" />
<glyph unicode="&#xd4;" glyph-name="Ocircumflex" horiz-adv-x="671" d="M190 797L297 932H401L498 797H405L346 857L284 797H190ZM54 261Q50 306 50 370Q50 433 58 490Q65 546 78 586Q91 625 113 653Q135 681 157 697T213 722Q265 737 322 737Q380 737 406 735Q433
733 462 726Q492 720 513 708Q534 696 555 678T591 630Q605 602 616 565Q638 491 638 392Q638 293 630 240Q623 186 611 148Q599 109 578 82Q558 54 536 38Q513 21 481 12Q407 -10 286 -2Q224 1 196 13Q168 25 148 38Q127 52 113 72Q99 91 86 118Q73 146 66 181Q58
216 54 261ZM193 448Q190 411 190 355Q190 299 194 260Q198 220 208 192Q217 164 236 150Q270 125 344 125Q414 125 449 151Q498 188 498 361Q498 478 486 516Q473 554 462 570Q452 586 433 595Q402 608 360 608Q318 608 302 606Q285 605 266 600Q248 595 238 584Q227
574 216 556Q206 538 201 512Q196 485 193 448Z" />
<glyph unicode="&#xd5;" glyph-name="Otilde" horiz-adv-x="671" d="M403 887Q442 887 492 925L516 865Q454 797 404 797Q378 797 344 814Q309 832 295 832Q281 832 272 830Q262 829 256 828Q250 826 240 822Q231 817 227 815Q223 813 212 806Q200 799 197 797L172
852Q236 922 293 922Q318 921 351 904Q384 887 392 887H403ZM54 261Q50 306 50 370Q50 433 58 490Q65 546 78 586Q91 625 113 653Q135 681 157 697T213 722Q265 737 322 737Q380 737 406 735Q433 733 462 726Q492 720 513 708Q534 696 555 678T591 630Q605 602
616 565Q638 491 638 392Q638 293 630 240Q623 186 611 148Q599 109 578 82Q558 54 536 38Q513 21 481 12Q407 -10 286 -2Q224 1 196 13Q168 25 148 38Q127 52 113 72Q99 91 86 118Q73 146 66 181Q58 216 54 261ZM193 448Q190 411 190 355Q190 299 194 260Q198
220 208 192Q217 164 236 150Q270 125 344 125Q414 125 449 151Q498 188 498 361Q498 478 486 516Q473 554 462 570Q452 586 433 595Q402 608 360 608Q318 608 302 606Q285 605 266 600Q248 595 238 584Q227 574 216 556Q206 538 201 512Q196 485 193 448Z" />
<glyph unicode="&#xd6;" glyph-name="Odieresis" horiz-adv-x="671" d="M158 856Q158 872 166 886Q183 915 212 914Q241 914 258 898Q275 881 275 856Q275 832 258 814Q241 797 221 797Q201 797 188 805Q174 813 166 826Q158 840 158 856ZM430 814Q413 832 413
852Q413 872 421 886Q438 914 467 914Q496 914 513 898Q530 881 530 856Q530 832 513 814Q496 797 472 797Q448 797 430 814ZM54 261Q50 306 50 370Q50 433 58 490Q65 546 78 586Q91 625 113 653Q135 681 157 697T213 722Q265 737 322 737Q380 737 406 735Q433
733 462 726Q492 720 513 708Q534 696 555 678T591 630Q605 602 616 565Q638 491 638 392Q638 293 630 240Q623 186 611 148Q599 109 578 82Q558 54 536 38Q513 21 481 12Q407 -10 286 -2Q224 1 196 13Q168 25 148 38Q127 52 113 72Q99 91 86 118Q73 146 66 181Q58
216 54 261ZM193 448Q190 411 190 355Q190 299 194 260Q198 220 208 192Q217 164 236 150Q270 125 344 125Q414 125 449 151Q498 188 498 361Q498 478 486 516Q473 554 462 570Q452 586 433 595Q402 608 360 608Q318 608 302 606Q285 605 266 600Q248 595 238 584Q227
574 216 556Q206 538 201 512Q196 485 193 448Z" />
<glyph unicode="&#xd7;" glyph-name="multiply" horiz-adv-x="461" d="M43 250L148 355L43 461L126 544L231 439L337 545L421 462L315 355L420 250L337 167L231 272L127 167L43 250Z" />
<glyph unicode="&#xd8;" glyph-name="Oslash" horiz-adv-x="679" d="M117 653Q139 681 161 697T216 722Q269 737 349 737Q474 737 531 701L553 732H628L577 659Q643 572 643 361Q643 161 583 82Q544 29 485 12Q431 -4 356 -4Q281 -4 234 4Q188 13 153 37L127 0H53L110
83Q55 166 55 369Q55 572 117 653ZM198 448Q195 411 195 339Q195 267 209 225L452 587Q425 608 349 608Q266 608 242 584Q214 556 208 520Q201 485 198 448ZM349 125Q395 125 422 134Q450 143 469 170Q488 196 496 241Q503 286 503 381Q503 476 484 526L236 156Q267
125 349 125Z" />
<glyph unicode="&#xd9;" glyph-name="Ugrave" horiz-adv-x="664" d="M173 936H295L386 797H295L173 936ZM343 -5H329Q209 -5 169 20Q151 32 127 56Q103 79 91 113Q61 197 61 320V732H201V320Q201 224 220 179Q237 139 287 128Q309 124 350 124Q392 124 420 139Q479
171 479 320V732H620V320Q620 163 574 92Q559 67 545 52T508 24Q485 13 469 8Q453 2 426 -1Q392 -5 343 -5Z" />
<glyph unicode="&#xda;" glyph-name="Uacute" horiz-adv-x="664" d="M295 797L385 936H508L386 797H295ZM343 -5H329Q209 -5 169 20Q151 32 127 56Q103 79 91 113Q61 197 61 320V732H201V320Q201 224 220 179Q237 139 287 128Q309 124 350 124Q392 124 420 139Q479
171 479 320V732H620V320Q620 163 574 92Q559 67 545 52T508 24Q485 13 469 8Q453 2 426 -1Q392 -5 343 -5Z" />
<glyph unicode="&#xdb;" glyph-name="Ucircumflex" horiz-adv-x="664" d="M186 797L294 932H398L494 797H402L343 857L280 797H186ZM343 -5H329Q209 -5 169 20Q151 32 127 56Q103 79 91 113Q61 197 61 320V732H201V320Q201 224 220 179Q237 139 287 128Q309 124
350 124Q392 124 420 139Q479 171 479 320V732H620V320Q620 163 574 92Q559 67 545 52T508 24Q485 13 469 8Q453 2 426 -1Q392 -5 343 -5Z" />
<glyph unicode="&#xdc;" glyph-name="Udieresis" horiz-adv-x="664" d="M172 814Q154 832 154 852Q154 872 162 886Q179 914 208 914Q238 914 255 898Q272 881 272 856Q272 832 254 814Q237 797 213 797Q189 797 172 814ZM409 856Q409 880 426 897Q444 914 468
914Q493 914 510 898Q526 881 526 856Q526 832 509 814Q492 797 468 797Q444 797 426 814Q409 832 409 856ZM343 -5H329Q209 -5 169 20Q151 32 127 56Q103 79 91 113Q61 197 61 320V732H201V320Q201 224 220 179Q237 139 287 128Q309 124 350 124Q392 124 420 139Q479
171 479 320V732H620V320Q620 163 574 92Q559 67 545 52T508 24Q485 13 469 8Q453 2 426 -1Q392 -5 343 -5Z" />
<glyph unicode="&#xdd;" glyph-name="Yacute" horiz-adv-x="656" d="M290 797L381 936H504L382 797H290ZM397 0H257V227L34 732H186L329 381L486 732H638L397 227V0Z" />
<glyph unicode="&#xde;" glyph-name="Thorn" horiz-adv-x="546" d="M284 148Q257 148 186 168V0H46V729H186V588H333Q509 587 509 375Q509 215 427 171Q388 150 350 149T284 148ZM289 273Q290 272 300 272Q311 272 324 276Q337 279 348 289Q368 309 368 374Q367
443 333 457Q316 464 289 464H186V272L289 273Z" />
<glyph unicode="&#xdf;" glyph-name="germandbls" horiz-adv-x="572" d="M285 781Q452 781 511 683Q528 654 530 632Q532 611 532 595Q532 579 527 553Q517 493 470 442Q460 431 443 416Q426 400 419 392Q398 371 398 352Q398 334 414 322Q431 310 454 300Q478
289 501 275T542 235Q558 209 558 174V143Q558 56 503 22Q455 -8 390 -8Q326 -8 240 11V110Q330 105 355 105Q380 105 398 119Q417 133 418 161V185Q418 216 363 238Q341 247 318 258Q295 270 280 293Q264 316 264 356Q264 395 282 422Q301 450 352 492Q393 528
393 576Q393 654 291 654Q255 654 232 640Q186 614 186 516V0H46V566Q46 658 108 720Q171 781 285 781Z" />
<glyph unicode="&#xe0;" glyph-name="agrave" horiz-adv-x="519" d="M100 740H222L313 601H222L100 740ZM48 506Q139 541 291 541Q383 541 432 502Q482 464 482 370V0H371L342 58Q338 51 316 36Q295 22 257 8Q219 -6 184 -6Q110 -6 70 36Q30 79 30 135V185Q30
249 68 290Q106 331 185 331H303H342V356V365Q342 405 325 418Q308 430 257 430Q206 430 48 419V506ZM170 155Q170 125 183 116Q196 106 221 106Q246 106 276 116Q307 127 324 137L342 148V245L213 235Q170 231 170 181V155Z" />
<glyph unicode="&#xe1;" glyph-name="aacute" horiz-adv-x="519" d="M220 601L310 740H433L311 601H220ZM48 506Q139 541 291 541Q383 541 432 502Q482 464 482 370V0H371L342 58Q338 51 316 36Q295 22 257 8Q219 -6 184 -6Q110 -6 70 36Q30 79 30 135V185Q30
249 68 290Q106 331 185 331H303H342V356V365Q342 405 325 418Q308 430 257 430Q206 430 48 419V506ZM170 155Q170 125 183 116Q196 106 221 106Q246 106 276 116Q307 127 324 137L342 148V245L213 235Q170 231 170 181V155Z" />
<glyph unicode="&#xe2;" glyph-name="acircumflex" horiz-adv-x="519" d="M112 601L219 736H323L420 601H327L268 661L206 601H112ZM48 506Q139 541 291 541Q383 541 432 502Q482 464 482 370V0H371L342 58Q338 51 316 36Q295 22 257 8Q219 -6 184 -6Q110 -6 70
36Q30 79 30 135V185Q30 249 68 290Q106 331 185 331H303H342V356V365Q342 405 325 418Q308 430 257 430Q206 430 48 419V506ZM170 155Q170 125 183 116Q196 106 221 106Q246 106 276 116Q307 127 324 137L342 148V245L213 235Q170 231 170 181V155Z" />
<glyph unicode="&#xe3;" glyph-name="atilde" horiz-adv-x="519" d="M323 691Q361 691 411 729L435 669Q373 601 323 601Q298 601 263 618Q228 636 214 636Q201 636 191 634Q181 633 175 632T160 626Q150 621 146 619Q143 617 132 610Q120 603 116 601L92 656Q155
726 212 726Q237 725 270 708Q303 691 312 691H323ZM48 506Q139 541 291 541Q383 541 432 502Q482 464 482 370V0H371L342 58Q338 51 316 36Q295 22 257 8Q219 -6 184 -6Q110 -6 70 36Q30 79 30 135V185Q30 249 68 290Q106 331 185 331H303H342V356V365Q342 405
325 418Q308 430 257 430Q206 430 48 419V506ZM170 155Q170 125 183 116Q196 106 221 106Q246 106 276 116Q307 127 324 137L342 148V245L213 235Q170 231 170 181V155Z" />
<glyph unicode="&#xe4;" glyph-name="adieresis" horiz-adv-x="519" d="M79 660Q79 684 96 702Q114 719 138 719Q162 719 179 702Q196 685 196 660Q196 636 179 618Q162 601 138 601Q114 601 96 618Q79 636 79 660ZM334 660Q334 684 352 702Q369 719 387 719T416
714Q427 709 434 702Q451 685 451 660Q451 636 434 618Q417 601 393 601Q369 601 352 618Q334 636 334 660ZM48 506Q139 541 291 541Q383 541 432 502Q482 464 482 370V0H371L342 58Q338 51 316 36Q295 22 257 8Q219 -6 184 -6Q110 -6 70 36Q30 79 30 135V185Q30
249 68 290Q106 331 185 331H303H342V356V365Q342 405 325 418Q308 430 257 430Q206 430 48 419V506ZM170 155Q170 125 183 116Q196 106 221 106Q246 106 276 116Q307 127 324 137L342 148V245L213 235Q170 231 170 181V155Z" />
<glyph unicode="&#xe5;" glyph-name="aring" horiz-adv-x="519" d="M173 650Q165 669 165 694Q165 718 179 742Q193 765 216 778Q240 792 268 792Q295 792 318 778Q341 765 354 742Q368 718 368 690Q368 661 354 638Q341 615 318 602Q295 588 271 588T228 596Q209
603 195 617Q181 631 173 650ZM236 720Q224 707 224 694Q224 682 226 676Q228 669 232 664T241 655Q253 647 269 647Q285 647 298 660Q310 672 310 690Q310 708 298 720Q285 733 267 733Q249 733 236 720ZM48 506Q139 541 291 541Q383 541 432 502Q482 464 482
370V0H371L342 58Q338 51 316 36Q295 22 257 8Q219 -6 184 -6Q110 -6 70 36Q30 79 30 135V185Q30 249 68 290Q106 331 185 331H303H342V356V365Q342 405 325 418Q308 430 257 430Q206 430 48 419V506ZM170 155Q170 125 183 116Q196 106 221 106Q246 106 276 116Q307
127 324 137L342 148V245L213 235Q170 231 170 181V155Z" />
<glyph unicode="&#xe6;" glyph-name="ae" horiz-adv-x="842" d="M30 138V173Q30 234 65 275Q103 319 184 318Q264 318 303 318T342 319V355V368Q342 407 325 420Q308 433 264 433Q219 433 48 421V508Q132 543 290 544Q388 543 429 501Q458 523 494 530Q531 538
584 538Q638 538 670 534Q703 531 732 520Q762 509 778 488Q813 444 813 351Q813 282 776 252Q739 223 664 223H496Q496 155 522 132Q547 110 608 110Q731 110 803 120V26Q768 13 714 6Q645 -2 531 -2Q476 -2 444 15Q411 32 386 67Q377 48 306 22Q236 -3 183 -3Q110
-3 70 40Q30 82 30 138ZM170 155Q170 123 186 115Q198 109 222 109Q246 109 276 120Q307 130 324 140L342 150V235L213 225Q170 221 170 171V155ZM595 431H590Q544 431 537 428Q530 424 523 421T512 412Q509 406 505 397Q496 380 496 324V318H628Q673 318 673 358Q673
407 660 419Q647 431 595 431Z" />
<glyph unicode="&#xe7;" glyph-name="ccedilla" horiz-adv-x="494" d="M38 266Q38 346 50 400Q63 455 88 484Q112 513 142 525Q172 537 213 537Q357 537 457 504V418Q362 424 306 424Q250 424 238 422Q226 421 212 413Q198 405 192 387Q178 347 178 271Q178 195
188 162Q197 128 216 118Q234 107 274 107Q355 107 437 114L464 116V28Q418 4 374 0Q309 -6 261 -6H255H213Q134 -6 89 47Q38 107 38 266ZM232 -38H326Q326 -116 302 -148Q278 -179 214 -179H158V-119L202 -104Q222 -96 227 -82Q232 -69 232 -38Z" />
<glyph unicode="&#xe8;" glyph-name="egrave" horiz-adv-x="525" d="M106 734H229L319 596H228L106 734ZM181 529Q216 535 261 535Q306 535 331 534Q356 532 382 528Q407 523 423 514Q439 506 454 492Q469 477 477 457Q495 412 495 354Q495 295 478 265Q445 208
347 208H178Q178 173 184 152Q190 131 206 122Q222 112 239 110T335 107Q413 107 485 118V23Q440 6 394 2Q349 -2 332 -3Q315 -4 290 -4Q257 -5 213 -5Q114 -5 76 57Q38 119 38 258Q38 398 68 456Q99 515 181 529ZM311 309Q355 309 355 349Q355 399 342 414Q328
428 287 428Q246 428 230 426Q215 423 200 412Q186 400 182 377Q178 354 178 334V309H311Z" />
<glyph unicode="&#xe9;" glyph-name="eacute" horiz-adv-x="525" d="M224 596L314 734H437L315 596H224ZM181 529Q216 535 261 535Q306 535 331 534Q356 532 382 528Q407 523 423 514Q439 506 454 492Q469 477 477 457Q495 412 495 354Q495 295 478 265Q445 208
347 208H178Q178 173 184 152Q190 131 206 122Q222 112 239 110T335 107Q413 107 485 118V23Q440 6 394 2Q349 -2 332 -3Q315 -4 290 -4Q257 -5 213 -5Q114 -5 76 57Q38 119 38 258Q38 398 68 456Q99 515 181 529ZM311 309Q355 309 355 349Q355 399 342 414Q328
428 287 428Q246 428 230 426Q215 423 200 412Q186 400 182 377Q178 354 178 334V309H311Z" />
<glyph unicode="&#xea;" glyph-name="ecircumflex" horiz-adv-x="525" d="M112 596L220 732H324L421 596H328L269 656L206 596H112ZM181 529Q216 535 261 535Q306 535 331 534Q356 532 382 528Q407 523 423 514Q439 506 454 492Q469 477 477 457Q495 412 495 354Q495
295 478 265Q445 208 347 208H178Q178 173 184 152Q190 131 206 122Q222 112 239 110T335 107Q413 107 485 118V23Q440 6 394 2Q349 -2 332 -3Q315 -4 290 -4Q257 -5 213 -5Q114 -5 76 57Q38 119 38 258Q38 398 68 456Q99 515 181 529ZM311 309Q355 309 355 349Q355
399 342 414Q328 428 287 428Q246 428 230 426Q215 423 200 412Q186 400 182 377Q178 354 178 334V309H311Z" />
<glyph unicode="&#xeb;" glyph-name="edieresis" horiz-adv-x="525" d="M79 655Q79 679 96 696Q114 714 138 714Q162 714 179 697Q196 680 196 656Q196 631 179 614Q162 596 138 596Q114 596 96 614Q79 631 79 655ZM334 655Q334 679 352 696Q369 714 387 714T416
709Q426 704 434 697Q451 680 451 656Q451 631 434 614Q417 596 393 596Q369 596 352 614Q334 631 334 655ZM181 529Q216 535 261 535Q306 535 331 534Q356 532 382 528Q407 523 423 514Q439 506 454 492Q469 477 477 457Q495 412 495 354Q495 295 478 265Q445
208 347 208H178Q178 173 184 152Q190 131 206 122Q222 112 239 110T335 107Q413 107 485 118V23Q440 6 394 2Q349 -2 332 -3Q315 -4 290 -4Q257 -5 213 -5Q114 -5 76 57Q38 119 38 258Q38 398 68 456Q99 515 181 529ZM311 309Q355 309 355 349Q355 399 342 414Q328
428 287 428Q246 428 230 426Q215 423 200 412Q186 400 182 377Q178 354 178 334V309H311Z" />
<glyph unicode="&#xec;" glyph-name="igrave" horiz-adv-x="230" d="M-52 734H71L161 596H70L-52 734ZM46 0V531H186V0H46Z" />
<glyph unicode="&#xed;" glyph-name="iacute" horiz-adv-x="230" d="M70 596L161 734H283L161 596H70ZM46 0V531H186V0H46Z" />
<glyph unicode="&#xee;" glyph-name="icircumflex" horiz-adv-x="230" d="M-39 596L69 732H173L270 596H177L118 656L55 596H-39ZM46 0V531H186V0H46Z" />
<glyph unicode="&#xef;" glyph-name="idieresis" horiz-adv-x="230" d="M-71 655Q-71 679 -54 696Q-36 714 -12 714Q13 714 30 697Q47 680 47 656Q47 631 30 614Q13 596 -12 596Q-36 596 -54 614Q-71 631 -71 655ZM184 655Q184 679 202 696Q219 714 244 714Q268
714 285 697Q302 680 302 656Q302 631 285 614Q268 596 244 596Q219 596 202 614Q184 631 184 655ZM46 0V531H186V0H46Z" />
<glyph unicode="&#xf0;" glyph-name="eth" horiz-adv-x="540" d="M73 64Q30 127 30 262Q30 396 74 464Q119 531 217 531H273Q331 531 348 521Q330 582 291 618L177 565L149 622L221 655Q183 669 118 669Q107 669 95 668V783Q261 783 351 723L444 766L473 708L405
677Q470 604 492 486Q510 387 510 264Q510 0 322 0H217Q116 0 73 64ZM178 352Q170 321 170 263Q170 205 178 176Q186 147 200 139Q213 131 240 131H300Q344 131 357 159Q370 187 370 269Q370 351 358 376Q345 402 300 402H240Q214 402 200 392Q186 382 178 352Z"
/>
<glyph unicode="&#xf1;" glyph-name="ntilde" horiz-adv-x="550" d="M338 690Q377 690 427 728L451 668Q389 600 339 600Q314 600 279 618Q244 635 230 635Q216 635 206 634Q197 632 191 631T176 624Q166 620 162 618Q159 616 148 609Q136 602 132 600L107 655Q171
725 228 725Q253 724 286 707Q319 690 328 690H338ZM46 0V531H158L186 474Q259 527 302 535Q325 540 354 540Q513 540 513 354V0H373V356Q373 428 314 428Q274 428 246 418Q218 407 186 382V0H46Z" />
<glyph unicode="&#xf2;" glyph-name="ograve" horiz-adv-x="560" d="M117 734H240L330 596H239L117 734ZM38 255Q38 324 46 370Q54 417 71 450Q88 482 118 501Q173 536 280 536Q417 536 470 476Q522 416 522 262Q522 109 470 52Q419 -5 280 -5Q144 -5 90 56Q38
115 38 255ZM182 346Q178 315 178 261Q178 207 183 177Q188 147 202 132Q215 116 232 112Q249 108 278 108Q307 108 322 110Q336 112 350 120Q363 128 369 145Q382 181 382 238Q382 296 380 322Q379 348 374 367Q369 386 363 396T344 414Q324 424 285 424Q246 424
228 419Q211 414 198 396Q186 378 182 346Z" />
<glyph unicode="&#xf3;" glyph-name="oacute" horiz-adv-x="560" d="M235 596L325 734H448L326 596H235ZM38 255Q38 324 46 370Q54 417 71 450Q88 482 118 501Q173 536 280 536Q417 536 470 476Q522 416 522 262Q522 109 470 52Q419 -5 280 -5Q144 -5 90 56Q38
115 38 255ZM182 346Q178 315 178 261Q178 207 183 177Q188 147 202 132Q215 116 232 112Q249 108 278 108Q307 108 322 110Q336 112 350 120Q363 128 369 145Q382 181 382 238Q382 296 380 322Q379 348 374 367Q369 386 363 396T344 414Q324 424 285 424Q246 424
228 419Q211 414 198 396Q186 378 182 346Z" />
<glyph unicode="&#xf4;" glyph-name="ocircumflex" horiz-adv-x="560" d="M128 596L236 732H340L437 596H344L285 656L222 596H128ZM38 255Q38 324 46 370Q54 417 71 450Q88 482 118 501Q173 536 280 536Q417 536 470 476Q522 416 522 262Q522 109 470 52Q419
-5 280 -5Q144 -5 90 56Q38 115 38 255ZM182 346Q178 315 178 261Q178 207 183 177Q188 147 202 132Q215 116 232 112Q249 108 278 108Q307 108 322 110Q336 112 350 120Q363 128 369 145Q382 181 382 238Q382 296 380 322Q379 348 374 367Q369 386 363 396T344
414Q324 424 285 424Q246 424 228 419Q211 414 198 396Q186 378 182 346Z" />
<glyph unicode="&#xf5;" glyph-name="otilde" horiz-adv-x="560" d="M343 686Q382 686 432 724L456 664Q394 596 344 596Q319 596 284 614Q249 631 235 631Q221 631 212 630Q202 628 196 627T180 620Q171 616 168 614Q164 612 152 605Q141 598 137 596L112 651Q176
721 233 721Q258 720 291 703Q324 686 332 686H343ZM38 255Q38 324 46 370Q54 417 71 450Q88 482 118 501Q173 536 280 536Q417 536 470 476Q522 416 522 262Q522 109 470 52Q419 -5 280 -5Q144 -5 90 56Q38 115 38 255ZM182 346Q178 315 178 261Q178 207 183 177Q188
147 202 132Q215 116 232 112Q249 108 278 108Q307 108 322 110Q336 112 350 120Q363 128 369 145Q382 181 382 238Q382 296 380 322Q379 348 374 367Q369 386 363 396T344 414Q324 424 285 424Q246 424 228 419Q211 414 198 396Q186 378 182 346Z" />
<glyph unicode="&#xf6;" glyph-name="odieresis" horiz-adv-x="560" d="M94 655Q94 679 112 696Q129 714 154 714Q178 714 195 697Q212 680 212 656Q212 631 195 614Q178 596 154 596Q129 596 112 614Q94 631 94 655ZM349 655Q349 679 366 696Q384 714 408 714Q433
714 450 697Q467 680 467 656Q467 631 450 614Q433 596 408 596Q384 596 366 614Q349 631 349 655ZM38 255Q38 324 46 370Q54 417 71 450Q88 482 118 501Q173 536 280 536Q417 536 470 476Q522 416 522 262Q522 109 470 52Q419 -5 280 -5Q144 -5 90 56Q38 115 38
255ZM182 346Q178 315 178 261Q178 207 183 177Q188 147 202 132Q215 116 232 112Q249 108 278 108Q307 108 322 110Q336 112 350 120Q363 128 369 145Q382 181 382 238Q382 296 380 322Q379 348 374 367Q369 386 363 396T344 414Q324 424 285 424Q246 424 228
419Q211 414 198 396Q186 378 182 346Z" />
<glyph unicode="&#xf7;" glyph-name="divide" horiz-adv-x="497" d="M38 294V412H460V294H38ZM186 155V222Q186 246 210 246H284Q296 246 302 240T308 222V155Q308 132 284 132H210Q205 132 201 133T193 138T188 145T186 155ZM186 478V545Q186 570 210 570H284Q308
570 308 545V478Q308 455 284 455H210Q200 455 193 461T186 478Z" />
<glyph unicode="&#xf8;" glyph-name="oslash" horiz-adv-x="581" d="M92 67Q49 125 49 246Q49 367 73 427Q97 487 148 512Q199 536 295 536Q391 536 442 508L461 531H538L487 468Q533 408 533 258Q533 109 482 52Q430 -5 291 -5Q189 -5 135 27L113 0H38L92 67ZM193
346Q189 315 189 266Q189 217 198 196L361 407Q343 424 300 424Q257 424 240 419Q222 414 210 396Q197 378 193 346ZM356 118Q374 128 380 145Q393 181 393 249Q393 317 383 341L217 128Q235 108 287 108Q339 108 356 118Z" />
<glyph unicode="&#xf9;" glyph-name="ugrave" horiz-adv-x="550" d="M108 734H231L321 596H230L108 734ZM38 178V531H178V175Q178 104 237 104Q277 104 304 114Q332 124 365 150V531H505V0H392L365 56Q356 51 340 41Q324 31 315 26Q306 20 292 12Q277 5 264 1Q233
-9 196 -9Q38 -9 38 178Z" />
<glyph unicode="&#xfa;" glyph-name="uacute" horiz-adv-x="550" d="M226 596L316 734H439L317 596H226ZM38 178V531H178V175Q178 104 237 104Q277 104 304 114Q332 124 365 150V531H505V0H392L365 56Q356 51 340 41Q324 31 315 26Q306 20 292 12Q277 5 264 1Q233
-9 196 -9Q38 -9 38 178Z" />
<glyph unicode="&#xfb;" glyph-name="ucircumflex" horiz-adv-x="550" d="M117 596L225 732H329L426 596H333L274 656L211 596H117ZM38 178V531H178V175Q178 104 237 104Q277 104 304 114Q332 124 365 150V531H505V0H392L365 56Q356 51 340 41Q324 31 315 26Q306
20 292 12Q277 5 264 1Q233 -9 196 -9Q38 -9 38 178Z" />
<glyph unicode="&#xfc;" glyph-name="udieresis" horiz-adv-x="550" d="M85 655Q85 679 102 696Q120 714 144 714Q169 714 186 697Q203 680 203 656Q203 631 186 614Q169 596 144 596Q120 596 102 614Q85 631 85 655ZM340 655Q340 679 358 696Q375 714 400 714Q424
714 441 697Q458 680 458 656Q458 631 441 614Q424 596 400 596Q375 596 358 614Q340 631 340 655ZM38 178V531H178V175Q178 104 237 104Q277 104 304 114Q332 124 365 150V531H505V0H392L365 56Q356 51 340 41Q324 31 315 26Q306 20 292 12Q277 5 264 1Q233 -9
196 -9Q38 -9 38 178Z" />
<glyph unicode="&#xfd;" glyph-name="yacute" horiz-adv-x="578" d="M243 596L333 734H456L334 596H243ZM16 531H163L255 159Q260 141 267 135Q274 129 278 126Q282 124 287 123T296 121Q299 121 304 120H308L414 531H560L376 -168L303 -270H203L278 0Q156 0 120
135L16 531Z" />
<glyph unicode="&#xfe;" glyph-name="thorn" horiz-adv-x="556" d="M193 782V473Q223 497 266 516Q310 534 353 534Q526 534 526 264Q526 101 478 40Q436 -13 353 -13Q316 -13 272 -4Q227 6 193 24V-270H53V782H193ZM316 415Q246 412 193 380V116Q236 100 316
97Q340 97 354 108Q386 135 386 275Q386 415 316 415Z" />
<glyph unicode="&#xff;" glyph-name="ydieresis" horiz-adv-x="578" d="M102 655Q102 679 120 696Q137 714 161 714Q185 714 202 697Q219 680 219 656Q219 631 202 614Q185 596 161 596Q137 596 120 614Q102 631 102 655ZM357 655Q357 679 374 696Q392 714 416
714Q440 714 457 697Q474 680 474 656Q474 631 457 614Q440 596 416 596Q392 596 374 614Q357 631 357 655ZM16 531H163L255 159Q260 141 267 135Q274 129 278 126Q282 124 287 123T296 121Q299 121 304 120H308L414 531H560L376 -168L303 -270H203L278 0Q156 0
120 135L16 531Z" />
<glyph unicode="&#x2013;" glyph-name="endash" horiz-adv-x="513" d="M20 228V347H493V228H20Z" />
<glyph unicode="&#x2014;" glyph-name="emdash" horiz-adv-x="736" d="M20 230V349H716V230H20Z" />
<glyph unicode="&#x2018;" glyph-name="quoteleft" horiz-adv-x="259" d="M61 516V649Q61 682 74 704T107 733T146 742T179 742L193 740V685Q178 685 171 679T162 666T160 652V631H172Q198 631 198 606V516Q198 488 172 488H86Q72 488 67 495T61 516Z" />
<glyph unicode="&#x2019;" glyph-name="quoteright" horiz-adv-x="259" d="M61 626V715Q61 724 64 730T73 740T87 743H173Q198 743 198 715V582Q198 496 113 488Q88 486 66 491V546Q74 546 79 547T88 552T94 558T97 565T98 572T99 579V599H87Q76 599 69 606T61 626Z" />
<glyph unicode="&#x201a;" glyph-name="quotesinglbase" horiz-adv-x="259" d="M61 26V115Q61 144 87 144H173Q198 144 198 115V-17Q198 -42 191 -60T172 -88T146 -104T118 -111T93 -112T74 -110T66 -109V-54Q81 -54 88 -48T97 -35T99 -21V0H87Q76 0 69 6T61 26Z" />
<glyph unicode="&#x201c;" glyph-name="quotedblleft" horiz-adv-x="425" d="M233 515V648Q233 672 240 690T259 718T285 733T313 740T339 742T358 740T366 739V684Q333 684 333 651V631H345Q356 631 363 624T371 604V515Q371 501 365 494T345 487H259Q250 487
244 491T236 501T233 515ZM55 515V648Q55 667 59 682T72 707T90 724T110 735T132 740T153 742T170 742T183 740L187 739V684Q176 684 169 681T160 671T156 661T155 651V631H167Q178 631 185 624T193 604V515Q193 487 167 487H80Q55 487 55 515Z" />
<glyph unicode="&#x201d;" glyph-name="quotedblright" horiz-adv-x="425" d="M55 624V714Q55 742 81 742H168Q171 742 174 742T179 740T184 738T187 734T190 730T191 725T192 720T193 714V581Q193 548 179 526T146 497T107 488T75 487T60 490V545Q93 544 93 578V598H81Q74
598 68 601T59 610T55 624ZM233 624V714Q233 742 260 742H346Q359 742 365 734T371 714V581Q371 548 357 526T325 497T286 488T253 487T239 490V545Q271 544 271 578V598H260Q254 598 250 599T241 604T235 613T233 624Z" />
<glyph unicode="&#x201e;" glyph-name="quotedblbase" horiz-adv-x="425" d="M89 -112Q76 -112 60 -109V-54H61Q93 -54 93 -21V0H81Q70 0 62 6Q55 13 55 26V115Q55 144 81 144H168Q193 144 193 115V-17Q193 -112 89 -112ZM371 -17Q371 -112 267 -112Q259 -112
252 -111L239 -109V-54H240Q271 -54 271 -21V0H260Q248 0 240 6Q233 13 233 26V115Q233 143 260 143H346Q371 143 371 115V-17Z" />
<glyph unicode="&#x2022;" glyph-name="bullet" horiz-adv-x="309" d="M65 322V440Q65 475 98 475H210Q245 475 245 440V322Q245 290 210 290H98Q83 290 74 298Q65 307 65 322Z" />
<glyph unicode="&#x2039;" glyph-name="guilsinglleft" horiz-adv-x="356" d="M38 354L244 557L321 481L190 354L323 223L249 146L38 354Z" />
<glyph unicode="&#x203a;" glyph-name="guilsinglright" horiz-adv-x="356" d="M38 223L171 354L41 481L117 557L323 354L112 146L38 223Z" />
</font>
</defs>
</svg>
