<?xml version="1.0" standalone="no"?>
<!DOCTYPE svg PUBLIC "-//W3C//DTD SVG 1.1//EN" "http://www.w3.org/Graphics/SVG/1.1/DTD/svg11.dtd" >
<svg xmlns="http://www.w3.org/2000/svg">
<metadata>Generated by IcoMoon</metadata>
<defs>
<font id="icomoon" horiz-adv-x="1024">
<font-face units-per-em="1024" ascent="960" descent="-64" />
<missing-glyph horiz-adv-x="1024" />
<glyph unicode="&#x20;" horiz-adv-x="512" d="" />
<glyph unicode="&#xe900;" glyph-name="add" d="M512 960c-282.77 0-512-229.23-512-512s229.23-512 512-512c282.77 0 512 229.23 512 512v0c0 282.77-229.23 512-512 512v0zM768 405.333h-213.333v-213.333c0-23.564-19.103-42.667-42.667-42.667s-42.667 19.103-42.667 42.667v0 213.333h-213.333c-23.564 0-42.667 19.103-42.667 42.667s19.103 42.667 42.667 42.667v0h213.333v213.333c0 23.564 19.103 42.667 42.667 42.667s42.667-19.103 42.667-42.667v0-213.333h213.333c23.564 0 42.667-19.103 42.667-42.667s-19.103-42.667-42.667-42.667v0z" />
<glyph unicode="&#xe901;" glyph-name="buy" d="M517.5 901.486l-214.338-204.8 1.346-1.287h-2.692l21.563-82.476h589.093l-82.242-288.563h-494.709l-113.225 433.006c-10.363 35.989-42.997 61.871-81.676 61.871-0.672 0-1.343-0.008-2.011-0.023l0.099 0.002h-95.7c-0.463 0.019-1.007 0.029-1.553 0.029-22.783 0-41.253-18.469-41.253-41.253s18.469-41.253 41.253-41.253c0.546 0 1.090 0.011 1.631 0.032l-0.078-0.002h95.7l113.225-433.006c10.373-35.974 42.999-61.842 81.668-61.842 0.675 0 1.348 0.008 2.020 0.024l-0.1-0.002h494.738c0.4-0.007 0.871-0.011 1.344-0.011 38.094 0 70.288 25.262 80.743 59.947l0.155 0.597 111.879 392.953h-75.483l-215.713 206.058-107.842-103.073zM776.309 241.883c-65.935-3.071-118.228-57.274-118.228-123.69 0-68.382 55.434-123.816 123.816-123.816 68.379 0 123.811 55.429 123.816 123.807v0c-2.012 68.75-58.225 123.717-127.276 123.717-0.738 0-1.475-0.006-2.21-0.019l0.111 0.001zM388.067 241.883c-65.935-3.071-118.228-57.274-118.228-123.69 0-68.382 55.434-123.816 123.816-123.816 68.379 0 123.811 55.429 123.816 123.807v0c-2.012 68.75-58.225 123.717-127.276 123.717-0.738 0-1.475-0.006-2.21-0.019l0.111 0.001zM517.471 784.252l94.354-88.883h-187.246zM733.155 784.252l93.008-88.883h-92.979l-45.846 43.886zM387.92 159.408c21.95-1.044 39.351-19.094 39.351-41.209 0-22.783-18.469-41.253-41.253-41.253-22.778 0-41.244 18.461-41.253 41.237v0.001c0.229 22.834 18.793 41.257 41.66 41.257 0.587 0 1.172-0.012 1.753-0.036l-0.083 0.003zM776.163 159.408c21.963-1.029 39.38-19.085 39.38-41.21 0-22.783-18.469-41.253-41.253-41.253-22.779 0-41.245 18.462-41.253 41.239v0.001c0.23 22.834 18.794 41.256 41.66 41.256 0.577 0 1.151-0.012 1.722-0.035l-0.082 0.003z" />
<glyph unicode="&#xe902;" glyph-name="fb" d="M373.487 764.075v-138.581h-100.079v-170.667h100.079v-505.173h204.8v505.173h137.694s12.902 81.92 18.842 170.667h-155.58v116.736c3.211 22.11 21.179 39.168 43.455 40.949l0.168 0.011h111.957v177.493h-151.62c-215.996 0-210.057-169.984-210.057-196.608v0z" />
<glyph unicode="&#xe903;" glyph-name="google" d="M324.608 506.027v-113.615h183.979c-16.013-82.101-87.362-143.216-172.985-143.216-3.868 0-7.706 0.125-11.512 0.37l0.518-0.027c-112.064 4.325-201.271 96.217-201.271 208.945s89.208 204.62 200.879 208.933l0.392 0.012c1.030 0.021 2.244 0.033 3.461 0.033 48.869 0 93.22-19.346 125.811-50.797l-0.054 0.052 88.015 86.309c-55.204 53.7-130.673 86.815-213.876 86.815-1.181 0-2.36-0.007-3.538-0.020l0.179 0.002c-180.424-3.195-325.459-150.207-325.459-331.093s145.035-327.898 325.16-331.089l0.299-0.004c187.197 0 311.442 134.095 311.442 323.291-0.081 19.534-1.976 38.574-5.525 57.024l0.308-1.923h-306.225zM1019.709 515.291h-95.573v97.524h-95.573v-97.524h-95.573v-97.524h95.573v-97.524h95.573v97.524h95.573v97.524z" />
<glyph unicode="&#xe904;" glyph-name="history" d="M151.707 960v-530.96h75.869v455.121h530.928v-303.414h75.869v379.252h-682.667zM303.414 732.455v-75.869h75.838v75.869h-75.838zM455.121 732.455v-75.869h227.545v75.869h-227.545zM303.414 580.748v-75.869h75.838v75.869h-75.838zM455.121 580.748v-75.869h56.879v75.869h-56.879zM568.91 542.829v-75.869h37.919v-75.838c0.401-61.734 29.863-116.505 75.378-151.369l0.46-0.338c-45.968-35.208-75.427-89.975-75.838-151.64v-75.905h-37.95v-75.869h455.121v75.869h-37.919v75.838c-0.411 61.732-29.87 116.499-75.379 151.369l-0.459 0.338c45.972 35.205 75.432 89.974 75.838 151.641v75.904h37.919v75.869h-455.121zM682.667 466.96h227.545v-75.838c0.010-0.559 0.016-1.218 0.016-1.879 0-62.843-50.945-113.788-113.788-113.788s-113.788 50.945-113.788 113.788c0 0.661 0.006 1.32 0.017 1.978l-0.001-0.099v75.838zM0 391.121v-113.788c0.071-83.757 67.95-151.637 151.7-151.707h401.322c4.79 28.434 13.675 53.923 26.133 77.214l-0.657-1.345h-426.791c-41.862 0.071-75.781 33.978-75.869 75.83v37.927h486.524c-7.784 22.628-12.32 48.703-12.412 75.825v0.044h-549.95zM720.586 391.121c0-41.893 33.961-75.854 75.854-75.854s75.854 33.961 75.854 75.854h-151.707zM796.455 201.495c0.625 0.013 1.361 0.020 2.099 0.020 61.695 0 111.709-50.014 111.709-111.709 0-0.738-0.007-1.474-0.021-2.209l0.002 0.11v-75.838h-37.95c0 41.893-33.961 75.854-75.854 75.854s-75.854-33.961-75.854-75.854v0h-37.919v75.838c-0.013 0.625-0.020 1.361-0.020 2.099 0 61.695 50.014 111.709 111.709 111.709 0.738 0 1.474-0.007 2.209-0.021l-0.11 0.002z" />
<glyph unicode="&#xe905;" glyph-name="home" d="M793.536 944c-22.297-0.376-40.227-18.539-40.227-40.891 0-0.182 0.001-0.364 0.004-0.545v0.028-197.856l-212.384 218.56c-7.355 7.481-17.584 12.118-28.896 12.118s-21.541-4.636-28.89-12.112l-0.006-0.006-471.296-486.4c-7.285-7.522-11.775-17.789-11.775-29.104s4.49-21.582 11.786-29.115l-0.011 0.011c7.125-7.472 17.156-12.118 28.272-12.118s21.147 4.646 28.257 12.102l0.015 0.016 443.648 456.512 444.8-457.792c7.268-7.699 17.429-12.601 28.736-12.958l0.064-0.002c11.013 0.359 20.81 5.279 27.614 12.921l0.034 0.039c7.29 7.514 11.784 17.776 11.784 29.088s-4.494 21.574-11.794 29.098l0.010-0.010-139.296 143.616v323.2c0.004 0.211 0.006 0.46 0.006 0.709 0 22.352-17.932 40.516-40.195 40.89h-40.259zM511.936 759.072l-442.272-455.264v-227.616c-0.008-0.527-0.013-1.15-0.013-1.773 0-66.992 53.805-121.417 120.559-122.418l0.094-0.001h643.456c66.847 1.003 120.652 55.428 120.652 122.419 0 0.601-0.004 1.201-0.013 1.8l0.001-0.091v227.616zM431.488 365.92h160.864c22.297-0.376 40.227-18.54 40.227-40.891 0-0.171-0.001-0.341-0.003-0.511v0.026-248.32c0.002-0.144 0.003-0.315 0.003-0.485 0-22.351-17.93-40.514-40.192-40.89h-160.771c-22.297 0.376-40.227 18.54-40.227 40.891 0 0.171 0.001 0.341 0.003 0.511v-0.026 248.32c-0.002 0.135-0.003 0.294-0.003 0.453 0 22.351 17.93 40.514 40.191 40.89h0.035z" />
<glyph unicode="&#xe906;" glyph-name="insta" d="M1000.93 773.271c-34.351-15.299-74.201-26.529-115.927-31.715l-2.074-0.21c42.696 25.466 74.651 65.164 89.603 112.422l0.388 1.423c-37.425-22.576-80.904-40.075-127.17-50.087l-2.817-0.511c-37.344 40.427-90.625 65.657-149.799 65.657-0.087 0-0.174 0-0.26 0h0.013c-113.269-0.751-204.801-92.747-204.801-206.121 0-0.171 0-0.342 0.001-0.513v0.026c-0.001-0.211-0.001-0.461-0.001-0.711 0-16.453 2.199-32.392 6.318-47.54l-0.294 1.267c-171.216 9.36-321.612 91.226-422.182 215.162l-0.851 1.083c-17.605-29.853-28.005-65.774-28.005-104.124 0-71.123 35.771-133.892 90.304-171.296l0.707-0.458c-34.326 1.246-66.191 10.697-94.030 26.435l1.027-0.534v-3.012c0.209-99.302 70.257-182.183 163.626-202.147l1.359-0.243c-15.231-4.227-32.721-6.656-50.779-6.656-1.207 0-2.412 0.011-3.614 0.032l0.181-0.003c-1.137-0.027-2.477-0.043-3.82-0.043-12.469 0-24.628 1.332-36.34 3.861l1.128-0.204c26.85-82.681 102.258-141.799 191.78-143.958l0.25-0.005c-69.258-55.185-158.036-88.546-254.607-88.546-0.151 0-0.302 0-0.453 0h0.024c-17.344 0.078-34.346 1.17-51.052 3.22l2.081-0.208c89.126-58.164 198.233-92.761 315.421-92.761 321.792 0 582.656 260.864 582.656 582.656 0 2.054-0.011 4.105-0.032 6.154l0.003-0.313-1.024 25.901c40.691 29.321 74.896 64.676 102.072 105.145l0.931 1.472z" />
<glyph unicode="&#xe907;" glyph-name="iloading" d="M472.615 960v-236.308h78.769v236.308h-78.769zM177.861 837.829l-55.69-55.69 167.070-167.070 55.69 55.69zM846.139 837.829l-167.070-167.070 55.69-55.69 167.070 167.070zM0 487.385v-78.769h196.293v78.769h-196.293zM945.231 487.385v-78.769h78.769v78.769h-78.769zM233.551 225.241l-111.38-111.695 55.69-55.69 111.38 111.695zM846.139 169.551l-55.69-55.69 55.69-55.69 55.69 55.69zM472.615 48.955v-112.955h78.769v112.955h-78.769z" />
<glyph unicode="&#xe908;" glyph-name="log-out" d="M647.826 813.422v-135.973c40.325-16.78 74.893-39.442 104.469-67.338l-0.168 0.157c61.203-56.338 99.414-136.84 99.414-226.267s-38.211-169.929-99.197-226.070l-0.217-0.197c-62.933-58.102-147.37-93.733-240.128-93.733s-177.195 35.631-240.369 93.953l0.241-0.22c-61.203 56.338-99.414 136.84-99.414 226.267s38.211 169.929 99.197 226.070l0.217 0.197c29.408 27.741 63.976 50.403 102.054 66.347l2.247 0.835v135.973c-194.004-51.202-335.431-223.232-339.595-428.957l-0.007-0.465c0-247.406 212.846-448 475.429-448s475.429 200.594 475.429 448c-4.171 206.19-145.599 378.22-336.446 428.712l-3.157 0.71zM444.087 960h135.826v-512h-135.826v512z" />
<glyph unicode="&#xe909;" glyph-name="pending" d="M90.353 960v-153.6h105.412v-102.4c0.544-107.236 56.362-201.318 140.4-255.271l1.214-0.729c-85.251-54.682-141.069-148.764-141.613-255.919v-102.481h-105.412v-153.6h843.294v153.6h-105.412v102.4c-0.57 107.244-56.407 201.323-140.459 255.271l-1.214 0.729c85.267 54.678 141.104 148.756 141.673 255.915v102.485h105.412v153.6h-843.294zM301.176 806.4h421.647v-102.4c-0.928-97.556-66.911-179.448-156.611-204.442l-1.507-0.358v-102.4c91.229-25.316 157.233-107.23 158.117-204.699l0.001-0.101v-102.4h-421.647v102.4c0.885 97.57 66.888 179.484 156.612 204.442l1.506 0.358v102.4c-91.207 25.352-157.19 107.245-158.117 204.694l-0.001 0.106v102.4zM353.882 704c2.433-85.461 72.293-153.813 158.118-153.813s155.684 68.352 158.113 153.589l0.005 0.224h-316.235z" />
<glyph unicode="&#xe90a;" glyph-name="sell" horiz-adv-x="1023" d="M275.36 388.48c-51.2 0-96.384-18.304-264.288-94.080-7.106-3.354-11.935-10.46-11.935-18.694 0-2.96 0.624-5.774 1.747-8.318l-0.052 0.132 108.8-241.28c2.439-5.452 6.708-9.721 12.010-12.1l0.15-0.060c1.724-0.524 3.705-0.826 5.757-0.826 3.772 0 7.305 1.020 10.34 2.798l-0.097-0.052 55.68 36.48c9.168 8.553 21.513 13.804 35.084 13.804 12.193 0 23.396-4.238 32.216-11.322l-0.101 0.078 43.52-23.040c51.2-26.624 120.288-63.36 140.8-73.6 23.657-13.201 51.728-21.378 81.615-22.392l0.305-0.008c34.959 0.731 66.941 12.899 92.501 32.897l-0.341-0.257c24.544 16.416 324.032 211.36 350.688 229.76 26.662 14.164 46.13 38.874 52.983 68.42l0.137 0.7c1.984 57.376-53.28 71.68-102.4 40.96l-219.488-147.2c-21.136-11.998-46.429-19.070-73.373-19.070-4.36 0-8.677 0.185-12.943 0.548l0.556-0.038h-122.944c-45.355 2.311-88.015 9.638-128.762 21.465l3.962-0.985c-4.052 0.986-7.013 4.584-7.013 8.873 0 1.182 0.225 2.312 0.634 3.349l-0.022-0.062c0.65 4.129 4.183 7.25 8.445 7.25 1.351 0 2.629-0.314 3.765-0.872l-0.050 0.022h2.56c36.26-10.946 78.262-18.279 121.629-20.431l1.251-0.049h116.448c0.917-0.049 1.991-0.077 3.071-0.077 12.691 0 24.482 3.854 34.267 10.455l-0.218-0.139c7.504 5.309 13.555 12.179 17.77 20.168l0.15 0.312c0 2.080 2.56 1.856 2.56 3.84v2.56c1.287 3.87 2.030 8.326 2.030 12.956 0 1.071-0.040 2.133-0.118 3.184l0.008-0.14c-2.568 28.937-26.694 51.456-56.080 51.456-1.887 0-3.753-0.093-5.593-0.274l0.233 0.019c-42.368 3.581-81.356 10.832-118.884 21.543l4.356-1.063c-16.975 4.994-31.408 10.653-45.219 17.388l1.699-0.748c-7.579 5.728-14.275 11.816-20.383 18.453l-0.097 0.107c-34.521 41.56-86.21 67.827-144.035 67.827-5.383 0-10.713-0.228-15.98-0.674l0.687 0.047zM719.456 386.56c-25.283-0.566-48.519-8.877-67.55-22.641l0.35 0.241c-14.304-8.16-75.744-47.264-112.64-69.76 22.384-5.694 48.305-9.378 74.943-10.225l0.577-0.015c14.172-0.399 27.532-3.419 39.761-8.591l-0.721 0.271 133.088 90.24c-19.306 12.113-42.597 19.623-67.578 20.474l-0.23 0.006zM854.464 366.080c-30.24-2.535-57.468-13.691-79.698-30.973l0.338 0.253-102.4-69.76c14.725-12.334 24.088-30.651 24.32-51.16v-0.040c-0.262-14.577-4.766-28.051-12.325-39.301l0.165 0.261 1.92 2.56 1.92 1.92 225.248 149.12c-9.195 22.042-30.571 37.253-55.499 37.253-1.403 0-2.796-0.048-4.175-0.143l0.186 0.010zM440.608 960c-0.010 0-0.021 0-0.032 0-127.724 0-231.264-103.54-231.264-231.264s103.54-231.264 231.264-231.264c127.724 0 231.264 103.54 231.264 231.264v0c0.002 0.314 0.002 0.686 0.002 1.058 0 127.14-103.068 230.208-230.208 230.208-0.361 0-0.722-0.001-1.082-0.002h0.056zM574.272 956.8c78.796-46.752 130.867-131.258 131.2-227.952v-0.048c0.001-0.297 0.002-0.648 0.002-0.999 0-96.534-52.224-180.871-129.961-226.299l-1.241-0.67c114.649 13.955 202.599 110.696 202.599 227.978 0 117.317-88 214.080-201.592 227.881l-1.103 0.109zM679.232 956.8c78.796-46.752 130.867-131.258 131.2-227.952v-0.048c0.001-0.297 0.002-0.648 0.002-0.999 0-96.534-52.224-180.871-129.961-226.299l-1.241-0.67c114.649 13.955 202.599 110.696 202.599 227.978 0 117.317-88 214.080-201.592 227.881l-1.103 0.109zM422.592 864.928h33.6v-28.8c0.273 0.002 0.596 0.004 0.919 0.004 17.8 0 34.682-3.928 49.828-10.964l-0.731 0.305-10.656-39.36c-13.209 8.28-29.262 13.191-46.461 13.191-1.25 0-2.494-0.026-3.732-0.077l0.177 0.006c-21.024 0-28.8-10.144-28.8-18.048 0-10.432 13.12-18.24 39.36-28.8 39.36-13.12 54.944-31.648 54.944-63.136 0.362-2.375 0.569-5.116 0.569-7.905 0-30.504-24.728-55.232-55.232-55.232-0.099 0-0.197 0-0.296 0.001h0.015v-33.632h-33.6v31.168c-21.199 0.745-41.099 5.5-59.23 13.524l1.022-0.404 10.656 39.36c15.73-9.426 34.624-15.162 54.825-15.582l0.119-0.002c1.821-0.447 3.911-0.704 6.062-0.704 12.758 0 23.407 9.028 25.908 21.044l0.030 0.172c0 13.12-10.656 21.632-36.896 29.504-36.704 13.12-60.8 28.192-60.8 62.336 1.882 31.914 26.586 57.511 57.929 60.776l0.279 0.024v31.136z" />
<glyph unicode="&#xe90b;" glyph-name="settings" d="M446.635 960l-23.893-151.654c-38.769-9.361-72.914-23.536-104.088-42.168l1.688 0.935-125.030 89.122-90.453-90.453 87.791-125.030c-18.098-29.471-32.7-63.579-42.001-99.812l-0.563-2.588-150.187-25.293v-127.693l150.187-26.59c9.867-38.822 24.469-72.929 43.495-104.037l-0.93 1.637-89.122-125.030 90.453-90.453 125.030 87.791c29.486-17.68 63.629-31.854 99.858-40.708l2.542-0.525 25.225-151.45h127.693l27.955 151.62c38.331 9.871 71.989 24.467 102.63 43.466l-1.561-0.901 126.293-89.122 90.453 90.453-90.453 125.030c17.991 29.094 32.577 62.75 41.984 98.506l0.581 2.597 151.791 27.887v127.693l-151.654 25.293c-9.987 38.341-24.573 71.985-43.487 102.678l0.923-1.609 89.122 126.293-90.453 90.453-125.030-90.453c-29.472 18.056-63.574 32.655-99.79 41.993l-2.61 0.571-26.692 151.552h-127.693zM511.829 725.879c153.51-0.019 277.948-124.469 277.948-277.982 0-153.525-124.457-277.982-277.982-277.982s-277.982 124.457-277.982 277.982c0 0.036 0 0.072 0 0.108v-0.006c0.019 153.531 124.456 277.992 277.976 278.050h0.006zM511.829 658.057c-0.010 0-0.022 0-0.034 0-116.068 0-210.159-94.091-210.159-210.159s94.091-210.159 210.159-210.159c116.068 0 210.159 94.091 210.159 210.159 0 0.036 0 0.072 0 0.108v-0.006c-0.213 115.995-94.169 209.975-210.134 210.227h-0.024zM510.498 535.689c48.486 0 87.791-39.305 87.791-87.791s-39.305-87.791-87.791-87.791v0c-0.005 0-0.011 0-0.017 0-48.533 0-87.876 39.344-87.876 87.876 0 48.527 39.334 87.867 87.858 87.876h0.001z" />
<glyph unicode="&#xe90c;" glyph-name="snapchat" d="M508.446 900.367c1.313 0.023 2.862 0.036 4.413 0.036 106.208 0 198.050-61.507 241.849-150.845l0.703-1.587c11.072-37.48 17.443-80.54 17.443-125.088 0-23.878-1.83-47.329-5.358-70.22l0.324 2.555v-2.409c-0.482-7.228-0.904-13.854-1.205-20.48 4.403-2.3 9.617-3.65 15.146-3.65 0.542 0 1.080 0.013 1.615 0.039l-0.076-0.003c15.919 1.408 30.537 5.703 43.76 12.363l-0.692-0.316c5.375 2.667 11.706 4.227 18.401 4.227 0.329 0 0.657-0.004 0.984-0.011l-0.049 0.001c0.212 0.003 0.463 0.004 0.715 0.004 7.352 0 14.395-1.327 20.901-3.753l-0.413 0.135c16.155-3.431 28.439-16.591 30.519-32.938l0.020-0.192c-5.356-24.532-25.384-43.157-50.242-46.35l-0.295-0.031c-3.674-1.205-8.674-3.012-14.336-4.819-22.673-3.607-42.072-15.466-55.396-32.342l-0.141-0.185c-1.182-3.593-1.864-7.728-1.864-12.022 0-8.331 2.566-16.062 6.951-22.446l-0.087 0.135 0.663-0.602c38.236-80.585 110.492-139.697 197.698-159.261l1.922-0.362c9.924-1.408 17.473-9.847 17.473-20.049 0-0.152-0.002-0.303-0.005-0.453v0.022c-0.010-3.267-0.696-6.372-1.925-9.184l0.058 0.149c-9.999-22.287-53.007-39.153-131.072-50.598-2.834-6.382-5.189-13.849-6.698-21.617l-0.108-0.67c-1.599-8.737-3.539-16.229-5.952-23.505l0.35 1.218c-2.506-9.481-11.007-16.357-21.114-16.357-0.71 0-1.412 0.034-2.105 0.1l0.088-0.007h-1.265c-8.165 0.392-15.847 1.469-23.286 3.182l0.878-0.17c-15.892 3.447-34.147 5.421-52.864 5.421-0.071 0-0.143 0-0.214 0h0.011c-0.827 0.012-1.804 0.019-2.782 0.019-12.446 0-24.635-1.102-36.474-3.215l1.248 0.185c-27.547-6.858-51.612-18.944-72.194-35.237l0.394 0.301c-37.318-30.319-84.91-49.321-136.87-51.188l-0.406-0.012c-2.47 0-4.939 0.602-7.469 0.602h-6.024c-52.212 1.571-99.687 20.639-137.056 51.506l0.382-0.306c-19.971 16.003-43.818 28.091-69.859 34.663l-1.279 0.273c-11.497 1.779-24.863 2.869-38.457 3.011l-0.154 0.001c-18.926-0.278-37.187-2.458-54.802-6.357l1.795 0.334c-6.65-1.625-14.38-2.706-22.311-3.005l-0.217-0.007c-0.541-0.045-1.172-0.071-1.808-0.071-10.57 0-19.484 7.090-22.246 16.774l-0.040 0.163c-2.53 7.831-3.735 15.661-5.662 22.889-1.523 8.392-3.905 15.866-7.111 22.884l0.244-0.597c-79.932 9.035-122.94 25.901-132.879 48.791-1.35 2.63-2.201 5.717-2.347 8.988l-0.002 0.048c-0.002 0.095-0.002 0.206-0.002 0.318 0 10.247 7.569 18.725 17.421 20.149l0.109 0.013c89.103 19.98 161.339 79.073 198.872 157.879l0.748 1.744 0.663 1.205c4.425 6.237 7.074 14.004 7.074 22.391 0 4.491-0.76 8.805-2.157 12.819l0.083-0.273c-14 16.261-33.171 27.722-54.94 31.831l-0.597 0.094c-5.628 1.424-10.423 3.073-15.035 5.064l0.638-0.245c-46.14 17.468-52.405 36.744-49.875 50.598 7.182 18.526 24.861 31.422 45.553 31.422 1.097 0 2.185-0.036 3.264-0.108l-0.147 0.008c5.728-0.116 11.207-0.989 16.402-2.521l-0.44 0.111c13.383-6.806 29.066-11.157 45.67-12.035l0.29-0.012c0.394-0.014 0.857-0.021 1.322-0.021 6.585 0 12.805 1.565 18.306 4.345l-0.233-0.107-1.928 22.287c-3.088 20.005-4.853 43.082-4.853 66.571 0 44.944 6.459 88.379 18.499 129.428l-0.816-3.246c43.367 90.143 133.984 151.256 238.874 151.256 2.061 0 4.117-0.024 6.166-0.071l-0.305 0.006 17.468 0.602h2.53z" />
<glyph unicode="&#xe90d;" glyph-name="wallet" horiz-adv-x="1026" d="M923.645 715.381h-769.704l769.704 130.41-20.232 51.314c-15.359 38.534-52.351 65.27-95.587 65.27-6.165 0-12.204-0.544-18.070-1.586l0.62 0.091-705.562-125.792c-48.574-9.187-84.817-51.295-84.817-101.867 0-0.267 0.001-0.535 0.003-0.802v0.041-693.027c-0.002-0.218-0.003-0.477-0.003-0.735 0-56.813 45.869-102.912 102.594-103.285h821.053c56.761 0.373 102.63 46.472 102.63 103.285 0 0.258-0.001 0.517-0.003 0.775v-0.040 572.147c0.004 0.349 0.007 0.761 0.007 1.173 0 56.679-45.948 102.627-102.627 102.627-0.002 0-0.005 0-0.007 0v0zM846.675 247.62c-0.327-0.005-0.713-0.008-1.1-0.008-43.117 0-78.070 34.953-78.070 78.070s34.953 78.070 78.070 78.070c43.114 0 78.066-34.949 78.070-78.062v0c0.001-0.153 0.002-0.334 0.002-0.515 0-42.628-34.391-77.223-76.941-77.554h-0.032z" />
<glyph unicode="&#xe90e;" glyph-name="youtube" d="M1004.089 637.44c-5.213 37.72-19.606 71.347-40.839 99.529l0.391-0.542c-26.116 25.859-61.996 41.897-101.622 42.098h-0.039c-141.824 10.24-354.873 10.24-354.873 10.24h-0.341s-213.049 0-354.873-10.24c-39.665-0.201-75.545-16.239-101.672-42.109l0.012 0.012c-20.811-27.635-35.138-61.277-40.099-97.894l-0.121-1.093c-5.976-48.006-9.641-104.078-10.122-160.909l-0.004-0.655v-75.662c0.485-57.487 4.151-113.558 10.83-168.701l-0.704 7.136c5.176-37.697 19.488-71.321 40.619-99.543l-0.399 0.557c29.78-26.146 68.949-42.238 111.868-42.666l0.089-0.001c81.237-7.964 344.917-10.24 344.917-10.24s213.22 0.569 355.1 10.24c39.712 0.525 75.541 16.723 101.668 42.675l-0.008-0.008c20.833 27.639 35.209 61.269 40.265 97.875l0.126 1.111c5.976 48.006 9.641 104.078 10.122 160.909l0.004 0.655v75.662c-0.64 57.678-4.363 113.733-11.016 168.886l0.719-7.321zM402.148 308.053v281.031l273.977-141.084-273.977-139.947z" />
<glyph unicode="&#xe90f;" glyph-name="close" d="M1024 856.942l-408.869-408.942 408.869-408.942-103.131-103.058-408.869 408.942-408.869-408.942-103.131 103.058 408.869 408.942-408.869 408.942 103.131 103.058 408.869-408.942 408.869 408.942z" />
<glyph unicode="&#xe910;" glyph-name="sort-desk" horiz-adv-x="1365" d="M1334.613 957.838h-739.556c-17.208-1.094-30.751-15.318-30.751-32.706 0-0.502 0.011-1.001 0.034-1.498l-0.003 0.071v-153.6c-0.020-0.426-0.031-0.925-0.031-1.427 0-17.388 13.543-31.612 30.656-32.701l0.095-0.005h739.556c17.208 1.094 30.751 15.318 30.751 32.706 0 0.502-0.011 1.001-0.034 1.498l0.003-0.071v153.6c0.020 0.426 0.031 0.925 0.031 1.427 0 17.388-13.543 31.612-30.656 32.701l-0.095 0.005zM1131.065 558.137h-527.132c-22.435-1.392-40.103-19.927-40.103-42.59 0-0.747 0.019-1.49 0.057-2.229l-0.004 0.103v-132.779c-0.034-0.635-0.053-1.378-0.053-2.125 0-22.662 17.668-41.198 39.981-42.584l0.122-0.006h527.019c22.435 1.392 40.103 19.927 40.103 42.59 0 0.747-0.019 1.49-0.057 2.229l0.004-0.103v132.779c0.034 0.637 0.053 1.382 0.053 2.132 0 22.622-17.606 41.132-39.863 42.576l-0.126 0.007zM934.229 158.549h-339.968c-17.036-1.146-30.421-15.245-30.421-32.471 0-0.585 0.015-1.166 0.046-1.743l-0.003 0.081v-154.283c-0.031-0.528-0.048-1.146-0.048-1.768 0-17.205 13.4-31.281 30.332-32.36l0.095-0.005h339.854c17.027 1.084 30.427 15.16 30.427 32.365 0 0.622-0.018 1.24-0.052 1.853l0.004-0.085v154.283c0.027 0.499 0.043 1.082 0.043 1.67 0 17.186-13.323 31.26-30.204 32.458l-0.104 0.006zM427.804 960h-144.27v-594.83h-283.534l427.804-429.17v1024z" />
<glyph unicode="&#xe911;" glyph-name="sort-asc" horiz-adv-x="1365" d="M933.888 957.838h-339.285c-17.199-1.032-30.756-15.232-30.756-32.599 0-0.54 0.013-1.076 0.039-1.609l-0.003 0.075v-153.714c-0.020-0.426-0.031-0.925-0.031-1.427 0-17.388 13.543-31.612 30.656-32.701l0.095-0.005h339.285c17.208 1.094 30.751 15.318 30.751 32.706 0 0.502-0.011 1.001-0.034 1.498l0.003-0.071v153.6c0.027 0.492 0.042 1.068 0.042 1.648 0 17.369-13.56 31.57-30.671 32.595l-0.090 0.004zM1130.951 558.023h-527.019c-22.435-1.392-40.103-19.927-40.103-42.59 0-0.747 0.019-1.49 0.057-2.229l-0.004 0.103v-132.892c-0.034-0.635-0.053-1.378-0.053-2.125 0-22.662 17.668-41.198 39.981-42.584l0.122-0.006h527.019c22.435 1.392 40.103 19.927 40.103 42.59 0 0.747-0.019 1.49-0.057 2.229l0.004-0.103v132.892c0.034 0.635 0.053 1.378 0.053 2.125 0 22.662-17.668 41.198-39.981 42.584l-0.122 0.006zM1334.841 158.208h-740.58c-17.027-1.084-30.427-15.16-30.427-32.365 0-0.622 0.018-1.24 0.052-1.853l-0.004 0.085v-153.941c-0.031-0.528-0.048-1.146-0.048-1.768 0-17.205 13.4-31.281 30.332-32.36l0.095-0.005h740.58c17.078 1.026 30.54 15.127 30.54 32.372 0 0.62-0.017 1.235-0.052 1.846l0.004-0.085v154.396c0.017 0.39 0.026 0.848 0.026 1.308 0 17.238-13.45 31.334-30.428 32.366l-0.091 0.004zM427.691 960h-144.27v-595.058h-283.42l427.691-428.942v1024z" />
<glyph unicode="&#xe912;" glyph-name="decrease" d="M512.788 960c-282.77 0-512-229.23-512-512s229.23-512 512-512c282.77 0 512 229.23 512 512v0c0 282.77-229.23 512-512 512v0zM785.329 373.563h-545.871v148.874h545.871v-148.874z" />
<glyph unicode="&#xe913;" glyph-name="hamburger" horiz-adv-x="1408" d="M0 960h1408v-204.8h-1408v204.8zM0 550.4h1408v-204.8h-1408v204.8zM0 140.8h1408v-204.8h-1408v204.8z" />
<glyph unicode="&#xe914;" glyph-name="back" horiz-adv-x="1022" d="M1022.287 510.912v-125.658h-777.159l355.701-359.182-89.685-89.63-511.143 511.365 511.143 511.586 89.685-89.74-355.701-359.182h777.159z" />
<glyph unicode="&#x1f32b;" glyph-name="ctrl_down" horiz-adv-x="2048" d="M117.555 960c-0.29 0.002-0.632 0.004-0.975 0.004-47.358 0-88.832-25.195-111.748-62.912l-0.327-0.579c-2.891-9.933-4.554-21.343-4.554-33.142 0-32.324 12.481-61.732 32.886-83.67l-0.069 0.075c265.701-308.341 563.249-577.599 890.811-806.918l15.429-10.234c23.646-16.664 53.052-26.634 84.787-26.634s61.141 9.97 85.257 26.947l-0.47-0.314c342.898 239.577 640.377 508.831 900.797 810.935l5.238 6.217c20.43 21.884 32.974 51.359 32.974 83.764 0 11.737-1.645 23.089-4.718 33.839l0.212-0.867c-23.243 38.298-64.717 63.493-112.076 63.493-0.414 0-0.828-0.002-1.242-0.006h-1812.212z" />
</font>
</defs>
</svg>
