<?xml version="1.0" standalone="no"?>
<!DOCTYPE svg PUBLIC "-//W3C//DTD SVG 1.1//EN" "http://www.w3.org/Graphics/SVG/1.1/DTD/svg11.dtd" >
<svg xmlns="http://www.w3.org/2000/svg" xmlns:xlink="http://www.w3.org/1999/xlink" version="1.1">
<metadata>
Created by FontForge 20190801 at Wed Feb  5 16:14:04 2020
 By Jimmy Wärting
Copyright 2019 The Ruda Project Authors (https://github.com/marmonsalve/Ruda-new)
</metadata>
<defs>
<font id="Ruda-Black" horiz-adv-x="632" >
  <font-face 
    font-family="Ruda Black"
    font-weight="900"
    font-stretch="normal"
    units-per-em="1000"
    panose-1="2 0 0 0 0 0 0 0 0 0"
    ascent="800"
    descent="-200"
    x-height="588"
    cap-height="703"
    bbox="-42 -253 1015 1103"
    underline-thickness="50"
    underline-position="-125"
    unicode-range="U+000D-2260"
  />
<missing-glyph horiz-adv-x="276" 
 />
    <glyph glyph-name=".notdef" horiz-adv-x="276" 
 />
    <glyph glyph-name="space" unicode=" " horiz-adv-x="255" 
 />
    <glyph glyph-name="A" unicode="A" horiz-adv-x="573" 
d="M-11 0l193 703h204l193 -703h-162l-54 224l87 -68h-332l87 68l-54 -224h-162zM202 220l-54 68h272l-54 -68l-95 405l86 -68h-146l86 68z" />
    <glyph glyph-name="B" unicode="B" horiz-adv-x="655" 
d="M344 -13q-39 0 -84 3t-84.5 6.5t-65 6.5l-25.5 3l3 323l-5 373l25 2t64 5t83 5t82 2q66 0 120 -18t86 -61.5t32 -119.5q0 -38 -11.5 -65.5t-29 -46t-36 -29t-33.5 -13.5l28 80v-146l-41 84q27 -7 52 -19t45.5 -30.5t32 -47t11.5 -68.5q0 -69 -21 -113.5t-57 -69.5
t-80 -35.5t-91 -10.5zM345 113q53 0 69 24.5t16 76.5q0 53 -26 71.5t-71 18.5h-162l70 70l1 -325l-14 71q-1 1 16 -1t44.5 -4t56.5 -2zM341 426q44 0 59 19.5t15 63.5q0 48 -18.5 66t-62.5 18q-31 0 -52.5 -1t-41 -2.5t-44.5 -3.5l44 73v-303l-70 70h171z" />
    <glyph glyph-name="C" unicode="C" horiz-adv-x="618" 
d="M339 -13q-84 0 -149 35.5t-102.5 114t-37.5 208.5q0 115 22.5 188t63.5 112.5t96 55t119 15.5q26 0 64 -3.5t76.5 -9t63.5 -12.5l-17 -128q-12 2 -37 4t-54 5t-53.5 4.5t-36.5 1.5q-41 0 -64.5 -4.5t-34.5 -13.5q-13 -10 -23 -34.5t-16 -68.5t-6 -115q0 -88 16 -138.5
t33 -63.5q11 -8 28 -13t43 -5q32 0 67.5 8t66.5 18.5t51 18.5l20 8l45 -119l-18 -10.5t-51 -24t-77.5 -24t-97.5 -10.5z" />
    <glyph glyph-name="D" unicode="D" horiz-adv-x="673" 
d="M322 -13q-36 0 -74 1.5t-72.5 4t-59 5t-33.5 3.5v702q15 1 43 3t63.5 4.5t73 4t69.5 1.5q91 0 148.5 -28t88.5 -77t42.5 -113.5t11.5 -137.5q0 -139 -38 -221t-105.5 -117t-157.5 -35zM330 122q35 0 55 5.5t29 13.5q12 10 22.5 33.5t17 69t6.5 120.5q0 76 -10 130t-33 70
q-7 5 -24.5 11t-58.5 6q-49 0 -72.5 -3t-42.5 -7l20 74v-588l-20 73q21 -3 43.5 -5.5t67.5 -2.5z" />
    <glyph glyph-name="E" unicode="E" horiz-adv-x="551" 
d="M83 0v703h422v-134l-335 4l72 69l-9 -290l-68 70h315v-131h-315l68 70l9 -299l-72 69l335 3v-134h-422z" />
    <glyph glyph-name="F" unicode="F" horiz-adv-x="537" 
d="M83 0v703h422v-134l-340 4l70 69v-243l-70 19h308v-131h-308l69 30l6 -317h-157z" />
    <glyph glyph-name="G" unicode="G" horiz-adv-x="654" 
d="M349 -13q-60 0 -114 15t-95.5 54t-65.5 111t-24 187q0 113 22.5 184t64.5 110t100.5 53.5t129.5 14.5q34 0 74.5 -4t78.5 -10t62 -12l-18 -127q-40 5 -95 10t-108 5q-46 0 -70.5 -4.5t-35.5 -14.5q-16 -14 -29 -61.5t-13 -144.5q0 -74 8 -116.5t18.5 -62.5t17.5 -28
q9 -8 32 -16t68 -8q22 0 40.5 1.5t32.5 4.5v217l70 -75l-172 12v113h255v-362l-31.5 -11.5t-84.5 -23t-118 -11.5z" />
    <glyph glyph-name="H" unicode="H" horiz-adv-x="706" 
d="M83 0v703h157l-4 -329l-69 50h372l-69 -50l-4 329h157v-703h-157l4 340l69 -50h-372l69 50l4 -340h-157z" />
    <glyph glyph-name="I" unicode="I" horiz-adv-x="324" 
d="M83 0l4 324l-4 379h158l-3 -313l3 -390h-158z" />
    <glyph glyph-name="J" unicode="J" horiz-adv-x="363" 
d="M75 -13q-22 0 -44 3t-37 5.5l-15 2.5l15 133q15 -3 41.5 -6.5t42.5 -3.5t25.5 7.5t14.5 34t5 82.5v458h157v-456q0 -97 -27 -154t-73 -81.5t-105 -24.5z" />
    <glyph glyph-name="K" unicode="K" horiz-adv-x="664" 
d="M482 0l-239 369l229 334h182l-242 -328v-6l254 -369h-184zM83 0l3 358l-3 345h158v-703h-158z" />
    <glyph glyph-name="L" unicode="L" horiz-adv-x="504" 
d="M83 0v703h157l-6 -641l-69 79l339 3v-144h-421z" />
    <glyph glyph-name="M" unicode="M" horiz-adv-x="843" 
d="M75 0l25 703h201l117 -401h6l120 401h198l26 -703h-156l5 527h-6l-108 -380h-163l-108 380h-6l5 -527h-156z" />
    <glyph glyph-name="N" unicode="N" horiz-adv-x="716" 
d="M83 0v703h201l216 -514h6l-14 514h143v-703h-201l-216 515h-6l14 -515h-143z" />
    <glyph glyph-name="O" unicode="O" horiz-adv-x="700" 
d="M350 -13q-61 0 -115.5 16t-96 56t-65 111.5t-23.5 182.5t23.5 182t65 110.5t96 55t115.5 15.5q62 0 116 -15.5t95.5 -55t65 -110.5t23.5 -182t-23.5 -182.5t-65 -111.5t-95.5 -56t-116 -16zM350 125q36 0 61.5 8.5t42.5 32t25 68.5t8 118q0 72 -8 117t-24.5 68.5
t-42.5 32t-62 8.5t-62 -8.5t-42.5 -32t-24.5 -68.5t-8 -118t8 -117.5t25 -68t42.5 -32t61.5 -8.5z" />
    <glyph glyph-name="P" unicode="P" horiz-adv-x="621" 
d="M83 0l4 328l-4 374l26.5 2t68 5t89 5t89.5 2q109 0 168.5 -62t59.5 -185q0 -77 -21 -127t-57 -78.5t-80.5 -40t-91.5 -11.5q-38 0 -66 1.5l-28 1.5v-215h-157zM337 337q24 0 40 4.5t23 10.5q11 11 16 40t5 85q0 41 -3.5 61t-8.5 27.5t-10 11.5q-6 6 -23 10t-47 4
q-23 0 -46.5 -1.5t-42.5 -3.5v-242l28 -3.5t69 -3.5z" />
    <glyph glyph-name="Q" unicode="Q" horiz-adv-x="723" 
d="M654 -95l-293 114l109 -14q-30 -10 -62 -14t-65 -4q-59 0 -112 16t-93.5 56.5t-64 111.5t-23.5 182t23.5 182t65 110.5t96 55t116.5 15.5q61 0 115 -15.5t95.5 -55.5t65 -111t23.5 -182q0 -81 -14.5 -139t-39.5 -99t-57 -71l25 95v-99l-3 23l135 -31zM350 125
q36 0 61.5 8.5t42.5 32t25 68t8 117.5t-8 118t-24 68.5t-42 32t-62 8.5q-37 0 -63 -8.5t-42.5 -32t-24.5 -68.5t-8 -118t8 -117.5t25 -68t42.5 -32t61.5 -8.5z" />
    <glyph glyph-name="R" unicode="R" horiz-adv-x="695" 
d="M83 0l4 326l-4 376q6 0 35 2.5t70 5t84 4.5t77 2q81 0 140.5 -23t91.5 -74t32 -137q0 -83 -36 -135t-106 -75v-6l153 -266h-174l-123 250l-87 2v-252h-157zM352 375q61 0 79.5 26t18.5 80q0 49 -7 70t-18 28q-9 6 -27 9t-45 3q-40 0 -65 -1.5t-48 -4.5v-203q29 -3 58 -5
t54 -2z" />
    <glyph glyph-name="S" unicode="S" horiz-adv-x="570" 
d="M278 -13q-48 0 -92 9.5t-78.5 21.5t-54.5 21.5l-20 9.5l6 18.5t13.5 43t13.5 42.5l6 18l20.5 -7.5t54 -17t73 -17t78.5 -7.5q19 0 30 3.5t17 7.5q11 7 17.5 22t6.5 43q0 25 -20 42.5t-52 32.5t-69 32q-32 15 -64 31.5t-58 39.5t-42 57.5t-16 85.5q0 55 27.5 99.5t83 71
t137.5 26.5q36 0 72.5 -5t67.5 -11.5t49.5 -11.5l18.5 -5l-25 -125l-19.5 3.5t-50.5 8t-66 8t-66 3.5q-19 0 -30 -3t-19 -8q-7 -5 -13.5 -15.5t-6.5 -35.5q0 -19 14 -34.5t38 -28.5t52 -26q34 -16 71.5 -33t70.5 -41t54 -60.5t21 -91.5q0 -65 -31.5 -114t-88 -76t-131.5 -27
z" />
    <glyph glyph-name="T" unicode="T" horiz-adv-x="516" 
d="M177 0l3 572l-196 -3v134h547v-134l-200 3l3 -572h-157z" />
    <glyph glyph-name="U" unicode="U" horiz-adv-x="702" 
d="M351 -13q-85 0 -145 28t-91.5 98.5t-31.5 195.5v394h157v-366q0 -70 5.5 -112.5t18 -64t34 -28.5t54.5 -7q32 0 53.5 7t34 28t17.5 63.5t5 113.5v366h157v-386q0 -129 -31 -201t-91 -100.5t-146 -28.5z" />
    <glyph glyph-name="V" unicode="V" horiz-adv-x="599" 
d="M198 0l-192 703h167l123 -560h6l124 560h167l-192 -703h-203z" />
    <glyph glyph-name="W" unicode="W" horiz-adv-x="838" 
d="M138 0l-104 703h158l51 -542h6l78 375h184l78 -375h6l51 542h158l-104 -703h-196l-82 387h-6l-82 -387h-196z" />
    <glyph glyph-name="X" unicode="X" horiz-adv-x="621" 
d="M-4 0l249 417v-120l-240 406h168l167 -313l-102 62h146l-102 -62l165 313h168l-239 -406v120l249 -417h-174l-169 319l102 -62h-146l103 62l-171 -319h-174z" />
    <glyph glyph-name="Y" unicode="Y" horiz-adv-x="580" 
d="M209 0l3 253l-216 450h168l122 -322h6l122 322h168l-216 -450l2 -253h-159z" />
    <glyph glyph-name="Z" unicode="Z" horiz-adv-x="579" 
d="M24 0v124l338 447v7l-317 -9v134h503v-121l-331 -450v-6l336 8v-134h-529z" />
    <glyph glyph-name="a" unicode="a" horiz-adv-x="622" 
d="M222 -13q-48 0 -86.5 22.5t-61.5 65.5t-23 104q0 73 33 114.5t93 59.5t142 18h75q0 43 -4 61t-9 26q-4 7 -15.5 13t-46.5 6q-36 0 -74.5 -6t-71.5 -14t-54 -14l-21 -6l-32 112l20.5 8t56 18t81 18t96.5 8q86 0 136 -26.5t71.5 -76t21.5 -118.5v-380h-98l-20 65h-6
l-17.5 -12t-46.5 -27t-65 -27t-74 -12zM267 114q28 0 57.5 9.5t49.5 19l20 9.5v104l-24 2.5t-62 2.5q-66 0 -82 -15q-7 -6 -12 -20.5t-5 -40.5q0 -37 13.5 -54t44.5 -17z" />
    <glyph glyph-name="b" unicode="b" horiz-adv-x="624" 
d="M338 -13q-34 0 -81.5 6t-96 16.5t-86.5 21.5v730h155v-175l20.5 4t50.5 7.5t58 3.5q101 0 159.5 -70.5t58.5 -228.5q0 -96 -20.5 -157.5t-55 -96t-77 -48t-85.5 -13.5zM328 113q21 0 34 2.5t21 9.5q9 7 17 24t13 56.5t5 113.5q0 70 -5.5 100t-17.5 41q-14 14 -60 14
q-41 0 -73.5 -6.5l-32.5 -6.5v-338l15 -2.5t38 -5t46 -2.5z" />
    <glyph glyph-name="c" unicode="c" horiz-adv-x="544" 
d="M314 -13q-78 0 -138 31.5t-94 99.5t-34 178q0 91 23 150.5t63.5 93t93.5 47.5t112 14q56 0 101.5 -8t67.5 -14l-17 -117q-29 5 -75.5 10.5t-87.5 5.5q-42 0 -59.5 -6.5t-26.5 -15.5q-18 -19 -27.5 -59t-9.5 -101q0 -58 7.5 -92.5t19 -52.5t21.5 -26q6 -4 18.5 -9.5
t34.5 -5.5q24 0 53.5 7.5t57.5 17t46 16.5l18 7l42 -110l-25.5 -15.5t-72.5 -30.5t-112 -15z" />
    <glyph glyph-name="d" unicode="d" horiz-adv-x="628" 
d="M251 -13q-56 0 -102 32t-73.5 99t-27.5 172q0 95 21.5 156t57 95t77 47t81.5 13q28 0 54 -3.5t43 -7.5l17 -4v175h155v-761h-100l-16 57h-6q-20 -13 -48 -29.5t-61.5 -28.5t-71.5 -12zM278 113q17 0 38 5.5t40 13.5t31 13.5l12 5.5v302l-16.5 5.5t-41.5 10.5t-52 5
q-39 0 -54 -16q-7 -7 -13.5 -26t-11 -53.5t-4.5 -91.5q0 -64 4.5 -97.5t11.5 -46.5t12 -18q8 -7 20 -9.5t24 -2.5z" />
    <glyph glyph-name="e" unicode="e" horiz-adv-x="611" 
d="M322 -14q-81 0 -142.5 30t-95.5 98t-34 181q0 118 36 184.5t97 94.5t137 28q78 0 132 -27t82.5 -88t28.5 -164v-83h-426l70 22q0 -36 3 -62.5t10 -44t18 -27.5q10 -9 25.5 -14t40.5 -5q27 0 60 5.5t64.5 13.5t54.5 14.5t31 9.5l38 -112q-9 -4 -43.5 -17.5t-83 -25
t-103.5 -11.5zM207 330l-69 21l337 6l-70 -22q0 48 -4 79t-14 44q-7 8 -21 15t-46 7q-38 0 -57 -7.5t-29 -18.5q-27 -28 -27 -124z" />
    <glyph glyph-name="f" unicode="f" horiz-adv-x="382" 
d="M96 0v443h-68v97l69 14q7 86 35.5 134t75 67t105.5 19q17 0 38.5 -1t37 -2l15.5 -1l-11 -123l-13 1t-32.5 2t-37.5 1q-21 0 -33.5 -5.5t-18.5 -25t-7 -61.5h132v-119h-132v-440h-155z" />
    <glyph glyph-name="g" unicode="g" horiz-adv-x="565" 
d="M277 -179q-46 0 -89 5t-77 12t-54 12l-20 5l17 118q72 -11 143.5 -20t134.5 -9q34 0 46.5 3.5t12.5 12.5q0 4 -4.5 7.5t-20.5 10t-51 19t-95 34.5q-42 15 -61 23t-24 12.5t-5 8.5q0 9 6 27.5t13.5 39t13.5 34.5l6 14q-69 24 -106.5 72t-37.5 124q0 81 38 128t101 67
t136 20q21 0 53 -1t66.5 -3t65.5 -4t50 -3l19 -1v-90l-62 -10l6.5 -16t12.5 -41.5t6 -54.5q0 -56 -30 -102t-87 -73t-139 -28l-1 -9t-1 -11q0 -4 12 -8.5t35.5 -12.5t56.5 -21q64 -25 101.5 -47.5t53.5 -46.5t16 -53q0 -47 -33 -79t-91 -48.5t-133 -16.5zM272 287
q41 0 63.5 9t31 33.5t8.5 68.5q0 32 -3.5 55t-9.5 29q-3 3 -11.5 5t-20 2.5t-23.5 1t-22 0.5q-45 0 -70.5 -6.5t-36.5 -28t-11 -66.5q0 -61 22 -82t83 -21z" />
    <glyph glyph-name="h" unicode="h" horiz-adv-x="627" 
d="M74 0v761h155v-280l-23 58q14 7 46 22.5t73.5 28.5t84.5 13q61 0 93.5 -29t45 -78t12.5 -111v-385h-155v358q0 39 -4 62t-12 33q-5 7 -16 11t-23 4q-15 0 -38 -6.5t-46.5 -15t-40.5 -16t-20 -9.5l23 32v-453h-155z" />
    <glyph glyph-name="i" unicode="i" horiz-adv-x="311" 
d="M78 0v588h155v-588h-155zM74 668v108h163v-108h-163z" />
    <glyph glyph-name="j" unicode="j" horiz-adv-x="346" 
d="M69 -179q-20 0 -45.5 2.5t-43.5 5l-18 2.5l16 126l14.5 -2t34.5 -4t34 -2q22 0 31.5 9t12 35t2.5 77v518h155v-519q0 -93 -27.5 -147.5t-71.5 -77.5t-94 -23zM107 668v108h163v-108h-163z" />
    <glyph glyph-name="k" unicode="k" horiz-adv-x="600" 
d="M441 0l-216 313l194 275h188l-222 -269v-5l246 -314h-190zM74 0l4 321l-4 440h155v-761h-155z" />
    <glyph glyph-name="l" unicode="l" horiz-adv-x="303" 
d="M74 0v761h155v-761h-155z" />
    <glyph glyph-name="m" unicode="m" horiz-adv-x="956" 
d="M79 0v588h99l18 -59h6q18 11 40.5 23.5t48 24t54.5 19t60 7.5q50 0 81 -20.5t48 -55.5q40 26 89.5 51t109.5 25q62 0 96 -28.5t47.5 -77.5t13.5 -112v-385h-157v358q0 41 -2 61.5t-12 32.5q-6 8 -17 12t-25 4q-13 0 -29 -3.5t-32 -10t-30.5 -14t-26.5 -15.5
q1 -12 1.5 -24.5t0.5 -25.5v-375h-155v358q0 41 -2 62t-12 33q-7 9 -18 12t-22 3q-18 0 -39.5 -6t-42 -15.5t-36.5 -20.5v-426h-155z" />
    <glyph glyph-name="n" unicode="n" 
d="M79 0v588h99l18 -59h6q20 12 43.5 24.5t50.5 23.5t57 17.5t63 6.5q62 0 94 -28t44 -77t12 -111v-385h-155v356q0 41 -2 62t-12 33q-6 8 -16 11.5t-24 3.5q-19 0 -41.5 -6t-44 -15.5t-37.5 -20.5v-424h-155z" />
    <glyph glyph-name="o" unicode="o" horiz-adv-x="612" 
d="M307 -13q-97 0 -154 37.5t-81 106.5t-24 164q0 94 24 162.5t81 106t155 37.5q97 0 153 -37.5t79.5 -106t23.5 -163.5q0 -94 -23.5 -163t-79.5 -106.5t-154 -37.5zM307 105q29 0 48 8t30.5 29t16 58t4.5 95q0 57 -5 94t-16 57.5t-30 28.5t-48 8t-48.5 -8t-31 -28.5
t-16.5 -57.5t-5 -94q0 -58 5 -95t16.5 -58t31 -29t48.5 -8z" />
    <glyph glyph-name="p" unicode="p" horiz-adv-x="630" 
d="M74 -166v754h99l18 -60h5q22 16 50.5 32.5t62.5 28.5t73 12q57 0 102.5 -30.5t71.5 -96t26 -170.5q0 -97 -22 -159t-58.5 -96.5t-80 -48t-86.5 -13.5q-22 0 -47 2.5t-42 4.5l-17 2v-162h-155zM329 113q23 0 36 3t23 10t18 24.5t13 54.5t5 103q0 44 -2 73t-6 47t-11 27
q-6 9 -16.5 14t-30.5 5q-27 0 -57 -9.5t-51 -20.5t-21 -14v-303l30.5 -7t69.5 -7z" />
    <glyph glyph-name="q" unicode="q" horiz-adv-x="624" 
d="M395 -166v175l-16 -5.5t-43 -11t-60 -5.5q-41 0 -81.5 14t-73.5 49t-53 97t-20 158q0 111 28.5 175.5t84.5 92.5t136 28q42 0 86.5 -5.5t82.5 -13t61 -13l23 -5.5v-730h-155zM289 113q43 0 74.5 7.5l31.5 7.5v334l-16 3t-39.5 6t-47.5 3q-31 0 -43.5 -5t-18.5 -11
q-11 -11 -17.5 -43.5t-6.5 -112.5q0 -79 6.5 -120.5t20.5 -55.5q7 -7 20 -10t36 -3z" />
    <glyph glyph-name="r" unicode="r" horiz-adv-x="430" 
d="M79 0v588h96l20 -62h6l14.5 11.5t38.5 26t52 26t55 11.5q35 0 50 -5.5l15 -5.5l-12 -134l-17.5 1.5t-37.5 1.5q-25 0 -48.5 -5.5t-42.5 -13.5t-34 -17v-423h-155z" />
    <glyph glyph-name="s" unicode="s" horiz-adv-x="537" 
d="M282 -13q-46 0 -89 9t-77 20t-54 20l-20 9l38 122l20.5 -8t53.5 -19t69.5 -19t67.5 -8q17 0 27.5 3t16.5 7q8 6 12.5 17t4.5 24q0 25 -16 38.5t-42.5 22.5t-59.5 18q-32 10 -65 21.5t-60.5 31t-44.5 50.5t-17 80q0 79 53 127t170 48q44 0 85 -6t73 -14t50 -14l-23 -120
l-19 4.5t-49 10.5t-64 10.5t-64 4.5q-25 0 -35 -3t-15 -7q-4 -3 -7.5 -9.5t-3.5 -17.5q0 -22 16 -35.5t42.5 -22.5t57.5 -18q32 -9 65.5 -19.5t61.5 -29t45 -50t17 -82.5q0 -88 -57 -142t-164 -54z" />
    <glyph glyph-name="t" unicode="t" horiz-adv-x="400" 
d="M258 -13q-53 0 -90.5 16t-57 61.5t-19.5 132.5v246h-68v97l75 14l23 139h127v-134h120v-119h-122v-247q0 -34 4.5 -50t14 -20t24.5 -4t33 1.5t31 2.5l13 1v-126l-32 -5.5t-76 -5.5z" />
    <glyph glyph-name="u" unicode="u" 
d="M230 -13q-67 0 -102.5 28.5t-48.5 78t-13 111.5v383h155v-368q0 -43 3 -61t10 -25q8 -7 18 -9.5t24 -2.5q29 0 63.5 13t58.5 29v424h155v-588h-99l-19 61h-6q-26 -16 -58 -33t-67.5 -29t-73.5 -12z" />
    <glyph glyph-name="v" unicode="v" horiz-adv-x="544" 
d="M180 0l-171 588h160l100 -456h6l100 456h160l-171 -588h-184z" />
    <glyph glyph-name="w" unicode="w" horiz-adv-x="804" 
d="M137 0l-117 588h156l61 -474h6l68 393h188l69 -393h6l59 474h156l-116 -588h-196l-69 393h-6l-69 -393h-196z" />
    <glyph glyph-name="x" unicode="x" horiz-adv-x="582" 
d="M4 0l191 309l-180 279h161l108 -194h6l108 194h161l-180 -279l191 -309h-166l-114 218h-6l-114 -218h-166z" />
    <glyph glyph-name="y" unicode="y" horiz-adv-x="536" 
d="M112 -166l86 214l-198 540h160l106 -392h6l103 392h161l-205 -560l-58 -194h-161z" />
    <glyph glyph-name="z" unicode="z" horiz-adv-x="506" 
d="M11 0v104l280 362v5l-266 -10v127h454v-104l-277 -363v-6l284 12v-127h-475z" />
    <glyph glyph-name="zero" unicode="0" horiz-adv-x="614" 
d="M307 -13q-57 0 -105.5 16t-85.5 55.5t-57.5 111t-20.5 182.5t20.5 182t57.5 110.5t85.5 55.5t105.5 16t106 -16t85.5 -55.5t57 -110.5t20.5 -182t-20.5 -182.5t-57 -111t-85.5 -55.5t-106 -16zM308 118q36 0 60.5 18.5t36.5 69.5t12 146q0 73 -7.5 118.5t-21.5 70.5
t-34.5 34.5t-46.5 9.5t-46.5 -9.5t-34.5 -34t-21 -70t-7 -117.5q0 -95 12.5 -146t37 -70.5t60.5 -19.5z" />
    <glyph glyph-name="one" unicode="1" horiz-adv-x="554" 
d="M63 0v134l173 -1l6 402h-6l-116 -117l-99 103l223 190l149 -10v-569l152 2v-134h-482z" />
    <glyph glyph-name="two" unicode="2" horiz-adv-x="586" 
d="M40 0v113l52 52.5t141 152.5q62 68 100.5 121.5t38.5 94.5q0 20 -13.5 32t-46.5 12q-28 0 -66 -11t-78.5 -28.5t-76.5 -39.5l-62 116q21 17 62 40.5t94 42t109 18.5q68 0 121 -22t83.5 -64t30.5 -101q0 -43 -20 -86t-50 -84t-62 -79q-25 -30 -46 -54t-37 -41t-27 -28.5
t-16.5 -17l-5.5 -5.5v-6l279 6v-134h-504z" />
    <glyph glyph-name="three" unicode="3" horiz-adv-x="614" 
d="M300 -13q-49 0 -92.5 9.5t-78.5 22.5t-58 24t-31 15l47 112q12 -3 37.5 -11t58.5 -16t67 -14t64 -6q44 0 59.5 18.5t15.5 57.5q0 59 -25.5 82t-79.5 23h-132v130q63 5 105.5 9t67.5 11t35.5 22t10.5 40q0 21 -3.5 33t-9.5 17q-9 8 -32.5 11.5t-58.5 3.5q-18 0 -38.5 -1.5
t-51.5 -4.5t-82 -9l-18 125q28 8 63.5 13.5t71 8.5t62.5 3q73 0 131 -17.5t91.5 -58.5t33.5 -114q0 -30 -6.5 -53t-17 -40.5t-24 -29.5t-27.5 -21v-6q19 -9 36.5 -22.5t31 -33.5t21.5 -47.5t8 -64.5q0 -60 -24.5 -110t-79.5 -80.5t-148 -30.5z" />
    <glyph glyph-name="four" unicode="4" horiz-adv-x="578" 
d="M331 0v140h-324v100l172 477l149 -19l-156 -429v-6l160 6l34 248h119v-244l66 2v-135h-66l1 -140h-155z" />
    <glyph glyph-name="five" unicode="5" horiz-adv-x="552" 
d="M266 -13q-53 0 -100 12t-83.5 27.5t-57 27.5l-20.5 12l46 114l23.5 -8.5t59.5 -20t75 -20t71 -8.5q35 0 53 13q11 8 17 29.5t6 49.5q0 26 -6 48t-16 29q-13 11 -48 17.5t-112 6.5q-19 0 -47 -0.5t-49.5 -1l-21.5 -0.5l61 389h369v-130l-239 4l-20 -133q63 -4 115.5 -16
t92 -36.5t61 -66t21.5 -104.5q0 -111 -67.5 -172.5t-183.5 -61.5z" />
    <glyph glyph-name="six" unicode="6" horiz-adv-x="592" 
d="M302 -13q-82 0 -141.5 33.5t-91 109.5t-31.5 205q0 115 24 189.5t65.5 116t96.5 58.5t116 17q48 0 90 -8.5t68 -17.5l26 -9l-34 -122l-17 3.5t-43 8t-54.5 8t-52.5 3.5q-28 0 -47 -4.5t-31 -15.5q-16 -13 -26.5 -41t-15.5 -77l13 1t30 1.5t30 0.5q86 0 148 -21t96 -69.5
t34 -130.5q0 -115 -67.5 -177t-184.5 -62zM308 118q53 0 72.5 23.5t19.5 80.5q0 36 -8.5 56.5t-30.5 29t-64 8.5q-19 0 -42 -1.5t-39.5 -3.5l-16.5 -2v-50q0 -44 5.5 -69.5t13.5 -37.5t13 -16q8 -7 25.5 -12.5t51.5 -5.5z" />
    <glyph glyph-name="seven" unicode="7" horiz-adv-x="511" 
d="M208 -9l-164 13l296 568v6l-338 -8v133h508v-91z" />
    <glyph glyph-name="eight" unicode="8" horiz-adv-x="581" 
d="M286 -13q-86 0 -144 31.5t-87.5 81.5t-29.5 104q0 38 14.5 70t37.5 57t50 42q-34 26 -53.5 64.5t-19.5 89.5q0 83 60 136t175 53q80 0 132.5 -25.5t78.5 -68.5t26 -96q0 -56 -25.5 -96t-63.5 -66q27 -12 54 -35t45.5 -56t18.5 -77q0 -54 -31.5 -102t-91.5 -77.5
t-146 -29.5zM289 119q56 0 82 20.5t26 55.5q0 26 -12.5 44.5t-41.5 34.5t-81 31q-36 -13 -57.5 -35t-21.5 -66q0 -24 10 -43t33.5 -30.5t62.5 -11.5zM303 423q31 13 50 35t19 58q0 35 -19 56t-63 21q-48 0 -65.5 -19t-17.5 -48q0 -34 22 -58.5t74 -44.5z" />
    <glyph glyph-name="nine" unicode="9" horiz-adv-x="590" 
d="M282 -13q-41 0 -81.5 10t-74 22.5t-53.5 22.5l-20 10l43 117l19.5 -7t49 -16.5t62 -17t58.5 -7.5q27 0 43.5 4t24.5 11q17 14 25 47t11 83l-16.5 -2t-40 -4t-46.5 -2q-74 0 -130 23t-87 72t-31 126q0 113 66.5 175t184.5 62q79 0 138 -32.5t92 -110.5t33 -215
q0 -117 -26.5 -200t-85.5 -127t-158 -44zM282 390q22 0 47 3.5t43 7l18 3.5q0 67 -5.5 101t-13.5 48t-17 19q-11 8 -29.5 10.5t-39.5 2.5q-39 0 -58.5 -12t-26.5 -35.5t-7 -60.5q0 -25 5.5 -45t24.5 -31t59 -11z" />
    <glyph glyph-name="exclam" unicode="!" horiz-adv-x="293" 
d="M79 203l-16 500h168l-18 -500h-134zM60 0v134h175v-134h-175z" />
    <glyph glyph-name="exclamdown" unicode="&#xa1;" horiz-adv-x="291" 
d="M63 -114l16 499h135l17 -499h-168zM58 454v134h175v-134h-175z" />
    <glyph glyph-name="question" unicode="?" horiz-adv-x="493" 
d="M121 203v19q1 54 19 89t46.5 59t58.5 44q20 14 38.5 29.5t30 34t11.5 41.5q0 22 -7 31.5t-16 16.5q-5 4 -17.5 7.5t-41.5 3.5q-42 0 -92.5 -14t-93.5 -28l-48 118q19 10 51 24.5t78 26t105 11.5q72 0 126.5 -25.5t85 -70t30.5 -101.5q0 -51 -20.5 -87t-52 -61.5
t-63.5 -47.5q-21 -14 -39.5 -28.5t-30 -35.5t-15.5 -56h-143zM106 0v134h175v-134h-175z" />
    <glyph glyph-name="questiondown" unicode="&#xbf;" horiz-adv-x="493" 
d="M373 385v-19q0 -54 -18.5 -89t-47 -58.5t-58.5 -44.5q-20 -13 -38.5 -29t-30 -34.5t-11.5 -41.5q0 -22 7 -31.5t16 -16.5q5 -4 18 -7.5t41 -3.5q42 0 92.5 14t93.5 28l48 -118q-18 -9 -50.5 -24t-78 -26.5t-105.5 -11.5q-71 0 -126 25.5t-85.5 70t-30.5 101.5
q0 52 20.5 87.5t52 61.5t63.5 47q22 14 39.5 28.5t30 36t15.5 55.5h143zM388 588v-134h-175v134h175z" />
    <glyph glyph-name="comma" unicode="," horiz-adv-x="299" 
d="M134 -175l-90 44q16 23 24 54.5t8 75.5v133h150v-91q0 -89 -28.5 -139.5t-63.5 -76.5z" />
    <glyph glyph-name="period" unicode="." horiz-adv-x="283" 
d="M54 0v137h175v-137h-175z" />
    <glyph glyph-name="colon" unicode=":" horiz-adv-x="337" 
d="M81 416v137h175v-137h-175zM81 0v137h175v-137h-175z" />
    <glyph glyph-name="semicolon" unicode=";" horiz-adv-x="343" 
d="M163 -175l-90 44q16 23 24 54.5t8 75.5v133h150v-91q0 -89 -28.5 -139.5t-63.5 -76.5zM94 425v137h175v-137h-175z" />
    <glyph glyph-name="periodcentered" unicode="&#xb7;" horiz-adv-x="353" 
d="M177 230q-25 0 -48.5 10t-38.5 32t-15 59q0 39 15 60.5t38.5 30.5t48.5 9t48 -9t38 -30.5t15 -60.5q0 -37 -15 -59t-38 -32t-48 -10z" />
    <glyph glyph-name="hyphen" unicode="-" horiz-adv-x="306" 
d="M24 261v132h258v-132h-258z" />
    <glyph glyph-name="quotesingle" unicode="'" horiz-adv-x="213" 
d="M61 452l-17 232v51h125v-51l-19 -232h-89z" />
    <glyph glyph-name="quotedbl" unicode="&#x22;" horiz-adv-x="409" 
d="M267 448l-17 232v51h125v-51l-19 -232h-89zM51 448l-17 232v51h125v-51l-19 -232h-89z" />
    <glyph glyph-name="quoteleft" unicode="&#x2018;" horiz-adv-x="235" 
d="M49 445l-2.5 24t-2.5 51q0 83 25 140.5t51 85.5l78 -46q-11 -22 -17.5 -55t-6.5 -77q0 -21 1.5 -50t3 -51l1.5 -22h-131z" />
    <glyph glyph-name="quoteright" unicode="&#x2019;" horiz-adv-x="235" 
d="M122 431l-78 46q11 23 17.5 55.5t6.5 76.5q0 16 -1 37t-2 40.5t-2 32.5l-1 13h131l2.5 -24t2.5 -51q0 -83 -25 -140t-51 -86z" />
    <glyph glyph-name="quotesinglbase" unicode="&#x201a;" horiz-adv-x="239" 
d="M121 -167l-77 46q12 23 18 54.5t6 75.5q0 22 -1.5 50.5t-3 50.5l-1.5 22h128l2.5 -24t2.5 -51q0 -83 -22.5 -139.5t-51.5 -84.5z" />
    <glyph glyph-name="quotedblleft" unicode="&#x201c;" horiz-adv-x="456" 
d="M42 446l-2.5 24t-2.5 51q0 83 24 141.5t50 86.5l80 -42q-11 -22 -17.5 -58t-6.5 -80q0 -21 1.5 -50t3 -51l1.5 -22h-131zM269 446l-2 21.5t-2 48.5q0 56 13 97t31.5 70t36.5 48l72 -39q-12 -22 -17.5 -53t-5.5 -75q0 -21 1.5 -49t3 -48.5l1.5 -20.5h-132z" />
    <glyph glyph-name="quotedblright" unicode="&#x201d;" horiz-adv-x="456" 
d="M345 429l-80 42q11 23 17.5 58.5t6.5 79.5q0 22 -1.5 50.5t-3 50.5l-1.5 22h131l2.5 -24t2.5 -51q0 -83 -24 -141t-50 -87zM110 447l-72 39q12 23 17.5 53.5t5.5 74.5q0 22 -1.5 49.5t-3 48l-1.5 20.5h132l2 -21.5t2 -48.5q0 -55 -12.5 -96.5t-31.5 -70.5t-37 -48z" />
    <glyph glyph-name="quotedblbase" unicode="&#x201e;" horiz-adv-x="494" 
d="M347 -171l-77 46q12 23 18 54.5t6 75.5q0 22 -1 51.5t-2.5 52.5l-1.5 23h128l2 -26t2 -53q0 -83 -22.5 -139.5t-51.5 -84.5zM116 -167l-76 43q12 23 18 54.5t6 75.5q0 22 -1.5 51.5t-3 52l-1.5 22.5h128l2.5 -24t2.5 -51q0 -83 -23 -139.5t-52 -84.5z" />
    <glyph glyph-name="parenleft" unicode="(" horiz-adv-x="349" 
d="M274 -124q-58 32 -110 90.5t-84.5 151.5t-32.5 226q0 136 32.5 228.5t84.5 150.5t110 90l66 -88q-67 -46 -101 -145.5t-34 -235.5q0 -135 34 -234t101 -146z" />
    <glyph glyph-name="parenright" unicode=")" horiz-adv-x="349" 
d="M75 -124l-66 88q68 47 101.5 146t33.5 234q0 136 -33.5 235.5t-101.5 145.5l66 88q58 -32 110 -90t84.5 -150.5t32.5 -228.5q0 -133 -32.5 -226t-84.5 -151.5t-110 -90.5z" />
    <glyph glyph-name="bracketleft" unicode="[" horiz-adv-x="342" 
d="M84 -124v915h239v-115l-95 2v-689l95 1v-114h-239z" />
    <glyph glyph-name="bracketright" unicode="]" horiz-adv-x="342" 
d="M19 -124v114l95 -1v689l-95 -2v115h239v-915h-239z" />
    <glyph glyph-name="braceleft" unicode="{" horiz-adv-x="464" 
d="M362 -123q-94 0 -148.5 50.5t-54.5 164.5v104q0 36 -10 53.5t-37 26t-78 15.5v103q49 7 76 15t38 26.5t11 53.5v94q0 75 25 121t70.5 66.5t104.5 20.5q44 0 68.5 -3l24.5 -3l-8 -110l-17.5 1.5t-37.5 2.5t-28 1q-17 0 -27.5 -6.5t-15 -27.5t-4.5 -65v-93
q0 -31 -6.5 -54.5t-18.5 -40.5t-27.5 -28.5t-33.5 -19.5v-6q18 -8 33.5 -20t27.5 -29.5t18.5 -41t6.5 -55.5v-101q0 -46 4.5 -68.5t14 -29t24.5 -6.5l87 4l8 -111z" />
    <glyph glyph-name="braceright" unicode="}" horiz-adv-x="464" 
d="M102 -121l-90 2l8 111l87 -3q16 0 25 6t13.5 28.5t4.5 68.5v101q0 32 6.5 55.5t18.5 41t27.5 29.5t33.5 20v6q-18 8 -33.5 19.5t-27.5 28.5t-18.5 40.5t-6.5 54.5v93q0 44 -4.5 65t-15 27.5t-27.5 6.5q-7 0 -27.5 -1t-38 -2.5l-17.5 -1.5l-8 110l25 3t68 3
q60 0 105 -20.5t70 -66.5t25 -121v-94q0 -35 11 -53.5t38 -26.5t76 -15v-103q-51 -7 -78 -15.5t-37 -26t-10 -53.5v-104q0 -114 -54 -164t-149 -49z" />
    <glyph glyph-name="ampersand" unicode="&#x26;" horiz-adv-x="702" 
d="M271 -13q-80 0 -137 32t-87 81t-30 101q0 36 11 65t29.5 52t41 40t46.5 29q-20 16 -37.5 37t-28.5 48t-11 61q0 51 25.5 92.5t75.5 66t122 24.5q77 0 124.5 -26t70 -67t22.5 -86q0 -39 -15 -69t-37 -51.5t-45 -36.5q29 -20 53.5 -41.5t43.5 -41.5q16 29 27.5 54t18 41
l6.5 16l133 -37l-11.5 -26.5t-32.5 -67.5t-51 -85q39 -58 62.5 -110t36.5 -90l-154 -5q-4 11 -15.5 35.5t-28.5 55.5q-47 -42 -103.5 -66.5t-124.5 -24.5zM274 106q41 0 82.5 23.5t72.5 57.5q-34 41 -71.5 73.5t-75.5 54.5q-30 -11 -53.5 -28.5t-37 -39.5t-13.5 -47
q0 -43 26.5 -68.5t69.5 -25.5zM287 449q26 14 44.5 35.5t18.5 54.5q0 25 -14 43.5t-49 18.5q-34 0 -48 -17.5t-14 -45.5q0 -31 15.5 -52t46.5 -37z" />
    <glyph glyph-name="ntilde" unicode="&#xf1;" 
d="M79 0v588h99l18 -59h6q20 12 43.5 24.5t50.5 23.5t57 17.5t63 6.5q62 0 94 -28t44 -77t12 -111v-385h-155v356q0 41 -2 62t-12 33q-6 8 -16 11.5t-24 3.5q-19 0 -41.5 -6t-44 -15.5t-37.5 -20.5v-424h-155zM435 656q-22 0 -52.5 7t-61.5 15.5t-55.5 15.5t-34.5 7
q-8 0 -15.5 -10t-12 -20.5l-4.5 -10.5l-76 10q2 69 28.5 98.5t68.5 29.5q23 0 53 -6.5t61 -15t55.5 -15t34.5 -6.5q8 0 15 10t11.5 20l4.5 10l75 -12q-1 -68 -27 -97.5t-68 -29.5z" />
    <glyph glyph-name="aacute" unicode="&#xe1;" horiz-adv-x="622" 
d="M222 -13q-48 0 -86.5 22.5t-61.5 65.5t-23 104q0 73 33 114.5t93 59.5t142 18h75q0 43 -4 61t-9 26q-4 7 -15.5 13t-46.5 6q-36 0 -74.5 -6t-71.5 -14t-54 -14l-21 -6l-32 112l20.5 8t56 18t81 18t96.5 8q86 0 136 -26.5t71.5 -76t21.5 -118.5v-380h-98l-20 65h-6
l-17.5 -12t-46.5 -27t-65 -27t-74 -12zM267 114q28 0 57.5 9.5t49.5 19l20 9.5v104l-24 2.5t-62 2.5q-66 0 -82 -15q-7 -6 -12 -20.5t-5 -40.5q0 -37 13.5 -54t44.5 -17zM166 646l-22 81l293 89l31 -112z" />
    <glyph glyph-name="equal" unicode="=" horiz-adv-x="649" 
d="M30 371v133h589v-133h-589zM30 79v133h589v-133h-589z" />
    <glyph glyph-name="acircumflex" unicode="&#xe2;" horiz-adv-x="622" 
d="M222 -13q-48 0 -86.5 22.5t-61.5 65.5t-23 104q0 73 33 114.5t93 59.5t142 18h75q0 43 -4 61t-9 26q-4 7 -15.5 13t-46.5 6q-36 0 -74.5 -6t-71.5 -14t-54 -14l-21 -6l-32 112l20.5 8t56 18t81 18t96.5 8q86 0 136 -26.5t71.5 -76t21.5 -118.5v-380h-98l-20 65h-6
l-17.5 -12t-46.5 -27t-65 -27t-74 -12zM267 114q28 0 57.5 9.5t49.5 19l20 9.5v104l-24 2.5t-62 2.5q-66 0 -82 -15q-7 -6 -12 -20.5t-5 -40.5q0 -37 13.5 -54t44.5 -17zM140 637l-33 61l167 105h73l167 -105l-33 -61l-167 64h-7z" />
    <glyph glyph-name="aring" unicode="&#xe5;" horiz-adv-x="622" 
d="M222 -13q-48 0 -86.5 22.5t-61.5 65.5t-23 104q0 73 33 114.5t93 59.5t142 18h75q0 43 -4 61t-9 26q-4 7 -15.5 13t-46.5 6q-36 0 -74.5 -6t-71.5 -14t-54 -14l-21 -6l-32 112l20.5 8t56 18t81 18t96.5 8q86 0 136 -26.5t71.5 -76t21.5 -118.5v-380h-98l-20 65h-6
l-17.5 -12t-46.5 -27t-65 -27t-74 -12zM267 114q28 0 57.5 9.5t49.5 19l20 9.5v104l-24 2.5t-62 2.5q-66 0 -82 -15q-7 -6 -12 -20.5t-5 -40.5q0 -37 13.5 -54t44.5 -17zM311 640q-25 0 -49.5 8.5t-40.5 29.5t-16 58q0 39 16 60t40.5 29t50.5 8q25 0 49 -8t39.5 -29
t15.5 -60q0 -37 -15.5 -58t-39.5 -29.5t-50 -8.5zM311 697q22 0 31.5 8.5t9.5 30.5q0 24 -9.5 31t-31.5 7t-32 -7t-10 -31q0 -22 10 -30.5t32 -8.5z" />
    <glyph glyph-name="acute" unicode="&#xb4;" horiz-adv-x="324" 
d="M22 646l-22 81l293 89l31 -112z" />
    <glyph glyph-name="grave" unicode="`" horiz-adv-x="324" 
d="M305 646l-305 58l26 112l298 -87z" />
    <glyph glyph-name="circumflex" unicode="&#x2c6;" horiz-adv-x="407" 
d="M33 637l-33 61l167 105h73l167 -105l-33 -61l-167 64h-7z" />
    <glyph glyph-name="caron" unicode="&#x2c7;" horiz-adv-x="407" 
d="M167 651l-167 105l33 61l167 -64h7l167 64l33 -61l-167 -105h-73z" />
    <glyph glyph-name="breve" unicode="&#x2d8;" horiz-adv-x="388" 
d="M194 643q-50 0 -92.5 15.5t-69.5 51t-32 96.5l79 9q10 -43 39 -57.5t76 -14.5t76 14.5t39 57.5l79 -9q-5 -61 -32 -96.5t-69 -51t-93 -15.5z" />
    <glyph glyph-name="ring" unicode="&#x2da;" horiz-adv-x="211" 
d="M106 637q-25 0 -49.5 8.5t-40.5 29.5t-16 58q0 39 16 60t40.5 29t50.5 8q25 0 49 -8t39.5 -29t15.5 -60q0 -37 -15.5 -58t-39.5 -29.5t-50 -8.5zM106 694q22 0 31.5 8.5t9.5 30.5q0 24 -9.5 31t-31.5 7t-32 -7t-10 -31q0 -22 10 -30.5t32 -8.5z" />
    <glyph glyph-name="dieresis" unicode="&#xa8;" horiz-adv-x="372" 
d="M0 668v108h147v-108h-147zM225 668v108h147v-108h-147z" />
    <glyph glyph-name="tilde" unicode="&#x2dc;" horiz-adv-x="407" 
d="M312 656q-22 0 -52.5 7t-61.5 15.5t-55.5 15.5t-34.5 7q-8 0 -15.5 -10t-12 -20.5l-4.5 -10.5l-76 10q2 69 28.5 98.5t68.5 29.5q23 0 53 -6.5t61 -15t55.5 -15t34.5 -6.5q8 0 15 10t11.5 20l4.5 10l75 -12q-1 -68 -27 -97.5t-68 -29.5z" />
    <glyph glyph-name="macron" unicode="&#xaf;" horiz-adv-x="392" 
d="M0 668v96h393v-96h-393z" />
    <glyph glyph-name="cedilla" unicode="&#xb8;" horiz-adv-x="208" 
d="M87 -179q-34 0 -60.5 4.5l-26.5 4.5v87l12.5 -1t30 -2.5t32.5 -1.5q23 0 34.5 5t11.5 25q0 23 -5 48.5t-6 29.5l76 20q1 -1 6 -16.5t10.5 -39.5t5.5 -52q0 -51 -31.5 -81t-89.5 -30z" />
    <glyph glyph-name="dotaccent" unicode="&#x2d9;" horiz-adv-x="163" 
d="M0 668v108h163v-108h-163z" />
    <glyph glyph-name="hungarumlaut" unicode="&#x2dd;" horiz-adv-x="600" 
d="M50 622l-50 67l150 127l63 -86zM238 622l-50 67l150 127l63 -86z" />
    <glyph glyph-name="ogonek" unicode="&#x2db;" horiz-adv-x="183" 
d="M102 -179q-49 0 -75.5 20.5t-26.5 61.5q0 23 11 44t33.5 40t56.5 34l81 -20q-45 -14 -70 -31.5t-25 -35.5q0 -12 12.5 -17t33.5 -5q16 0 33 2l17 2v-86l-23 -4.5t-58 -4.5z" />
    <glyph glyph-name="ograve" unicode="&#xf2;" horiz-adv-x="612" 
d="M307 -13q-97 0 -154 37.5t-81 106.5t-24 164q0 94 24 162.5t81 106t155 37.5q97 0 153 -37.5t79.5 -106t23.5 -163.5q0 -94 -23.5 -163t-79.5 -106.5t-154 -37.5zM307 105q29 0 48 8t30.5 29t16 58t4.5 95q0 57 -5 94t-16 57.5t-30 28.5t-48 8t-48.5 -8t-31 -28.5
t-16.5 -57.5t-5 -94q0 -58 5 -95t16.5 -58t31 -29t48.5 -8zM449 646l-305 58l26 112l298 -87z" />
    <glyph glyph-name="oacute" unicode="&#xf3;" horiz-adv-x="612" 
d="M307 -13q-97 0 -154 37.5t-81 106.5t-24 164q0 94 24 162.5t81 106t155 37.5q97 0 153 -37.5t79.5 -106t23.5 -163.5q0 -94 -23.5 -163t-79.5 -106.5t-154 -37.5zM307 105q29 0 48 8t30.5 29t16 58t4.5 95q0 57 -5 94t-16 57.5t-30 28.5t-48 8t-48.5 -8t-31 -28.5
t-16.5 -57.5t-5 -94q0 -58 5 -95t16.5 -58t31 -29t48.5 -8zM177 646l-22 81l293 89l31 -112z" />
    <glyph glyph-name="ocircumflex" unicode="&#xf4;" horiz-adv-x="612" 
d="M307 -13q-97 0 -154 37.5t-81 106.5t-24 164q0 94 24 162.5t81 106t155 37.5q97 0 153 -37.5t79.5 -106t23.5 -163.5q0 -94 -23.5 -163t-79.5 -106.5t-154 -37.5zM307 105q29 0 48 8t30.5 29t16 58t4.5 95q0 57 -5 94t-16 57.5t-30 28.5t-48 8t-48.5 -8t-31 -28.5
t-16.5 -57.5t-5 -94q0 -58 5 -95t16.5 -58t31 -29t48.5 -8zM135 637l-33 61l167 105h73l167 -105l-33 -61l-167 64h-7z" />
    <glyph glyph-name="otilde" unicode="&#xf5;" horiz-adv-x="612" 
d="M307 -13q-97 0 -154 37.5t-81 106.5t-24 164q0 94 24 162.5t81 106t155 37.5q97 0 153 -37.5t79.5 -106t23.5 -163.5q0 -94 -23.5 -163t-79.5 -106.5t-154 -37.5zM307 105q29 0 48 8t30.5 29t16 58t4.5 95q0 57 -5 94t-16 57.5t-30 28.5t-48 8t-48.5 -8t-31 -28.5
t-16.5 -57.5t-5 -94q0 -58 5 -95t16.5 -58t31 -29t48.5 -8zM414 656q-22 0 -52.5 7t-61.5 15.5t-55.5 15.5t-34.5 7q-8 0 -15.5 -10t-12 -20.5l-4.5 -10.5l-76 10q2 69 28.5 98.5t68.5 29.5q23 0 53 -6.5t61 -15t55.5 -15t34.5 -6.5q8 0 15 10t11.5 20l4.5 10l75 -12
q-1 -68 -27 -97.5t-68 -29.5z" />
    <glyph glyph-name="odieresis" unicode="&#xf6;" horiz-adv-x="612" 
d="M307 -13q-97 0 -154 37.5t-81 106.5t-24 164q0 94 24 162.5t81 106t155 37.5q97 0 153 -37.5t79.5 -106t23.5 -163.5q0 -94 -23.5 -163t-79.5 -106.5t-154 -37.5zM307 105q29 0 48 8t30.5 29t16 58t4.5 95q0 57 -5 94t-16 57.5t-30 28.5t-48 8t-48.5 -8t-31 -28.5
t-16.5 -57.5t-5 -94q0 -58 5 -95t16.5 -58t31 -29t48.5 -8zM115 668v108h147v-108h-147zM340 668v108h147v-108h-147z" />
    <glyph glyph-name="idieresis" unicode="&#xef;" horiz-adv-x="323" 
d="M-15 668v108h147v-108h-147zM190 668v108h147v-108h-147zM78 0v588h155v-588h-155z" />
    <glyph glyph-name="icircumflex" unicode="&#xee;" horiz-adv-x="323" 
d="M12 640l-33 62l147 101h73l147 -101l-33 -62l-147 61h-7zM78 0v588h155v-588h-155z" />
    <glyph glyph-name="iacute" unicode="&#xed;" horiz-adv-x="323" 
d="M44 646l-22 82l273 88l31 -112zM78 0v588h155v-588h-155z" />
    <glyph glyph-name="igrave" unicode="&#xec;" horiz-adv-x="323" 
d="M271 646l-285 57l26 108l278 -82zM78 0v588h155v-588h-155z" />
    <glyph glyph-name="edieresis" unicode="&#xeb;" horiz-adv-x="611" 
d="M322 -14q-81 0 -142.5 30t-95.5 98t-34 181q0 118 36 184.5t97 94.5t137 28q78 0 132 -27t82.5 -88t28.5 -164v-83h-426l70 22q0 -36 3 -62.5t10 -44t18 -27.5q10 -9 25.5 -14t40.5 -5q27 0 60 5.5t64.5 13.5t54.5 14.5t31 9.5l38 -112q-9 -4 -43.5 -17.5t-83 -25
t-103.5 -11.5zM207 330l-69 21l337 6l-70 -22q0 48 -4 79t-14 44q-7 8 -21 15t-46 7q-38 0 -57 -7.5t-29 -18.5q-27 -28 -27 -124zM129 668v108h147v-108h-147zM354 668v108h147v-108h-147z" />
    <glyph glyph-name="ecircumflex" unicode="&#xea;" horiz-adv-x="611" 
d="M322 -14q-81 0 -142.5 30t-95.5 98t-34 181q0 118 36 184.5t97 94.5t137 28q78 0 132 -27t82.5 -88t28.5 -164v-83h-426l70 22q0 -36 3 -62.5t10 -44t18 -27.5q10 -9 25.5 -14t40.5 -5q27 0 60 5.5t64.5 13.5t54.5 14.5t31 9.5l38 -112q-9 -4 -43.5 -17.5t-83 -25
t-103.5 -11.5zM207 330l-69 21l337 6l-70 -22q0 48 -4 79t-14 44q-7 8 -21 15t-46 7q-38 0 -57 -7.5t-29 -18.5q-27 -28 -27 -124zM149 637l-33 61l167 105h73l167 -105l-33 -61l-167 64h-7z" />
    <glyph glyph-name="eacute" unicode="&#xe9;" horiz-adv-x="611" 
d="M322 -14q-81 0 -142.5 30t-95.5 98t-34 181q0 118 36 184.5t97 94.5t137 28q78 0 132 -27t82.5 -88t28.5 -164v-83h-426l70 22q0 -36 3 -62.5t10 -44t18 -27.5q10 -9 25.5 -14t40.5 -5q27 0 60 5.5t64.5 13.5t54.5 14.5t31 9.5l38 -112q-9 -4 -43.5 -17.5t-83 -25
t-103.5 -11.5zM207 330l-69 21l337 6l-70 -22q0 48 -4 79t-14 44q-7 8 -21 15t-46 7q-38 0 -57 -7.5t-29 -18.5q-27 -28 -27 -124zM175 646l-22 81l293 89l31 -112z" />
    <glyph glyph-name="egrave" unicode="&#xe8;" horiz-adv-x="611" 
d="M322 -14q-81 0 -142.5 30t-95.5 98t-34 181q0 118 36 184.5t97 94.5t137 28q78 0 132 -27t82.5 -88t28.5 -164v-83h-426l70 22q0 -36 3 -62.5t10 -44t18 -27.5q10 -9 25.5 -14t40.5 -5q27 0 60 5.5t64.5 13.5t54.5 14.5t31 9.5l38 -112q-9 -4 -43.5 -17.5t-83 -25
t-103.5 -11.5zM207 330l-69 21l337 6l-70 -22q0 48 -4 79t-14 44q-7 8 -21 15t-46 7q-38 0 -57 -7.5t-29 -18.5q-27 -28 -27 -124zM463 646l-305 58l26 112l298 -87z" />
    <glyph glyph-name="atilde" unicode="&#xe3;" horiz-adv-x="622" 
d="M222 -13q-48 0 -86.5 22.5t-61.5 65.5t-23 104q0 73 33 114.5t93 59.5t142 18h75q0 43 -4 61t-9 26q-4 7 -15.5 13t-46.5 6q-36 0 -74.5 -6t-71.5 -14t-54 -14l-21 -6l-32 112l20.5 8t56 18t81 18t96.5 8q86 0 136 -26.5t71.5 -76t21.5 -118.5v-380h-98l-20 65h-6
l-17.5 -12t-46.5 -27t-65 -27t-74 -12zM267 114q28 0 57.5 9.5t49.5 19l20 9.5v104l-24 2.5t-62 2.5q-66 0 -82 -15q-7 -6 -12 -20.5t-5 -40.5q0 -37 13.5 -54t44.5 -17zM419 656q-22 0 -52.5 7t-61.5 15.5t-55.5 15.5t-34.5 7q-8 0 -15.5 -10t-12 -20.5l-4.5 -10.5l-76 10
q2 69 28.5 98.5t68.5 29.5q23 0 53 -6.5t61 -15t55.5 -15t34.5 -6.5q8 0 15 10t11.5 20l4.5 10l75 -12q-1 -68 -27 -97.5t-68 -29.5z" />
    <glyph glyph-name="adieresis" unicode="&#xe4;" horiz-adv-x="622" 
d="M222 -13q-48 0 -86.5 22.5t-61.5 65.5t-23 104q0 73 33 114.5t93 59.5t142 18h75q0 43 -4 61t-9 26q-4 7 -15.5 13t-46.5 6q-36 0 -74.5 -6t-71.5 -14t-54 -14l-21 -6l-32 112l20.5 8t56 18t81 18t96.5 8q86 0 136 -26.5t71.5 -76t21.5 -118.5v-380h-98l-20 65h-6
l-17.5 -12t-46.5 -27t-65 -27t-74 -12zM267 114q28 0 57.5 9.5t49.5 19l20 9.5v104l-24 2.5t-62 2.5q-66 0 -82 -15q-7 -6 -12 -20.5t-5 -40.5q0 -37 13.5 -54t44.5 -17zM120 668v108h147v-108h-147zM345 668v108h147v-108h-147z" />
    <glyph glyph-name="ugrave" unicode="&#xf9;" 
d="M230 -13q-67 0 -102.5 28.5t-48.5 78t-13 111.5v383h155v-368q0 -43 3 -61t10 -25q8 -7 18 -9.5t24 -2.5q29 0 63.5 13t58.5 29v424h155v-588h-99l-19 61h-6q-26 -16 -58 -33t-67.5 -29t-73.5 -12zM459 646l-305 58l26 112l298 -87z" />
    <glyph glyph-name="uacute" unicode="&#xfa;" 
d="M230 -13q-67 0 -102.5 28.5t-48.5 78t-13 111.5v383h155v-368q0 -43 3 -61t10 -25q8 -7 18 -9.5t24 -2.5q29 0 63.5 13t58.5 29v424h155v-588h-99l-19 61h-6q-26 -16 -58 -33t-67.5 -29t-73.5 -12zM181 646l-22 81l293 89l31 -112z" />
    <glyph glyph-name="ucircumflex" unicode="&#xfb;" 
d="M230 -13q-67 0 -102.5 28.5t-48.5 78t-13 111.5v383h155v-368q0 -43 3 -61t10 -25q8 -7 18 -9.5t24 -2.5q29 0 63.5 13t58.5 29v424h155v-588h-99l-19 61h-6q-26 -16 -58 -33t-67.5 -29t-73.5 -12zM145 637l-33 61l167 105h73l167 -105l-33 -61l-167 64h-7z" />
    <glyph glyph-name="udieresis" unicode="&#xfc;" 
d="M230 -13q-67 0 -102.5 28.5t-48.5 78t-13 111.5v383h155v-368q0 -43 3 -61t10 -25q8 -7 18 -9.5t24 -2.5q29 0 63.5 13t58.5 29v424h155v-588h-99l-19 61h-6q-26 -16 -58 -33t-67.5 -29t-73.5 -12zM121 668v108h147v-108h-147zM346 668v108h147v-108h-147z" />
    <glyph glyph-name="yacute" unicode="&#xfd;" horiz-adv-x="540" 
d="M112 -166l86 214l-198 540h160l106 -392h6l103 392h161l-205 -560l-58 -194h-161zM148 646l-22 81l293 89l31 -112z" />
    <glyph glyph-name="Aring" unicode="&#xc5;" horiz-adv-x="573" 
d="M-11 0l193 703h204l193 -703h-162l-54 224l87 -68h-332l87 68l-54 -224h-162zM202 220l-54 68h272l-54 -68l-95 405l86 -68h-146l86 68zM287 733q-26 0 -50.5 8.5t-40.5 29t-16 56.5q0 38 16 58.5t40.5 28.5t51.5 8q26 0 50 -8t39.5 -28.5t15.5 -58.5q0 -36 -15.5 -56.5
t-39.5 -29t-51 -8.5zM287 797q19 0 27 6.5t8 23.5q0 19 -8 24.5t-27 5.5t-27.5 -5.5t-8.5 -24.5q0 -17 8.5 -23.5t27.5 -6.5z" />
    <glyph glyph-name="Aacute" unicode="&#xc1;" horiz-adv-x="573" 
d="M-11 0l193 703h204l193 -703h-162l-54 224l87 -68h-332l87 68l-54 -224h-162zM202 220l-54 68h272l-54 -68l-95 405l86 -68h-146l86 68zM161 750l-20 83l294 77l28 -110z" />
    <glyph glyph-name="Ntilde" unicode="&#xd1;" horiz-adv-x="716" 
d="M83 0v703h201l216 -514h6l-14 514h143v-703h-201l-216 515h-6l14 -515h-143zM477 750q-22 0 -52.5 7t-61.5 15.5t-55.5 15.5t-34.5 7q-8 0 -15.5 -10t-12 -20.5l-4.5 -10.5l-76 10q2 68 28.5 97t68.5 29q23 0 53 -6.5t61 -15t55.5 -15t34.5 -6.5q8 0 15 10t11.5 20
l4.5 10l75 -12q-1 -67 -27 -96t-68 -29z" />
    <glyph glyph-name="Odieresis" unicode="&#xd6;" horiz-adv-x="700" 
d="M350 -13q-61 0 -115.5 16t-96 56t-65 111.5t-23.5 182.5t23.5 182t65 110.5t96 55t115.5 15.5q62 0 116 -15.5t95.5 -55t65 -110.5t23.5 -182t-23.5 -182.5t-65 -111.5t-95.5 -56t-116 -16zM350 125q36 0 61.5 8.5t42.5 32t25 68.5t8 118q0 72 -8 117t-24.5 68.5
t-42.5 32t-62 8.5t-62 -8.5t-42.5 -32t-24.5 -68.5t-8 -118t8 -117.5t25 -68t42.5 -32t61.5 -8.5zM158 761v108h147v-108h-147zM383 761v108h147v-108h-147z" />
    <glyph glyph-name="Otilde" unicode="&#xd5;" horiz-adv-x="700" 
d="M350 -13q-61 0 -115.5 16t-96 56t-65 111.5t-23.5 182.5t23.5 182t65 110.5t96 55t115.5 15.5q62 0 116 -15.5t95.5 -55t65 -110.5t23.5 -182t-23.5 -182.5t-65 -111.5t-95.5 -56t-116 -16zM350 125q36 0 61.5 8.5t42.5 32t25 68.5t8 118q0 72 -8 117t-24.5 68.5
t-42.5 32t-62 8.5t-62 -8.5t-42.5 -32t-24.5 -68.5t-8 -118t8 -117.5t25 -68t42.5 -32t61.5 -8.5zM469 750q-22 0 -52.5 7t-61.5 15.5t-55.5 15.5t-34.5 7q-8 0 -15.5 -10t-12 -20.5l-4.5 -10.5l-76 10q2 68 28.5 97t68.5 29q23 0 53 -6.5t61 -15t55.5 -15t34.5 -6.5
q8 0 15 10t11.5 20l4.5 10l75 -12q-1 -67 -27 -96t-68 -29z" />
    <glyph glyph-name="Ocircumflex" unicode="&#xd4;" horiz-adv-x="700" 
d="M350 -13q-61 0 -115.5 16t-96 56t-65 111.5t-23.5 182.5t23.5 182t65 110.5t96 55t115.5 15.5q62 0 116 -15.5t95.5 -55t65 -110.5t23.5 -182t-23.5 -182.5t-65 -111.5t-95.5 -56t-116 -16zM350 125q36 0 61.5 8.5t42.5 32t25 68.5t8 118q0 72 -8 117t-24.5 68.5
t-42.5 32t-62 8.5t-62 -8.5t-42.5 -32t-24.5 -68.5t-8 -118t8 -117.5t25 -68t42.5 -32t61.5 -8.5zM178 740l-33 61l167 100h73l167 -100l-33 -61l-167 59h-7z" />
    <glyph glyph-name="Oacute" unicode="&#xd3;" horiz-adv-x="700" 
d="M350 -13q-61 0 -115.5 16t-96 56t-65 111.5t-23.5 182.5t23.5 182t65 110.5t96 55t115.5 15.5q62 0 116 -15.5t95.5 -55t65 -110.5t23.5 -182t-23.5 -182.5t-65 -111.5t-95.5 -56t-116 -16zM350 125q36 0 61.5 8.5t42.5 32t25 68.5t8 118q0 72 -8 117t-24.5 68.5
t-42.5 32t-62 8.5t-62 -8.5t-42.5 -32t-24.5 -68.5t-8 -118t8 -117.5t25 -68t42.5 -32t61.5 -8.5zM224 750l-20 83l294 77l28 -110z" />
    <glyph glyph-name="Ograve" unicode="&#xd2;" horiz-adv-x="700" 
d="M350 -13q-61 0 -115.5 16t-96 56t-65 111.5t-23.5 182.5t23.5 182t65 110.5t96 55t115.5 15.5q62 0 116 -15.5t95.5 -55t65 -110.5t23.5 -182t-23.5 -182.5t-65 -111.5t-95.5 -56t-116 -16zM350 125q36 0 61.5 8.5t42.5 32t25 68.5t8 118q0 72 -8 117t-24.5 68.5
t-42.5 32t-62 8.5t-62 -8.5t-42.5 -32t-24.5 -68.5t-8 -118t8 -117.5t25 -68t42.5 -32t61.5 -8.5zM497 751l-308 42l20 113l302 -71z" />
    <glyph glyph-name="Idieresis" unicode="&#xcf;" horiz-adv-x="324" 
d="M-19 766v108h143v-108h-143zM200 766v108h143v-108h-143zM83 0l4 324l-4 379h158l-3 -313l3 -390h-158z" />
    <glyph glyph-name="Icircumflex" unicode="&#xce;" horiz-adv-x="324" 
d="M8 750l-33 65l150 90h73l149 -90l-33 -65l-149 53h-7zM83 0l4 324l-4 379h158l-3 -313l3 -390h-158z" />
    <glyph glyph-name="Iacute" unicode="&#xcd;" horiz-adv-x="324" 
d="M47 750l-18 81l284 79l26 -110zM83 0l4 324l-4 379h158l-3 -313l3 -390h-158z" />
    <glyph glyph-name="Igrave" unicode="&#xcc;" horiz-adv-x="324" 
d="M271 751l-292 48l26 110l284 -77zM83 0l4 324l-4 379h158l-3 -313l3 -390h-158z" />
    <glyph glyph-name="Edieresis" unicode="&#xcb;" horiz-adv-x="551" 
d="M83 0v703h422v-134l-335 4l72 69l-9 -290l-68 70h315v-131h-315l68 70l9 -299l-72 69l335 3v-134h-422zM106 761v108h147v-108h-147zM331 761v108h147v-108h-147z" />
    <glyph glyph-name="Ecircumflex" unicode="&#xca;" horiz-adv-x="551" 
d="M83 0v703h422v-134l-335 4l72 69l-9 -290l-68 70h315v-131h-315l68 70l9 -299l-72 69l335 3v-134h-422zM126 740l-33 61l167 100h73l167 -100l-33 -61l-167 59h-7z" />
    <glyph glyph-name="Eacute" unicode="&#xc9;" horiz-adv-x="551" 
d="M83 0v703h422v-134l-335 4l72 69l-9 -290l-68 70h315v-131h-315l68 70l9 -299l-72 69l335 3v-134h-422zM172 750l-20 83l294 77l28 -110z" />
    <glyph glyph-name="Egrave" unicode="&#xc8;" horiz-adv-x="551" 
d="M83 0v703h422v-134l-335 4l72 69l-9 -290l-68 70h315v-131h-315l68 70l9 -299l-72 69l335 3v-134h-422zM445 751l-308 42l20 113l302 -71z" />
    <glyph glyph-name="Adieresis" unicode="&#xc4;" horiz-adv-x="573" 
d="M-11 0l193 703h204l193 -703h-162l-54 224l87 -68h-332l87 68l-54 -224h-162zM202 220l-54 68h272l-54 -68l-95 405l86 -68h-146l86 68zM95 761v108h147v-108h-147zM320 761v108h147v-108h-147z" />
    <glyph glyph-name="Atilde" unicode="&#xc3;" horiz-adv-x="573" 
d="M-11 0l193 703h204l193 -703h-162l-54 224l87 -68h-332l87 68l-54 -224h-162zM202 220l-54 68h272l-54 -68l-95 405l86 -68h-146l86 68zM406 750q-22 0 -52.5 7t-61.5 15.5t-55.5 15.5t-34.5 7q-8 0 -15.5 -10t-12 -20.5l-4.5 -10.5l-76 10q2 68 28.5 97t68.5 29
q23 0 53 -6.5t61 -15t55.5 -15t34.5 -6.5q8 0 15 10t11.5 20l4.5 10l75 -12q-1 -67 -27 -96t-68 -29z" />
    <glyph glyph-name="Acircumflex" unicode="&#xc2;" horiz-adv-x="573" 
d="M-11 0l193 703h204l193 -703h-162l-54 224l87 -68h-332l87 68l-54 -224h-162zM202 220l-54 68h272l-54 -68l-95 405l86 -68h-146l86 68zM115 740l-33 61l167 100h73l167 -100l-33 -61l-167 59h-7z" />
    <glyph glyph-name="Agrave" unicode="&#xc0;" horiz-adv-x="573" 
d="M-11 0l193 703h204l193 -703h-162l-54 224l87 -68h-332l87 68l-54 -224h-162zM202 220l-54 68h272l-54 -68l-95 405l86 -68h-146l86 68zM434 751l-308 42l20 113l302 -71z" />
    <glyph glyph-name="ydieresis" unicode="&#xff;" horiz-adv-x="536" 
d="M112 -166l86 214l-198 540h160l106 -392h6l103 392h161l-205 -560l-58 -194h-161zM73 668v108h147v-108h-147zM298 668v108h147v-108h-147z" />
    <glyph glyph-name="Ugrave" unicode="&#xd9;" horiz-adv-x="702" 
d="M351 -13q-85 0 -145 28t-91.5 98.5t-31.5 195.5v394h157v-366q0 -70 5.5 -112.5t18 -64t34 -28.5t54.5 -7q32 0 53.5 7t34 28t17.5 63.5t5 113.5v366h157v-386q0 -129 -31 -201t-91 -100.5t-146 -28.5zM478 751l-308 42l20 113l302 -71z" />
    <glyph glyph-name="Uacute" unicode="&#xda;" horiz-adv-x="702" 
d="M351 -13q-85 0 -145 28t-91.5 98.5t-31.5 195.5v394h157v-366q0 -70 5.5 -112.5t18 -64t34 -28.5t54.5 -7q32 0 53.5 7t34 28t17.5 63.5t5 113.5v366h157v-386q0 -129 -31 -201t-91 -100.5t-146 -28.5zM225 750l-20 83l294 77l28 -110z" />
    <glyph glyph-name="Ucircumflex" unicode="&#xdb;" horiz-adv-x="702" 
d="M351 -13q-85 0 -145 28t-91.5 98.5t-31.5 195.5v394h157v-366q0 -70 5.5 -112.5t18 -64t34 -28.5t54.5 -7q32 0 53.5 7t34 28t17.5 63.5t5 113.5v366h157v-386q0 -129 -31 -201t-91 -100.5t-146 -28.5zM179 740l-33 61l167 100h73l167 -100l-33 -61l-167 59h-7z" />
    <glyph glyph-name="Udieresis" unicode="&#xdc;" horiz-adv-x="702" 
d="M351 -13q-85 0 -145 28t-91.5 98.5t-31.5 195.5v394h157v-366q0 -70 5.5 -112.5t18 -64t34 -28.5t54.5 -7q32 0 53.5 7t34 28t17.5 63.5t5 113.5v366h157v-386q0 -129 -31 -201t-91 -100.5t-146 -28.5zM155 761v108h147v-108h-147zM380 761v108h147v-108h-147z" />
    <glyph glyph-name="Yacute" unicode="&#xdd;" horiz-adv-x="580" 
d="M209 0l3 253l-216 450h168l122 -322h6l122 322h168l-216 -450l2 -253h-159zM192 750l-20 83l294 77l28 -110z" />
    <glyph glyph-name="slash" unicode="/" horiz-adv-x="490" 
d="M-18 -98l201 431l161 370h146l-196 -422l-167 -379h-145z" />
    <glyph glyph-name="ae" unicode="&#xe6;" horiz-adv-x="952" 
d="M231 -13q-77 0 -126 50.5t-49 144.5q0 71 33.5 111.5t93.5 57.5t141 17h75q0 37 -3.5 60t-9.5 30q-4 7 -15.5 13t-42.5 6q-38 0 -77.5 -6t-73 -14t-54 -14l-20.5 -6l-32 112l20 8t55.5 18t82.5 18t101 8q56 0 95.5 -13t65.5 -36h4q35 26 78 37.5t93 11.5q78 0 132 -26
t82.5 -86t28.5 -163v-83h-352v-14q2 -29 6.5 -49.5t11.5 -32.5t13 -18q10 -9 25 -14t37 -5q29 0 65 6.5t69 15t54.5 15l21.5 6.5l38 -112l-19.5 -8t-52.5 -19t-74 -19t-84 -8q-68 0 -122 20t-90 69h-4q-24 -15 -59.5 -36t-77 -37t-84.5 -16zM270 114q30 0 59.5 9.5t49.5 19
l20 9.5v101l-24 2.5t-61 2.5q-36 0 -55 -3.5t-28 -11.5q-7 -6 -12 -19t-5 -38q0 -38 13 -55t43 -17zM558 355l193 4q-1 38 -5 62t-13 36q-7 8 -21 15t-46 7q-35 0 -53.5 -7.5t-28.5 -18.5q-11 -13 -17.5 -37t-8.5 -61z" />
    <glyph glyph-name="oe" unicode="&#x153;" horiz-adv-x="966" 
d="M307 -13q-97 0 -154 37.5t-81 106.5t-24 163q0 95 24 163.5t81 106t154 37.5q63 0 107 -16t75 -47h4q36 34 83.5 48.5t103.5 14.5q78 0 132 -27t82.5 -87.5t28.5 -163.5v-83h-352v-4q2 -49 11.5 -73.5t19.5 -33.5t25 -14t37 -5q29 0 65 6.5t69 15t54.5 15l21.5 6.5
l38 -112l-19.5 -8t-52.5 -19t-74 -19t-84 -8q-58 0 -106 15t-83 48h-4q-30 -31 -74.5 -47t-107.5 -16zM307 105q29 0 48 8t30.5 29t16 58t4.5 94q0 58 -5 95t-16 57.5t-30 28.5t-48 8t-48.5 -8t-31 -28.5t-16.5 -57.5t-5 -95q0 -57 5 -94t16.5 -58t31 -29t48.5 -8zM572 352
l193 4q-1 38 -5 63.5t-13 37.5q-7 8 -21 15t-46 7q-35 0 -53.5 -7.5t-28.5 -18.5q-11 -13 -17.5 -38.5t-8.5 -62.5z" />
    <glyph glyph-name="asterisk" unicode="*" horiz-adv-x="416" 
d="M132 346l-91 81l14 15l87 78l-108 13l-20 6l36 119l22 -7l93 -47l-19 100v21h124v-21l-19 -100l93 47l21 6l37 -118l-21 -6l-111 -13l90 -77l15 -15l-95 -81l-13 17l-60 102l-62 -103z" />
    <glyph glyph-name="OE" unicode="&#x152;" horiz-adv-x="970" 
d="M350 -13q-61 0 -115.5 16t-96 56t-65 111.5t-23.5 182.5t23.5 182t65 110.5t96 55t115.5 15.5q38 0 77.5 -10t70.5 -27h74l-70 -70v94h422v-136l-266 3l-4 -148h245v-132h-245l4 -158l266 2v-134h-422v95l70 -70h-74q-31 -17 -70.5 -27.5t-77.5 -10.5zM350 125
q36 0 61.5 8.5t42.5 32t25 68.5t8 118q0 72 -8 117t-24.5 68.5t-42.5 32t-62 8.5t-62 -8.5t-42.5 -32t-24.5 -68.5t-8 -118t8 -117.5t25 -68t42.5 -32t61.5 -8.5z" />
    <glyph glyph-name="Eth" unicode="&#xd0;" horiz-adv-x="686" 
d="M30 301v112h344v-112h-344zM335 -13q-36 0 -74 1.5t-72.5 4t-59 5t-33.5 3.5v702q15 1 43 3t63.5 4.5t73 4t69.5 1.5q91 0 148.5 -28t88.5 -77t42.5 -113.5t11.5 -137.5q0 -139 -38 -221t-105.5 -117t-157.5 -35zM343 122q35 0 55 5.5t29 13.5q12 10 22.5 33.5t17 69
t6.5 120.5q0 76 -10 130t-33 70q-7 5 -24.5 11t-58.5 6q-49 0 -72.5 -3t-42.5 -7l20 74v-588l-20 73q21 -3 43.5 -5.5t67.5 -2.5z" />
    <glyph glyph-name="AE" unicode="&#xc6;" horiz-adv-x="849" 
d="M-17 0l318 703h502v-136l-266 3l-4 -148h245v-132h-245l4 -158l266 2v-134h-422v156h-171l-68 -156h-159zM251 288h130v261h-18z" />
    <glyph glyph-name="Oslash" unicode="&#xd8;" horiz-adv-x="700" 
d="M104 -39l193 398l166 370h116l-191 -401l-167 -367h-117zM350 -13q-61 0 -115.5 16t-96 56t-65 111.5t-23.5 182.5t23.5 182t65 110.5t96 55t115.5 15.5q62 0 116 -15.5t95.5 -55t65 -110.5t23.5 -182t-23.5 -182.5t-65 -111.5t-95.5 -56t-116 -16zM350 125
q36 0 61.5 8.5t42.5 32t25 68.5t8 118q0 72 -8 117t-24.5 68.5t-42.5 32t-62 8.5t-62 -8.5t-42.5 -32t-24.5 -68.5t-8 -118t8 -117.5t25 -68t42.5 -32t61.5 -8.5z" />
    <glyph glyph-name="bar" unicode="|" horiz-adv-x="280" 
d="M81 -94v868h118v-868h-118z" />
    <glyph glyph-name="registered" unicode="&#xae;" horiz-adv-x="832" 
d="M415 -49q-80 0 -147 27.5t-116 77t-75.5 117t-26.5 147.5t28 147.5t78 117t116.5 77t142.5 27.5q80 0 147.5 -27.5t116.5 -77t76 -117t27 -147.5t-27 -147.5t-76 -117t-116.5 -77t-147.5 -27.5zM415 41q86 0 147.5 34t94.5 96.5t33 148.5t-33 148.5t-94.5 96.5t-147.5 34
q-81 0 -142.5 -34t-96 -96.5t-34.5 -148.5q0 -129 72 -204t201 -75zM248 120l3 189l-2 213q12 1 40 3t63 3.5t67 1.5q75 0 121 -30t46 -105q0 -53 -20.5 -84t-52.5 -46v-3l80 -142h-136l-48 133l-43 1v-134h-118zM421 349q24 0 32 9.5t8 39.5q0 16 -7 25.5t-33 9.5
q-13 0 -30 -1t-24 -2l-1 -80q11 -1 27.5 -1h27.5z" />
    <glyph glyph-name="copyright" unicode="&#xa9;" horiz-adv-x="832" 
d="M415 -49q-80 0 -147 27.5t-116 77t-75.5 117t-26.5 147.5t28 147.5t78 117t116.5 77t142.5 27.5q80 0 147.5 -27.5t116.5 -77t76 -117t27 -147.5t-27 -147.5t-76 -117t-116.5 -77t-147.5 -27.5zM425 109q-54 0 -99 20.5t-72 66.5t-27 123q0 68 16.5 111.5t45.5 67
t67 32.5t80 9q15 0 38 -3t45 -8.5t32 -11.5l-16 -97q-6 1 -27 3.5t-42.5 5t-30.5 2.5q-21 0 -32.5 -3t-17.5 -9q-9 -9 -15 -30.5t-6 -67.5q0 -40 7 -62.5t14 -30.5q10 -10 31 -10q26 0 54 5.5t47.5 11l19.5 5.5l26 -99l-16.5 -7.5t-47 -15.5t-74.5 -8zM415 41q86 0 147.5 34
t94.5 96.5t33 148.5t-33 148.5t-94.5 96.5t-147.5 34q-81 0 -142.5 -34t-96 -96.5t-34.5 -148.5q0 -129 72 -204t201 -75z" />
    <glyph glyph-name="endash" unicode="&#x2013;" horiz-adv-x="594" 
d="M28 261l1 132h537v-132h-538z" />
    <glyph glyph-name="emdash" unicode="&#x2014;" horiz-adv-x="842" 
d="M48 261v132h746v-132h-746z" />
    <glyph glyph-name="divide" unicode="&#xf7;" horiz-adv-x="647" 
d="M30 227v133h587v-133h-587zM234 0v134h175v-134h-175zM234 454v134h175v-134h-175z" />
    <glyph glyph-name="plus" unicode="+" horiz-adv-x="630" 
d="M247 4v223h-217v132h217v219h134v-219h219v-132h-219v-223h-134z" />
    <glyph glyph-name="bullet" unicode="&#x2022;" horiz-adv-x="406" 
d="M205 254q-39 0 -75 15t-59 50.5t-23 94.5q0 58 23 92t59 49t75 15q38 0 73 -15t57.5 -49t22.5 -92q0 -59 -22.5 -94.5t-57.5 -50.5t-73 -15z" />
    <glyph glyph-name="Lslash" unicode="&#x141;" horiz-adv-x="485" 
d="M14 216v108l373 211v-109zM83 0v703h157l-6 -641l-69 79l339 3v-144h-421z" />
    <glyph glyph-name="lslash" unicode="&#x142;" horiz-adv-x="365" 
d="M105 0v302l-98 -59v114l98 59v345h155v-252l98 60v-115l-98 -59v-395h-155z" />
    <glyph glyph-name="asciitilde" unicode="~" horiz-adv-x="672" 
d="M467 190q-30 0 -65.5 10.5t-72 24t-70.5 24t-62 10.5q-13 0 -28 -4.5t-28 -10t-22 -10.5l-47 83q12 12 29 28t42 27.5t59 11.5q30 0 65.5 -10.5t72.5 -24t71.5 -24t62.5 -10.5q20 0 41 8.5t38 17.5l46 -83q-9 -11 -27.5 -27.5t-44.5 -28.5t-60 -12z" />
    <glyph glyph-name="cent" unicode="&#xa2;" horiz-adv-x="543" 
d="M251 -116v109q-93 17 -148 89.5t-55 213.5q0 98 27 159t73 94t103 44v100h124v-93q45 -2 77.5 -8.5t56.5 -12.5l-17 -117q-29 5 -75.5 10.5t-93.5 5.5q-32 0 -50.5 -6.5t-27.5 -14.5q-16 -15 -26.5 -57.5t-10.5 -109.5q0 -53 7.5 -86.5t19 -52t21.5 -26.5q6 -4 18.5 -9.5
t32.5 -5.5q24 0 53.5 7.5t57.5 17t46 16.5l18 7l42 -110l-18.5 -11.5t-52 -24.5t-78.5 -20v-108h-124z" />
    <glyph glyph-name="dotlessi" unicode="&#x131;" horiz-adv-x="311" 
d="M78 0v588h155v-588h-155z" />
    <glyph glyph-name="dollar" unicode="$" horiz-adv-x="544" 
d="M202 -116v107q-52 7 -94.5 20.5t-68 25.5l-25.5 12l6 19t13.5 44t13.5 43.5l6 18.5l20.5 -7.5t54 -17t73 -17t78.5 -7.5q19 0 30 3.5t17 7.5q11 7 17.5 22t6.5 40t-15.5 43t-43 32.5t-65.5 29.5q-36 15 -71 32.5t-63.5 42t-45.5 59t-17 82.5q0 69 43.5 121.5t129.5 68.5
v94h124v-90q41 -3 77 -10.5t59 -13.5l23 -6l-25 -128l-19.5 3.5t-50.5 8t-66 8t-65 3.5q-19 0 -30 -3t-19 -8q-7 -5 -13.5 -15t-6.5 -33q0 -22 15.5 -37.5t42 -28.5t60.5 -27q37 -15 72.5 -33t65 -42.5t47 -60t17.5 -86.5q0 -82 -50.5 -137.5t-133.5 -72.5v-110h-124z" />
    <glyph glyph-name="uni03BC" unicode="&#xb5;" 
d="M66 -166v754h155v-346q0 -49 2 -74.5t11 -33.5q7 -6 17.5 -9t24.5 -3q20 0 42 6t43 15.5t37 20.5v424h155v-588h-99l-19 61h-6q-20 -12 -43 -25t-47 -24t-49.5 -18t-50.5 -7q-16 0 -30 4l-14 4l-5 -4l12 -157h-136z" />
    <glyph glyph-name="yen" unicode="&#xa5;" horiz-adv-x="595" 
d="M46 286v98h110l-153 319h167l123 -319h6l123 319h167l-153 -319h108v-98h-498zM216 0l1 129h-171v98h498v-98h-170l1 -129h-159z" />
    <glyph glyph-name="sterling" unicode="&#xa3;" horiz-adv-x="599" 
d="M50 0v132h92v193h-92v116h93q5 81 27.5 134.5t58.5 84.5t81.5 43.5t96.5 12.5q37 0 81.5 -7t78.5 -16l-16 -124q-43 6 -84 10t-71 4q-25 0 -40.5 -2.5t-25.5 -10.5q-11 -10 -20 -39t-11 -90h186v-116h-188v-193l254 2v-134h-501z" />
    <glyph glyph-name="thorn" unicode="&#xfe;" horiz-adv-x="629" 
d="M79 -166v927h155v-175l21 4t50 7.5t52 3.5q108 0 166 -70.5t58 -227.5q0 -97 -21 -159t-56 -96t-78.5 -47.5t-88.5 -13.5q-19 0 -46 3t-57 7v-163h-155zM337 112q19 0 31 3.5t18 8.5q9 7 17 24.5t13 56t5 110.5q0 45 -2.5 75t-7 47t-12.5 24q-7 6 -22.5 9.5t-37.5 3.5
q-26 0 -50.5 -3t-39.5 -6.5l-15 -3.5v-339q18 -4 45.5 -7t57.5 -3z" />
    <glyph glyph-name="Thorn" unicode="&#xde;" horiz-adv-x="631" 
d="M81 0l4 366l-4 337h157v-83q30 2 60.5 3t58.5 1q111 0 172 -62t61 -185q0 -77 -21.5 -127t-58.5 -78.5t-82.5 -40t-93.5 -11.5q-26 0 -48 0.5t-35 1.5l-13 1v-123h-157zM342 252q26 0 41.5 4.5t22.5 10.5q12 11 17 39t5 79q0 40 -4 59.5t-9 27t-10 11.5q-6 6 -24 10
t-50 4q-24 0 -48.5 -1.5t-44.5 -3.5v-233l31 -3.5t73 -3.5z" />
    <glyph glyph-name="germandbls" unicode="&#xdf;" horiz-adv-x="671" 
d="M385 -13q-31 0 -53 3l-22 3l13 121l13.5 -0.5t33.5 -0.5q43 0 59.5 23.5t16.5 75.5q0 35 -11.5 55t-33.5 28.5t-52 8.5h-20v118q62 5 81 24t19 63q0 25 -10.5 44t-32 29.5t-55.5 10.5q-41 0 -66.5 -27.5t-25.5 -98.5v-467h-156v455q0 71 21 121t56.5 81t80 45t90.5 14
t90 -11.5t79.5 -36t57 -62.5t21.5 -92q0 -36 -12.5 -64.5t-31 -47.5t-37.5 -29v-6q24 -9 44.5 -22.5t35 -33t23 -46t8.5 -62.5q0 -62 -20.5 -104t-53.5 -66.5t-72.5 -35t-77.5 -10.5z" />
    <glyph glyph-name="Euro" unicode="&#x20ac;" horiz-adv-x="618" 
d="M365 -13q-70 0 -126 24t-94 76.5t-54 138.5h-67v98h498v-98h-267q7 -36 17.5 -57.5t21.5 -29.5q11 -7 28 -12.5t43 -5.5q38 0 73.5 4.5t64 10t45.5 10l17 4.5l37 -114l-16 -7.5t-46.5 -17t-74.5 -17t-100 -7.5zM24 389v98h68q18 93 59.5 142.5t101 68t129.5 18.5
q26 0 64 -3.5t76.5 -9t63.5 -12.5l-17 -127q-16 2 -46.5 5.5t-65.5 6t-68 2.5q-41 0 -64.5 -4.5t-34.5 -13.5t-20 -26t-15 -47h267v-98h-498z" />
    <glyph glyph-name="eth" unicode="&#xf0;" horiz-adv-x="625" 
d="M310 -13q-95 0 -151.5 37t-80.5 97.5t-24 132.5q0 73 23.5 133.5t76 97.5t138.5 37q55 0 89.5 -13.5t56.5 -27.5l6 3q-10 29 -28 57t-41 53l-130 -45l-8 90l79 25q-11 10 -28.5 21t-34.5 20l89 69q26 -14 49.5 -30t43.5 -33l97 35l7 -94l-42 -15q25 -36 41 -87.5t24 -111
t8 -121.5q0 -99 -23.5 -173.5t-80.5 -115.5t-156 -41zM313 105q39 0 60.5 14t30 47t8.5 88q0 56 -9 89t-30.5 47t-59.5 14t-60.5 -14t-31.5 -47t-9 -89q0 -55 9 -88t31 -47t61 -14z" />
    <glyph glyph-name="itilde" unicode="&#x129;" horiz-adv-x="311" 
d="M245 656q-18 0 -40.5 7t-44.5 15.5t-40.5 15.5t-28.5 7q-8 0 -15.5 -10t-12 -20.5l-4.5 -10.5l-76 10q2 69 28.5 98.5t68.5 29.5q19 0 41 -6.5t44 -15t40.5 -15t28.5 -6.5q8 0 15 10t11.5 20l4.5 10l75 -12q-1 -68 -27 -97.5t-68 -29.5zM78 0v588h155v-588h-155z" />
    <glyph glyph-name="jcircumflex" unicode="&#x135;" horiz-adv-x="346" 
d="M39 644l-33 62l147 101h73l147 -101l-33 -62l-147 61h-7zM81 -179q-20 0 -45.5 2.5t-43.5 5l-18 2.5l16 126l14.5 -2t34.5 -4t34 -2q22 0 31.5 9t12 35t2.5 77v518h155v-519q0 -93 -27.5 -147.5t-71.5 -77.5t-94 -23z" />
    <glyph glyph-name="paragraph" unicode="&#xb6;" horiz-adv-x="735" 
d="M256 -166v338q-71 5 -122.5 31.5t-79 83t-27.5 151.5q0 102 32 159.5t91 81.5t140 24h369v-869h-155v736h-94v-736h-154z" />
    <glyph glyph-name="brokenbar" unicode="&#xa6;" horiz-adv-x="280" 
d="M81 403v371h118v-371h-118zM81 -94v363h118v-363h-118z" />
    <glyph glyph-name="backslash" unicode="\" horiz-adv-x="492" 
d="M363 -98l-167 379l-196 422h146l161 -370l201 -431h-145z" />
    <glyph glyph-name="Itilde" unicode="&#x128;" horiz-adv-x="324" 
d="M260 746q-19 0 -45 7t-52.5 15.5t-48 15.5t-30.5 7q-7 0 -13.5 -10t-10.5 -20.5l-4 -10.5l-76 10q2 68 25 97t59 29q20 0 46 -6.5t52.5 -15t48 -15t30.5 -6.5q7 0 13 10t10 20l4 10l75 -12q-1 -67 -23.5 -96t-59.5 -29zM83 0l4 324l-4 379h158l-3 -313l3 -390h-158z" />
    <glyph glyph-name="Jcircumflex" unicode="&#x134;" horiz-adv-x="363" 
d="M39 750l-33 65l150 90h73l149 -90l-33 -65l-149 53h-7zM75 -13q-22 0 -44 3t-37 5.5l-15 2.5l15 133q15 -3 41.5 -6.5t42.5 -3.5t25.5 7.5t14.5 34t5 82.5v458h157v-456q0 -97 -27 -154t-73 -81.5t-105 -24.5z" />
    <glyph glyph-name="Nacute" unicode="&#x143;" horiz-adv-x="716" 
d="M83 0v703h201l216 -514h6l-14 514h143v-703h-201l-216 515h-6l14 -515h-143zM232 750l-20 83l294 77l28 -110z" />
    <glyph glyph-name="Racute" unicode="&#x154;" horiz-adv-x="695" 
d="M83 0l4 326l-4 376q6 0 35 2.5t70 5t84 4.5t77 2q81 0 140.5 -23t91.5 -74t32 -137q0 -83 -36 -135t-106 -75v-6l153 -266h-174l-123 250l-87 2v-252h-157zM352 375q61 0 79.5 26t18.5 80q0 49 -7 70t-18 28q-9 6 -27 9t-45 3q-40 0 -65 -1.5t-48 -4.5v-203q29 -3 58 -5
t54 -2zM197 750l-20 83l294 77l28 -110z" />
    <glyph glyph-name="rcaron" unicode="&#x159;" horiz-adv-x="430" 
d="M79 0v588h96l20 -62h6l14.5 11.5t38.5 26t52 26t55 11.5q35 0 50 -5.5l15 -5.5l-12 -134l-17.5 1.5t-37.5 1.5q-25 0 -48.5 -5.5t-42.5 -13.5t-34 -17v-423h-155zM217 657l-167 105l33 61l167 -64h7l167 64l33 -61l-167 -105h-73z" />
    <glyph glyph-name="currency" unicode="&#xa4;" horiz-adv-x="653" 
d="M132 73l-79 80l61 61q-16 26 -26 60t-10 77q0 42 10 75t26 59l-61 62l80 79l62 -62q63 37 135 37q34 0 68 -10t65 -28l63 63l79 -80l-61 -61q17 -26 27 -58.5t10 -75.5t-10 -77t-26 -60l61 -61l-80 -79l-61 61q-65 -37 -135 -37q-71 0 -136 37zM330 215q66 0 97.5 32
t31.5 103t-36.5 102.5t-92.5 31.5t-93.5 -31.5t-37.5 -102.5t37.5 -103t93.5 -32z" />
    <glyph glyph-name="nacute" unicode="&#x144;" 
d="M79 0v588h99l18 -59h6q20 12 43.5 24.5t50.5 23.5t57 17.5t63 6.5q62 0 94 -28t44 -77t12 -111v-385h-155v356q0 41 -2 62t-12 33q-6 8 -16 11.5t-24 3.5q-19 0 -41.5 -6t-44 -15.5t-37.5 -20.5v-424h-155zM203 646l-22 81l293 89l31 -112z" />
    <glyph glyph-name="multiply" unicode="&#xd7;" horiz-adv-x="591" 
d="M126 29l-93 93l169 169l-170 169l93 93l170 -170l171 172l93 -93l-172 -171l169 -169l-93 -92l-168 168z" />
    <glyph glyph-name="Rcaron" unicode="&#x158;" horiz-adv-x="695" 
d="M83 0l4 326l-4 376q6 0 35 2.5t70 5t84 4.5t77 2q81 0 140.5 -23t91.5 -74t32 -137q0 -83 -36 -135t-106 -75v-6l153 -266h-174l-123 250l-87 2v-252h-157zM352 375q61 0 79.5 26t18.5 80q0 49 -7 70t-18 28q-9 6 -27 9t-45 3q-40 0 -65 -1.5t-48 -4.5v-203q29 -3 58 -5
t54 -2zM286 749l-167 100l33 61l167 -59h7l167 59l33 -61l-167 -100h-73z" />
    <glyph glyph-name="plusminus" unicode="&#xb1;" horiz-adv-x="594" 
d="M230 186v142h-200v132h200v128h134v-128h200v-132h-200v-142h-134zM30 0v132h534v-132h-534z" />
    <glyph glyph-name="logicalnot" unicode="&#xac;" horiz-adv-x="601" 
d="M441 119v107h-435v133h572v-240h-137z" />
    <glyph glyph-name="greater" unicode="&#x3e;" horiz-adv-x="670" 
d="M53 4v146l366 143v6l-366 143v146l583 -239v-106z" />
    <glyph glyph-name="less" unicode="&#x3c;" horiz-adv-x="670" 
d="M636 4l-583 239v106l583 239v-146l-366 -143v-6l366 -143v-146z" />
    <glyph glyph-name="numbersign" unicode="#" horiz-adv-x="592" 
d="M56 0l25 164h-78v132h99l16 104h-80v132h100l26 163h130l-26 -163h100l26 163h130l-26 -163h79v-132h-99l-17 -104h81v-132h-102l-25 -164h-129l25 164h-101l-25 -164h-129zM231 296h101l16 104h-100z" />
    <glyph glyph-name="underscore" unicode="_" horiz-adv-x="570" 
d="M4 -166v98h562v-98h-562z" />
    <glyph glyph-name="guilsinglleft" unicode="&#x2039;" horiz-adv-x="312" 
d="M177 78l-159 267l159 267l118 -70l-123 -194v-6l123 -194z" />
    <glyph glyph-name="guilsinglright" unicode="&#x203a;" horiz-adv-x="312" 
d="M135 78l-118 70l123 194v6l-123 194l118 70l159 -267z" />
    <glyph glyph-name="guillemotleft" unicode="&#xab;" horiz-adv-x="585" 
d="M179 74l-161 271l161 271l115 -67l-124 -201v-6l124 -201zM454 78l-159 267l159 267l114 -67l-121 -197v-6l121 -197z" />
    <glyph glyph-name="guillemotright" unicode="&#xbb;" horiz-adv-x="585" 
d="M131 78l-114 67l121 197v6l-121 197l114 67l159 -267zM406 74l-115 67l124 201v6l-124 201l115 67l161 -271z" />
    <glyph glyph-name="hbar" unicode="&#x127;" horiz-adv-x="644" 
d="M87 761h157v-220q20 10 49.5 22t63.5 21t68 9q62 0 95 -28.5t45.5 -78t12.5 -111.5v-375h-149v348q0 41 -4.5 62.5t-12.5 32.5q-5 7 -16 11t-25 4q-15 0 -36 -5.5t-42 -12.5t-35 -12.5l-14 -5.5v-422h-157v761zM-3 609v106h376v-106l-192 3z" />
    <glyph glyph-name="IJ" unicode="&#x132;" horiz-adv-x="687" 
d="M83 0l4 324l-4 379h158l-3 -313l3 -390h-158zM399 -13q-22 0 -44 3t-37 5.5l-15 2.5l15 133q15 -3 41.5 -6.5t42.5 -3.5t25.5 7.5t14.5 34t5 82.5v458h157v-456q0 -97 -27 -154t-73 -81.5t-105 -24.5z" />
    <glyph glyph-name="ij" unicode="&#x133;" horiz-adv-x="669" 
d="M78 0v588h155v-588h-155zM74 668v108h163v-108h-163zM392 -179q-20 0 -45.5 2.5t-43.5 5l-18 2.5l16 126l14.5 -2t34.5 -4t34 -2q22 0 31.5 9t12 35t2.5 77v518h155v-519q0 -93 -27.5 -147.5t-71.5 -77.5t-94 -23zM430 668v108h163v-108h-163z" />
    <glyph glyph-name="uni0156" unicode="&#x156;" horiz-adv-x="695" 
d="M83 0l4 326l-4 376q6 0 35 2.5t70 5t84 4.5t77 2q81 0 140.5 -23t91.5 -74t32 -137q0 -83 -36 -135t-106 -75v-6l153 -266h-174l-123 250l-87 2v-252h-157zM352 375q61 0 79.5 26t18.5 80q0 49 -7 70t-18 28q-9 6 -27 9t-45 3q-40 0 -65 -1.5t-48 -4.5v-203q29 -3 58 -5
t54 -2zM296 -253l-28 47q17 11 25 41.5t8 77.5v35h106v-27q0 -54 -17 -90t-42.5 -56.5t-51.5 -27.5z" />
    <glyph glyph-name="uni0157" unicode="&#x157;" horiz-adv-x="430" 
d="M79 0v588h96l20 -62h6l14.5 11.5t38.5 26t52 26t55 11.5q35 0 50 -5.5l15 -5.5l-12 -134l-17.5 1.5t-37.5 1.5q-25 0 -48.5 -5.5t-42.5 -13.5t-34 -17v-423h-155zM106 -253l-28 47q17 11 25 41.5t8 77.5v35h106v-27q0 -54 -17 -90t-42.5 -56.5t-51.5 -27.5z" />
    <glyph glyph-name="Ldotaccent" unicode="&#x13f;" horiz-adv-x="504" 
d="M325 350v134h169v-134h-169zM83 0v703h157l-6 -641l-69 79l339 3v-144h-421z" />
    <glyph glyph-name="ldot" unicode="&#x140;" horiz-adv-x="486" 
d="M320 340v144h163v-144h-163zM83 0v761h155v-761h-155z" />
    <glyph glyph-name="uni0137" unicode="&#x137;" horiz-adv-x="600" 
d="M441 0l-216 313l194 275h188l-222 -269v-5l246 -314h-190zM74 0l4 321l-4 440h155v-761h-155zM269 -253l-28 47q17 11 25 41.5t8 77.5v35h106v-27q0 -54 -17 -90t-42.5 -56.5t-51.5 -27.5z" />
    <glyph glyph-name="kgreenlandic" unicode="&#x138;" horiz-adv-x="605" 
d="M446 0h190l-246 314v5l222 269h-187l-235 -332v116zM79 0l4 321l-4 267h103l52 -112v-476h-155z" />
    <glyph glyph-name="oslash" unicode="&#xf8;" horiz-adv-x="612" 
d="M101 -39l36 75l262 554l17 38h104l-39 -80l-259 -551l-16 -36h-105zM307 -13q-97 0 -154 37.5t-81 106.5t-24 164q0 94 24 162.5t81 106t155 37.5q97 0 153 -37.5t79.5 -106t23.5 -163.5q0 -94 -23.5 -163t-79.5 -106.5t-154 -37.5zM307 105q29 0 48 8t30.5 29t16 58
t4.5 95q0 57 -5 94t-16 57.5t-30 28.5t-48 8t-48.5 -8t-31 -28.5t-16.5 -57.5t-5 -94q0 -58 5 -95t16.5 -58t31 -29t48.5 -8z" />
    <glyph glyph-name="degree" unicode="&#xb0;" horiz-adv-x="352" 
d="M176 390q-42 0 -81 16.5t-64 54.5t-25 100t25 99t64 53.5t81 16.5t81 -16.5t64 -53.5t25 -99t-25 -100t-64 -54.5t-81 -16.5zM176 506q23 0 37.5 12t14.5 43q0 30 -14.5 41.5t-37.5 11.5t-37.5 -11.5t-14.5 -41.5q0 -31 14.5 -43t37.5 -12z" />
    <glyph glyph-name="at" unicode="@" horiz-adv-x="815" 
d="M405 -61q-67 0 -131.5 23.5t-116 71t-82.5 118.5t-31 165q0 99 33 171t87.5 119.5t121.5 70.5t135 23q66 0 128 -21t111 -62t78 -101t29 -137q0 -58 -18 -108t-47.5 -87t-65.5 -57.5t-71 -20.5q-42 0 -60 25t-25 66h-4q-12 -21 -30 -42t-40.5 -35t-49.5 -14
q-19 0 -40.5 10t-41 34.5t-31.5 67.5t-12 110q0 86 19.5 133.5t58 66.5t94.5 19q26 0 55 -4t54.5 -10t41.5 -10l16 -4l-0.5 -23.5t-0.5 -58.5t-0.5 -71t-0.5 -62q0 -51 0.5 -73.5t3 -28t7.5 -5.5q15 0 38 21.5t41 61.5t18 95q0 108 -67.5 171.5t-187.5 63.5
q-81 0 -145 -31.5t-101.5 -95t-37.5 -159.5t37.5 -162.5t99.5 -101t134 -34.5q18 0 40 3.5t38.5 6.5l16.5 3l11 -84l-32.5 -8.5t-76.5 -8.5zM366 209q18 0 35.5 21.5t32 56.5t23.5 76t9 81l-20 3t-47 3q-32 0 -42 -13q-8 -11 -12.5 -37t-4.5 -67q0 -66 7 -95t19 -29z" />
    <glyph glyph-name="percent" unicode="%" horiz-adv-x="823" 
d="M142 -9l227 415l157 327h137l-205 -390l-178 -352h-138zM201 390q-42 0 -81 16.5t-64 54.5t-25 100t25 99t64 53.5t81 16.5t81 -16.5t64 -53.5t25 -99t-25 -100t-64 -54.5t-81 -16.5zM201 506q23 0 37.5 12t14.5 43q0 30 -14.5 41.5t-37.5 11.5t-37.5 -11.5t-14.5 -41.5
q0 -31 14.5 -43t37.5 -12zM622 -13q-42 0 -81 16.5t-64 54.5t-25 100t25 99t64 53.5t81 16.5t81 -16.5t64 -53.5t25 -99t-25 -100t-64 -54.5t-81 -16.5zM622 103q23 0 37.5 12t14.5 43q0 30 -14.5 41.5t-37.5 11.5t-37.5 -11.5t-14.5 -41.5q0 -31 14.5 -43t37.5 -12z" />
    <glyph glyph-name="section" unicode="&#xa7;" horiz-adv-x="584" 
d="M268 -93q-45 0 -87 9t-75.5 21.5t-53.5 21.5l-20 9l43 127l22 -8.5t57 -20t73 -20t69 -8.5q33 0 40 5t13.5 14.5t6.5 22.5q0 22 -21 35.5t-54 24.5t-71 22q-41 13 -80.5 30.5t-65 48.5t-25.5 83q0 39 16 71t47 54q-21 20 -31.5 45t-10.5 54q0 78 66.5 122.5t175.5 44.5
q62 0 110.5 -11.5t67.5 -18.5l-27 -128l-16 4t-42.5 10t-56.5 10t-59 4q-10 0 -28 -1.5t-27 -7.5q-8 -5 -10.5 -15.5t-2.5 -15.5q0 -23 25.5 -37.5t65 -25t81.5 -22.5q40 -11 76 -28t59 -46t23 -77q0 -42 -18 -68.5t-45 -45.5q20 -25 24.5 -55t4.5 -41q0 -51 -21 -87.5
t-56 -59.5t-77 -34t-85 -11zM373 256q7 7 10.5 16.5t3.5 17.5q0 20 -21 31.5t-53 22.5q-53 19 -73.5 25.5t-32.5 10.5q-6 -8 -12 -21.5t-6 -24.5q0 -7 6 -14t24 -14.5t54 -19.5q26 -8 49 -14.5t51 -15.5z" />
    <glyph glyph-name="uni00AD" unicode="&#xad;" horiz-adv-x="287" 
d="M17 261v132h258v-132h-258z" />
    <glyph glyph-name="asciicircum" unicode="^" horiz-adv-x="526" 
d="M181 312l-145 12l153 382h148l153 -382l-145 -12l-79 265h-6z" />
    <glyph glyph-name="uni0237" unicode="&#x237;" horiz-adv-x="346" 
d="M69 -179q-20 0 -45.5 2.5t-43.5 5l-18 2.5l16 126l14.5 -2t34.5 -4t34 -2q22 0 31.5 9t12 35t2.5 77v518h155v-519q0 -93 -27.5 -147.5t-71.5 -77.5t-94 -23z" />
    <glyph glyph-name="agrave" unicode="&#xe0;" horiz-adv-x="622" 
d="M222 -13q-48 0 -86.5 22.5t-61.5 65.5t-23 104q0 73 33 114.5t93 59.5t142 18h75q0 43 -4 61t-9 26q-4 7 -15.5 13t-46.5 6q-36 0 -74.5 -6t-71.5 -14t-54 -14l-21 -6l-32 112l20.5 8t56 18t81 18t96.5 8q86 0 136 -26.5t71.5 -76t21.5 -118.5v-380h-98l-20 65h-6
l-17.5 -12t-46.5 -27t-65 -27t-74 -12zM267 114q28 0 57.5 9.5t49.5 19l20 9.5v104l-24 2.5t-62 2.5q-66 0 -82 -15q-7 -6 -12 -20.5t-5 -40.5q0 -37 13.5 -54t44.5 -17zM454 646l-305 58l26 112l298 -87z" />
    <glyph glyph-name="uni00B9" unicode="&#xb9;" horiz-adv-x="406" 
d="M65 298v106h99v177h-4l-74 -54l-59 86l162 100l94 -7v-302h85v-106h-303z" />
    <glyph glyph-name="uni00B2" unicode="&#xb2;" horiz-adv-x="412" 
d="M63 298v76l92 111q31 38 47 58t21.5 30.5t5.5 17.5t-5 11.5t-16 4.5q-15 0 -38 -7t-46 -17.5t-39 -19.5l-44 102q15 8 40.5 19.5t60 20.5t75.5 9q35 0 65 -14.5t48.5 -40.5t18.5 -62q0 -39 -18 -70.5t-41 -57.5l-62 -69v-3l134 7v-106h-299z" />
    <glyph glyph-name="uni00B3" unicode="&#xb3;" horiz-adv-x="384" 
d="M194 290q-39 0 -76 7t-61.5 14l-24.5 7l27 101l14 -3t35.5 -7.5t43.5 -7.5t38 -3q12 0 17 7.5t5 20.5q0 17 -7 26t-28 9h-83v89q54 4 77 8.5t28 11t5 15.5q0 15 -3 18q-2 2 -10.5 3.5t-27.5 1.5q-16 0 -43 -2.5t-56 -6.5l-12 102q18 3 41.5 6t46.5 5t37 2q65 0 107 -26.5
t42 -90.5q0 -25 -6 -40t-15.5 -23.5t-19.5 -15.5v-4q11 -5 23.5 -15.5t21 -27.5t8.5 -44q0 -38 -13.5 -69t-45 -49.5t-85.5 -18.5z" />
    <glyph glyph-name="onequarter" unicode="&#xbc;" horiz-adv-x="1031" 
d="M270 -9l229 415l158 327h144l-207 -390l-179 -352h-145zM65 298v106h99v177h-4l-74 -54l-59 86l162 100l94 -7v-302h85v-106h-303zM825 0l1 75h-198v86l107 271l107 -11l-93 -239v-4l78 1l14 140h101v-140l44 1v-105h-44v-75h-117z" />
    <glyph glyph-name="onehalf" unicode="&#xbd;" horiz-adv-x="1028" 
d="M267 -9l229 415l158 327h144l-207 -390l-179 -352h-145zM65 298v106h99v177h-4l-74 -54l-59 86l162 100l94 -7v-302h85v-106h-303zM671 0v78l10.5 12t27 30.5t34.5 39t33 37.5q29 32 43 50.5t18.5 28.5t4.5 17t-5 11.5t-16 4.5q-15 0 -38 -7t-46 -17.5t-39 -19.5l-44 102
q15 8 41.5 19.5t61.5 20.5t73 9q35 0 65 -14.5t48.5 -40.5t18.5 -62q0 -39 -23 -76.5t-49 -67.5q-5 -6 -13 -14.5t-15.5 -17t-12.5 -14l-5 -5.5v-2l131 4v-106h-304z" />
    <glyph glyph-name="threequarters" unicode="&#xbe;" horiz-adv-x="953" 
d="M199 -9l229 415l158 327h144l-207 -390l-179 -352h-145zM192 290q-39 0 -76 7t-61.5 14l-24.5 7l27 101l14 -3t35.5 -7.5t43.5 -7.5t38 -3q12 0 17 7.5t5 20.5q0 17 -7 26t-28 9h-83v89q54 4 77 8.5t28 11t5 15.5q0 15 -3 18q-2 2 -10.5 3.5t-27.5 1.5q-16 0 -43 -2.5
t-56 -6.5l-12 102q18 3 41.5 6t46.5 5t37 2q65 0 107 -26.5t42 -90.5q0 -25 -6 -40t-15.5 -23.5t-19.5 -15.5v-4q11 -5 23.5 -15.5t21 -27.5t8.5 -44q0 -38 -13.5 -69t-45 -49.5t-85.5 -18.5zM746 0l1 75h-198v86l107 271l107 -11l-93 -239v-4l78 1l14 140h101v-140l44 1
v-105h-44v-75h-117z" />
    <glyph glyph-name="ordfeminine" unicode="&#xaa;" horiz-adv-x="437" 
d="M141 289q-49 0 -81.5 33t-32.5 104q0 47 21.5 75.5t59 41t84.5 12.5h30h30.5h13.5q0 23 -4.5 35.5t-19.5 17.5t-46 5q-29 0 -59 -6t-50.5 -12.5l-20.5 -6.5l-26 95l16 4.5t41.5 10.5t54 10.5t52.5 4.5q96 0 136.5 -42.5t40.5 -113.5v-259h-84l-19 38h-4l-20.5 -11.5
t-51.5 -23.5t-61 -12zM178 389q21 0 41 5.5t33.5 11l13.5 5.5v51l-15.5 0.5t-43.5 0.5q-20 0 -31 -1.5t-17 -4.5q-7 -4 -11.5 -12t-4.5 -19q0 -19 8.5 -28t26.5 -9z" />
    <glyph glyph-name="ordmasculine" unicode="&#xba;" horiz-adv-x="378" 
d="M188 289q-70 0 -111 26t-58.5 73.5t-17.5 112.5q0 66 17.5 114t58.5 73.5t111 25.5q73 0 114 -25.5t58 -73.5t17 -114q0 -65 -17 -112.5t-58 -73.5t-114 -26zM188 396q23 0 36.5 8t20 30.5t6.5 66.5q0 46 -6.5 68.5t-20 30.5t-36.5 8q-21 0 -34.5 -8t-19.5 -30.5
t-6 -68.5q0 -44 6 -66.5t19.5 -30.5t34.5 -8z" />
    <glyph glyph-name="ccedilla" unicode="&#xe7;" horiz-adv-x="543" 
d="M285 -179q-34 0 -60.5 4.5l-26.5 4.5v87l12.5 -1t30 -2.5t32.5 -1.5q23 0 34.5 5t11.5 25q0 23 -5 48.5t-6 29.5l76 20q1 -1 6 -16.5t10.5 -39.5t5.5 -52q0 -51 -31.5 -81t-89.5 -30zM314 -13q-78 0 -138 31.5t-94 99.5t-34 178q0 91 23 150.5t63.5 93t93.5 47.5t112 14
q56 0 101.5 -8t67.5 -14l-17 -117q-29 5 -75.5 10.5t-87.5 5.5q-42 0 -59.5 -6.5t-26.5 -15.5q-18 -19 -27.5 -59t-9.5 -101q0 -58 7.5 -92.5t19 -52.5t21.5 -26q6 -4 18.5 -9.5t34.5 -5.5q24 0 53.5 7.5t57.5 17t46 16.5l18 7l42 -110l-25.5 -15.5t-72.5 -30.5t-112 -15z
" />
    <glyph glyph-name="Ccedilla" unicode="&#xc7;" horiz-adv-x="618" 
d="M298 -179q-34 0 -60.5 4.5l-26.5 4.5v87l12.5 -1t30 -2.5t32.5 -1.5q23 0 34.5 5t11.5 25q0 23 -5 48.5t-6 29.5l76 20q1 -1 6 -16.5t10.5 -39.5t5.5 -52q0 -51 -31.5 -81t-89.5 -30zM339 -13q-84 0 -149 35.5t-102.5 114t-37.5 208.5q0 115 22.5 188t63.5 112.5t96 55
t119 15.5q26 0 64 -3.5t76.5 -9t63.5 -12.5l-17 -128q-12 2 -37 4t-54 5t-53.5 4.5t-36.5 1.5q-41 0 -64.5 -4.5t-34.5 -13.5q-13 -10 -23 -34.5t-16 -68.5t-6 -115q0 -88 16 -138.5t33 -63.5q11 -8 28 -13t43 -5q32 0 67.5 8t66.5 18.5t51 18.5l20 8l45 -119l-18 -10.5
t-51 -24t-77.5 -24t-97.5 -10.5z" />
    <glyph glyph-name="Abreve" unicode="&#x102;" horiz-adv-x="573" 
d="M-11 0l193 703h204l193 -703h-162l-54 224l87 -68h-332l87 68l-54 -224h-162zM202 220l-54 68h272l-54 -68l-95 405l86 -68h-146l86 68zM287 747q-50 0 -93 15.5t-70 51.5t-32 97l80 7q10 -43 39 -57.5t76 -14.5t76 14.5t39 57.5l80 -7q-5 -61 -32.5 -97t-69.5 -51.5
t-93 -15.5z" />
    <glyph glyph-name="uni1EAE" unicode="&#x1eae;" horiz-adv-x="573" 
d="M-11 0l193 703h204l193 -703h-162l-54 224l87 -68h-332l87 68l-54 -224h-162zM202 220l-54 68h272l-54 -68l-95 405l86 -68h-146l86 68zM287 747q-50 0 -93 15.5t-70 51.5t-32 97l80 7q10 -43 39 -57.5t76 -14.5t76 14.5t39 57.5l80 -7q-5 -61 -32.5 -97t-69.5 -51.5
t-93 -15.5zM161 943l-20 83l294 77l28 -110z" />
    <glyph glyph-name="uni1EB6" unicode="&#x1eb6;" horiz-adv-x="573" 
d="M208 -166v108h158v-108h-158zM287 743q-50 0 -93 15.5t-70 51.5t-32 97l80 7q10 -43 39 -57.5t76 -14.5t76 14.5t39 57.5l80 -7q-5 -61 -32.5 -97t-69.5 -51.5t-93 -15.5zM-11 0l193 703h204l193 -703h-162l-54 224l87 -68h-332l87 68l-54 -224h-162zM202 220l-54 68h272
l-54 -68l-95 405l86 -68h-146l86 68z" />
    <glyph glyph-name="uni1EB0" unicode="&#x1eb0;" horiz-adv-x="573" 
d="M-11 0l193 703h204l193 -703h-162l-54 224l87 -68h-332l87 68l-54 -224h-162zM202 220l-54 68h272l-54 -68l-95 405l86 -68h-146l86 68zM287 747q-50 0 -93 15.5t-70 51.5t-32 97l80 7q10 -43 39 -57.5t76 -14.5t76 14.5t39 57.5l80 -7q-5 -61 -32.5 -97t-69.5 -51.5
t-93 -15.5zM434 944l-308 42l20 113l302 -71z" />
    <glyph glyph-name="uni1EB2" unicode="&#x1eb2;" horiz-adv-x="573" 
d="M-11 0l193 703h204l193 -703h-162l-54 224l87 -68h-332l87 68l-54 -224h-162zM202 220l-54 68h272l-54 -68l-95 405l86 -68h-146l86 68zM287 747q-50 0 -93 15.5t-70 51.5t-32 97l80 7q10 -43 39 -57.5t76 -14.5t76 14.5t39 57.5l80 -7q-5 -61 -32.5 -97t-69.5 -51.5
t-93 -15.5zM475 942v92q23 2 40 3t39 1q71 0 97 -22.5t26 -58.5q0 -28 -11 -51.5t-41.5 -50.5t-87.5 -64l-60 53q35 27 56.5 44.5t21.5 29.5q0 24 -47 24h-33z" />
    <glyph glyph-name="uni1EB4" unicode="&#x1eb4;" horiz-adv-x="573" 
d="M-11 0l193 703h204l193 -703h-162l-54 224l87 -68h-332l87 68l-54 -224h-162zM202 220l-54 68h272l-54 -68l-95 405l86 -68h-146l86 68zM287 747q-50 0 -93 15.5t-70 51.5t-32 97l80 7q10 -43 39 -57.5t76 -14.5t76 14.5t39 57.5l80 -7q-5 -61 -32.5 -97t-69.5 -51.5
t-93 -15.5zM406 943q-22 0 -52.5 7t-61.5 15.5t-55.5 15.5t-34.5 7q-8 0 -15.5 -10t-12 -20.5l-4.5 -10.5l-76 10q2 68 28.5 97t68.5 29q23 0 53 -6.5t61 -15t55.5 -15t34.5 -6.5q8 0 15 10t11.5 20l4.5 10l75 -12q-1 -67 -27 -96t-68 -29z" />
    <glyph glyph-name="uni01CD" unicode="&#x1cd;" horiz-adv-x="573" 
d="M-11 0l193 703h204l193 -703h-162l-54 224l87 -68h-332l87 68l-54 -224h-162zM202 220l-54 68h272l-54 -68l-95 405l86 -68h-146l86 68zM250 749l-167 100l33 61l167 -59h7l167 59l33 -61l-167 -100h-73z" />
    <glyph glyph-name="uni1EA4" unicode="&#x1ea4;" horiz-adv-x="573" 
d="M-11 0l193 703h204l193 -703h-162l-54 224l87 -68h-332l87 68l-54 -224h-162zM202 220l-54 68h272l-54 -68l-95 405l86 -68h-146l86 68zM115 740l-33 61l167 100h73l167 -100l-33 -61l-167 59h-7zM153 913l-20 83l294 77l28 -110z" />
    <glyph glyph-name="uni1EAC" unicode="&#x1eac;" horiz-adv-x="573" 
d="M-11 0l193 703h204l193 -703h-162l-54 224l87 -68h-332l87 68l-54 -224h-162zM202 220l-54 68h272l-54 -68l-95 405l86 -68h-146l86 68zM115 724l-33 61l167 100h73l167 -100l-33 -61l-167 59h-7zM203 -157v108h158v-108h-158z" />
    <glyph glyph-name="uni1EA6" unicode="&#x1ea6;" horiz-adv-x="573" 
d="M-11 0l193 703h204l193 -703h-162l-54 224l87 -68h-332l87 68l-54 -224h-162zM202 220l-54 68h272l-54 -68l-95 405l86 -68h-146l86 68zM115 740l-33 61l167 100h73l167 -100l-33 -61l-167 59h-7zM426 914l-308 42l20 113l302 -71z" />
    <glyph glyph-name="uni1EA8" unicode="&#x1ea8;" horiz-adv-x="573" 
d="M-11 0l193 703h204l193 -703h-162l-54 224l87 -68h-332l87 68l-54 -224h-162zM202 220l-54 68h272l-54 -68l-95 405l86 -68h-146l86 68zM116 752l-33 61l167 105h73l167 -105l-33 -61l-167 64h-7zM410 1004v92q23 2 40 3t39 1q71 0 97 -22.5t26 -58.5q0 -28 -11 -51.5
t-41.5 -50.5t-87.5 -64l-60 53q35 27 56.5 44.5t21.5 29.5q0 24 -47 24h-33z" />
    <glyph glyph-name="uni1EAA" unicode="&#x1eaa;" horiz-adv-x="573" 
d="M-11 0l193 703h204l193 -703h-162l-54 224l87 -68h-332l87 68l-54 -224h-162zM202 220l-54 68h272l-54 -68l-95 405l86 -68h-146l86 68zM115 740l-33 61l167 100h73l167 -100l-33 -61l-167 59h-7zM398 913q-22 0 -52.5 7t-61.5 15.5t-55.5 15.5t-34.5 7q-8 0 -15.5 -10
t-12 -20.5l-4.5 -10.5l-76 10q2 68 28.5 97t68.5 29q23 0 53 -6.5t61 -15t55.5 -15t34.5 -6.5q8 0 15 10t11.5 20l4.5 10l75 -12q-1 -67 -27 -96t-68 -29z" />
    <glyph glyph-name="uni01DE" unicode="&#x1de;" horiz-adv-x="573" 
d="M-11 0l193 703h204l193 -703h-162l-54 224l87 -68h-332l87 68l-54 -224h-162zM202 220l-54 68h272l-54 -68l-95 405l86 -68h-146l86 68zM95 761v108h147v-108h-147zM320 761v108h147v-108h-147zM91 932v96h392v-96h-392z" />
    <glyph glyph-name="uni1EA0" unicode="&#x1ea0;" horiz-adv-x="573" 
d="M-11 0l193 703h204l193 -703h-162l-54 224l87 -68h-332l87 68l-54 -224h-162zM202 220l-54 68h272l-54 -68l-95 405l86 -68h-146l86 68zM203 -157v108h158v-108h-158z" />
    <glyph glyph-name="uni1EA2" unicode="&#x1ea2;" horiz-adv-x="573" 
d="M-11 0l193 703h204l193 -703h-162l-54 224l87 -68h-332l87 68l-54 -224h-162zM202 220l-54 68h272l-54 -68l-95 405l86 -68h-146l86 68zM233 880v92q23 2 40 3t39 1q71 0 97 -22.5t26 -58.5q0 -28 -11 -51.5t-41.5 -50.5t-87.5 -64l-60 53q35 27 56.5 44.5t21.5 29.5
q0 24 -47 24h-33z" />
    <glyph glyph-name="Amacron" unicode="&#x100;" horiz-adv-x="573" 
d="M-11 0l193 703h204l193 -703h-162l-54 224l87 -68h-332l87 68l-54 -224h-162zM202 220l-54 68h272l-54 -68l-95 405l86 -68h-146l86 68zM91 775v96h392v-96h-392z" />
    <glyph glyph-name="Aogonek" unicode="&#x104;" horiz-adv-x="573" 
d="M-11 0l193 703h204l193 -703h-162l-54 224l87 -68h-332l87 68l-54 -224h-162zM202 220l-54 68h272l-54 -68l-95 405l86 -68h-146l86 68zM491 -179q-49 0 -75.5 20.5t-26.5 61.5q0 23 11 44t33.5 40t56.5 34l81 -20q-45 -14 -70 -31.5t-25 -35.5q0 -12 12.5 -17t33.5 -5
q16 0 33 2l17 2v-86l-23 -4.5t-58 -4.5z" />
    <glyph glyph-name="Cacute" unicode="&#x106;" horiz-adv-x="618" 
d="M339 -13q-84 0 -149 35.5t-102.5 114t-37.5 208.5q0 115 22.5 188t63.5 112.5t96 55t119 15.5q26 0 64 -3.5t76.5 -9t63.5 -12.5l-17 -128q-12 2 -37 4t-54 5t-53.5 4.5t-36.5 1.5q-41 0 -64.5 -4.5t-34.5 -13.5q-13 -10 -23 -34.5t-16 -68.5t-6 -115q0 -88 16 -138.5
t33 -63.5q11 -8 28 -13t43 -5q32 0 67.5 8t66.5 18.5t51 18.5l20 8l45 -119l-18 -10.5t-51 -24t-77.5 -24t-97.5 -10.5zM219 750l-20 83l294 77l28 -110z" />
    <glyph glyph-name="Ccaron" unicode="&#x10c;" horiz-adv-x="618" 
d="M339 -13q-84 0 -149 35.5t-102.5 114t-37.5 208.5q0 115 22.5 188t63.5 112.5t96 55t119 15.5q26 0 64 -3.5t76.5 -9t63.5 -12.5l-17 -128q-12 2 -37 4t-54 5t-53.5 4.5t-36.5 1.5q-41 0 -64.5 -4.5t-34.5 -13.5q-13 -10 -23 -34.5t-16 -68.5t-6 -115q0 -88 16 -138.5
t33 -63.5q11 -8 28 -13t43 -5q32 0 67.5 8t66.5 18.5t51 18.5l20 8l45 -119l-18 -10.5t-51 -24t-77.5 -24t-97.5 -10.5zM308 749l-167 100l33 61l167 -59h7l167 59l33 -61l-167 -100h-73z" />
    <glyph glyph-name="Cdotaccent" unicode="&#x10a;" horiz-adv-x="618" 
d="M339 -13q-84 0 -149 35.5t-102.5 114t-37.5 208.5q0 115 22.5 188t63.5 112.5t96 55t119 15.5q26 0 64 -3.5t76.5 -9t63.5 -12.5l-17 -128q-12 2 -37 4t-54 5t-53.5 4.5t-36.5 1.5q-41 0 -64.5 -4.5t-34.5 -13.5q-13 -10 -23 -34.5t-16 -68.5t-6 -115q0 -88 16 -138.5
t33 -63.5q11 -8 28 -13t43 -5q32 0 67.5 8t66.5 18.5t51 18.5l20 8l45 -119l-18 -10.5t-51 -24t-77.5 -24t-97.5 -10.5zM266 761v108h158v-108h-158z" />
    <glyph glyph-name="Dcaron" unicode="&#x10e;" horiz-adv-x="673" 
d="M322 -13q-36 0 -74 1.5t-72.5 4t-59 5t-33.5 3.5v702q15 1 43 3t63.5 4.5t73 4t69.5 1.5q91 0 148.5 -28t88.5 -77t42.5 -113.5t11.5 -137.5q0 -139 -38 -221t-105.5 -117t-157.5 -35zM330 122q35 0 55 5.5t29 13.5q12 10 22.5 33.5t17 69t6.5 120.5q0 76 -10 130t-33 70
q-7 5 -24.5 11t-58.5 6q-49 0 -72.5 -3t-42.5 -7l20 74v-588l-20 73q21 -3 43.5 -5.5t67.5 -2.5zM300 749l-167 100l33 61l167 -59h7l167 59l33 -61l-167 -100h-73z" />
    <glyph glyph-name="uni1E12" unicode="&#x1e12;" horiz-adv-x="673" 
d="M322 -13q-36 0 -74 1.5t-72.5 4t-59 5t-33.5 3.5v702q15 1 43 3t63.5 4.5t73 4t69.5 1.5q91 0 148.5 -28t88.5 -77t42.5 -113.5t11.5 -137.5q0 -139 -38 -221t-105.5 -117t-157.5 -35zM330 122q35 0 55 5.5t29 13.5q12 10 22.5 33.5t17 69t6.5 120.5q0 76 -10 130t-33 70
q-7 5 -24.5 11t-58.5 6q-49 0 -72.5 -3t-42.5 -7l20 74v-588l-20 73q21 -3 43.5 -5.5t67.5 -2.5zM131 -219l-33 61l167 105h73l167 -105l-33 -61l-167 64h-7z" />
    <glyph glyph-name="Dcroat" unicode="&#x110;" horiz-adv-x="686" 
d="M30 301v112h344v-112h-344zM335 -13q-36 0 -74 1.5t-72.5 4t-59 5t-33.5 3.5v702q15 1 43 3t63.5 4.5t73 4t69.5 1.5q91 0 148.5 -28t88.5 -77t42.5 -113.5t11.5 -137.5q0 -139 -38 -221t-105.5 -117t-157.5 -35zM343 122q35 0 55 5.5t29 13.5q12 10 22.5 33.5t17 69
t6.5 120.5q0 76 -10 130t-33 70q-7 5 -24.5 11t-58.5 6q-49 0 -72.5 -3t-42.5 -7l20 74v-588l-20 73q21 -3 43.5 -5.5t67.5 -2.5z" />
    <glyph glyph-name="Ecaron" unicode="&#x11a;" horiz-adv-x="551" 
d="M83 0v703h422v-134l-335 4l72 69l-9 -290l-68 70h315v-131h-315l68 70l9 -299l-72 69l335 3v-134h-422zM261 749l-167 100l33 61l167 -59h7l167 59l33 -61l-167 -100h-73z" />
    <glyph glyph-name="uni1EBE" unicode="&#x1ebe;" horiz-adv-x="551" 
d="M83 0v703h422v-134l-335 4l72 69l-9 -290l-68 70h315v-131h-315l68 70l9 -299l-72 69l335 3v-134h-422zM126 740l-33 61l167 100h73l167 -100l-33 -61l-167 59h-7zM164 913l-20 83l294 77l28 -110z" />
    <glyph glyph-name="uni1EC6" unicode="&#x1ec6;" horiz-adv-x="551" 
d="M83 0v703h422v-134l-335 4l72 69l-9 -290l-68 70h315v-131h-315l68 70l9 -299l-72 69l335 3v-134h-422zM203 -157v108h158v-108h-158zM115 724l-33 61l167 100h73l167 -100l-33 -61l-167 59h-7z" />
    <glyph glyph-name="uni1EC0" unicode="&#x1ec0;" horiz-adv-x="551" 
d="M83 0v703h422v-134l-335 4l72 69l-9 -290l-68 70h315v-131h-315l68 70l9 -299l-72 69l335 3v-134h-422zM126 740l-33 61l167 100h73l167 -100l-33 -61l-167 59h-7zM437 914l-308 42l20 113l302 -71z" />
    <glyph glyph-name="uni1EC2" unicode="&#x1ec2;" horiz-adv-x="551" 
d="M83 0v703h422v-134l-335 4l72 69l-9 -290l-68 70h315v-131h-315l68 70l9 -299l-72 69l335 3v-134h-422zM127 752l-33 61l167 105h73l167 -105l-33 -61l-167 64h-7zM421 1004v92q23 2 40 3t39 1q71 0 97 -22.5t26 -58.5q0 -28 -11 -51.5t-41.5 -50.5t-87.5 -64l-60 53
q35 27 56.5 44.5t21.5 29.5q0 24 -47 24h-33z" />
    <glyph glyph-name="uni1EC4" unicode="&#x1ec4;" horiz-adv-x="551" 
d="M83 0v703h422v-134l-335 4l72 69l-9 -290l-68 70h315v-131h-315l68 70l9 -299l-72 69l335 3v-134h-422zM126 740l-33 61l167 100h73l167 -100l-33 -61l-167 59h-7zM409 913q-22 0 -52.5 7t-61.5 15.5t-55.5 15.5t-34.5 7q-8 0 -15.5 -10t-12 -20.5l-4.5 -10.5l-76 10
q2 68 28.5 97t68.5 29q23 0 53 -6.5t61 -15t55.5 -15t34.5 -6.5q8 0 15 10t11.5 20l4.5 10l75 -12q-1 -67 -27 -96t-68 -29z" />
    <glyph glyph-name="Edotaccent" unicode="&#x116;" horiz-adv-x="551" 
d="M83 0v703h422v-134l-335 4l72 69l-9 -290l-68 70h315v-131h-315l68 70l9 -299l-72 69l335 3v-134h-422zM219 761v108h158v-108h-158z" />
    <glyph glyph-name="uni1EB8" unicode="&#x1eb8;" horiz-adv-x="551" 
d="M83 0v703h422v-134l-335 4l72 69l-9 -290l-68 70h315v-131h-315l68 70l9 -299l-72 69l335 3v-134h-422zM211 -157v108h158v-108h-158z" />
    <glyph glyph-name="uni1EBA" unicode="&#x1eba;" horiz-adv-x="551" 
d="M83 0v703h422v-134l-335 4l72 69l-9 -290l-68 70h315v-131h-315l68 70l9 -299l-72 69l335 3v-134h-422zM223 880v92q23 2 40 3t39 1q71 0 97 -22.5t26 -58.5q0 -28 -11 -51.5t-41.5 -50.5t-87.5 -64l-60 53q35 27 56.5 44.5t21.5 29.5q0 24 -47 24h-33z" />
    <glyph glyph-name="Emacron" unicode="&#x112;" horiz-adv-x="551" 
d="M83 0v703h422v-134l-335 4l72 69l-9 -290l-68 70h315v-131h-315l68 70l9 -299l-72 69l335 3v-134h-422zM102 775v96h392v-96h-392z" />
    <glyph glyph-name="Eogonek" unicode="&#x118;" horiz-adv-x="551" 
d="M83 0v703h422v-134l-335 4l72 69l-9 -290l-68 70h315v-131h-315l68 70l9 -299l-72 69l335 3v-134h-422zM425 -179q-49 0 -75.5 20.5t-26.5 61.5q0 23 11 44t33.5 40t56.5 34l81 -20q-45 -14 -70 -31.5t-25 -35.5q0 -12 12.5 -17t33.5 -5q16 0 33 2l17 2v-86l-23 -4.5
t-58 -4.5z" />
    <glyph glyph-name="uni1EBC" unicode="&#x1ebc;" horiz-adv-x="551" 
d="M83 0v703h422v-134l-335 4l72 69l-9 -290l-68 70h315v-131h-315l68 70l9 -299l-72 69l335 3v-134h-422zM417 750q-22 0 -52.5 7t-61.5 15.5t-55.5 15.5t-34.5 7q-8 0 -15.5 -10t-12 -20.5l-4.5 -10.5l-76 10q2 68 28.5 97t68.5 29q23 0 53 -6.5t61 -15t55.5 -15
t34.5 -6.5q8 0 15 10t11.5 20l4.5 10l75 -12q-1 -67 -27 -96t-68 -29z" />
    <glyph glyph-name="Gbreve" unicode="&#x11e;" horiz-adv-x="654" 
d="M349 -13q-60 0 -114 15t-95.5 54t-65.5 111t-24 187q0 113 22.5 184t64.5 110t100.5 53.5t129.5 14.5q34 0 74.5 -4t78.5 -10t62 -12l-18 -127q-40 5 -95 10t-108 5q-46 0 -70.5 -4.5t-35.5 -14.5q-16 -14 -29 -61.5t-13 -144.5q0 -74 8 -116.5t18.5 -62.5t17.5 -28
q9 -8 32 -16t68 -8q22 0 40.5 1.5t32.5 4.5v217l70 -75l-172 12v113h255v-362l-31.5 -11.5t-84.5 -23t-118 -11.5zM353 747q-50 0 -93 15.5t-70 51.5t-32 97l80 7q10 -43 39 -57.5t76 -14.5t76 14.5t39 57.5l80 -7q-5 -61 -32.5 -97t-69.5 -51.5t-93 -15.5z" />
    <glyph glyph-name="Gcaron" unicode="&#x1e6;" horiz-adv-x="654" 
d="M349 -13q-60 0 -114 15t-95.5 54t-65.5 111t-24 187q0 113 22.5 184t64.5 110t100.5 53.5t129.5 14.5q34 0 74.5 -4t78.5 -10t62 -12l-18 -127q-40 5 -95 10t-108 5q-46 0 -70.5 -4.5t-35.5 -14.5q-16 -14 -29 -61.5t-13 -144.5q0 -74 8 -116.5t18.5 -62.5t17.5 -28
q9 -8 32 -16t68 -8q22 0 40.5 1.5t32.5 4.5v217l70 -75l-172 12v113h255v-362l-31.5 -11.5t-84.5 -23t-118 -11.5zM316 749l-167 100l33 61l167 -59h7l167 59l33 -61l-167 -100h-73z" />
    <glyph glyph-name="uni0122" unicode="&#x122;" horiz-adv-x="654" 
d="M349 -13q-60 0 -114 15t-95.5 54t-65.5 111t-24 187q0 113 22.5 184t64.5 110t100.5 53.5t129.5 14.5q34 0 74.5 -4t78.5 -10t62 -12l-18 -127q-40 5 -95 10t-108 5q-46 0 -70.5 -4.5t-35.5 -14.5q-16 -14 -29 -61.5t-13 -144.5q0 -74 8 -116.5t18.5 -62.5t17.5 -28
q9 -8 32 -16t68 -8q22 0 40.5 1.5t32.5 4.5v217l70 -75l-172 12v113h255v-362l-31.5 -11.5t-84.5 -23t-118 -11.5zM308 -253l-28 47q17 11 25 41.5t8 77.5v35h106v-27q0 -54 -17 -90t-42.5 -56.5t-51.5 -27.5z" />
    <glyph glyph-name="Gdotaccent" unicode="&#x120;" horiz-adv-x="654" 
d="M349 -13q-60 0 -114 15t-95.5 54t-65.5 111t-24 187q0 113 22.5 184t64.5 110t100.5 53.5t129.5 14.5q34 0 74.5 -4t78.5 -10t62 -12l-18 -127q-40 5 -95 10t-108 5q-46 0 -70.5 -4.5t-35.5 -14.5q-16 -14 -29 -61.5t-13 -144.5q0 -74 8 -116.5t18.5 -62.5t17.5 -28
q9 -8 32 -16t68 -8q22 0 40.5 1.5t32.5 4.5v217l70 -75l-172 12v113h255v-362l-31.5 -11.5t-84.5 -23t-118 -11.5zM274 761v108h158v-108h-158z" />
    <glyph glyph-name="Hbar" unicode="&#x126;" horiz-adv-x="706" 
d="M679 609v-112h-658v112h658zM83 0v703h157l-4 -329l-69 50h372l-69 -50l-4 329h157v-703h-157l4 340l69 -50h-372l69 50l4 -340h-157z" />
    <glyph glyph-name="uni01CF" unicode="&#x1cf;" horiz-adv-x="324" 
d="M83 0l4 324l-4 379h158l-3 -313l3 -390h-158zM125 749l-167 100l33 61l167 -59h7l167 59l33 -61l-167 -100h-73z" />
    <glyph glyph-name="Idotaccent" unicode="&#x130;" horiz-adv-x="324" 
d="M83 0l4 324l-4 379h158l-3 -313l3 -390h-158zM83 761v108h158v-108h-158z" />
    <glyph glyph-name="uni1ECA" unicode="&#x1eca;" horiz-adv-x="324" 
d="M83 0l4 324l-4 379h158l-3 -313l3 -390h-158zM83 -167v108h158v-108h-158z" />
    <glyph glyph-name="uni1EC8" unicode="&#x1ec8;" horiz-adv-x="324" 
d="M83 0l4 324l-4 379h158l-3 -313l3 -390h-158zM70 880v92q23 2 40 3t39 1q71 0 97 -22.5t26 -58.5q0 -28 -11 -51.5t-41.5 -50.5t-87.5 -64l-60 53q35 27 56.5 44.5t21.5 29.5q0 24 -47 24h-33z" />
    <glyph glyph-name="Imacron" unicode="&#x12a;" horiz-adv-x="324" 
d="M-16 775v96h356v-96h-356zM83 0l4 324l-4 379h158l-3 -313l3 -390h-158z" />
    <glyph glyph-name="Iogonek" unicode="&#x12e;" horiz-adv-x="324" 
d="M83 0l4 324l-4 379h158l-3 -313l3 -390h-158zM161 -179q-49 0 -75.5 20.5t-26.5 61.5q0 23 11 44t33.5 40t56.5 34l81 -20q-45 -14 -70 -31.5t-25 -35.5q0 -12 12.5 -17t33.5 -5q16 0 33 2l17 2v-86l-23 -4.5t-58 -4.5z" />
    <glyph glyph-name="uni0136" unicode="&#x136;" horiz-adv-x="664" 
d="M482 0l-239 369l229 334h182l-242 -328v-6l254 -369h-184zM83 0l3 358l-3 345h158v-703h-158zM290 -253l-28 47q17 11 25 41.5t8 77.5v35h106v-27q0 -54 -17 -90t-42.5 -56.5t-51.5 -27.5z" />
    <glyph glyph-name="Lacute" unicode="&#x139;" horiz-adv-x="504" 
d="M83 0v703h157l-6 -641l-69 79l339 3v-144h-421zM25 750l-20 83l294 77l28 -110z" />
    <glyph glyph-name="Lcaron" unicode="&#x13d;" horiz-adv-x="504" 
d="M83 0v703h157l-6 -641l-69 79l339 3v-144h-421zM125 749l-167 100l33 61l167 -59h7l167 59l33 -61l-167 -100h-73z" />
    <glyph glyph-name="uni013B" unicode="&#x13b;" horiz-adv-x="504" 
d="M83 0v703h157l-6 -641l-69 79l339 3v-144h-421zM220 -253l-28 47q17 11 25 41.5t8 77.5v35h106v-27q0 -54 -17 -90t-42.5 -56.5t-51.5 -27.5z" />
    <glyph glyph-name="Ncaron" unicode="&#x147;" horiz-adv-x="716" 
d="M83 0v703h201l216 -514h6l-14 514h143v-703h-201l-216 515h-6l14 -515h-143zM321 749l-167 100l33 61l167 -59h7l167 59l33 -61l-167 -100h-73z" />
    <glyph glyph-name="uni0145" unicode="&#x145;" horiz-adv-x="716" 
d="M83 0v703h201l216 -514h6l-14 514h143v-703h-201l-216 515h-6l14 -515h-143zM316 -253l-28 47q17 11 25 41.5t8 77.5v35h106v-27q0 -54 -17 -90t-42.5 -56.5t-51.5 -27.5z" />
    <glyph glyph-name="uni1E44" unicode="&#x1e44;" horiz-adv-x="716" 
d="M83 0v703h201l216 -514h6l-14 514h143v-703h-201l-216 515h-6l14 -515h-143zM279 761v108h158v-108h-158z" />
    <glyph glyph-name="Eng" unicode="&#x14a;" horiz-adv-x="716" 
d="M414 -99h18q12 0 21.5 5.5t9.5 14.5q0 14 -10.5 37t-18.5 42h201v-24.5v-16.5q0 -59 -22 -93t-62 -48t-94 -14h-43v97zM83 0v703h201l216 -514h6l-14 514h143v-703h-201l-216 515h-6l14 -515h-143z" />
    <glyph glyph-name="uni01D1" unicode="&#x1d1;" horiz-adv-x="700" 
d="M350 -13q-61 0 -115.5 16t-96 56t-65 111.5t-23.5 182.5t23.5 182t65 110.5t96 55t115.5 15.5q62 0 116 -15.5t95.5 -55t65 -110.5t23.5 -182t-23.5 -182.5t-65 -111.5t-95.5 -56t-116 -16zM350 125q36 0 61.5 8.5t42.5 32t25 68.5t8 118q0 72 -8 117t-24.5 68.5
t-42.5 32t-62 8.5t-62 -8.5t-42.5 -32t-24.5 -68.5t-8 -118t8 -117.5t25 -68t42.5 -32t61.5 -8.5zM313 749l-167 100l33 61l167 -59h7l167 59l33 -61l-167 -100h-73z" />
    <glyph glyph-name="uni1ED0" unicode="&#x1ed0;" horiz-adv-x="700" 
d="M350 -13q-61 0 -115.5 16t-96 56t-65 111.5t-23.5 182.5t23.5 182t65 110.5t96 55t115.5 15.5q62 0 116 -15.5t95.5 -55t65 -110.5t23.5 -182t-23.5 -182.5t-65 -111.5t-95.5 -56t-116 -16zM350 125q36 0 61.5 8.5t42.5 32t25 68.5t8 118q0 72 -8 117t-24.5 68.5
t-42.5 32t-62 8.5t-62 -8.5t-42.5 -32t-24.5 -68.5t-8 -118t8 -117.5t25 -68t42.5 -32t61.5 -8.5zM178 740l-33 61l167 100h73l167 -100l-33 -61l-167 59h-7zM216 913l-20 83l294 77l28 -110z" />
    <glyph glyph-name="uni1ED8" unicode="&#x1ed8;" horiz-adv-x="700" 
d="M350 -13q-61 0 -115.5 16t-96 56t-65 111.5t-23.5 182.5t23.5 182t65 110.5t96 55t115.5 15.5q62 0 116 -15.5t95.5 -55t65 -110.5t23.5 -182t-23.5 -182.5t-65 -111.5t-95.5 -56t-116 -16zM350 125q36 0 61.5 8.5t42.5 32t25 68.5t8 118q0 72 -8 117t-24.5 68.5
t-42.5 32t-62 8.5t-62 -8.5t-42.5 -32t-24.5 -68.5t-8 -118t8 -117.5t25 -68t42.5 -32t61.5 -8.5zM271 -157v108h158v-108h-158zM180 724l-33 61l167 100h73l167 -100l-33 -61l-167 59h-7z" />
    <glyph glyph-name="uni1ED2" unicode="&#x1ed2;" horiz-adv-x="700" 
d="M350 -13q-61 0 -115.5 16t-96 56t-65 111.5t-23.5 182.5t23.5 182t65 110.5t96 55t115.5 15.5q62 0 116 -15.5t95.5 -55t65 -110.5t23.5 -182t-23.5 -182.5t-65 -111.5t-95.5 -56t-116 -16zM350 125q36 0 61.5 8.5t42.5 32t25 68.5t8 118q0 72 -8 117t-24.5 68.5
t-42.5 32t-62 8.5t-62 -8.5t-42.5 -32t-24.5 -68.5t-8 -118t8 -117.5t25 -68t42.5 -32t61.5 -8.5zM178 740l-33 61l167 100h73l167 -100l-33 -61l-167 59h-7zM489 914l-308 42l20 113l302 -71z" />
    <glyph glyph-name="uni1ED4" unicode="&#x1ed4;" horiz-adv-x="700" 
d="M350 -13q-61 0 -115.5 16t-96 56t-65 111.5t-23.5 182.5t23.5 182t65 110.5t96 55t115.5 15.5q62 0 116 -15.5t95.5 -55t65 -110.5t23.5 -182t-23.5 -182.5t-65 -111.5t-95.5 -56t-116 -16zM350 125q36 0 61.5 8.5t42.5 32t25 68.5t8 118q0 72 -8 117t-24.5 68.5
t-42.5 32t-62 8.5t-62 -8.5t-42.5 -32t-24.5 -68.5t-8 -118t8 -117.5t25 -68t42.5 -32t61.5 -8.5zM179 752l-33 61l167 105h73l167 -105l-33 -61l-167 64h-7zM473 1004v92q23 2 40 3t39 1q71 0 97 -22.5t26 -58.5q0 -28 -11 -51.5t-41.5 -50.5t-87.5 -64l-60 53
q35 27 56.5 44.5t21.5 29.5q0 24 -47 24h-33z" />
    <glyph glyph-name="uni1ED6" unicode="&#x1ed6;" horiz-adv-x="700" 
d="M350 -13q-61 0 -115.5 16t-96 56t-65 111.5t-23.5 182.5t23.5 182t65 110.5t96 55t115.5 15.5q62 0 116 -15.5t95.5 -55t65 -110.5t23.5 -182t-23.5 -182.5t-65 -111.5t-95.5 -56t-116 -16zM350 125q36 0 61.5 8.5t42.5 32t25 68.5t8 118q0 72 -8 117t-24.5 68.5
t-42.5 32t-62 8.5t-62 -8.5t-42.5 -32t-24.5 -68.5t-8 -118t8 -117.5t25 -68t42.5 -32t61.5 -8.5zM178 740l-33 61l167 100h73l167 -100l-33 -61l-167 59h-7zM461 913q-22 0 -52.5 7t-61.5 15.5t-55.5 15.5t-34.5 7q-8 0 -15.5 -10t-12 -20.5l-4.5 -10.5l-76 10
q2 68 28.5 97t68.5 29q23 0 53 -6.5t61 -15t55.5 -15t34.5 -6.5q8 0 15 10t11.5 20l4.5 10l75 -12q-1 -67 -27 -96t-68 -29z" />
    <glyph glyph-name="uni1ECC" unicode="&#x1ecc;" horiz-adv-x="700" 
d="M350 -13q-61 0 -115.5 16t-96 56t-65 111.5t-23.5 182.5t23.5 182t65 110.5t96 55t115.5 15.5q62 0 116 -15.5t95.5 -55t65 -110.5t23.5 -182t-23.5 -182.5t-65 -111.5t-95.5 -56t-116 -16zM350 125q36 0 61.5 8.5t42.5 32t25 68.5t8 118q0 72 -8 117t-24.5 68.5
t-42.5 32t-62 8.5t-62 -8.5t-42.5 -32t-24.5 -68.5t-8 -118t8 -117.5t25 -68t42.5 -32t61.5 -8.5zM271 -157v108h158v-108h-158z" />
    <glyph glyph-name="uni1ECE" unicode="&#x1ece;" horiz-adv-x="700" 
d="M350 -13q-61 0 -115.5 16t-96 56t-65 111.5t-23.5 182.5t23.5 182t65 110.5t96 55t115.5 15.5q62 0 116 -15.5t95.5 -55t65 -110.5t23.5 -182t-23.5 -182.5t-65 -111.5t-95.5 -56t-116 -16zM350 125q36 0 61.5 8.5t42.5 32t25 68.5t8 118q0 72 -8 117t-24.5 68.5
t-42.5 32t-62 8.5t-62 -8.5t-42.5 -32t-24.5 -68.5t-8 -118t8 -117.5t25 -68t42.5 -32t61.5 -8.5zM276 880v92q23 2 40 3t39 1q71 0 97 -22.5t26 -58.5q0 -28 -11 -51.5t-41.5 -50.5t-87.5 -64l-60 53q35 27 56.5 44.5t21.5 29.5q0 24 -47 24h-33z" />
    <glyph glyph-name="Ohorn" unicode="&#x1a0;" horiz-adv-x="700" 
d="M350 -13q-61 0 -115.5 16t-96 56t-65 111.5t-23.5 182.5t23.5 182t65 110.5t96 55t115.5 15.5q62 0 116 -15.5t95.5 -55t65 -110.5t23.5 -182t-23.5 -182.5t-65 -111.5t-95.5 -56t-116 -16zM350 125q36 0 61.5 8.5t42.5 32t25 68.5t8 118q0 72 -8 117t-24.5 68.5
t-42.5 32t-62 8.5t-62 -8.5t-42.5 -32t-24.5 -68.5t-8 -118t8 -117.5t25 -68t42.5 -32t61.5 -8.5zM496 687h86q17 0 22 6t5 25q0 10 -1.5 22t-5.5 32t-11 53h123q7 -25 11 -45t4 -34q0 -52 -21.5 -84.5t-57.5 -47.5t-78 -15h-63z" />
    <glyph glyph-name="uni1EDA" unicode="&#x1eda;" horiz-adv-x="700" 
d="M350 -13q-61 0 -115.5 16t-96 56t-65 111.5t-23.5 182.5t23.5 182t65 110.5t96 55t115.5 15.5q62 0 116 -15.5t95.5 -55t65 -110.5t23.5 -182t-23.5 -182.5t-65 -111.5t-95.5 -56t-116 -16zM350 125q36 0 61.5 8.5t42.5 32t25 68.5t8 118q0 72 -8 117t-24.5 68.5
t-42.5 32t-62 8.5t-62 -8.5t-42.5 -32t-24.5 -68.5t-8 -118t8 -117.5t25 -68t42.5 -32t61.5 -8.5zM496 687h86q17 0 22 6t5 25q0 10 -1.5 22t-5.5 32t-11 53h123q7 -25 11 -45t4 -34q0 -52 -21.5 -84.5t-57.5 -47.5t-78 -15h-63zM224 750l-20 83l294 77l28 -110z" />
    <glyph glyph-name="uni1EE2" unicode="&#x1ee2;" horiz-adv-x="700" 
d="M350 -13q-61 0 -115.5 16t-96 56t-65 111.5t-23.5 182.5t23.5 182t65 110.5t96 55t115.5 15.5q62 0 116 -15.5t95.5 -55t65 -110.5t23.5 -182t-23.5 -182.5t-65 -111.5t-95.5 -56t-116 -16zM350 125q36 0 61.5 8.5t42.5 32t25 68.5t8 118q0 72 -8 117t-24.5 68.5
t-42.5 32t-62 8.5t-62 -8.5t-42.5 -32t-24.5 -68.5t-8 -118t8 -117.5t25 -68t42.5 -32t61.5 -8.5zM496 687h86q17 0 22 6t5 25q0 10 -1.5 22t-5.5 32t-11 53h123q7 -25 11 -45t4 -34q0 -52 -21.5 -84.5t-57.5 -47.5t-78 -15h-63zM271 -156v108h158v-108h-158z" />
    <glyph glyph-name="uni1EDC" unicode="&#x1edc;" horiz-adv-x="700" 
d="M350 -13q-61 0 -115.5 16t-96 56t-65 111.5t-23.5 182.5t23.5 182t65 110.5t96 55t115.5 15.5q62 0 116 -15.5t95.5 -55t65 -110.5t23.5 -182t-23.5 -182.5t-65 -111.5t-95.5 -56t-116 -16zM350 125q36 0 61.5 8.5t42.5 32t25 68.5t8 118q0 72 -8 117t-24.5 68.5
t-42.5 32t-62 8.5t-62 -8.5t-42.5 -32t-24.5 -68.5t-8 -118t8 -117.5t25 -68t42.5 -32t61.5 -8.5zM496 687h86q17 0 22 6t5 25q0 10 -1.5 22t-5.5 32t-11 53h123q7 -25 11 -45t4 -34q0 -52 -21.5 -84.5t-57.5 -47.5t-78 -15h-63zM497 751l-308 42l20 113l302 -71z" />
    <glyph glyph-name="uni1EDE" unicode="&#x1ede;" horiz-adv-x="700" 
d="M350 -13q-61 0 -115.5 16t-96 56t-65 111.5t-23.5 182.5t23.5 182t65 110.5t96 55t115.5 15.5q62 0 116 -15.5t95.5 -55t65 -110.5t23.5 -182t-23.5 -182.5t-65 -111.5t-95.5 -56t-116 -16zM350 125q36 0 61.5 8.5t42.5 32t25 68.5t8 118q0 72 -8 117t-24.5 68.5
t-42.5 32t-62 8.5t-62 -8.5t-42.5 -32t-24.5 -68.5t-8 -118t8 -117.5t25 -68t42.5 -32t61.5 -8.5zM496 687h86q17 0 22 6t5 25q0 10 -1.5 22t-5.5 32t-11 53h123q7 -25 11 -45t4 -34q0 -52 -21.5 -84.5t-57.5 -47.5t-78 -15h-63zM276 880v92q23 2 40 3t39 1q71 0 97 -22.5
t26 -58.5q0 -28 -11 -51.5t-41.5 -50.5t-87.5 -64l-60 53q35 27 56.5 44.5t21.5 29.5q0 24 -47 24h-33z" />
    <glyph glyph-name="uni1EE0" unicode="&#x1ee0;" horiz-adv-x="700" 
d="M350 -13q-61 0 -115.5 16t-96 56t-65 111.5t-23.5 182.5t23.5 182t65 110.5t96 55t115.5 15.5q62 0 116 -15.5t95.5 -55t65 -110.5t23.5 -182t-23.5 -182.5t-65 -111.5t-95.5 -56t-116 -16zM350 125q36 0 61.5 8.5t42.5 32t25 68.5t8 118q0 72 -8 117t-24.5 68.5
t-42.5 32t-62 8.5t-62 -8.5t-42.5 -32t-24.5 -68.5t-8 -118t8 -117.5t25 -68t42.5 -32t61.5 -8.5zM496 687h86q17 0 22 6t5 25q0 10 -1.5 22t-5.5 32t-11 53h123q7 -25 11 -45t4 -34q0 -52 -21.5 -84.5t-57.5 -47.5t-78 -15h-63zM469 750q-22 0 -52.5 7t-61.5 15.5
t-55.5 15.5t-34.5 7q-8 0 -15.5 -10t-12 -20.5l-4.5 -10.5l-76 10q2 68 28.5 97t68.5 29q23 0 53 -6.5t61 -15t55.5 -15t34.5 -6.5q8 0 15 10t11.5 20l4.5 10l75 -12q-1 -67 -27 -96t-68 -29z" />
    <glyph glyph-name="Ohungarumlaut" unicode="&#x150;" horiz-adv-x="700" 
d="M350 -13q-61 0 -115.5 16t-96 56t-65 111.5t-23.5 182.5t23.5 182t65 110.5t96 55t115.5 15.5q62 0 116 -15.5t95.5 -55t65 -110.5t23.5 -182t-23.5 -182.5t-65 -111.5t-95.5 -56t-116 -16zM350 125q36 0 61.5 8.5t42.5 32t25 68.5t8 118q0 72 -8 117t-24.5 68.5
t-42.5 32t-62 8.5t-62 -8.5t-42.5 -32t-24.5 -68.5t-8 -118t8 -117.5t25 -68t42.5 -32t61.5 -8.5zM98 750l-21 83l264 77l28 -110zM433 750l-21 83l267 77l28 -110z" />
    <glyph glyph-name="Omacron" unicode="&#x14c;" horiz-adv-x="700" 
d="M350 -13q-61 0 -115.5 16t-96 56t-65 111.5t-23.5 182.5t23.5 182t65 110.5t96 55t115.5 15.5q62 0 116 -15.5t95.5 -55t65 -110.5t23.5 -182t-23.5 -182.5t-65 -111.5t-95.5 -56t-116 -16zM350 125q36 0 61.5 8.5t42.5 32t25 68.5t8 118q0 72 -8 117t-24.5 68.5
t-42.5 32t-62 8.5t-62 -8.5t-42.5 -32t-24.5 -68.5t-8 -118t8 -117.5t25 -68t42.5 -32t61.5 -8.5zM154 775v96h392v-96h-392z" />
    <glyph glyph-name="Sacute" unicode="&#x15a;" horiz-adv-x="570" 
d="M278 -13q-48 0 -92 9.5t-78.5 21.5t-54.5 21.5l-20 9.5l6 18.5t13.5 43t13.5 42.5l6 18l20.5 -7.5t54 -17t73 -17t78.5 -7.5q19 0 30 3.5t17 7.5q11 7 17.5 22t6.5 43q0 25 -20 42.5t-52 32.5t-69 32q-32 15 -64 31.5t-58 39.5t-42 57.5t-16 85.5q0 55 27.5 99.5t83 71
t137.5 26.5q36 0 72.5 -5t67.5 -11.5t49.5 -11.5l18.5 -5l-25 -125l-19.5 3.5t-50.5 8t-66 8t-66 3.5q-19 0 -30 -3t-19 -8q-7 -5 -13.5 -15.5t-6.5 -35.5q0 -19 14 -34.5t38 -28.5t52 -26q34 -16 71.5 -33t70.5 -41t54 -60.5t21 -91.5q0 -65 -31.5 -114t-88 -76t-131.5 -27
zM159 750l-20 83l294 77l28 -110z" />
    <glyph glyph-name="Scaron" unicode="&#x160;" horiz-adv-x="570" 
d="M278 -13q-48 0 -92 9.5t-78.5 21.5t-54.5 21.5l-20 9.5l6 18.5t13.5 43t13.5 42.5l6 18l20.5 -7.5t54 -17t73 -17t78.5 -7.5q19 0 30 3.5t17 7.5q11 7 17.5 22t6.5 43q0 25 -20 42.5t-52 32.5t-69 32q-32 15 -64 31.5t-58 39.5t-42 57.5t-16 85.5q0 55 27.5 99.5t83 71
t137.5 26.5q36 0 72.5 -5t67.5 -11.5t49.5 -11.5l18.5 -5l-25 -125l-19.5 3.5t-50.5 8t-66 8t-66 3.5q-19 0 -30 -3t-19 -8q-7 -5 -13.5 -15.5t-6.5 -35.5q0 -19 14 -34.5t38 -28.5t52 -26q34 -16 71.5 -33t70.5 -41t54 -60.5t21 -91.5q0 -65 -31.5 -114t-88 -76t-131.5 -27
zM248 749l-167 100l33 61l167 -59h7l167 59l33 -61l-167 -100h-73z" />
    <glyph glyph-name="Scedilla" unicode="&#x15e;" horiz-adv-x="570" 
d="M278 -13q-48 0 -92 9.5t-78.5 21.5t-54.5 21.5l-20 9.5l6 18.5t13.5 43t13.5 42.5l6 18l20.5 -7.5t54 -17t73 -17t78.5 -7.5q19 0 30 3.5t17 7.5q11 7 17.5 22t6.5 43q0 25 -20 42.5t-52 32.5t-69 32q-32 15 -64 31.5t-58 39.5t-42 57.5t-16 85.5q0 55 27.5 99.5t83 71
t137.5 26.5q36 0 72.5 -5t67.5 -11.5t49.5 -11.5l18.5 -5l-25 -125l-19.5 3.5t-50.5 8t-66 8t-66 3.5q-19 0 -30 -3t-19 -8q-7 -5 -13.5 -15.5t-6.5 -35.5q0 -19 14 -34.5t38 -28.5t52 -26q34 -16 71.5 -33t70.5 -41t54 -60.5t21 -91.5q0 -65 -31.5 -114t-88 -76t-131.5 -27
zM268 -179q-34 0 -60.5 4.5l-26.5 4.5v87l12.5 -1t30 -2.5t32.5 -1.5q23 0 34.5 5t11.5 25q0 23 -5 48.5t-6 29.5l76 20q1 -1 6 -16.5t10.5 -39.5t5.5 -52q0 -51 -31.5 -81t-89.5 -30z" />
    <glyph glyph-name="uni0218" unicode="&#x218;" horiz-adv-x="570" 
d="M278 -13q-48 0 -92 9.5t-78.5 21.5t-54.5 21.5l-20 9.5l6 18.5t13.5 43t13.5 42.5l6 18l20.5 -7.5t54 -17t73 -17t78.5 -7.5q19 0 30 3.5t17 7.5q11 7 17.5 22t6.5 43q0 25 -20 42.5t-52 32.5t-69 32q-32 15 -64 31.5t-58 39.5t-42 57.5t-16 85.5q0 55 27.5 99.5t83 71
t137.5 26.5q36 0 72.5 -5t67.5 -11.5t49.5 -11.5l18.5 -5l-25 -125l-19.5 3.5t-50.5 8t-66 8t-66 3.5q-19 0 -30 -3t-19 -8q-7 -5 -13.5 -15.5t-6.5 -35.5q0 -19 14 -34.5t38 -28.5t52 -26q34 -16 71.5 -33t70.5 -41t54 -60.5t21 -91.5q0 -65 -31.5 -114t-88 -76t-131.5 -27
zM243 -253l-28 47q17 11 25 41.5t8 77.5v35h106v-27q0 -54 -17 -90t-42.5 -56.5t-51.5 -27.5z" />
    <glyph glyph-name="Tbar" unicode="&#x166;" horiz-adv-x="516" 
d="M470 424v-99h-427v99h427zM177 0l3 572l-196 -3v134h547v-134l-200 3l3 -572h-157z" />
    <glyph glyph-name="Tcaron" unicode="&#x164;" horiz-adv-x="516" 
d="M177 0l3 572l-196 -3v134h547v-134l-200 3l3 -572h-157zM221 749l-167 100l33 61l167 -59h7l167 59l33 -61l-167 -100h-73z" />
    <glyph glyph-name="uni0162" unicode="&#x162;" horiz-adv-x="516" 
d="M177 0l3 572l-196 -3v134h547v-134l-200 3l3 -572h-157zM229 -179q-34 0 -60.5 4.5l-26.5 4.5v87l12.5 -1t30 -2.5t32.5 -1.5q23 0 34.5 5t11.5 25q0 23 -5 48.5t-6 29.5l76 20q1 -1 6 -16.5t10.5 -39.5t5.5 -52q0 -51 -31.5 -81t-89.5 -30z" />
    <glyph glyph-name="uni021A" unicode="&#x21a;" horiz-adv-x="516" 
d="M177 0l3 572l-196 -3v134h547v-134l-200 3l3 -572h-157zM204 -253l-28 47q17 11 25 41.5t8 77.5v35h106v-27q0 -54 -17 -90t-42.5 -56.5t-51.5 -27.5z" />
    <glyph glyph-name="uni01D3" unicode="&#x1d3;" horiz-adv-x="702" 
d="M351 -13q-85 0 -145 28t-91.5 98.5t-31.5 195.5v394h157v-366q0 -70 5.5 -112.5t18 -64t34 -28.5t54.5 -7q32 0 53.5 7t34 28t17.5 63.5t5 113.5v366h157v-386q0 -129 -31 -201t-91 -100.5t-146 -28.5zM314 749l-167 100l33 61l167 -59h7l167 59l33 -61l-167 -100h-73z
" />
    <glyph glyph-name="uni01D7" unicode="&#x1d7;" horiz-adv-x="702" 
d="M351 -13q-85 0 -145 28t-91.5 98.5t-31.5 195.5v394h157v-366q0 -70 5.5 -112.5t18 -64t34 -28.5t54.5 -7q32 0 53.5 7t34 28t17.5 63.5t5 113.5v366h157v-386q0 -129 -31 -201t-91 -100.5t-146 -28.5zM159 761v108h147v-108h-147zM384 761v108h147v-108h-147zM225 907
l-20 83l294 77l28 -110z" />
    <glyph glyph-name="uni01D9" unicode="&#x1d9;" horiz-adv-x="702" 
d="M351 -13q-85 0 -145 28t-91.5 98.5t-31.5 195.5v394h157v-366q0 -70 5.5 -112.5t18 -64t34 -28.5t54.5 -7q32 0 53.5 7t34 28t17.5 63.5t5 113.5v366h157v-386q0 -129 -31 -201t-91 -100.5t-146 -28.5zM159 761v108h147v-108h-147zM384 761v108h147v-108h-147zM314 906
l-167 100l33 61l167 -59h7l167 59l33 -61l-167 -100h-73z" />
    <glyph glyph-name="uni01DB" unicode="&#x1db;" horiz-adv-x="702" 
d="M351 -13q-85 0 -145 28t-91.5 98.5t-31.5 195.5v394h157v-366q0 -70 5.5 -112.5t18 -64t34 -28.5t54.5 -7q32 0 53.5 7t34 28t17.5 63.5t5 113.5v366h157v-386q0 -129 -31 -201t-91 -100.5t-146 -28.5zM159 761v108h147v-108h-147zM384 761v108h147v-108h-147zM498 908
l-308 42l20 113l302 -71z" />
    <glyph glyph-name="uni01D5" unicode="&#x1d5;" horiz-adv-x="702" 
d="M351 -13q-85 0 -145 28t-91.5 98.5t-31.5 195.5v394h157v-366q0 -70 5.5 -112.5t18 -64t34 -28.5t54.5 -7q32 0 53.5 7t34 28t17.5 63.5t5 113.5v366h157v-386q0 -129 -31 -201t-91 -100.5t-146 -28.5zM159 761v108h147v-108h-147zM384 761v108h147v-108h-147zM149 932
v96h392v-96h-392z" />
    <glyph glyph-name="uni1EE4" unicode="&#x1ee4;" horiz-adv-x="702" 
d="M351 -13q-85 0 -145 28t-91.5 98.5t-31.5 195.5v394h157v-366q0 -70 5.5 -112.5t18 -64t34 -28.5t54.5 -7q32 0 53.5 7t34 28t17.5 63.5t5 113.5v366h157v-386q0 -129 -31 -201t-91 -100.5t-146 -28.5zM276 -157v108h158v-108h-158z" />
    <glyph glyph-name="uni1EE6" unicode="&#x1ee6;" horiz-adv-x="702" 
d="M351 -13q-85 0 -145 28t-91.5 98.5t-31.5 195.5v394h157v-366q0 -70 5.5 -112.5t18 -64t34 -28.5t54.5 -7q32 0 53.5 7t34 28t17.5 63.5t5 113.5v366h157v-386q0 -129 -31 -201t-91 -100.5t-146 -28.5zM282 880v92q23 2 40 3t39 1q71 0 97 -22.5t26 -58.5
q0 -28 -11 -51.5t-41.5 -50.5t-87.5 -64l-60 53q35 27 56.5 44.5t21.5 29.5q0 24 -47 24h-33z" />
    <glyph glyph-name="Uhorn" unicode="&#x1af;" horiz-adv-x="702" 
d="M351 -13q-85 0 -145 28t-91.5 98.5t-31.5 195.5v394h157v-366q0 -70 5.5 -112.5t18 -64t34 -28.5t54.5 -7q32 0 53.5 7t34 28t17.5 63.5t5 113.5v366h157v-386q0 -129 -31 -201t-91 -100.5t-146 -28.5zM567 703h86q17 0 22 6t5 25q0 10 -1.5 22t-5.5 32t-11 53h123
q7 -25 11 -45t4 -34q0 -52 -21.5 -84.5t-57.5 -47.5t-78 -15h-63z" />
    <glyph glyph-name="uni1EE8" unicode="&#x1ee8;" horiz-adv-x="702" 
d="M351 -13q-85 0 -145 28t-91.5 98.5t-31.5 195.5v394h157v-366q0 -70 5.5 -112.5t18 -64t34 -28.5t54.5 -7q32 0 53.5 7t34 28t17.5 63.5t5 113.5v366h157v-386q0 -129 -31 -201t-91 -100.5t-146 -28.5zM567 703h86q17 0 22 6t5 25q0 10 -1.5 22t-5.5 32t-11 53h123
q7 -25 11 -45t4 -34q0 -52 -21.5 -84.5t-57.5 -47.5t-78 -15h-63zM225 750l-20 83l294 77l28 -110z" />
    <glyph glyph-name="uni1EF0" unicode="&#x1ef0;" horiz-adv-x="702" 
d="M351 -13q-85 0 -145 28t-91.5 98.5t-31.5 195.5v394h157v-366q0 -70 5.5 -112.5t18 -64t34 -28.5t54.5 -7q32 0 53.5 7t34 28t17.5 63.5t5 113.5v366h157v-386q0 -129 -31 -201t-91 -100.5t-146 -28.5zM567 703h86q17 0 22 6t5 25q0 10 -1.5 22t-5.5 32t-11 53h123
q7 -25 11 -45t4 -34q0 -52 -21.5 -84.5t-57.5 -47.5t-78 -15h-63zM281 -157v108h158v-108h-158z" />
    <glyph glyph-name="uni1EEA" unicode="&#x1eea;" horiz-adv-x="702" 
d="M351 -13q-85 0 -145 28t-91.5 98.5t-31.5 195.5v394h157v-366q0 -70 5.5 -112.5t18 -64t34 -28.5t54.5 -7q32 0 53.5 7t34 28t17.5 63.5t5 113.5v366h157v-386q0 -129 -31 -201t-91 -100.5t-146 -28.5zM567 703h86q17 0 22 6t5 25q0 10 -1.5 22t-5.5 32t-11 53h123
q7 -25 11 -45t4 -34q0 -52 -21.5 -84.5t-57.5 -47.5t-78 -15h-63zM498 751l-308 42l20 113l302 -71z" />
    <glyph glyph-name="uni1EEC" unicode="&#x1eec;" horiz-adv-x="702" 
d="M351 -13q-85 0 -145 28t-91.5 98.5t-31.5 195.5v394h157v-366q0 -70 5.5 -112.5t18 -64t34 -28.5t54.5 -7q32 0 53.5 7t34 28t17.5 63.5t5 113.5v366h157v-386q0 -129 -31 -201t-91 -100.5t-146 -28.5zM567 703h86q17 0 22 6t5 25q0 10 -1.5 22t-5.5 32t-11 53h123
q7 -25 11 -45t4 -34q0 -52 -21.5 -84.5t-57.5 -47.5t-78 -15h-63zM292 880v92q23 2 40 3t39 1q71 0 97 -22.5t26 -58.5q0 -28 -11 -51.5t-41.5 -50.5t-87.5 -64l-60 53q35 27 56.5 44.5t21.5 29.5q0 24 -47 24h-33z" />
    <glyph glyph-name="uni1EEE" unicode="&#x1eee;" horiz-adv-x="702" 
d="M351 -13q-85 0 -145 28t-91.5 98.5t-31.5 195.5v394h157v-366q0 -70 5.5 -112.5t18 -64t34 -28.5t54.5 -7q32 0 53.5 7t34 28t17.5 63.5t5 113.5v366h157v-386q0 -129 -31 -201t-91 -100.5t-146 -28.5zM567 703h86q17 0 22 6t5 25q0 10 -1.5 22t-5.5 32t-11 53h123
q7 -25 11 -45t4 -34q0 -52 -21.5 -84.5t-57.5 -47.5t-78 -15h-63zM470 750q-22 0 -52.5 7t-61.5 15.5t-55.5 15.5t-34.5 7q-8 0 -15.5 -10t-12 -20.5l-4.5 -10.5l-76 10q2 68 28.5 97t68.5 29q23 0 53 -6.5t61 -15t55.5 -15t34.5 -6.5q8 0 15 10t11.5 20l4.5 10l75 -12
q-1 -67 -27 -96t-68 -29z" />
    <glyph glyph-name="Uhungarumlaut" unicode="&#x170;" horiz-adv-x="702" 
d="M351 -13q-85 0 -145 28t-91.5 98.5t-31.5 195.5v394h157v-366q0 -70 5.5 -112.5t18 -64t34 -28.5t54.5 -7q32 0 53.5 7t34 28t17.5 63.5t5 113.5v366h157v-386q0 -129 -31 -201t-91 -100.5t-146 -28.5zM57 750l-21 83l264 77l28 -110zM392 750l-21 83l267 77l28 -110z
" />
    <glyph glyph-name="Umacron" unicode="&#x16a;" horiz-adv-x="702" 
d="M351 -13q-85 0 -145 28t-91.5 98.5t-31.5 195.5v394h157v-366q0 -70 5.5 -112.5t18 -64t34 -28.5t54.5 -7q32 0 53.5 7t34 28t17.5 63.5t5 113.5v366h157v-386q0 -129 -31 -201t-91 -100.5t-146 -28.5zM155 775v96h392v-96h-392z" />
    <glyph glyph-name="Uogonek" unicode="&#x172;" horiz-adv-x="702" 
d="M351 -13q-85 0 -145 28t-91.5 98.5t-31.5 195.5v394h157v-366q0 -70 5.5 -112.5t18 -64t34 -28.5t54.5 -7q32 0 53.5 7t34 28t17.5 63.5t5 113.5v366h157v-386q0 -129 -31 -201t-91 -100.5t-146 -28.5zM381 -179q-49 0 -75.5 20.5t-26.5 61.5q0 23 11 44t33.5 40t56.5 34
l81 -20q-45 -14 -70 -31.5t-25 -35.5q0 -12 12.5 -17t33.5 -5q16 0 33 2l17 2v-86l-23 -4.5t-58 -4.5z" />
    <glyph glyph-name="Uring" unicode="&#x16e;" horiz-adv-x="702" 
d="M351 -13q-85 0 -145 28t-91.5 98.5t-31.5 195.5v394h157v-366q0 -70 5.5 -112.5t18 -64t34 -28.5t54.5 -7q32 0 53.5 7t34 28t17.5 63.5t5 113.5v366h157v-386q0 -129 -31 -201t-91 -100.5t-146 -28.5zM351 733q-26 0 -50.5 8.5t-40.5 29t-16 56.5q0 38 16 58.5
t40.5 28.5t51.5 8q26 0 50 -8t39.5 -28.5t15.5 -58.5q0 -36 -15.5 -56.5t-39.5 -29t-51 -8.5zM351 797q19 0 27 6.5t8 23.5q0 19 -8 24.5t-27 5.5t-27.5 -5.5t-8.5 -24.5q0 -17 8.5 -23.5t27.5 -6.5z" />
    <glyph glyph-name="Utilde" unicode="&#x168;" horiz-adv-x="702" 
d="M351 -13q-85 0 -145 28t-91.5 98.5t-31.5 195.5v394h157v-366q0 -70 5.5 -112.5t18 -64t34 -28.5t54.5 -7q32 0 53.5 7t34 28t17.5 63.5t5 113.5v366h157v-386q0 -129 -31 -201t-91 -100.5t-146 -28.5zM470 750q-22 0 -52.5 7t-61.5 15.5t-55.5 15.5t-34.5 7
q-8 0 -15.5 -10t-12 -20.5l-4.5 -10.5l-76 10q2 68 28.5 97t68.5 29q23 0 53 -6.5t61 -15t55.5 -15t34.5 -6.5q8 0 15 10t11.5 20l4.5 10l75 -12q-1 -67 -27 -96t-68 -29z" />
    <glyph glyph-name="Wacute" unicode="&#x1e82;" horiz-adv-x="838" 
d="M138 0l-104 703h158l51 -542h6l78 375h184l78 -375h6l51 542h158l-104 -703h-196l-82 387h-6l-82 -387h-196zM286 738l-20 83l294 77l28 -110z" />
    <glyph glyph-name="Wcircumflex" unicode="&#x174;" horiz-adv-x="838" 
d="M138 0l-104 703h158l51 -542h6l78 375h184l78 -375h6l51 542h158l-104 -703h-196l-82 387h-6l-82 -387h-196zM256 740l-33 61l167 100h73l167 -100l-33 -61l-167 59h-7z" />
    <glyph glyph-name="Wdieresis" unicode="&#x1e84;" horiz-adv-x="838" 
d="M138 0l-104 703h158l51 -542h6l78 375h184l78 -375h6l51 542h158l-104 -703h-196l-82 387h-6l-82 -387h-196zM236 761v108h147v-108h-147zM461 761v108h147v-108h-147z" />
    <glyph glyph-name="Wgrave" unicode="&#x1e80;" horiz-adv-x="838" 
d="M138 0l-104 703h158l51 -542h6l78 375h184l78 -375h6l51 542h158l-104 -703h-196l-82 387h-6l-82 -387h-196zM575 740l-308 42l20 113l302 -71z" />
    <glyph glyph-name="Ycircumflex" unicode="&#x176;" horiz-adv-x="580" 
d="M209 0l3 253l-216 450h168l122 -322h6l122 322h168l-216 -450l2 -253h-159zM118 740l-33 61l167 100h73l167 -100l-33 -61l-167 59h-7z" />
    <glyph glyph-name="Ydieresis" unicode="&#x178;" horiz-adv-x="580" 
d="M209 0l3 253l-216 450h168l122 -322h6l122 322h168l-216 -450l2 -253h-159zM98 761v108h147v-108h-147zM323 761v108h147v-108h-147z" />
    <glyph glyph-name="uni1EF4" unicode="&#x1ef4;" horiz-adv-x="580" 
d="M209 0l3 253l-216 450h168l122 -322h6l122 322h168l-216 -450l2 -253h-159zM209 -157v108h158v-108h-158z" />
    <glyph glyph-name="Ygrave" unicode="&#x1ef2;" horiz-adv-x="580" 
d="M209 0l3 253l-216 450h168l122 -322h6l122 322h168l-216 -450l2 -253h-159zM407 751l-308 42l20 113l302 -71z" />
    <glyph glyph-name="uni1EF6" unicode="&#x1ef6;" horiz-adv-x="580" 
d="M209 0l3 253l-216 450h168l122 -322h6l122 322h168l-216 -450l2 -253h-159zM224 880v92q23 2 40 3t39 1q71 0 97 -22.5t26 -58.5q0 -28 -11 -51.5t-41.5 -50.5t-87.5 -64l-60 53q35 27 56.5 44.5t21.5 29.5q0 24 -47 24h-33z" />
    <glyph glyph-name="uni1EF8" unicode="&#x1ef8;" horiz-adv-x="580" 
d="M209 0l3 253l-216 450h168l122 -322h6l122 322h168l-216 -450l2 -253h-159zM409 750q-22 0 -52.5 7t-61.5 15.5t-55.5 15.5t-34.5 7q-8 0 -15.5 -10t-12 -20.5l-4.5 -10.5l-76 10q2 68 28.5 97t68.5 29q23 0 53 -6.5t61 -15t55.5 -15t34.5 -6.5q8 0 15 10t11.5 20l4.5 10
l75 -12q-1 -67 -27 -96t-68 -29z" />
    <glyph glyph-name="Zacute" unicode="&#x179;" horiz-adv-x="579" 
d="M24 0v124l338 447v7l-317 -9v134h503v-121l-331 -450v-6l336 8v-134h-529zM164 750l-20 83l294 77l28 -110z" />
    <glyph glyph-name="Zcaron" unicode="&#x17d;" horiz-adv-x="579" 
d="M24 0v124l338 447v7l-317 -9v134h503v-121l-331 -450v-6l336 8v-134h-529zM253 749l-167 100l33 61l167 -59h7l167 59l33 -61l-167 -100h-73z" />
    <glyph glyph-name="Zdotaccent" unicode="&#x17b;" horiz-adv-x="579" 
d="M24 0v124l338 447v7l-317 -9v134h503v-121l-331 -450v-6l336 8v-134h-529zM211 761v108h158v-108h-158z" />
    <glyph glyph-name="abreve" unicode="&#x103;" horiz-adv-x="622" 
d="M222 -13q-48 0 -86.5 22.5t-61.5 65.5t-23 104q0 73 33 114.5t93 59.5t142 18h75q0 43 -4 61t-9 26q-4 7 -15.5 13t-46.5 6q-36 0 -74.5 -6t-71.5 -14t-54 -14l-21 -6l-32 112l20.5 8t56 18t81 18t96.5 8q86 0 136 -26.5t71.5 -76t21.5 -118.5v-380h-98l-20 65h-6
l-17.5 -12t-46.5 -27t-65 -27t-74 -12zM267 114q28 0 57.5 9.5t49.5 19l20 9.5v104l-24 2.5t-62 2.5q-66 0 -82 -15q-7 -6 -12 -20.5t-5 -40.5q0 -37 13.5 -54t44.5 -17zM311 643q-50 0 -92.5 15.5t-69.5 51t-32 96.5l79 9q10 -43 39 -57.5t76 -14.5t76 14.5t39 57.5l79 -9
q-5 -61 -32 -96.5t-69 -51t-93 -15.5z" />
    <glyph glyph-name="uni1EAF" unicode="&#x1eaf;" horiz-adv-x="622" 
d="M222 -13q-48 0 -86.5 22.5t-61.5 65.5t-23 104q0 73 33 114.5t93 59.5t142 18h75q0 43 -4 61t-9 26q-4 7 -15.5 13t-46.5 6q-36 0 -74.5 -6t-71.5 -14t-54 -14l-21 -6l-32 112l20.5 8t56 18t81 18t96.5 8q86 0 136 -26.5t71.5 -76t21.5 -118.5v-380h-98l-20 65h-6
l-17.5 -12t-46.5 -27t-65 -27t-74 -12zM267 114q28 0 57.5 9.5t49.5 19l20 9.5v104l-24 2.5t-62 2.5q-66 0 -82 -15q-7 -6 -12 -20.5t-5 -40.5q0 -37 13.5 -54t44.5 -17zM311 643q-50 0 -92.5 15.5t-69.5 51t-32 96.5l79 9q10 -43 39 -57.5t76 -14.5t76 14.5t39 57.5l79 -9
q-5 -61 -32 -96.5t-69 -51t-93 -15.5zM166 823l-22 81l293 89l31 -112z" />
    <glyph glyph-name="uni1EB7" unicode="&#x1eb7;" horiz-adv-x="622" 
d="M222 -13q-48 0 -86.5 22.5t-61.5 65.5t-23 104q0 73 33 114.5t93 59.5t142 18h75q0 43 -4 61t-9 26q-4 7 -15.5 13t-46.5 6q-36 0 -74.5 -6t-71.5 -14t-54 -14l-21 -6l-32 112l20.5 8t56 18t81 18t96.5 8q86 0 136 -26.5t71.5 -76t21.5 -118.5v-380h-98l-20 65h-6
l-17.5 -12t-46.5 -27t-65 -27t-74 -12zM267 114q28 0 57.5 9.5t49.5 19l20 9.5v104l-24 2.5t-62 2.5q-66 0 -82 -15q-7 -6 -12 -20.5t-5 -40.5q0 -37 13.5 -54t44.5 -17zM226 -166v108h158v-108h-158zM305 650q-50 0 -92.5 15.5t-69.5 51t-32 96.5l79 9q10 -43 39 -57.5
t76 -14.5t76 14.5t39 57.5l79 -9q-5 -61 -32 -96.5t-69 -51t-93 -15.5z" />
    <glyph glyph-name="uni1EB1" unicode="&#x1eb1;" horiz-adv-x="622" 
d="M222 -13q-48 0 -86.5 22.5t-61.5 65.5t-23 104q0 73 33 114.5t93 59.5t142 18h75q0 43 -4 61t-9 26q-4 7 -15.5 13t-46.5 6q-36 0 -74.5 -6t-71.5 -14t-54 -14l-21 -6l-32 112l20.5 8t56 18t81 18t96.5 8q86 0 136 -26.5t71.5 -76t21.5 -118.5v-380h-98l-20 65h-6
l-17.5 -12t-46.5 -27t-65 -27t-74 -12zM267 114q28 0 57.5 9.5t49.5 19l20 9.5v104l-24 2.5t-62 2.5q-66 0 -82 -15q-7 -6 -12 -20.5t-5 -40.5q0 -37 13.5 -54t44.5 -17zM311 643q-50 0 -92.5 15.5t-69.5 51t-32 96.5l79 9q10 -43 39 -57.5t76 -14.5t76 14.5t39 57.5l79 -9
q-5 -61 -32 -96.5t-69 -51t-93 -15.5zM454 823l-305 58l26 112l298 -87z" />
    <glyph glyph-name="uni1EB3" unicode="&#x1eb3;" horiz-adv-x="622" 
d="M222 -13q-48 0 -86.5 22.5t-61.5 65.5t-23 104q0 73 33 114.5t93 59.5t142 18h75q0 43 -4 61t-9 26q-4 7 -15.5 13t-46.5 6q-36 0 -74.5 -6t-71.5 -14t-54 -14l-21 -6l-32 112l20.5 8t56 18t81 18t96.5 8q86 0 136 -26.5t71.5 -76t21.5 -118.5v-380h-98l-20 65h-6
l-17.5 -12t-46.5 -27t-65 -27t-74 -12zM267 114q28 0 57.5 9.5t49.5 19l20 9.5v104l-24 2.5t-62 2.5q-66 0 -82 -15q-7 -6 -12 -20.5t-5 -40.5q0 -37 13.5 -54t44.5 -17zM311 643q-50 0 -92.5 15.5t-69.5 51t-32 96.5l79 9q10 -43 39 -57.5t76 -14.5t76 14.5t39 57.5l79 -9
q-5 -61 -32 -96.5t-69 -51t-93 -15.5z" />
    <glyph glyph-name="uni1EB5" unicode="&#x1eb5;" horiz-adv-x="622" 
d="M222 -13q-48 0 -86.5 22.5t-61.5 65.5t-23 104q0 73 33 114.5t93 59.5t142 18h75q0 43 -4 61t-9 26q-4 7 -15.5 13t-46.5 6q-36 0 -74.5 -6t-71.5 -14t-54 -14l-21 -6l-32 112l20.5 8t56 18t81 18t96.5 8q86 0 136 -26.5t71.5 -76t21.5 -118.5v-380h-98l-20 65h-6
l-17.5 -12t-46.5 -27t-65 -27t-74 -12zM267 114q28 0 57.5 9.5t49.5 19l20 9.5v104l-24 2.5t-62 2.5q-66 0 -82 -15q-7 -6 -12 -20.5t-5 -40.5q0 -37 13.5 -54t44.5 -17zM311 643q-50 0 -92.5 15.5t-69.5 51t-32 96.5l79 9q10 -43 39 -57.5t76 -14.5t76 14.5t39 57.5l79 -9
q-5 -61 -32 -96.5t-69 -51t-93 -15.5zM419 833q-22 0 -52.5 7t-61.5 15.5t-55.5 15.5t-34.5 7q-8 0 -15.5 -10t-12 -20.5l-4.5 -10.5l-76 10q2 69 28.5 98.5t68.5 29.5q23 0 53 -6.5t61 -15t55.5 -15t34.5 -6.5q8 0 15 10t11.5 20l4.5 10l75 -12q-1 -68 -27 -97.5t-68 -29.5
z" />
    <glyph glyph-name="uni01CE" unicode="&#x1ce;" horiz-adv-x="622" 
d="M222 -13q-48 0 -86.5 22.5t-61.5 65.5t-23 104q0 73 33 114.5t93 59.5t142 18h75q0 43 -4 61t-9 26q-4 7 -15.5 13t-46.5 6q-36 0 -74.5 -6t-71.5 -14t-54 -14l-21 -6l-32 112l20.5 8t56 18t81 18t96.5 8q86 0 136 -26.5t71.5 -76t21.5 -118.5v-380h-98l-20 65h-6
l-17.5 -12t-46.5 -27t-65 -27t-74 -12zM267 114q28 0 57.5 9.5t49.5 19l20 9.5v104l-24 2.5t-62 2.5q-66 0 -82 -15q-7 -6 -12 -20.5t-5 -40.5q0 -37 13.5 -54t44.5 -17zM274 657l-167 105l33 61l167 -64h7l167 64l33 -61l-167 -105h-73z" />
    <glyph glyph-name="uni1EA5" unicode="&#x1ea5;" horiz-adv-x="622" 
d="M222 -13q-48 0 -86.5 22.5t-61.5 65.5t-23 104q0 73 33 114.5t93 59.5t142 18h75q0 43 -4 61t-9 26q-4 7 -15.5 13t-46.5 6q-36 0 -74.5 -6t-71.5 -14t-54 -14l-21 -6l-32 112l20.5 8t56 18t81 18t96.5 8q86 0 136 -26.5t71.5 -76t21.5 -118.5v-380h-98l-20 65h-6
l-17.5 -12t-46.5 -27t-65 -27t-74 -12zM267 114q28 0 57.5 9.5t49.5 19l20 9.5v104l-24 2.5t-62 2.5q-66 0 -82 -15q-7 -6 -12 -20.5t-5 -40.5q0 -37 13.5 -54t44.5 -17zM140 637l-33 61l167 105h73l167 -105l-33 -61l-167 64h-7zM166 823l-22 81l293 89l31 -112z" />
    <glyph glyph-name="uni1EAD" unicode="&#x1ead;" horiz-adv-x="622" 
d="M222 -13q-48 0 -86.5 22.5t-61.5 65.5t-23 104q0 73 33 114.5t93 59.5t142 18h75q0 43 -4 61t-9 26q-4 7 -15.5 13t-46.5 6q-36 0 -74.5 -6t-71.5 -14t-54 -14l-21 -6l-32 112l20.5 8t56 18t81 18t96.5 8q86 0 136 -26.5t71.5 -76t21.5 -118.5v-380h-98l-20 65h-6
l-17.5 -12t-46.5 -27t-65 -27t-74 -12zM267 114q28 0 57.5 9.5t49.5 19l20 9.5v104l-24 2.5t-62 2.5q-66 0 -82 -15q-7 -6 -12 -20.5t-5 -40.5q0 -37 13.5 -54t44.5 -17zM226 -166v108h158v-108h-158zM130 640l-33 61l167 105h73l167 -105l-33 -61l-167 64h-7z" />
    <glyph glyph-name="uni1EA7" unicode="&#x1ea7;" horiz-adv-x="622" 
d="M222 -13q-48 0 -86.5 22.5t-61.5 65.5t-23 104q0 73 33 114.5t93 59.5t142 18h75q0 43 -4 61t-9 26q-4 7 -15.5 13t-46.5 6q-36 0 -74.5 -6t-71.5 -14t-54 -14l-21 -6l-32 112l20.5 8t56 18t81 18t96.5 8q86 0 136 -26.5t71.5 -76t21.5 -118.5v-380h-98l-20 65h-6
l-17.5 -12t-46.5 -27t-65 -27t-74 -12zM267 114q28 0 57.5 9.5t49.5 19l20 9.5v104l-24 2.5t-62 2.5q-66 0 -82 -15q-7 -6 -12 -20.5t-5 -40.5q0 -37 13.5 -54t44.5 -17zM140 637l-33 61l167 105h73l167 -105l-33 -61l-167 64h-7zM454 823l-305 58l26 112l298 -87z" />
    <glyph glyph-name="uni1EA9" unicode="&#x1ea9;" horiz-adv-x="622" 
d="M222 -13q-48 0 -86.5 22.5t-61.5 65.5t-23 104q0 73 33 114.5t93 59.5t142 18h75q0 43 -4 61t-9 26q-4 7 -15.5 13t-46.5 6q-36 0 -74.5 -6t-71.5 -14t-54 -14l-21 -6l-32 112l20.5 8t56 18t81 18t96.5 8q86 0 136 -26.5t71.5 -76t21.5 -118.5v-380h-98l-20 65h-6
l-17.5 -12t-46.5 -27t-65 -27t-74 -12zM267 114q28 0 57.5 9.5t49.5 19l20 9.5v104l-24 2.5t-62 2.5q-66 0 -82 -15q-7 -6 -12 -20.5t-5 -40.5q0 -37 13.5 -54t44.5 -17zM140 637l-33 61l167 105h73l167 -105l-33 -61l-167 64h-7zM434 889v92q23 2 40 3t39 1q71 0 97 -22.5
t26 -58.5q0 -28 -11 -51.5t-41.5 -50.5t-87.5 -64l-60 53q35 27 56.5 44.5t21.5 29.5q0 24 -47 24h-33z" />
    <glyph glyph-name="uni1EAB" unicode="&#x1eab;" horiz-adv-x="622" 
d="M222 -13q-48 0 -86.5 22.5t-61.5 65.5t-23 104q0 73 33 114.5t93 59.5t142 18h75q0 43 -4 61t-9 26q-4 7 -15.5 13t-46.5 6q-36 0 -74.5 -6t-71.5 -14t-54 -14l-21 -6l-32 112l20.5 8t56 18t81 18t96.5 8q86 0 136 -26.5t71.5 -76t21.5 -118.5v-380h-98l-20 65h-6
l-17.5 -12t-46.5 -27t-65 -27t-74 -12zM267 114q28 0 57.5 9.5t49.5 19l20 9.5v104l-24 2.5t-62 2.5q-66 0 -82 -15q-7 -6 -12 -20.5t-5 -40.5q0 -37 13.5 -54t44.5 -17zM140 637l-33 61l167 105h73l167 -105l-33 -61l-167 64h-7zM419 833q-22 0 -52.5 7t-61.5 15.5
t-55.5 15.5t-34.5 7q-8 0 -15.5 -10t-12 -20.5l-4.5 -10.5l-76 10q2 69 28.5 98.5t68.5 29.5q23 0 53 -6.5t61 -15t55.5 -15t34.5 -6.5q8 0 15 10t11.5 20l4.5 10l75 -12q-1 -68 -27 -97.5t-68 -29.5z" />
    <glyph glyph-name="uni01DF" unicode="&#x1df;" horiz-adv-x="622" 
d="M222 -13q-48 0 -86.5 22.5t-61.5 65.5t-23 104q0 73 33 114.5t93 59.5t142 18h75q0 43 -4 61t-9 26q-4 7 -15.5 13t-46.5 6q-36 0 -74.5 -6t-71.5 -14t-54 -14l-21 -6l-32 112l20.5 8t56 18t81 18t96.5 8q86 0 136 -26.5t71.5 -76t21.5 -118.5v-380h-98l-20 65h-6
l-17.5 -12t-46.5 -27t-65 -27t-74 -12zM267 114q28 0 57.5 9.5t49.5 19l20 9.5v104l-24 2.5t-62 2.5q-66 0 -82 -15q-7 -6 -12 -20.5t-5 -40.5q0 -37 13.5 -54t44.5 -17zM120 668v108h147v-108h-147zM345 668v108h147v-108h-147zM115 845v96h393v-96h-393z" />
    <glyph glyph-name="uni1EA1" unicode="&#x1ea1;" horiz-adv-x="622" 
d="M222 -13q-48 0 -86.5 22.5t-61.5 65.5t-23 104q0 73 33 114.5t93 59.5t142 18h75q0 43 -4 61t-9 26q-4 7 -15.5 13t-46.5 6q-36 0 -74.5 -6t-71.5 -14t-54 -14l-21 -6l-32 112l20.5 8t56 18t81 18t96.5 8q86 0 136 -26.5t71.5 -76t21.5 -118.5v-380h-98l-20 65h-6
l-17.5 -12t-46.5 -27t-65 -27t-74 -12zM267 114q28 0 57.5 9.5t49.5 19l20 9.5v104l-24 2.5t-62 2.5q-66 0 -82 -15q-7 -6 -12 -20.5t-5 -40.5q0 -37 13.5 -54t44.5 -17zM228 -166v108h158v-108h-158z" />
    <glyph glyph-name="uni1EA3" unicode="&#x1ea3;" horiz-adv-x="622" 
d="M222 -13q-48 0 -86.5 22.5t-61.5 65.5t-23 104q0 73 33 114.5t93 59.5t142 18h75q0 43 -4 61t-9 26q-4 7 -15.5 13t-46.5 6q-36 0 -74.5 -6t-71.5 -14t-54 -14l-21 -6l-32 112l20.5 8t56 18t81 18t96.5 8q86 0 136 -26.5t71.5 -76t21.5 -118.5v-380h-98l-20 65h-6
l-17.5 -12t-46.5 -27t-65 -27t-74 -12zM267 114q28 0 57.5 9.5t49.5 19l20 9.5v104l-24 2.5t-62 2.5q-66 0 -82 -15q-7 -6 -12 -20.5t-5 -40.5q0 -37 13.5 -54t44.5 -17zM199 761v92q23 2 40 3t39 1q71 0 97 -22.5t26 -58.5q0 -28 -11 -51.5t-41.5 -50.5t-87.5 -64l-60 53
q35 27 56.5 44.5t21.5 29.5q0 24 -47 24h-33z" />
    <glyph glyph-name="amacron" unicode="&#x101;" horiz-adv-x="622" 
d="M222 -13q-48 0 -86.5 22.5t-61.5 65.5t-23 104q0 73 33 114.5t93 59.5t142 18h75q0 43 -4 61t-9 26q-4 7 -15.5 13t-46.5 6q-36 0 -74.5 -6t-71.5 -14t-54 -14l-21 -6l-32 112l20.5 8t56 18t81 18t96.5 8q86 0 136 -26.5t71.5 -76t21.5 -118.5v-380h-98l-20 65h-6
l-17.5 -12t-46.5 -27t-65 -27t-74 -12zM267 114q28 0 57.5 9.5t49.5 19l20 9.5v104l-24 2.5t-62 2.5q-66 0 -82 -15q-7 -6 -12 -20.5t-5 -40.5q0 -37 13.5 -54t44.5 -17zM115 668v96h393v-96h-393z" />
    <glyph glyph-name="aogonek" unicode="&#x105;" horiz-adv-x="622" 
d="M222 -13q-48 0 -86.5 22.5t-61.5 65.5t-23 104q0 73 33 114.5t93 59.5t142 18h75q0 43 -4 61t-9 26q-4 7 -15.5 13t-46.5 6q-36 0 -74.5 -6t-71.5 -14t-54 -14l-21 -6l-32 112l20.5 8t56 18t81 18t96.5 8q86 0 136 -26.5t71.5 -76t21.5 -118.5v-380h-98l-20 65h-6
l-17.5 -12t-46.5 -27t-65 -27t-74 -12zM267 114q28 0 57.5 9.5t49.5 19l20 9.5v104l-24 2.5t-62 2.5q-66 0 -82 -15q-7 -6 -12 -20.5t-5 -40.5q0 -37 13.5 -54t44.5 -17zM469 -179q-49 0 -75.5 20.5t-26.5 61.5q0 23 11 44t33.5 40t56.5 34l81 -20q-45 -14 -70 -31.5
t-25 -35.5q0 -12 12.5 -17t33.5 -5q16 0 33 2l17 2v-86l-23 -4.5t-58 -4.5z" />
    <glyph glyph-name="cacute" unicode="&#x107;" horiz-adv-x="544" 
d="M314 -13q-78 0 -138 31.5t-94 99.5t-34 178q0 91 23 150.5t63.5 93t93.5 47.5t112 14q56 0 101.5 -8t67.5 -14l-17 -117q-29 5 -75.5 10.5t-87.5 5.5q-42 0 -59.5 -6.5t-26.5 -15.5q-18 -19 -27.5 -59t-9.5 -101q0 -58 7.5 -92.5t19 -52.5t21.5 -26q6 -4 18.5 -9.5
t34.5 -5.5q24 0 53.5 7.5t57.5 17t46 16.5l18 7l42 -110l-25.5 -15.5t-72.5 -30.5t-112 -15zM173 646l-22 81l293 89l31 -112z" />
    <glyph glyph-name="ccaron" unicode="&#x10d;" horiz-adv-x="544" 
d="M314 -13q-78 0 -138 31.5t-94 99.5t-34 178q0 91 23 150.5t63.5 93t93.5 47.5t112 14q56 0 101.5 -8t67.5 -14l-17 -117q-29 5 -75.5 10.5t-87.5 5.5q-42 0 -59.5 -6.5t-26.5 -15.5q-18 -19 -27.5 -59t-9.5 -101q0 -58 7.5 -92.5t19 -52.5t21.5 -26q6 -4 18.5 -9.5
t34.5 -5.5q24 0 53.5 7.5t57.5 17t46 16.5l18 7l42 -110l-25.5 -15.5t-72.5 -30.5t-112 -15zM281 657l-167 105l33 61l167 -64h7l167 64l33 -61l-167 -105h-73z" />
    <glyph glyph-name="cdotaccent" unicode="&#x10b;" horiz-adv-x="544" 
d="M314 -13q-78 0 -138 31.5t-94 99.5t-34 178q0 91 23 150.5t63.5 93t93.5 47.5t112 14q56 0 101.5 -8t67.5 -14l-17 -117q-29 5 -75.5 10.5t-87.5 5.5q-42 0 -59.5 -6.5t-26.5 -15.5q-18 -19 -27.5 -59t-9.5 -101q0 -58 7.5 -92.5t19 -52.5t21.5 -26q6 -4 18.5 -9.5
t34.5 -5.5q24 0 53.5 7.5t57.5 17t46 16.5l18 7l42 -110l-25.5 -15.5t-72.5 -30.5t-112 -15zM240 668v108h163v-108h-163z" />
    <glyph glyph-name="dcaron" unicode="&#x10f;" horiz-adv-x="728" 
d="M251 -13q-56 0 -102 32t-73.5 99t-27.5 172q0 95 21.5 156t57 95t77 47t81.5 13q28 0 54 -3.5t43 -7.5l17 -4v175h155v-761h-100l-16 57h-6q-20 -13 -48 -29.5t-61.5 -28.5t-71.5 -12zM278 113q17 0 38 5.5t40 13.5t31 13.5l12 5.5v302l-16.5 5.5t-41.5 10.5t-52 5
q-39 0 -54 -16q-7 -7 -13.5 -26t-11 -53.5t-4.5 -91.5q0 -64 4.5 -97.5t11.5 -46.5t12 -18q8 -7 20 -9.5t24 -2.5zM637 501l-19 260h119l-20 -260h-80z" />
    <glyph glyph-name="uni1E13" unicode="&#x1e13;" horiz-adv-x="628" 
d="M144 -210l-33 61l167 105h73l167 -105l-33 -61l-167 64h-7zM251 -13q-56 0 -102 32t-73.5 99t-27.5 172q0 95 21.5 156t57 95t77 47t81.5 13q28 0 54 -3.5t43 -7.5l17 -4v175h155v-761h-100l-16 57h-6q-20 -13 -48 -29.5t-61.5 -28.5t-71.5 -12zM278 113q17 0 38 5.5
t40 13.5t31 13.5l12 5.5v302l-16.5 5.5t-41.5 10.5t-52 5q-39 0 -54 -16q-7 -7 -13.5 -26t-11 -53.5t-4.5 -91.5q0 -64 4.5 -97.5t11.5 -46.5t12 -18q8 -7 20 -9.5t24 -2.5z" />
    <glyph glyph-name="dcroat" unicode="&#x111;" horiz-adv-x="628" 
d="M651 722v-90l-167 3l-190 -3v90h357zM251 -13q-56 0 -102 32t-73.5 99t-27.5 172q0 95 21.5 156t57 95t77 47t81.5 13q28 0 54 -3.5t43 -7.5l17 -4v175h155v-761h-100l-16 57h-6q-20 -13 -48 -29.5t-61.5 -28.5t-71.5 -12zM278 113q17 0 38 5.5t40 13.5t31 13.5l12 5.5
v302l-16.5 5.5t-41.5 10.5t-52 5q-39 0 -54 -16q-7 -7 -13.5 -26t-11 -53.5t-4.5 -91.5q0 -64 4.5 -97.5t11.5 -46.5t12 -18q8 -7 20 -9.5t24 -2.5z" />
    <glyph glyph-name="ecaron" unicode="&#x11b;" horiz-adv-x="611" 
d="M322 -14q-81 0 -142.5 30t-95.5 98t-34 181q0 118 36 184.5t97 94.5t137 28q78 0 132 -27t82.5 -88t28.5 -164v-83h-426l70 22q0 -36 3 -62.5t10 -44t18 -27.5q10 -9 25.5 -14t40.5 -5q27 0 60 5.5t64.5 13.5t54.5 14.5t31 9.5l38 -112q-9 -4 -43.5 -17.5t-83 -25
t-103.5 -11.5zM207 330l-69 21l337 6l-70 -22q0 48 -4 79t-14 44q-7 8 -21 15t-46 7q-38 0 -57 -7.5t-29 -18.5q-27 -28 -27 -124zM283 657l-167 105l33 61l167 -64h7l167 64l33 -61l-167 -105h-73z" />
    <glyph glyph-name="uni1EBF" unicode="&#x1ebf;" horiz-adv-x="611" 
d="M322 -14q-81 0 -142.5 30t-95.5 98t-34 181q0 118 36 184.5t97 94.5t137 28q78 0 132 -27t82.5 -88t28.5 -164v-83h-426l70 22q0 -36 3 -62.5t10 -44t18 -27.5q10 -9 25.5 -14t40.5 -5q27 0 60 5.5t64.5 13.5t54.5 14.5t31 9.5l38 -112q-9 -4 -43.5 -17.5t-83 -25
t-103.5 -11.5zM207 330l-69 21l337 6l-70 -22q0 48 -4 79t-14 44q-7 8 -21 15t-46 7q-38 0 -57 -7.5t-29 -18.5q-27 -28 -27 -124zM149 637l-33 61l167 105h73l167 -105l-33 -61l-167 64h-7zM175 823l-22 81l293 89l31 -112z" />
    <glyph glyph-name="uni1EC7" unicode="&#x1ec7;" horiz-adv-x="611" 
d="M321 -14q-81 0 -142.5 30t-95.5 98t-34 181q0 118 36 184.5t97 94.5t137 28q78 0 132 -27t82.5 -88t28.5 -164v-83h-426l70 22q0 -36 3 -62.5t10 -44t18 -27.5q10 -9 25.5 -14t40.5 -5q27 0 60 5.5t64.5 13.5t54.5 14.5t31 9.5l38 -112q-9 -4 -43.5 -17.5t-83 -25
t-103.5 -11.5zM206 330l-69 21l337 6l-70 -22q0 48 -4 79t-14 44q-7 8 -21 15t-46 7q-38 0 -57 -7.5t-29 -18.5q-27 -28 -27 -124zM228 -166v108h158v-108h-158zM136 640l-33 61l167 105h73l167 -105l-33 -61l-167 64h-7z" />
    <glyph glyph-name="uni1EC1" unicode="&#x1ec1;" horiz-adv-x="611" 
d="M322 -14q-81 0 -142.5 30t-95.5 98t-34 181q0 118 36 184.5t97 94.5t137 28q78 0 132 -27t82.5 -88t28.5 -164v-83h-426l70 22q0 -36 3 -62.5t10 -44t18 -27.5q10 -9 25.5 -14t40.5 -5q27 0 60 5.5t64.5 13.5t54.5 14.5t31 9.5l38 -112q-9 -4 -43.5 -17.5t-83 -25
t-103.5 -11.5zM207 330l-69 21l337 6l-70 -22q0 48 -4 79t-14 44q-7 8 -21 15t-46 7q-38 0 -57 -7.5t-29 -18.5q-27 -28 -27 -124zM149 637l-33 61l167 105h73l167 -105l-33 -61l-167 64h-7zM463 823l-305 58l26 112l298 -87z" />
    <glyph glyph-name="uni1EC3" unicode="&#x1ec3;" horiz-adv-x="611" 
d="M322 -14q-81 0 -142.5 30t-95.5 98t-34 181q0 118 36 184.5t97 94.5t137 28q78 0 132 -27t82.5 -88t28.5 -164v-83h-426l70 22q0 -36 3 -62.5t10 -44t18 -27.5q10 -9 25.5 -14t40.5 -5q27 0 60 5.5t64.5 13.5t54.5 14.5t31 9.5l38 -112q-9 -4 -43.5 -17.5t-83 -25
t-103.5 -11.5zM207 330l-69 21l337 6l-70 -22q0 48 -4 79t-14 44q-7 8 -21 15t-46 7q-38 0 -57 -7.5t-29 -18.5q-27 -28 -27 -124zM149 637l-33 61l167 105h73l167 -105l-33 -61l-167 64h-7zM443 889v92q23 2 40 3t39 1q71 0 97 -22.5t26 -58.5q0 -28 -11 -51.5t-41.5 -50.5
t-87.5 -64l-60 53q35 27 56.5 44.5t21.5 29.5q0 24 -47 24h-33z" />
    <glyph glyph-name="uni1EC5" unicode="&#x1ec5;" horiz-adv-x="611" 
d="M322 -14q-81 0 -142.5 30t-95.5 98t-34 181q0 118 36 184.5t97 94.5t137 28q78 0 132 -27t82.5 -88t28.5 -164v-83h-426l70 22q0 -36 3 -62.5t10 -44t18 -27.5q10 -9 25.5 -14t40.5 -5q27 0 60 5.5t64.5 13.5t54.5 14.5t31 9.5l38 -112q-9 -4 -43.5 -17.5t-83 -25
t-103.5 -11.5zM207 330l-69 21l337 6l-70 -22q0 48 -4 79t-14 44q-7 8 -21 15t-46 7q-38 0 -57 -7.5t-29 -18.5q-27 -28 -27 -124zM149 637l-33 61l167 105h73l167 -105l-33 -61l-167 64h-7zM428 833q-22 0 -52.5 7t-61.5 15.5t-55.5 15.5t-34.5 7q-8 0 -15.5 -10t-12 -20.5
l-4.5 -10.5l-76 10q2 69 28.5 98.5t68.5 29.5q23 0 53 -6.5t61 -15t55.5 -15t34.5 -6.5q8 0 15 10t11.5 20l4.5 10l75 -12q-1 -68 -27 -97.5t-68 -29.5z" />
    <glyph glyph-name="edotaccent" unicode="&#x117;" horiz-adv-x="604" 
d="M322 -14q-81 0 -142.5 30t-95.5 98t-34 181q0 118 36 184.5t97 94.5t137 28q78 0 132 -27t82.5 -88t28.5 -164v-83h-426l70 22q0 -36 3 -62.5t10 -44t18 -27.5q10 -9 25.5 -14t40.5 -5q27 0 60 5.5t64.5 13.5t54.5 14.5t31 9.5l38 -112q-9 -4 -43.5 -17.5t-83 -25
t-103.5 -11.5zM207 330l-69 21l337 6l-70 -22q0 48 -4 79t-14 44q-7 8 -21 15t-46 7q-38 0 -57 -7.5t-29 -18.5q-27 -28 -27 -124zM242 668v108h163v-108h-163z" />
    <glyph glyph-name="uni1EB9" unicode="&#x1eb9;" horiz-adv-x="611" 
d="M322 -14q-81 0 -142.5 30t-95.5 98t-34 181q0 118 36 184.5t97 94.5t137 28q78 0 132 -27t82.5 -88t28.5 -164v-83h-426l70 22q0 -36 3 -62.5t10 -44t18 -27.5q10 -9 25.5 -14t40.5 -5q27 0 60 5.5t64.5 13.5t54.5 14.5t31 9.5l38 -112q-9 -4 -43.5 -17.5t-83 -25
t-103.5 -11.5zM207 330l-69 21l337 6l-70 -22q0 48 -4 79t-14 44q-7 8 -21 15t-46 7q-38 0 -57 -7.5t-29 -18.5q-27 -28 -27 -124zM224 -167v108h158v-108h-158z" />
    <glyph glyph-name="uni1EBB" unicode="&#x1ebb;" horiz-adv-x="611" 
d="M322 -14q-81 0 -142.5 30t-95.5 98t-34 181q0 118 36 184.5t97 94.5t137 28q78 0 132 -27t82.5 -88t28.5 -164v-83h-426l70 22q0 -36 3 -62.5t10 -44t18 -27.5q10 -9 25.5 -14t40.5 -5q27 0 60 5.5t64.5 13.5t54.5 14.5t31 9.5l38 -112q-9 -4 -43.5 -17.5t-83 -25
t-103.5 -11.5zM207 330l-69 21l337 6l-70 -22q0 48 -4 79t-14 44q-7 8 -21 15t-46 7q-38 0 -57 -7.5t-29 -18.5q-27 -28 -27 -124zM246 761v92q23 2 40 3t39 1q71 0 97 -22.5t26 -58.5q0 -28 -11 -51.5t-41.5 -50.5t-87.5 -64l-60 53q35 27 56.5 44.5t21.5 29.5q0 24 -47 24
h-33z" />
    <glyph glyph-name="emacron" unicode="&#x113;" horiz-adv-x="611" 
d="M322 -14q-81 0 -142.5 30t-95.5 98t-34 181q0 118 36 184.5t97 94.5t137 28q78 0 132 -27t82.5 -88t28.5 -164v-83h-426l70 22q0 -36 3 -62.5t10 -44t18 -27.5q10 -9 25.5 -14t40.5 -5q27 0 60 5.5t64.5 13.5t54.5 14.5t31 9.5l38 -112q-9 -4 -43.5 -17.5t-83 -25
t-103.5 -11.5zM207 330l-69 21l337 6l-70 -22q0 48 -4 79t-14 44q-7 8 -21 15t-46 7q-38 0 -57 -7.5t-29 -18.5q-27 -28 -27 -124zM124 668v96h393v-96h-393z" />
    <glyph glyph-name="eogonek" unicode="&#x119;" horiz-adv-x="611" 
d="M322 -14q-81 0 -142.5 30t-95.5 98t-34 181q0 118 36 184.5t97 94.5t137 28q78 0 132 -27t82.5 -88t28.5 -164v-83h-426l70 22q0 -36 3 -62.5t10 -44t18 -27.5q10 -9 25.5 -14t40.5 -5q27 0 60 5.5t64.5 13.5t54.5 14.5t31 9.5l38 -112q-9 -4 -43.5 -17.5t-83 -25
t-103.5 -11.5zM207 330l-69 21l337 6l-70 -22q0 48 -4 79t-14 44q-7 8 -21 15t-46 7q-38 0 -57 -7.5t-29 -18.5q-27 -28 -27 -124zM415 -162q-49 0 -75.5 20.5t-26.5 61.5q0 23 11 44t33.5 40t56.5 34l81 -20q-45 -14 -70 -31.5t-25 -35.5q0 -12 12.5 -17t33.5 -5q16 0 33 2
l17 2v-86l-23 -4.5t-58 -4.5z" />
    <glyph glyph-name="uni1EBD" unicode="&#x1ebd;" horiz-adv-x="611" 
d="M322 -14q-81 0 -142.5 30t-95.5 98t-34 181q0 118 36 184.5t97 94.5t137 28q78 0 132 -27t82.5 -88t28.5 -164v-83h-426l70 22q0 -36 3 -62.5t10 -44t18 -27.5q10 -9 25.5 -14t40.5 -5q27 0 60 5.5t64.5 13.5t54.5 14.5t31 9.5l38 -112q-9 -4 -43.5 -17.5t-83 -25
t-103.5 -11.5zM207 330l-69 21l337 6l-70 -22q0 48 -4 79t-14 44q-7 8 -21 15t-46 7q-38 0 -57 -7.5t-29 -18.5q-27 -28 -27 -124zM428 656q-22 0 -52.5 7t-61.5 15.5t-55.5 15.5t-34.5 7q-8 0 -15.5 -10t-12 -20.5l-4.5 -10.5l-76 10q2 69 28.5 98.5t68.5 29.5
q23 0 53 -6.5t61 -15t55.5 -15t34.5 -6.5q8 0 15 10t11.5 20l4.5 10l75 -12q-1 -68 -27 -97.5t-68 -29.5z" />
    <glyph glyph-name="gbreve" unicode="&#x11f;" horiz-adv-x="565" 
d="M277 -179q-46 0 -89 5t-77 12t-54 12l-20 5l17 118q72 -11 143.5 -20t134.5 -9q34 0 46.5 3.5t12.5 12.5q0 4 -4.5 7.5t-20.5 10t-51 19t-95 34.5q-42 15 -61 23t-24 12.5t-5 8.5q0 9 6 27.5t13.5 39t13.5 34.5l6 14q-69 24 -106.5 72t-37.5 124q0 81 38 128t101 67
t136 20q21 0 53 -1t66.5 -3t65.5 -4t50 -3l19 -1v-90l-62 -10l6.5 -16t12.5 -41.5t6 -54.5q0 -56 -30 -102t-87 -73t-139 -28l-1 -9t-1 -11q0 -4 12 -8.5t35.5 -12.5t56.5 -21q64 -25 101.5 -47.5t53.5 -46.5t16 -53q0 -47 -33 -79t-91 -48.5t-133 -16.5zM272 287
q41 0 63.5 9t31 33.5t8.5 68.5q0 32 -3.5 55t-9.5 29q-3 3 -11.5 5t-20 2.5t-23.5 1t-22 0.5q-45 0 -70.5 -6.5t-36.5 -28t-11 -66.5q0 -61 22 -82t83 -21zM283 643q-50 0 -92.5 15.5t-69.5 51t-32 96.5l79 9q10 -43 39 -57.5t76 -14.5t76 14.5t39 57.5l79 -9
q-5 -61 -32 -96.5t-69 -51t-93 -15.5z" />
    <glyph glyph-name="gcaron" unicode="&#x1e7;" horiz-adv-x="565" 
d="M277 -179q-46 0 -89 5t-77 12t-54 12l-20 5l17 118q72 -11 143.5 -20t134.5 -9q34 0 46.5 3.5t12.5 12.5q0 4 -4.5 7.5t-20.5 10t-51 19t-95 34.5q-42 15 -61 23t-24 12.5t-5 8.5q0 9 6 27.5t13.5 39t13.5 34.5l6 14q-69 24 -106.5 72t-37.5 124q0 81 38 128t101 67
t136 20q21 0 53 -1t66.5 -3t65.5 -4t50 -3l19 -1v-90l-62 -10l6.5 -16t12.5 -41.5t6 -54.5q0 -56 -30 -102t-87 -73t-139 -28l-1 -9t-1 -11q0 -4 12 -8.5t35.5 -12.5t56.5 -21q64 -25 101.5 -47.5t53.5 -46.5t16 -53q0 -47 -33 -79t-91 -48.5t-133 -16.5zM272 287
q41 0 63.5 9t31 33.5t8.5 68.5q0 32 -3.5 55t-9.5 29q-3 3 -11.5 5t-20 2.5t-23.5 1t-22 0.5q-45 0 -70.5 -6.5t-36.5 -28t-11 -66.5q0 -61 22 -82t83 -21zM246 657l-167 105l33 61l167 -64h7l167 64l33 -61l-167 -105h-73z" />
    <glyph glyph-name="uni0123" unicode="&#x123;" horiz-adv-x="565" 
d="M277 -179q-46 0 -89 5t-77 12t-54 12l-20 5l17 118q72 -11 143.5 -20t134.5 -9q34 0 46.5 3.5t12.5 12.5q0 4 -4.5 7.5t-20.5 10t-51 19t-95 34.5q-42 15 -61 23t-24 12.5t-5 8.5q0 9 6 27.5t13.5 39t13.5 34.5l6 14q-69 24 -106.5 72t-37.5 124q0 81 38 128t101 67
t136 20q21 0 53 -1t66.5 -3t65.5 -4t50 -3l19 -1v-90l-62 -10l6.5 -16t12.5 -41.5t6 -54.5q0 -56 -30 -102t-87 -73t-139 -28l-1 -9t-1 -11q0 -4 12 -8.5t35.5 -12.5t56.5 -21q64 -25 101.5 -47.5t53.5 -46.5t16 -53q0 -47 -33 -79t-91 -48.5t-133 -16.5zM272 287
q41 0 63.5 9t31 33.5t8.5 68.5q0 32 -3.5 55t-9.5 29q-3 3 -11.5 5t-20 2.5t-23.5 1t-22 0.5q-45 0 -70.5 -6.5t-36.5 -28t-11 -66.5q0 -61 22 -82t83 -21zM232 849l-28 -47q17 -11 25 -41.5t8 -77.5v-35h106v27q0 54 -17 90t-42.5 56.5t-51.5 27.5z" />
    <glyph glyph-name="gdotaccent" unicode="&#x121;" horiz-adv-x="565" 
d="M277 -179q-46 0 -89 5t-77 12t-54 12l-20 5l17 118q72 -11 143.5 -20t134.5 -9q34 0 46.5 3.5t12.5 12.5q0 4 -4.5 7.5t-20.5 10t-51 19t-95 34.5q-42 15 -61 23t-24 12.5t-5 8.5q0 9 6 27.5t13.5 39t13.5 34.5l6 14q-69 24 -106.5 72t-37.5 124q0 81 38 128t101 67
t136 20q21 0 53 -1t66.5 -3t65.5 -4t50 -3l19 -1v-90l-62 -10l6.5 -16t12.5 -41.5t6 -54.5q0 -56 -30 -102t-87 -73t-139 -28l-1 -9t-1 -11q0 -4 12 -8.5t35.5 -12.5t56.5 -21q64 -25 101.5 -47.5t53.5 -46.5t16 -53q0 -47 -33 -79t-91 -48.5t-133 -16.5zM272 287
q41 0 63.5 9t31 33.5t8.5 68.5q0 32 -3.5 55t-9.5 29q-3 3 -11.5 5t-20 2.5t-23.5 1t-22 0.5q-45 0 -70.5 -6.5t-36.5 -28t-11 -66.5q0 -61 22 -82t83 -21zM205 668v108h163v-108h-163z" />
    <glyph glyph-name="uni01D0" unicode="&#x1d0;" horiz-adv-x="311" 
d="M119 657l-137 105l33 61l137 -64h7l137 64l33 -61l-137 -105h-73zM78 0v588h155v-588h-155z" />
    <glyph glyph-name="i.loclTRK" horiz-adv-x="311" 
d="M78 0v588h155v-588h-155zM74 668v108h163v-108h-163z" />
    <glyph glyph-name="uni1ECB" unicode="&#x1ecb;" horiz-adv-x="311" 
d="M78 0v588h155v-588h-155zM74 668v108h163v-108h-163zM77 -156v108h158v-108h-158z" />
    <glyph glyph-name="uni1EC9" unicode="&#x1ec9;" horiz-adv-x="311" 
d="M78 0v588h155v-588h-155zM69 761v92q23 2 40 3t39 1q71 0 97 -22.5t26 -58.5q0 -28 -11 -51.5t-41.5 -50.5t-87.5 -64l-60 53q35 27 56.5 44.5t21.5 29.5q0 24 -47 24h-33z" />
    <glyph glyph-name="imacron" unicode="&#x12b;" horiz-adv-x="311" 
d="M-1 668v96h313v-96h-313zM78 0v588h155v-588h-155z" />
    <glyph glyph-name="iogonek" unicode="&#x12f;" horiz-adv-x="311" 
d="M78 0v588h155v-588h-155zM74 668v108h163v-108h-163zM147 -179q-49 0 -75.5 20.5t-26.5 61.5q0 23 11 44t33.5 40t56.5 34l81 -20q-45 -14 -70 -31.5t-25 -35.5q0 -12 12.5 -17t33.5 -5q16 0 33 2l17 2v-86l-23 -4.5t-58 -4.5z" />
    <glyph glyph-name="lacute" unicode="&#x13a;" horiz-adv-x="303" 
d="M26 808l-20 83l294 77l28 -110zM74 0v761h155v-761h-155z" />
    <glyph glyph-name="lcaron" unicode="&#x13e;" horiz-adv-x="403" 
d="M74 0v761h155v-761h-155zM312 501l-19 260h119l-20 -260h-80z" />
    <glyph glyph-name="uni013C" unicode="&#x13c;" horiz-adv-x="303" 
d="M74 0v761h155v-761h-155zM98 -253l-28 47q17 11 25 41.5t8 77.5v35h106v-27q0 -54 -17 -90t-42.5 -56.5t-51.5 -27.5z" />
    <glyph glyph-name="ncaron" unicode="&#x148;" 
d="M79 0v588h99l18 -59h6q20 12 43.5 24.5t50.5 23.5t57 17.5t63 6.5q62 0 94 -28t44 -77t12 -111v-385h-155v356q0 41 -2 62t-12 33q-6 8 -16 11.5t-24 3.5q-19 0 -41.5 -6t-44 -15.5t-37.5 -20.5v-424h-155zM281 657l-167 105l33 61l167 -64h7l167 64l33 -61l-167 -105
h-73z" />
    <glyph glyph-name="uni0146" unicode="&#x146;" 
d="M79 0v588h99l18 -59h6q20 12 43.5 24.5t50.5 23.5t57 17.5t63 6.5q62 0 94 -28t44 -77t12 -111v-385h-155v356q0 41 -2 62t-12 33q-6 8 -16 11.5t-24 3.5q-19 0 -41.5 -6t-44 -15.5t-37.5 -20.5v-424h-155zM274 -253l-28 47q17 11 25 41.5t8 77.5v35h106v-27
q0 -54 -17 -90t-42.5 -56.5t-51.5 -27.5z" />
    <glyph glyph-name="uni1E45" unicode="&#x1e45;" 
d="M79 0v588h99l18 -59h6q20 12 43.5 24.5t50.5 23.5t57 17.5t63 6.5q62 0 94 -28t44 -77t12 -111v-385h-155v356q0 41 -2 62t-12 33q-6 8 -16 11.5t-24 3.5q-19 0 -41.5 -6t-44 -15.5t-37.5 -20.5v-424h-155zM240 668v108h163v-108h-163z" />
    <glyph glyph-name="eng" unicode="&#x14b;" 
d="M79 0v588h99l18 -59h6q20 12 43.5 24.5t50.5 23.5t57 17.5t63 6.5q62 0 94 -28t44 -77t12 -111v-321q0 -84 -27.5 -134.5t-71.5 -73t-94 -22.5q-25 0 -42 1.5t-46 5.5l17 125q16 -1 30.5 -2.5t32.5 -1.5q22 0 31.5 9t12 35t2.5 77v273q0 41 -2 62t-12 33q-6 8 -16 11.5
t-24 3.5q-19 0 -41.5 -6t-44 -15.5t-37.5 -20.5v-424h-155z" />
    <glyph glyph-name="uni01D2" unicode="&#x1d2;" horiz-adv-x="612" 
d="M307 -13q-97 0 -154 37.5t-81 106.5t-24 164q0 94 24 162.5t81 106t155 37.5q97 0 153 -37.5t79.5 -106t23.5 -163.5q0 -94 -23.5 -163t-79.5 -106.5t-154 -37.5zM307 105q29 0 48 8t30.5 29t16 58t4.5 95q0 57 -5 94t-16 57.5t-30 28.5t-48 8t-48.5 -8t-31 -28.5
t-16.5 -57.5t-5 -94q0 -58 5 -95t16.5 -58t31 -29t48.5 -8zM269 657l-167 105l33 61l167 -64h7l167 64l33 -61l-167 -105h-73z" />
    <glyph glyph-name="uni1ED1" unicode="&#x1ed1;" horiz-adv-x="612" 
d="M307 -13q-97 0 -154 37.5t-81 106.5t-24 164q0 94 24 162.5t81 106t155 37.5q97 0 153 -37.5t79.5 -106t23.5 -163.5q0 -94 -23.5 -163t-79.5 -106.5t-154 -37.5zM307 105q29 0 48 8t30.5 29t16 58t4.5 95q0 57 -5 94t-16 57.5t-30 28.5t-48 8t-48.5 -8t-31 -28.5
t-16.5 -57.5t-5 -94q0 -58 5 -95t16.5 -58t31 -29t48.5 -8zM135 637l-33 61l167 105h73l167 -105l-33 -61l-167 64h-7zM161 823l-22 81l293 89l31 -112z" />
    <glyph glyph-name="uni1ED9" unicode="&#x1ed9;" horiz-adv-x="612" 
d="M307 -13q-97 0 -154 37.5t-81 106.5t-24 164q0 94 24 162.5t81 106t155 37.5q97 0 153 -37.5t79.5 -106t23.5 -163.5q0 -94 -23.5 -163t-79.5 -106.5t-154 -37.5zM307 105q29 0 48 8t30.5 29t16 58t4.5 95q0 57 -5 94t-16 57.5t-30 28.5t-48 8t-48.5 -8t-31 -28.5
t-16.5 -57.5t-5 -94q0 -58 5 -95t16.5 -58t31 -29t48.5 -8zM227 -166v108h158v-108h-158zM136 640l-33 61l167 105h73l167 -105l-33 -61l-167 64h-7z" />
    <glyph glyph-name="uni1ED3" unicode="&#x1ed3;" horiz-adv-x="612" 
d="M307 -13q-97 0 -154 37.5t-81 106.5t-24 164q0 94 24 162.5t81 106t155 37.5q97 0 153 -37.5t79.5 -106t23.5 -163.5q0 -94 -23.5 -163t-79.5 -106.5t-154 -37.5zM307 105q29 0 48 8t30.5 29t16 58t4.5 95q0 57 -5 94t-16 57.5t-30 28.5t-48 8t-48.5 -8t-31 -28.5
t-16.5 -57.5t-5 -94q0 -58 5 -95t16.5 -58t31 -29t48.5 -8zM135 637l-33 61l167 105h73l167 -105l-33 -61l-167 64h-7zM449 823l-305 58l26 112l298 -87z" />
    <glyph glyph-name="uni1ED5" unicode="&#x1ed5;" horiz-adv-x="612" 
d="M307 -13q-97 0 -154 37.5t-81 106.5t-24 164q0 94 24 162.5t81 106t155 37.5q97 0 153 -37.5t79.5 -106t23.5 -163.5q0 -94 -23.5 -163t-79.5 -106.5t-154 -37.5zM307 105q29 0 48 8t30.5 29t16 58t4.5 95q0 57 -5 94t-16 57.5t-30 28.5t-48 8t-48.5 -8t-31 -28.5
t-16.5 -57.5t-5 -94q0 -58 5 -95t16.5 -58t31 -29t48.5 -8zM135 637l-33 61l167 105h73l167 -105l-33 -61l-167 64h-7zM429 889v92q23 2 40 3t39 1q71 0 97 -22.5t26 -58.5q0 -28 -11 -51.5t-41.5 -50.5t-87.5 -64l-60 53q35 27 56.5 44.5t21.5 29.5q0 24 -47 24h-33z" />
    <glyph glyph-name="uni1ED7" unicode="&#x1ed7;" horiz-adv-x="612" 
d="M307 -13q-97 0 -154 37.5t-81 106.5t-24 164q0 94 24 162.5t81 106t155 37.5q97 0 153 -37.5t79.5 -106t23.5 -163.5q0 -94 -23.5 -163t-79.5 -106.5t-154 -37.5zM307 105q29 0 48 8t30.5 29t16 58t4.5 95q0 57 -5 94t-16 57.5t-30 28.5t-48 8t-48.5 -8t-31 -28.5
t-16.5 -57.5t-5 -94q0 -58 5 -95t16.5 -58t31 -29t48.5 -8zM135 637l-33 61l167 105h73l167 -105l-33 -61l-167 64h-7zM414 833q-22 0 -52.5 7t-61.5 15.5t-55.5 15.5t-34.5 7q-8 0 -15.5 -10t-12 -20.5l-4.5 -10.5l-76 10q2 69 28.5 98.5t68.5 29.5q23 0 53 -6.5t61 -15
t55.5 -15t34.5 -6.5q8 0 15 10t11.5 20l4.5 10l75 -12q-1 -68 -27 -97.5t-68 -29.5z" />
    <glyph glyph-name="uni1ECD" unicode="&#x1ecd;" horiz-adv-x="612" 
d="M307 -13q-97 0 -154 37.5t-81 106.5t-24 164q0 94 24 162.5t81 106t155 37.5q97 0 153 -37.5t79.5 -106t23.5 -163.5q0 -94 -23.5 -163t-79.5 -106.5t-154 -37.5zM307 105q29 0 48 8t30.5 29t16 58t4.5 95q0 57 -5 94t-16 57.5t-30 28.5t-48 8t-48.5 -8t-31 -28.5
t-16.5 -57.5t-5 -94q0 -58 5 -95t16.5 -58t31 -29t48.5 -8zM228 -166v108h158v-108h-158z" />
    <glyph glyph-name="uni1ECF" unicode="&#x1ecf;" horiz-adv-x="612" 
d="M307 -13q-97 0 -154 37.5t-81 106.5t-24 164q0 94 24 162.5t81 106t155 37.5q97 0 153 -37.5t79.5 -106t23.5 -163.5q0 -94 -23.5 -163t-79.5 -106.5t-154 -37.5zM307 105q29 0 48 8t30.5 29t16 58t4.5 95q0 57 -5 94t-16 57.5t-30 28.5t-48 8t-48.5 -8t-31 -28.5
t-16.5 -57.5t-5 -94q0 -58 5 -95t16.5 -58t31 -29t48.5 -8zM228 775v92q23 2 40 3t39 1q71 0 97 -22.5t26 -58.5q0 -28 -11 -51.5t-41.5 -50.5t-87.5 -64l-60 53q35 27 56.5 44.5t21.5 29.5q0 24 -47 24h-33z" />
    <glyph glyph-name="ohorn" unicode="&#x1a1;" horiz-adv-x="612" 
d="M307 -13q-97 0 -154 37.5t-81 106.5t-24 164q0 94 24 162.5t81 106t155 37.5q97 0 153 -37.5t79.5 -106t23.5 -163.5q0 -94 -23.5 -163t-79.5 -106.5t-154 -37.5zM307 105q29 0 48 8t30.5 29t16 58t4.5 95q0 57 -5 94t-16 57.5t-30 28.5t-48 8t-48.5 -8t-31 -28.5
t-16.5 -57.5t-5 -94q0 -58 5 -95t16.5 -58t31 -29t48.5 -8zM404 587h86q17 0 22 6t5 25q0 10 -1.5 22t-5.5 32t-11 53h123q7 -25 11 -45t4 -34q0 -52 -21.5 -84.5t-57.5 -47.5t-78 -15h-63z" />
    <glyph glyph-name="uni1EDB" unicode="&#x1edb;" horiz-adv-x="612" 
d="M307 -13q-97 0 -154 37.5t-81 106.5t-24 164q0 94 24 162.5t81 106t155 37.5q97 0 153 -37.5t79.5 -106t23.5 -163.5q0 -94 -23.5 -163t-79.5 -106.5t-154 -37.5zM307 105q29 0 48 8t30.5 29t16 58t4.5 95q0 57 -5 94t-16 57.5t-30 28.5t-48 8t-48.5 -8t-31 -28.5
t-16.5 -57.5t-5 -94q0 -58 5 -95t16.5 -58t31 -29t48.5 -8zM404 587h86q17 0 22 6t5 25q0 10 -1.5 22t-5.5 32t-11 53h123q7 -25 11 -45t4 -34q0 -52 -21.5 -84.5t-57.5 -47.5t-78 -15h-63zM161 646l-22 81l293 89l31 -112z" />
    <glyph glyph-name="uni1EE3" unicode="&#x1ee3;" horiz-adv-x="612" 
d="M307 -13q-97 0 -154 37.5t-81 106.5t-24 164q0 94 24 162.5t81 106t155 37.5q97 0 153 -37.5t79.5 -106t23.5 -163.5q0 -94 -23.5 -163t-79.5 -106.5t-154 -37.5zM307 105q29 0 48 8t30.5 29t16 58t4.5 95q0 57 -5 94t-16 57.5t-30 28.5t-48 8t-48.5 -8t-31 -28.5
t-16.5 -57.5t-5 -94q0 -58 5 -95t16.5 -58t31 -29t48.5 -8zM404 587h86q17 0 22 6t5 25q0 10 -1.5 22t-5.5 32t-11 53h123q7 -25 11 -45t4 -34q0 -52 -21.5 -84.5t-57.5 -47.5t-78 -15h-63zM227 -156v108h158v-108h-158z" />
    <glyph glyph-name="uni1EDD" unicode="&#x1edd;" horiz-adv-x="612" 
d="M307 -13q-97 0 -154 37.5t-81 106.5t-24 164q0 94 24 162.5t81 106t155 37.5q97 0 153 -37.5t79.5 -106t23.5 -163.5q0 -94 -23.5 -163t-79.5 -106.5t-154 -37.5zM307 105q29 0 48 8t30.5 29t16 58t4.5 95q0 57 -5 94t-16 57.5t-30 28.5t-48 8t-48.5 -8t-31 -28.5
t-16.5 -57.5t-5 -94q0 -58 5 -95t16.5 -58t31 -29t48.5 -8zM404 587h86q17 0 22 6t5 25q0 10 -1.5 22t-5.5 32t-11 53h123q7 -25 11 -45t4 -34q0 -52 -21.5 -84.5t-57.5 -47.5t-78 -15h-63zM449 646l-305 58l26 112l298 -87z" />
    <glyph glyph-name="uni1EDF" unicode="&#x1edf;" horiz-adv-x="612" 
d="M307 -13q-97 0 -154 37.5t-81 106.5t-24 164q0 94 24 162.5t81 106t155 37.5q97 0 153 -37.5t79.5 -106t23.5 -163.5q0 -94 -23.5 -163t-79.5 -106.5t-154 -37.5zM307 105q29 0 48 8t30.5 29t16 58t4.5 95q0 57 -5 94t-16 57.5t-30 28.5t-48 8t-48.5 -8t-31 -28.5
t-16.5 -57.5t-5 -94q0 -58 5 -95t16.5 -58t31 -29t48.5 -8zM404 587h86q17 0 22 6t5 25q0 10 -1.5 22t-5.5 32t-11 53h123q7 -25 11 -45t4 -34q0 -52 -21.5 -84.5t-57.5 -47.5t-78 -15h-63zM231 773v92q23 2 40 3t39 1q71 0 97 -22.5t26 -58.5q0 -28 -11 -51.5t-41.5 -50.5
t-87.5 -64l-60 53q35 27 56.5 44.5t21.5 29.5q0 24 -47 24h-33z" />
    <glyph glyph-name="uni1EE1" unicode="&#x1ee1;" horiz-adv-x="612" 
d="M307 -13q-97 0 -154 37.5t-81 106.5t-24 164q0 94 24 162.5t81 106t155 37.5q97 0 153 -37.5t79.5 -106t23.5 -163.5q0 -94 -23.5 -163t-79.5 -106.5t-154 -37.5zM307 105q29 0 48 8t30.5 29t16 58t4.5 95q0 57 -5 94t-16 57.5t-30 28.5t-48 8t-48.5 -8t-31 -28.5
t-16.5 -57.5t-5 -94q0 -58 5 -95t16.5 -58t31 -29t48.5 -8zM404 587h86q17 0 22 6t5 25q0 10 -1.5 22t-5.5 32t-11 53h123q7 -25 11 -45t4 -34q0 -52 -21.5 -84.5t-57.5 -47.5t-78 -15h-63zM403 656q-20 0 -47.5 7t-55 15.5t-49.5 15.5t-31 7q-7 0 -14 -10t-11 -20.5
l-4 -10.5l-69 10q2 69 26 98.5t62 29.5q20 0 47.5 -6.5t55 -15t49.5 -15t31 -6.5q8 0 14 10t10 20l4 10l68 -12q-1 -45 -12 -73t-29.5 -41t-44.5 -13z" />
    <glyph glyph-name="ohungarumlaut" unicode="&#x151;" horiz-adv-x="612" 
d="M307 -13q-97 0 -154 37.5t-81 106.5t-24 164q0 94 24 162.5t81 106t155 37.5q97 0 153 -37.5t79.5 -106t23.5 -163.5q0 -94 -23.5 -163t-79.5 -106.5t-154 -37.5zM307 105q29 0 48 8t30.5 29t16 58t4.5 95q0 57 -5 94t-16 57.5t-30 28.5t-48 8t-48.5 -8t-31 -28.5
t-16.5 -57.5t-5 -94q0 -58 5 -95t16.5 -58t31 -29t48.5 -8zM190 625l-50 67l150 127l63 -86zM378 625l-50 67l150 127l63 -86z" />
    <glyph glyph-name="omacron" unicode="&#x14d;" horiz-adv-x="612" 
d="M307 -13q-97 0 -154 37.5t-81 106.5t-24 164q0 94 24 162.5t81 106t155 37.5q97 0 153 -37.5t79.5 -106t23.5 -163.5q0 -94 -23.5 -163t-79.5 -106.5t-154 -37.5zM307 105q29 0 48 8t30.5 29t16 58t4.5 95q0 57 -5 94t-16 57.5t-30 28.5t-48 8t-48.5 -8t-31 -28.5
t-16.5 -57.5t-5 -94q0 -58 5 -95t16.5 -58t31 -29t48.5 -8zM110 668v96h393v-96h-393z" />
    <glyph glyph-name="racute" unicode="&#x155;" horiz-adv-x="430" 
d="M79 0v588h96l20 -62h6l14.5 11.5t38.5 26t52 26t55 11.5q35 0 50 -5.5l15 -5.5l-12 -134l-17.5 1.5t-37.5 1.5q-25 0 -48.5 -5.5t-42.5 -13.5t-34 -17v-423h-155zM114 646l-22 81l293 89l31 -112z" />
    <glyph glyph-name="sacute" unicode="&#x15b;" horiz-adv-x="537" 
d="M282 -13q-46 0 -89 9t-77 20t-54 20l-20 9l38 122l20.5 -8t53.5 -19t69.5 -19t67.5 -8q17 0 27.5 3t16.5 7q8 6 12.5 17t4.5 24q0 25 -16 38.5t-42.5 22.5t-59.5 18q-32 10 -65 21.5t-60.5 31t-44.5 50.5t-17 80q0 79 53 127t170 48q44 0 85 -6t73 -14t50 -14l-23 -120
l-19 4.5t-49 10.5t-64 10.5t-64 4.5q-25 0 -35 -3t-15 -7q-4 -3 -7.5 -9.5t-3.5 -17.5q0 -22 16 -35.5t42.5 -22.5t57.5 -18q32 -9 65.5 -19.5t61.5 -29t45 -50t17 -82.5q0 -88 -57 -142t-164 -54zM130 646l-22 81l293 89l31 -112z" />
    <glyph glyph-name="scaron" unicode="&#x161;" horiz-adv-x="537" 
d="M282 -13q-46 0 -89 9t-77 20t-54 20l-20 9l38 122l20.5 -8t53.5 -19t69.5 -19t67.5 -8q17 0 27.5 3t16.5 7q8 6 12.5 17t4.5 24q0 25 -16 38.5t-42.5 22.5t-59.5 18q-32 10 -65 21.5t-60.5 31t-44.5 50.5t-17 80q0 79 53 127t170 48q44 0 85 -6t73 -14t50 -14l-23 -120
l-19 4.5t-49 10.5t-64 10.5t-64 4.5q-25 0 -35 -3t-15 -7q-4 -3 -7.5 -9.5t-3.5 -17.5q0 -22 16 -35.5t42.5 -22.5t57.5 -18q32 -9 65.5 -19.5t61.5 -29t45 -50t17 -82.5q0 -88 -57 -142t-164 -54zM238 657l-167 105l33 61l167 -64h7l167 64l33 -61l-167 -105h-73z" />
    <glyph glyph-name="scedilla" unicode="&#x15f;" horiz-adv-x="537" 
d="M282 -13q-46 0 -89 9t-77 20t-54 20l-20 9l38 122l20.5 -8t53.5 -19t69.5 -19t67.5 -8q17 0 27.5 3t16.5 7q8 6 12.5 17t4.5 24q0 25 -16 38.5t-42.5 22.5t-59.5 18q-32 10 -65 21.5t-60.5 31t-44.5 50.5t-17 80q0 79 53 127t170 48q44 0 85 -6t73 -14t50 -14l-23 -120
l-19 4.5t-49 10.5t-64 10.5t-64 4.5q-25 0 -35 -3t-15 -7q-4 -3 -7.5 -9.5t-3.5 -17.5q0 -22 16 -35.5t42.5 -22.5t57.5 -18q32 -9 65.5 -19.5t61.5 -29t45 -50t17 -82.5q0 -88 -57 -142t-164 -54zM252 -179q-34 0 -60.5 4.5l-26.5 4.5v87l12.5 -1t30 -2.5t32.5 -1.5
q23 0 34.5 5t11.5 25q0 23 -5 48.5t-6 29.5l76 20q1 -1 6 -16.5t10.5 -39.5t5.5 -52q0 -51 -31.5 -81t-89.5 -30z" />
    <glyph glyph-name="uni0219" unicode="&#x219;" horiz-adv-x="537" 
d="M282 -13q-46 0 -89 9t-77 20t-54 20l-20 9l38 122l20.5 -8t53.5 -19t69.5 -19t67.5 -8q17 0 27.5 3t16.5 7q8 6 12.5 17t4.5 24q0 25 -16 38.5t-42.5 22.5t-59.5 18q-32 10 -65 21.5t-60.5 31t-44.5 50.5t-17 80q0 79 53 127t170 48q44 0 85 -6t73 -14t50 -14l-23 -120
l-19 4.5t-49 10.5t-64 10.5t-64 4.5q-25 0 -35 -3t-15 -7q-4 -3 -7.5 -9.5t-3.5 -17.5q0 -22 16 -35.5t42.5 -22.5t57.5 -18q32 -9 65.5 -19.5t61.5 -29t45 -50t17 -82.5q0 -88 -57 -142t-164 -54zM227 -253l-28 47q17 11 25 41.5t8 77.5v35h106v-27q0 -54 -17 -90
t-42.5 -56.5t-51.5 -27.5z" />
    <glyph glyph-name="tbar" unicode="&#x167;" horiz-adv-x="400" 
d="M23 329h335v-90l-157 4l-178 -4v90zM258 -13q-53 0 -90.5 16t-57 61.5t-19.5 132.5v246h-68v97l75 14l23 139h127v-134h120v-119h-122v-247q0 -34 4.5 -50t14 -20t24.5 -4t33 1.5t31 2.5l13 1v-126l-32 -5.5t-76 -5.5z" />
    <glyph glyph-name="tcaron" unicode="&#x165;" horiz-adv-x="522" 
d="M258 -13q-53 0 -90.5 16t-57 61.5t-19.5 132.5v246h-68v97l75 14l23 139h127v-134h120v-119h-122v-247q0 -34 4.5 -50t14 -20t24.5 -4t33 1.5t31 2.5l13 1v-126l-32 -5.5t-76 -5.5zM431 501l-19 260h119l-20 -260h-80z" />
    <glyph glyph-name="uni0163" unicode="&#x163;" horiz-adv-x="400" 
d="M258 -13q-53 0 -90.5 16t-57 61.5t-19.5 132.5v246h-68v97l75 14l23 139h127v-134h120v-119h-122v-247q0 -34 4.5 -50t14 -20t24.5 -4t33 1.5t31 2.5l13 1v-126l-32 -5.5t-76 -5.5zM194 -179q-34 0 -60.5 4.5l-26.5 4.5v87l12.5 -1t30 -2.5t32.5 -1.5q23 0 34.5 5
t11.5 25q0 23 -5 48.5t-6 29.5l76 20q1 -1 6 -16.5t10.5 -39.5t5.5 -52q0 -51 -31.5 -81t-89.5 -30z" />
    <glyph glyph-name="uni021B" unicode="&#x21b;" horiz-adv-x="400" 
d="M258 -13q-53 0 -90.5 16t-57 61.5t-19.5 132.5v246h-68v97l75 14l23 139h127v-134h120v-119h-122v-247q0 -34 4.5 -50t14 -20t24.5 -4t33 1.5t31 2.5l13 1v-126l-32 -5.5t-76 -5.5zM169 -253l-28 47q17 11 25 41.5t8 77.5v35h106v-27q0 -54 -17 -90t-42.5 -56.5
t-51.5 -27.5z" />
    <glyph glyph-name="uni01D4" unicode="&#x1d4;" 
d="M230 -13q-67 0 -102.5 28.5t-48.5 78t-13 111.5v383h155v-368q0 -43 3 -61t10 -25q8 -7 18 -9.5t24 -2.5q29 0 63.5 13t58.5 29v424h155v-588h-99l-19 61h-6q-26 -16 -58 -33t-67.5 -29t-73.5 -12zM279 657l-167 105l33 61l167 -64h7l167 64l33 -61l-167 -105h-73z" />
    <glyph glyph-name="uni01D8" unicode="&#x1d8;" 
d="M230 -13q-67 0 -102.5 28.5t-48.5 78t-13 111.5v383h155v-368q0 -43 3 -61t10 -25q8 -7 18 -9.5t24 -2.5q29 0 63.5 13t58.5 29v424h155v-588h-99l-19 61h-6q-26 -16 -58 -33t-67.5 -29t-73.5 -12zM125 668v108h147v-108h-147zM350 668v108h147v-108h-147zM171 823
l-22 81l293 89l31 -112z" />
    <glyph glyph-name="uni01DA" unicode="&#x1da;" 
d="M230 -13q-67 0 -102.5 28.5t-48.5 78t-13 111.5v383h155v-368q0 -43 3 -61t10 -25q8 -7 18 -9.5t24 -2.5q29 0 63.5 13t58.5 29v424h155v-588h-99l-19 61h-6q-26 -16 -58 -33t-67.5 -29t-73.5 -12zM125 668v108h147v-108h-147zM350 668v108h147v-108h-147zM279 834
l-167 105l33 61l167 -64h7l167 64l33 -61l-167 -105h-73z" />
    <glyph glyph-name="uni01DC" unicode="&#x1dc;" 
d="M230 -13q-67 0 -102.5 28.5t-48.5 78t-13 111.5v383h155v-368q0 -43 3 -61t10 -25q8 -7 18 -9.5t24 -2.5q29 0 63.5 13t58.5 29v424h155v-588h-99l-19 61h-6q-26 -16 -58 -33t-67.5 -29t-73.5 -12zM125 668v108h147v-108h-147zM350 668v108h147v-108h-147zM459 823
l-305 58l26 112l298 -87z" />
    <glyph glyph-name="uni01D6" unicode="&#x1d6;" 
d="M230 -13q-67 0 -102.5 28.5t-48.5 78t-13 111.5v383h155v-368q0 -43 3 -61t10 -25q8 -7 18 -9.5t24 -2.5q29 0 63.5 13t58.5 29v424h155v-588h-99l-19 61h-6q-26 -16 -58 -33t-67.5 -29t-73.5 -12zM125 668v108h147v-108h-147zM350 668v108h147v-108h-147zM120 845v96
h393v-96h-393z" />
    <glyph glyph-name="uni1EE5" unicode="&#x1ee5;" 
d="M230 -13q-67 0 -102.5 28.5t-48.5 78t-13 111.5v383h155v-368q0 -43 3 -61t10 -25q8 -7 18 -9.5t24 -2.5q29 0 63.5 13t58.5 29v424h155v-588h-99l-19 61h-6q-26 -16 -58 -33t-67.5 -29t-73.5 -12zM242 -166v108h158v-108h-158z" />
    <glyph glyph-name="uni1EE7" unicode="&#x1ee7;" 
d="M230 -13q-67 0 -102.5 28.5t-48.5 78t-13 111.5v383h155v-368q0 -43 3 -61t10 -25q8 -7 18 -9.5t24 -2.5q29 0 63.5 13t58.5 29v424h155v-588h-99l-19 61h-6q-26 -16 -58 -33t-67.5 -29t-73.5 -12zM231 761v92q23 2 40 3t39 1q71 0 97 -22.5t26 -58.5q0 -28 -11 -51.5
t-41.5 -50.5t-87.5 -64l-60 53q35 27 56.5 44.5t21.5 29.5q0 24 -47 24h-33z" />
    <glyph glyph-name="uhorn" unicode="&#x1b0;" 
d="M230 -13q-67 0 -102.5 28.5t-48.5 78t-13 111.5v383h155v-368q0 -43 3 -61t10 -25q8 -7 18 -9.5t24 -2.5q29 0 63.5 13t58.5 29v424h155v-588h-99l-19 61h-6q-26 -16 -58 -33t-67.5 -29t-73.5 -12zM468 588h86q17 0 22 6t5 25q0 10 -1.5 22t-5.5 32t-11 53h123
q7 -25 11 -45t4 -34q0 -52 -21.5 -84.5t-57.5 -47.5t-78 -15h-63z" />
    <glyph glyph-name="uni1EE9" unicode="&#x1ee9;" 
d="M230 -13q-67 0 -102.5 28.5t-48.5 78t-13 111.5v383h155v-368q0 -43 3 -61t10 -25q8 -7 18 -9.5t24 -2.5q29 0 63.5 13t58.5 29v424h155v-588h-99l-19 61h-6q-26 -16 -58 -33t-67.5 -29t-73.5 -12zM468 588h86q17 0 22 6t5 25q0 10 -1.5 22t-5.5 32t-11 53h123
q7 -25 11 -45t4 -34q0 -52 -21.5 -84.5t-57.5 -47.5t-78 -15h-63zM171 646l-22 81l293 89l31 -112z" />
    <glyph glyph-name="uni1EF1" unicode="&#x1ef1;" 
d="M230 -13q-67 0 -102.5 28.5t-48.5 78t-13 111.5v383h155v-368q0 -43 3 -61t10 -25q8 -7 18 -9.5t24 -2.5q29 0 63.5 13t58.5 29v424h155v-588h-99l-19 61h-6q-26 -16 -58 -33t-67.5 -29t-73.5 -12zM468 588h86q17 0 22 6t5 25q0 10 -1.5 22t-5.5 32t-11 53h123
q7 -25 11 -45t4 -34q0 -52 -21.5 -84.5t-57.5 -47.5t-78 -15h-63zM237 -166v108h158v-108h-158z" />
    <glyph glyph-name="uni1EEB" unicode="&#x1eeb;" 
d="M230 -13q-67 0 -102.5 28.5t-48.5 78t-13 111.5v383h155v-368q0 -43 3 -61t10 -25q8 -7 18 -9.5t24 -2.5q29 0 63.5 13t58.5 29v424h155v-588h-99l-19 61h-6q-26 -16 -58 -33t-67.5 -29t-73.5 -12zM468 588h86q17 0 22 6t5 25q0 10 -1.5 22t-5.5 32t-11 53h123
q7 -25 11 -45t4 -34q0 -52 -21.5 -84.5t-57.5 -47.5t-78 -15h-63zM459 646l-305 58l26 112l298 -87z" />
    <glyph glyph-name="uni1EED" unicode="&#x1eed;" 
d="M230 -13q-67 0 -102.5 28.5t-48.5 78t-13 111.5v383h155v-368q0 -43 3 -61t10 -25q8 -7 18 -9.5t24 -2.5q29 0 63.5 13t58.5 29v424h155v-588h-99l-19 61h-6q-26 -16 -58 -33t-67.5 -29t-73.5 -12zM468 588h86q17 0 22 6t5 25q0 10 -1.5 22t-5.5 32t-11 53h123
q7 -25 11 -45t4 -34q0 -52 -21.5 -84.5t-57.5 -47.5t-78 -15h-63zM205 761v92q23 2 40 3t39 1q71 0 97 -22.5t26 -58.5q0 -28 -11 -51.5t-41.5 -50.5t-87.5 -64l-60 53q35 27 56.5 44.5t21.5 29.5q0 24 -47 24h-33z" />
    <glyph glyph-name="uni1EEF" unicode="&#x1eef;" 
d="M230 -13q-67 0 -102.5 28.5t-48.5 78t-13 111.5v383h155v-368q0 -43 3 -61t10 -25q8 -7 18 -9.5t24 -2.5q29 0 63.5 13t58.5 29v424h155v-588h-99l-19 61h-6q-26 -16 -58 -33t-67.5 -29t-73.5 -12zM468 588h86q17 0 22 6t5 25q0 10 -1.5 22t-5.5 32t-11 53h123
q7 -25 11 -45t4 -34q0 -52 -21.5 -84.5t-57.5 -47.5t-78 -15h-63zM424 656q-22 0 -52.5 7t-61.5 15.5t-55.5 15.5t-34.5 7q-8 0 -15.5 -10t-12 -20.5l-4.5 -10.5l-76 10q2 69 28.5 98.5t68.5 29.5q23 0 53 -6.5t61 -15t55.5 -15t34.5 -6.5q8 0 15 10t11.5 20l4.5 10l75 -12
q-1 -68 -27 -97.5t-68 -29.5z" />
    <glyph glyph-name="uhungarumlaut" unicode="&#x171;" 
d="M230 -13q-67 0 -102.5 28.5t-48.5 78t-13 111.5v383h155v-368q0 -43 3 -61t10 -25q8 -7 18 -9.5t24 -2.5q29 0 63.5 13t58.5 29v424h155v-588h-99l-19 61h-6q-26 -16 -58 -33t-67.5 -29t-73.5 -12zM200 625l-50 67l150 127l63 -86zM388 625l-50 67l150 127l63 -86z" />
    <glyph glyph-name="umacron" unicode="&#x16b;" 
d="M230 -13q-67 0 -102.5 28.5t-48.5 78t-13 111.5v383h155v-368q0 -43 3 -61t10 -25q8 -7 18 -9.5t24 -2.5q29 0 63.5 13t58.5 29v424h155v-588h-99l-19 61h-6q-26 -16 -58 -33t-67.5 -29t-73.5 -12zM120 668v96h393v-96h-393z" />
    <glyph glyph-name="uogonek" unicode="&#x173;" 
d="M230 -13q-67 0 -102.5 28.5t-48.5 78t-13 111.5v383h155v-368q0 -43 3 -61t10 -25q8 -7 18 -9.5t24 -2.5q29 0 63.5 13t58.5 29v424h155v-588h-99l-19 61h-6q-26 -16 -58 -33t-67.5 -29t-73.5 -12zM474 -179q-49 0 -75.5 20.5t-26.5 61.5q0 23 11 44t33.5 40t56.5 34
l81 -20q-45 -14 -70 -31.5t-25 -35.5q0 -12 12.5 -17t33.5 -5q16 0 33 2l17 2v-86l-23 -4.5t-58 -4.5z" />
    <glyph glyph-name="uring" unicode="&#x16f;" 
d="M230 -13q-67 0 -102.5 28.5t-48.5 78t-13 111.5v383h155v-368q0 -43 3 -61t10 -25q8 -7 18 -9.5t24 -2.5q29 0 63.5 13t58.5 29v424h155v-588h-99l-19 61h-6q-26 -16 -58 -33t-67.5 -29t-73.5 -12zM316 640q-25 0 -49.5 8.5t-40.5 29.5t-16 58q0 39 16 60t40.5 29t50.5 8
q25 0 49 -8t39.5 -29t15.5 -60q0 -37 -15.5 -58t-39.5 -29.5t-50 -8.5zM316 697q22 0 31.5 8.5t9.5 30.5q0 24 -9.5 31t-31.5 7t-32 -7t-10 -31q0 -22 10 -30.5t32 -8.5z" />
    <glyph glyph-name="utilde" unicode="&#x169;" 
d="M230 -13q-67 0 -102.5 28.5t-48.5 78t-13 111.5v383h155v-368q0 -43 3 -61t10 -25q8 -7 18 -9.5t24 -2.5q29 0 63.5 13t58.5 29v424h155v-588h-99l-19 61h-6q-26 -16 -58 -33t-67.5 -29t-73.5 -12zM424 656q-22 0 -52.5 7t-61.5 15.5t-55.5 15.5t-34.5 7q-8 0 -15.5 -10
t-12 -20.5l-4.5 -10.5l-76 10q2 69 28.5 98.5t68.5 29.5q23 0 53 -6.5t61 -15t55.5 -15t34.5 -6.5q8 0 15 10t11.5 20l4.5 10l75 -12q-1 -68 -27 -97.5t-68 -29.5z" />
    <glyph glyph-name="wacute" unicode="&#x1e83;" horiz-adv-x="804" 
d="M137 0l-117 588h156l61 -474h6l68 393h188l69 -393h6l59 474h156l-116 -588h-196l-69 393h-6l-69 -393h-196zM297 646l-22 81l293 89l31 -112z" />
    <glyph glyph-name="wcircumflex" unicode="&#x175;" horiz-adv-x="804" 
d="M137 0l-117 588h156l61 -474h6l68 393h188l69 -393h6l59 474h156l-116 -588h-196l-69 393h-6l-69 -393h-196zM231 637l-33 61l167 105h73l167 -105l-33 -61l-167 64h-7z" />
    <glyph glyph-name="wdieresis" unicode="&#x1e85;" horiz-adv-x="804" 
d="M137 0l-117 588h156l61 -474h6l68 393h188l69 -393h6l59 474h156l-116 -588h-196l-69 393h-6l-69 -393h-196zM211 668v108h147v-108h-147zM436 668v108h147v-108h-147z" />
    <glyph glyph-name="wgrave" unicode="&#x1e81;" horiz-adv-x="804" 
d="M137 0l-117 588h156l61 -474h6l68 393h188l69 -393h6l59 474h156l-116 -588h-196l-69 393h-6l-69 -393h-196zM545 646l-305 58l26 112l298 -87z" />
    <glyph glyph-name="ycircumflex" unicode="&#x177;" horiz-adv-x="536" 
d="M112 -166l86 214l-198 540h160l106 -392h6l103 392h161l-205 -560l-58 -194h-161zM93 637l-33 61l167 105h73l167 -105l-33 -61l-167 64h-7z" />
    <glyph glyph-name="uni1EF5" unicode="&#x1ef5;" horiz-adv-x="536" 
d="M112 -166l86 214l-198 540h160l106 -392h6l103 392h161l-205 -560l-58 -194h-161zM351 -156v108h158v-108h-158z" />
    <glyph glyph-name="ygrave" unicode="&#x1ef3;" horiz-adv-x="540" 
d="M112 -166l86 214l-198 540h160l106 -392h6l103 392h161l-205 -560l-58 -194h-161zM401 646l-305 58l26 112l298 -87z" />
    <glyph glyph-name="uni1EF7" unicode="&#x1ef7;" horiz-adv-x="536" 
d="M112 -166l86 214l-198 540h160l106 -392h6l103 392h161l-205 -560l-58 -194h-161zM187 761v92q23 2 40 3t39 1q71 0 97 -22.5t26 -58.5q0 -28 -11 -51.5t-41.5 -50.5t-87.5 -64l-60 53q35 27 56.5 44.5t21.5 29.5q0 24 -47 24h-33z" />
    <glyph glyph-name="uni1EF9" unicode="&#x1ef9;" horiz-adv-x="536" 
d="M112 -166l86 214l-198 540h160l106 -392h6l103 392h161l-205 -560l-58 -194h-161zM372 656q-22 0 -52.5 7t-61.5 15.5t-55.5 15.5t-34.5 7q-8 0 -15.5 -10t-12 -20.5l-4.5 -10.5l-76 10q2 69 28.5 98.5t68.5 29.5q23 0 53 -6.5t61 -15t55.5 -15t34.5 -6.5q8 0 15 10
t11.5 20l4.5 10l75 -12q-1 -68 -27 -97.5t-68 -29.5z" />
    <glyph glyph-name="zacute" unicode="&#x17a;" horiz-adv-x="506" 
d="M11 0v104l280 362v5l-266 -10v127h454v-104l-277 -363v-6l284 12v-127h-475zM108 646l-22 81l293 89l31 -112z" />
    <glyph glyph-name="zcaron" unicode="&#x17e;" horiz-adv-x="506" 
d="M11 0v104l280 362v5l-266 -10v127h454v-104l-277 -363v-6l284 12v-127h-475zM216 657l-167 105l33 61l167 -64h7l167 64l33 -61l-167 -105h-73z" />
    <glyph glyph-name="zdotaccent" unicode="&#x17c;" horiz-adv-x="506" 
d="M11 0v104l280 362v5l-266 -10v127h454v-104l-277 -363v-6l284 12v-127h-475zM175 668v108h163v-108h-163z" />
    <glyph glyph-name="uni0410" unicode="&#x410;" horiz-adv-x="573" 
d="M-11 0l193 703h204l193 -703h-162l-54 224l87 -68h-332l87 68l-54 -224h-162zM202 220l-54 68h272l-54 -68l-95 405l86 -68h-146l86 68z" />
    <glyph glyph-name="uni0411" unicode="&#x411;" horiz-adv-x="625" 
d="M83 0l1 354l-1 349h422v-134l-269 3l1 -132q14 2 30.5 2.5t34.5 0.5q93 0 156.5 -20t96 -71t32.5 -145q0 -71 -26 -120t-88.5 -74.5t-172.5 -25.5q-38 0 -81 2t-79.5 5t-56.5 6zM306 313q-16 0 -33.5 -1t-34.5 -3l1 -182q14 -1 29 -1.5t31 -0.5q44 0 66 3t32 10
q11 8 19 28t8 46q0 20 -3 43t-17 36q-16 15 -36 18.5t-62 3.5z" />
    <glyph glyph-name="uni0412" unicode="&#x412;" horiz-adv-x="655" 
d="M344 -13q-39 0 -84 3t-84.5 6.5t-65 6.5l-25.5 3l3 323l-5 373l25 2t64 5t83 5t82 2q66 0 120 -18t86 -61.5t32 -119.5q0 -38 -11.5 -65.5t-29 -46t-36 -29t-33.5 -13.5l28 80v-146l-41 84q27 -7 52 -19t45.5 -30.5t32 -47t11.5 -68.5q0 -69 -21 -113.5t-57 -69.5
t-80 -35.5t-91 -10.5zM345 113q53 0 69 24.5t16 76.5q0 53 -26 71.5t-71 18.5h-162l70 70l1 -325l-14 71q-1 1 16 -1t44.5 -4t56.5 -2zM341 426q44 0 59 19.5t15 63.5q0 48 -18.5 66t-62.5 18q-31 0 -52.5 -1t-41 -2.5t-44.5 -3.5l44 73v-303l-70 70h171z" />
    <glyph glyph-name="uni0413" unicode="&#x413;" horiz-adv-x="505" 
d="M83 0h157l-5 642l-70 -69l340 -4v134h-422v-703z" />
    <glyph glyph-name="uni0403" unicode="&#x403;" horiz-adv-x="505" 
d="M83 0h157l-5 642l-70 -69l340 -4v134h-422v-703zM155 750l-20 83l294 77l28 -110z" />
    <glyph glyph-name="uni0490" unicode="&#x490;" horiz-adv-x="510" 
d="M83 0v703h280l25 114h117v-248l-269 3l4 -572h-157z" />
    <glyph glyph-name="uni0414" unicode="&#x414;" horiz-adv-x="720" 
d="M5 -127v261q18 1 32 3t22 5q20 7 31.5 20t18 41.5t10.5 80.5l31 419h463v-569h74v-261h-147v127h-388v-127h-147zM266 252q-2 -31 -9 -61.5t-19 -56.5h220l3 212v224l-172 -2z" />
    <glyph glyph-name="uni0415" unicode="&#x415;" horiz-adv-x="551" 
d="M83 0v703h422v-134l-335 4l72 69l-9 -290l-68 70h315v-131h-315l68 70l9 -299l-72 69l335 3v-134h-422z" />
    <glyph glyph-name="uni0401" unicode="&#x401;" horiz-adv-x="551" 
d="M83 0v703h422v-134l-335 4l72 69l-9 -290l-68 70h315v-131h-315l68 70l9 -299l-72 69l335 3v-134h-422zM106 761v108h147v-108h-147zM331 761v108h147v-108h-147z" />
    <glyph glyph-name="uni0416" unicode="&#x416;" horiz-adv-x="1012" 
d="M1 0l304 423l-42 -125v146l42 -125l-283 384h182l222 -334l-241 -369h-184zM426 0l4 324l-4 379h158l-3 -313l3 -390h-158zM1010 0h-184l-241 369l222 334h182l-283 -384l42 125v-146l-42 125z" />
    <glyph glyph-name="uni0417" unicode="&#x417;" 
d="M308 -13q-47 0 -92 10.5t-81 24t-57.5 24l-21.5 10.5l49 116l22 -7t55.5 -16.5t67.5 -16.5t58 -7q54 0 71.5 18.5t17.5 57.5q0 50 -22.5 70.5t-82.5 20.5l-161 1v130l161 1q33 0 52 7.5t27 24.5t8 47q0 29 -3.5 42.5t-9.5 18.5q-9 8 -32.5 11.5t-58.5 3.5q-37 0 -84 -3.5
t-100 -15.5l-19 132q28 8 64 13.5t74.5 8.5t71.5 3q78 0 138 -17.5t94 -59t34 -114.5q0 -69 -23 -104t-52 -52v-6q38 -18 67.5 -54.5t29.5 -101.5q0 -60 -25 -110t-82 -80.5t-155 -30.5z" />
    <glyph glyph-name="uni0418" unicode="&#x418;" horiz-adv-x="718" 
d="M83 0v703h143l-7 -328l-4 -198l228 526h192v-703h-143l6 302l5 223l-229 -525h-191z" />
    <glyph glyph-name="uni0419" unicode="&#x419;" horiz-adv-x="718" 
d="M83 0v703h143l-7 -328l-4 -198l228 526h192v-703h-143l6 302l5 223l-229 -525h-191zM376 721q-95 0 -135.5 37t-46.5 120l79 5q10 -42 34.5 -57.5t68.5 -15.5q43 0 65 15.5t32 57.5l79 -5q-5 -59 -24 -93.5t-55.5 -49t-96.5 -14.5z" />
    <glyph glyph-name="uni041A" unicode="&#x41a;" horiz-adv-x="664" 
d="M482 0l-239 369l229 334h182l-242 -328v-6l254 -369h-184zM83 0l3 358l-3 345h158v-703h-158z" />
    <glyph glyph-name="uni040C" unicode="&#x40c;" horiz-adv-x="664" 
d="M482 0l-239 369l229 334h182l-242 -328v-6l254 -369h-184zM83 0l3 358l-3 345h158v-703h-158zM227 742l-20 83l294 77l28 -110z" />
    <glyph glyph-name="uni041B" unicode="&#x41b;" horiz-adv-x="695" 
d="M27 -14l-22 105q18 2 29.5 4.5t19.5 5.5q20 7 32.5 19.5t20.5 40.5t11 80l32 462h462v-703h-157l4 572l-169 -2l-25 -361q-5 -71 -20.5 -114.5t-54.5 -69.5q-19 -13 -60.5 -25.5t-102.5 -13.5z" />
    <glyph glyph-name="uni041C" unicode="&#x41c;" horiz-adv-x="843" 
d="M75 0l25 703h201l117 -401h6l120 401h198l26 -703h-156l5 527h-6l-108 -380h-163l-108 380h-6l5 -527h-156z" />
    <glyph glyph-name="uni041D" unicode="&#x41d;" horiz-adv-x="706" 
d="M83 0v703h157l-4 -329l-69 50h372l-69 -50l-4 329h157v-703h-157l4 340l69 -50h-372l69 50l4 -340h-157z" />
    <glyph glyph-name="uni041E" unicode="&#x41e;" horiz-adv-x="700" 
d="M350 -13q-61 0 -115.5 16t-96 56t-65 111.5t-23.5 182.5t23.5 182t65 110.5t96 55t115.5 15.5q62 0 116 -15.5t95.5 -55t65 -110.5t23.5 -182t-23.5 -182.5t-65 -111.5t-95.5 -56t-116 -16zM350 125q36 0 61.5 8.5t42.5 32t25 68.5t8 118q0 72 -8 117t-24.5 68.5
t-42.5 32t-62 8.5t-62 -8.5t-42.5 -32t-24.5 -68.5t-8 -118t8 -117.5t25 -68t42.5 -32t61.5 -8.5z" />
    <glyph glyph-name="uni041F" unicode="&#x41f;" horiz-adv-x="681" 
d="M83 0v703h515v-703h-157l5 345v224h-211v-224l5 -345h-157z" />
    <glyph glyph-name="uni0420" unicode="&#x420;" horiz-adv-x="621" 
d="M83 0l4 328l-4 374l26.5 2t68 5t89 5t89.5 2q109 0 168.5 -62t59.5 -185q0 -77 -21 -127t-57 -78.5t-80.5 -40t-91.5 -11.5q-38 0 -66 1.5l-28 1.5v-215h-157zM337 337q24 0 40 4.5t23 10.5q11 11 16 40t5 85q0 41 -3.5 61t-8.5 27.5t-10 11.5q-6 6 -23 10t-47 4
q-23 0 -46.5 -1.5t-42.5 -3.5v-242l28 -3.5t69 -3.5z" />
    <glyph glyph-name="uni0421" unicode="&#x421;" horiz-adv-x="618" 
d="M339 -13q-84 0 -149 35.5t-102.5 114t-37.5 208.5q0 115 22.5 188t63.5 112.5t96 55t119 15.5q26 0 64 -3.5t76.5 -9t63.5 -12.5l-17 -128q-12 2 -37 4t-54 5t-53.5 4.5t-36.5 1.5q-41 0 -64.5 -4.5t-34.5 -13.5q-13 -10 -23 -34.5t-16 -68.5t-6 -115q0 -88 16 -138.5
t33 -63.5q11 -8 28 -13t43 -5q32 0 67.5 8t66.5 18.5t51 18.5l20 8l45 -119l-18 -10.5t-51 -24t-77.5 -24t-97.5 -10.5z" />
    <glyph glyph-name="uni0422" unicode="&#x422;" horiz-adv-x="516" 
d="M177 0l3 572l-196 -3v134h547v-134l-200 3l3 -572h-157z" />
    <glyph glyph-name="uni0423" unicode="&#x423;" horiz-adv-x="651" 
d="M253 -14q-43 0 -95.5 11t-99.5 33l41 120q40 -13 83 -22t71 -9h4h4l-206 584h159l127 -461h8l109 461h161l-164 -508q-24 -76 -45 -120t-52 -64q-20 -14 -46 -19.5t-59 -5.5z" />
    <glyph glyph-name="uni040E" unicode="&#x40e;" horiz-adv-x="651" 
d="M253 -14q-43 0 -95.5 11t-99.5 33l41 120q40 -13 83 -22t71 -9h4h4l-206 584h159l127 -461h8l109 461h161l-164 -508q-24 -76 -45 -120t-52 -64q-20 -14 -46 -19.5t-59 -5.5zM343 720q-95 0 -135.5 37t-46.5 120l79 5q10 -42 34.5 -57.5t68.5 -15.5q43 0 65 15.5t32 57.5
l79 -5q-5 -59 -24 -93.5t-55.5 -49t-96.5 -14.5z" />
    <glyph glyph-name="uni0424" unicode="&#x424;" horiz-adv-x="836" 
d="M418 60q-144 0 -227 29t-118 92.5t-35 167.5q0 109 38 171t121.5 88.5t220.5 26.5q145 0 227.5 -28.5t117.5 -91.5t35 -166q0 -110 -38 -173t-121.5 -89.5t-220.5 -26.5zM418 172q74 0 118.5 6t66.5 23.5t29 52.5t7 92t-7 92.5t-29 54t-66.5 25t-118.5 6.5
q-71 0 -114.5 -6.5t-66.5 -25t-31.5 -54t-8.5 -92.5t9.5 -92t33.5 -52.5t67.5 -23.5t110.5 -6zM339 0l4 324l-4 379h158l-3 -313l3 -390h-158z" />
    <glyph glyph-name="uni0425" unicode="&#x425;" horiz-adv-x="621" 
d="M-4 0l249 417v-120l-240 406h168l167 -313l-102 62h146l-102 -62l165 313h168l-239 -406v120l249 -417h-174l-169 319l102 -62h-146l103 62l-171 -319h-174z" />
    <glyph glyph-name="uni0427" unicode="&#x427;" horiz-adv-x="685" 
d="M447 0v277q-36 -12 -90 -26.5t-121 -14.5q-71 0 -108 29t-50 78.5t-13 110.5v249h155v-242q0 -32 1 -47.5t10 -26.5q7 -8 22.5 -12t47.5 -4q24 0 50.5 4t52 10.5t43.5 13.5v304h155v-703h-155z" />
    <glyph glyph-name="uni0426" unicode="&#x426;" horiz-adv-x="678" 
d="M83 0v703h157l-5 -639l-70 70h346l-70 -70l-5 639h157v-703h-510zM498 80l160 2v-248h-148z" />
    <glyph glyph-name="uni0428" unicode="&#x428;" horiz-adv-x="1031" 
d="M83 0v703h157l-5 -345v-294l-70 70h344l-71 -70l4 294l-5 345h157l-5 -345l4 -294l-71 70h344l-70 -70v294l-5 345h157v-703h-865z" />
    <glyph glyph-name="uni0429" unicode="&#x429;" horiz-adv-x="1035" 
d="M83 0v703h157l-5 -345v-294l-70 70h344l-71 -70l4 294l-5 345h157l-5 -345l4 -294l-71 70h344l-70 -70v294l-5 345h157v-703h-865zM855 80l160 2v-248h-148z" />
    <glyph glyph-name="uni040F" unicode="&#x40f;" horiz-adv-x="696" 
d="M83 0v703h157l-5 -345v-294l-70 70h366l-70 -70v294l-5 345h157v-703h-530zM269 79l160 2v-247h-148z" />
    <glyph glyph-name="uni042C" unicode="&#x42c;" horiz-adv-x="623" 
d="M83 0q5 -1 29 -3t57.5 -4.5t68.5 -4t62 -1.5q110 0 172.5 26t88.5 78t26 130q0 97 -32.5 149t-96 72t-156.5 20q-31 0 -57.5 -3t-46.5 -4l37 -41v289h-152l3 -341zM306 332q42 0 62 -3.5t36 -18.5q14 -13 17 -36.5t3 -47.5q0 -37 -8 -58.5t-19 -29.5q-10 -7 -32 -10
t-66 -3q-28 0 -54 1.5t-46 2.5l40 -72l-5 308l-44 -40q26 2 57.5 4.5t58.5 2.5z" />
    <glyph glyph-name="uni042A" unicode="&#x42a;" horiz-adv-x="671" 
d="M134 0q5 -1 29 -3t57.5 -4.5t68.5 -4t62 -1.5q110 0 172.5 26t88.5 78t26 130q0 97 -32.5 149t-96 72t-156.5 20q-31 0 -57.5 -3t-46.5 -4l37 -41v289h-152l3 -341zM357 332q42 0 62 -3.5t36 -18.5q14 -13 17 -36.5t3 -47.5q0 -37 -8 -58.5t-19 -29.5q-10 -7 -32 -10
t-66 -3q-28 0 -54 1.5t-46 2.5l40 -72l-5 308l-44 -40q26 2 57.5 4.5t58.5 2.5zM0 569l163 2l93 132h-256v-134z" />
    <glyph glyph-name="uni042B" unicode="&#x42b;" horiz-adv-x="949" 
d="M708 0l4 324l-4 379h158l-3 -313l3 -390h-158zM83 0q5 -1 29 -3t57.5 -4.5t68.5 -4t62 -1.5q110 0 172.5 26t88.5 78t26 130q0 97 -32.5 149t-96 72t-156.5 20q-31 0 -57.5 -3t-46.5 -4l37 -41v289h-152l3 -341zM306 332q42 0 62 -3.5t36 -18.5q14 -13 17 -36.5t3 -47.5
q0 -37 -8 -58.5t-19 -29.5q-10 -7 -32 -10t-66 -3q-28 0 -54 1.5t-46 2.5l40 -72l-5 308l-44 -40q26 2 57.5 4.5t58.5 2.5z" />
    <glyph glyph-name="uni0409" unicode="&#x409;" horiz-adv-x="999" 
d="M27 -14q58 2 96 12t57 21q44 28 62 73t23 117l34 494h-149l-32 -462q-3 -52 -11 -80t-20.5 -40.5t-32.5 -19.5q-8 -3 -19.5 -5.5t-29.5 -4.5zM447 0q5 -1 29 -3t57.5 -4.5t68.5 -4t62 -1.5q110 0 172.5 26t88.5 78t26 130q0 97 -32.5 149t-96 72t-156.5 20
q-31 0 -57.5 -3t-46.5 -4l37 -41v289h-152l3 -341zM670 332q42 0 62 -3.5t36 -18.5q14 -13 17 -36.5t3 -47.5q0 -37 -8 -58.5t-19 -29.5q-10 -7 -32 -10t-66 -3q-28 0 -54 1.5t-46 2.5l40 -72l-5 308l-44 -40q26 2 57.5 4.5t58.5 2.5zM253 569l223 2l93 132h-316v-134z" />
    <glyph glyph-name="uni040A" unicode="&#x40a;" horiz-adv-x="992" 
d="M83 0h157l-4 354l-69 -50h336v134h-336l69 -50l4 315h-157v-703zM440 0q5 -1 29 -3t57.5 -4.5t68.5 -4t62 -1.5q110 0 172.5 26t88.5 78t26 130q0 97 -32.5 149t-96 72t-156.5 20q-31 0 -57.5 -3t-46.5 -4l37 -41v289h-152l3 -341zM663 332q42 0 62 -3.5t36 -18.5
q14 -13 17 -36.5t3 -47.5q0 -37 -8 -58.5t-19 -29.5q-10 -7 -32 -10t-66 -3q-28 0 -54 1.5t-46 2.5l40 -72l-5 308l-44 -40q26 2 57.5 4.5t58.5 2.5z" />
    <glyph glyph-name="uni0405" unicode="&#x405;" horiz-adv-x="570" 
d="M278 -13q-48 0 -92 9.5t-78.5 21.5t-54.5 21.5l-20 9.5l6 18.5t13.5 43t13.5 42.5l6 18l20.5 -7.5t54 -17t73 -17t78.5 -7.5q19 0 30 3.5t17 7.5q11 7 17.5 22t6.5 43q0 25 -20 42.5t-52 32.5t-69 32q-32 15 -64 31.5t-58 39.5t-42 57.5t-16 85.5q0 55 27.5 99.5t83 71
t137.5 26.5q36 0 72.5 -5t67.5 -11.5t49.5 -11.5l18.5 -5l-25 -125l-19.5 3.5t-50.5 8t-66 8t-66 3.5q-19 0 -30 -3t-19 -8q-7 -5 -13.5 -15.5t-6.5 -35.5q0 -19 14 -34.5t38 -28.5t52 -26q34 -16 71.5 -33t70.5 -41t54 -60.5t21 -91.5q0 -65 -31.5 -114t-88 -76t-131.5 -27
z" />
    <glyph glyph-name="uni0404" unicode="&#x404;" horiz-adv-x="618" 
d="M167 293v134h332v-134h-332zM339 -13q-84 0 -149 35.5t-102.5 114t-37.5 208.5q0 115 22.5 188t63.5 112.5t96 55t119 15.5q26 0 64 -3.5t76.5 -9t63.5 -12.5l-17 -128q-12 2 -37 4t-54 5t-53.5 4.5t-36.5 1.5q-41 0 -64.5 -4.5t-34.5 -13.5q-13 -10 -23 -34.5t-16 -68.5
t-6 -115q0 -88 16 -138.5t33 -63.5q11 -8 28 -13t43 -5q32 0 67.5 8t66.5 18.5t51 18.5l20 8l45 -119l-18 -10.5t-51 -24t-77.5 -24t-97.5 -10.5z" />
    <glyph glyph-name="uni042D" unicode="&#x42d;" horiz-adv-x="618" 
d="M451 293v134h-332v-134h332zM279 -13q84 0 149 35.5t102.5 114t37.5 208.5q0 115 -22.5 188t-63.5 112.5t-96 55t-119 15.5q-26 0 -64 -3.5t-76.5 -9t-63.5 -12.5l17 -128q12 2 37 4t54 5t53.5 4.5t36.5 1.5q41 0 64.5 -4.5t34.5 -13.5q13 -10 23 -34.5t16 -68.5t6 -115
q0 -88 -16 -138.5t-33 -63.5q-11 -8 -28 -13t-43 -5q-32 0 -67.5 8t-66.5 18.5t-51 18.5l-20 8l-45 -119l18 -10.5t51 -24t77.5 -24t97.5 -10.5z" />
    <glyph glyph-name="uni0406" unicode="&#x406;" horiz-adv-x="324" 
d="M83 0l4 324l-4 379h158l-3 -313l3 -390h-158z" />
    <glyph glyph-name="uni0407" unicode="&#x407;" horiz-adv-x="324" 
d="M-19 766v108h143v-108h-143zM200 766v108h143v-108h-143zM83 0l4 324l-4 379h158l-3 -313l3 -390h-158z" />
    <glyph glyph-name="uni0408" unicode="&#x408;" horiz-adv-x="363" 
d="M75 -13q-22 0 -44 3t-37 5.5l-15 2.5l15 133q15 -3 41.5 -6.5t42.5 -3.5t25.5 7.5t14.5 34t5 82.5v458h157v-456q0 -97 -27 -154t-73 -81.5t-105 -24.5z" />
    <glyph glyph-name="uni040B" unicode="&#x40b;" horiz-adv-x="754" 
d="M151 0v703h155v-285q31 14 86 29.5t125 15.5q71 0 108 -29t50 -78t13 -111v-245h-155v218q0 39 -4 62t-12 33q-5 7 -20.5 11t-55.5 4q-27 0 -51.5 -4t-45.5 -10t-38 -13v-301h-155zM0 569v134h476v-134l-233 2z" />
    <glyph glyph-name="uni042E" unicode="&#x42e;" horiz-adv-x="931" 
d="M83 0v703h157l-4 -329l-69 50h211v-134h-211l69 50l4 -340h-157zM626 -13q-48 0 -95 16t-85 56t-61 111.5t-23 182.5t23 182t61 110.5t85 55t95 15.5t95.5 -15.5t85.5 -55t61 -110.5t23 -182t-23 -182.5t-61 -111.5t-85.5 -56t-95.5 -16zM626 125q23 0 41.5 8.5t32 32
t21 68.5t7.5 117q0 73 -7 118t-20.5 68.5t-32.5 32t-42 8.5t-41.5 -8.5t-32 -32t-20.5 -68.5t-7 -118t7.5 -117.5t21 -68t32 -32t40.5 -8.5z" />
    <glyph glyph-name="uni042F" unicode="&#x42f;" horiz-adv-x="656" 
d="M49 0l118 244q-49 26 -79.5 79.5t-30.5 145.5q0 123 59.5 185t168.5 62q48 0 98.5 -2t93.5 -5t69.5 -5l26.5 -2l-4 -374l4 -328h-157v215q-2 0 -18.5 -1t-41.5 -1.5t-54 -0.5l-87 -212h-166zM319 337q35 0 57 2t40 5v242q-19 2 -42.5 3.5t-46.5 1.5q-41 0 -60 -4t-25 -10
q-4 -4 -9.5 -12t-9 -27.5t-3.5 -60.5q0 -56 3.5 -85t14.5 -40q7 -6 26.5 -10.5t54.5 -4.5z" />
    <glyph glyph-name="uni0402" unicode="&#x402;" horiz-adv-x="759" 
d="M151 0v570l-151 -1v134h476v-134l-170 1v-152q31 14 86 29.5t125 15.5q71 0 108 -29t50 -78t13 -111v-181q0 -84 -27.5 -134.5t-71.5 -73t-94 -22.5q-20 0 -45.5 2.5t-43.5 5l-18 2.5l16 126l14.5 -2t34.5 -4t34 -2q22 0 31.5 9t12 35t2.5 77v135q0 39 -4 62t-12 33
q-5 7 -20.5 11t-55.5 4q-27 0 -51.5 -4t-45.5 -10t-38 -13v-301h-155z" />
    <glyph glyph-name="uni0462" unicode="&#x462;" horiz-adv-x="704" 
d="M494 646h-448v-112l203 2l245 -2v112zM152 0q5 -1 29 -3t57.5 -4.5t68.5 -4t62 -1.5q110 0 172.5 26t88.5 78t26 130q0 97 -32.5 149t-96 72t-156.5 20q-31 0 -57.5 -3t-46.5 -4l37 -41v289h-152l3 -341zM375 332q42 0 62 -3.5t36 -18.5q14 -13 17 -36.5t3 -47.5
q0 -37 -8 -58.5t-19 -29.5q-10 -7 -32 -10t-66 -3q-28 0 -54 1.5t-46 2.5l40 -72l-5 308l-44 -40q26 2 57.5 4.5t58.5 2.5z" />
    <glyph glyph-name="uni0472" unicode="&#x472;" horiz-adv-x="700" 
d="M450 274q-19 0 -48 5.5t-59 13.5t-55 13.5t-37 5.5q-16 0 -26 -11t-12 -33l-59 16q2 57 23 91.5t63 34.5q23 0 53.5 -5.5t61.5 -13t56 -13t35 -5.5q13 0 22 4t14 14t6 28l76 -24q-1 -48 -19.5 -74.5t-44.5 -36.5t-50 -10zM350 -13q-61 0 -115.5 16t-96 56t-65 111.5
t-23.5 182.5t23.5 182t65 110.5t96 55t115.5 15.5q62 0 116 -15.5t95.5 -55t65 -110.5t23.5 -182t-23.5 -182.5t-65 -111.5t-95.5 -56t-116 -16zM350 125q36 0 61.5 8.5t42.5 32t25 68.5t8 118q0 72 -8 117t-24.5 68.5t-42.5 32t-62 8.5t-62 -8.5t-42.5 -32t-24.5 -68.5
t-8 -118t8 -117.5t25 -68t42.5 -32t61.5 -8.5z" />
    <glyph glyph-name="uni0474" unicode="&#x474;" horiz-adv-x="672" 
d="M224 0l-218 645h165l155 -566l-83 68h146l-80 -68l89 413l114 -137l-91 -355h-197zM660 711l-14 -139q-10 1 -20 2.5t-22 1.5q-16 0 -28 -11t-17 -29l-80 -308l-102 163l25 120q11 51 23 84.5t29 56.5t42 41q21 16 48.5 20t52.5 4q17 0 33.5 -1t29.5 -5z" />
    <glyph glyph-name="uni0492" unicode="&#x492;" horiz-adv-x="582" 
d="M129 0v703h421v-134l-339 3l69 79l3 -315l3 -336h-157zM25 407h430v-134l-275 3l-155 -3v134z" />
    <glyph glyph-name="uni0496" unicode="&#x496;" horiz-adv-x="969" 
d="M888 -156l-27 230h140v-230h-113zM-24 0l304 423l-42 -125v146l42 -125l-283 384h182l222 -334l-241 -369h-184zM401 0l4 324l-4 379h158l-3 -313l3 -390h-158zM985 0h-184l-241 369l222 334h182l-283 -384l42 125v-146l-42 125z" />
    <glyph glyph-name="uni049A" unicode="&#x49a;" horiz-adv-x="657" 
d="M576 -156l-27 230h140v-230h-113zM482 0l-239 369l229 334h182l-242 -328v-6l254 -369h-184zM83 0l3 358l-3 345h158v-703h-158z" />
    <glyph glyph-name="uni04A2" unicode="&#x4a2;" horiz-adv-x="720" 
d="M532 -166l-12 246l160 2v-248h-148zM83 0v703h157l-4 -329l-69 50h372l-69 -50l-4 329h157v-703h-157l4 340l69 -50h-372l69 50l4 -340h-157z" />
    <glyph glyph-name="Ustraitcy" unicode="&#x4ae;" horiz-adv-x="580" 
d="M209 0l3 253l-216 450h168l122 -322h6l122 322h168l-216 -450l2 -253h-159z" />
    <glyph glyph-name="Ustraitstrokecy" unicode="&#x4b0;" horiz-adv-x="596" 
d="M51 250v112h485v-112l-233 3zM218 0l3 253l-216 450h168l122 -322h6l122 322h168l-216 -450l2 -253h-159z" />
    <glyph glyph-name="uni04B2" unicode="&#x4b2;" horiz-adv-x="628" 
d="M553 -156l-27 230h140v-230h-113zM-4 0l249 417v-120l-240 406h168l167 -313l-102 62h146l-102 -62l165 313h168l-239 -406v120l249 -417h-174l-169 319l102 -62h-146l103 62l-171 -319h-174z" />
    <glyph glyph-name="uni04B6" unicode="&#x4b6;" horiz-adv-x="677" 
d="M521 -156l-27 230h140v-230h-113zM423 0v277q-36 -12 -90 -26.5t-121 -14.5q-71 0 -108 29t-50 78.5t-13 110.5v249h155v-242q0 -32 1 -47.5t10 -26.5q7 -8 22.5 -12t47.5 -4q24 0 50.5 4t52 10.5t43.5 13.5v304h155v-703h-155z" />
    <glyph glyph-name="uni04BA" unicode="&#x4ba;" horiz-adv-x="685" 
d="M83 0v703h155v-260q32 11 86.5 26.5t124.5 15.5q71 0 108 -29t50 -78t13 -111v-267h-155v260q0 32 -1 48t-10 26q-7 8 -22.5 12t-47.5 4q-31 0 -58.5 -4t-49 -10t-38.5 -13v-323h-155z" />
    <glyph glyph-name="uni04C0" unicode="&#x4c0;" horiz-adv-x="324" 
d="M83 0l4 324l-4 379h158l-3 -313l3 -390h-158z" />
    <glyph glyph-name="uni04D8" unicode="&#x4d8;" horiz-adv-x="611" 
d="M61 548q7 3 28.5 12t53 18.5t69.5 16.5t79 7q82 0 143 -30t95 -97.5t34 -181.5q0 -88 -20.5 -147.5t-57.5 -94.5t-86 -50t-106 -15q-58 0 -103 15t-76.5 47.5t-47.5 86t-16 130.5v83h356q-1 30 -4.5 51.5t-9.5 36.5t-17 24q-10 9 -25.5 14t-40.5 5q-27 0 -60 -5.5
t-64.5 -13.5t-54.5 -14.5t-31 -9.5zM208 232q1 -39 5 -64.5t13 -37.5q7 -8 21 -15t46 -7q38 0 57 7.5t29 18.5q12 13 19 39t8 63z" />
    <glyph glyph-name="uni04E2" unicode="&#x4e2;" horiz-adv-x="718" 
d="M83 0v703h143l-7 -328l-4 -198l228 526h192v-703h-143l6 302l5 223l-229 -525h-191zM194 786v96h392v-96h-392z" />
    <glyph glyph-name="uni04E8" unicode="&#x4e8;" horiz-adv-x="700" 
d="M158 414h367l1 -128h-368v128zM350 -13q-61 0 -115.5 16t-96 56t-65 111.5t-23.5 182.5t23.5 182t65 110.5t96 55t115.5 15.5q62 0 116 -15.5t95.5 -55t65 -110.5t23.5 -182t-23.5 -182.5t-65 -111.5t-95.5 -56t-116 -16zM350 125q36 0 61.5 8.5t42.5 32t25 68.5t8 118
q0 72 -8 117t-24.5 68.5t-42.5 32t-62 8.5t-62 -8.5t-42.5 -32t-24.5 -68.5t-8 -118t8 -117.5t25 -68t42.5 -32t61.5 -8.5z" />
    <glyph glyph-name="uni04EE" unicode="&#x4ee;" horiz-adv-x="651" 
d="M253 -14q-43 0 -95.5 11t-99.5 33l41 120q40 -13 83 -22t71 -9h4h4l-206 584h159l127 -461h8l109 461h161l-164 -508q-24 -76 -45 -120t-52 -64q-20 -14 -46 -19.5t-59 -5.5zM145 775v96h392v-96h-392z" />
    <glyph glyph-name="uni0430" unicode="&#x430;" horiz-adv-x="622" 
d="M222 -13q-48 0 -86.5 22.5t-61.5 65.5t-23 104q0 73 33 114.5t93 59.5t142 18h75q0 43 -4 61t-9 26q-4 7 -15.5 13t-46.5 6q-36 0 -74.5 -6t-71.5 -14t-54 -14l-21 -6l-32 112l20.5 8t56 18t81 18t96.5 8q86 0 136 -26.5t71.5 -76t21.5 -118.5v-380h-98l-20 65h-6
l-17.5 -12t-46.5 -27t-65 -27t-74 -12zM267 114q28 0 57.5 9.5t49.5 19l20 9.5v104l-24 2.5t-62 2.5q-66 0 -82 -15q-7 -6 -12 -20.5t-5 -40.5q0 -37 13.5 -54t44.5 -17z" />
    <glyph glyph-name="uni0431" unicode="&#x431;" horiz-adv-x="612" 
d="M307 -13q-94 0 -151 35t-82.5 107.5t-25.5 186.5q0 125 13.5 211t43.5 138t80 75t123 21q62 -1 98.5 -1.5t60.5 0t47 1.5l-17 -106q-11 -2 -28 -3t-43.5 -1.5t-66.5 -0.5q-55 0 -85 -4.5t-46 -21.5q-16 -18 -24.5 -52t-11.5 -69t-3 -58l-37 -13q28 47 69 64t89 17
q96 0 151.5 -35.5t79 -95t23.5 -132.5q0 -72 -23.5 -132t-79.5 -95.5t-154 -35.5zM307 105q39 0 60.5 13.5t30 45.5t8.5 86q0 55 -9 86.5t-30.5 45t-59.5 13.5t-60.5 -13.5t-31.5 -45t-9 -86.5q0 -54 9 -86t31 -45.5t61 -13.5z" />
    <glyph glyph-name="uni0432" unicode="&#x432;" horiz-adv-x="660" 
d="M333 -13q-35 0 -74.5 3t-74.5 6.5t-57 6.5l-22 3l3 263l-5 319l22.5 2t57 5t72 5t66.5 2q93 0 147 -17.5t76.5 -52t22.5 -86.5q0 -39 -13.5 -66.5t-34 -44t-41.5 -24.5t-36 -8l43 80v-146l-48 93q36 -2 64 -13t46.5 -30.5t28 -46.5t9.5 -60q0 -64 -28.5 -106.5
t-84.5 -64.5t-139 -22zM325 105q46 0 68 5.5t29.5 20.5t7.5 43q0 26 -8 41.5t-31 22.5t-68 7h-152l69 40l3 -236l-19 63q22 -3 44 -5t57 -2zM331 349q51 0 67.5 18t16.5 52t-20 49.5t-71 15.5q-33 0 -58.5 -1.5t-44.5 -3.5l19 66v-231l-70 35h161z" />
    <glyph glyph-name="uni0433" unicode="&#x433;" horiz-adv-x="552" 
d="M101 0v588h155v-588h-155zM175 588h322v-128l-324 2z" />
    <glyph glyph-name="uni0453" unicode="&#x453;" horiz-adv-x="570" 
d="M104 0v588h155v-588h-155zM178 588h322v-128l-324 2zM195 646l-22 81l293 89l31 -112z" />
    <glyph glyph-name="uni0491" unicode="&#x491;" horiz-adv-x="532" 
d="M357 517l20 175h120v-175h-140zM101 0v588h155v-588h-155zM175 588h322v-128l-324 2z" />
    <glyph glyph-name="uni0434" unicode="&#x434;" horiz-adv-x="751" 
d="M30 -127v243q29 0 46 3t30 10q16 8 23.5 20t10.5 31.5t5 47.5l32 360h451v-472h83v-243h-147v115h-387v-115h-147zM297 174q-1 -16 -3.5 -30t-6.5 -28h186l1 176l-1 168h-154z" />
    <glyph glyph-name="uni0435" unicode="&#x435;" horiz-adv-x="611" 
d="M322 -14q-81 0 -142.5 30t-95.5 98t-34 181q0 118 36 184.5t97 94.5t137 28q78 0 132 -27t82.5 -88t28.5 -164v-83h-426l70 22q0 -36 3 -62.5t10 -44t18 -27.5q10 -9 25.5 -14t40.5 -5q27 0 60 5.5t64.5 13.5t54.5 14.5t31 9.5l38 -112q-9 -4 -43.5 -17.5t-83 -25
t-103.5 -11.5zM207 330l-69 21l337 6l-70 -22q0 48 -4 79t-14 44q-7 8 -21 15t-46 7q-38 0 -57 -7.5t-29 -18.5q-27 -28 -27 -124z" />
    <glyph glyph-name="uni0451" unicode="&#x451;" horiz-adv-x="611" 
d="M322 -14q-81 0 -142.5 30t-95.5 98t-34 181q0 118 36 184.5t97 94.5t137 28q78 0 132 -27t82.5 -88t28.5 -164v-83h-426l70 22q0 -36 3 -62.5t10 -44t18 -27.5q10 -9 25.5 -14t40.5 -5q27 0 60 5.5t64.5 13.5t54.5 14.5t31 9.5l38 -112q-9 -4 -43.5 -17.5t-83 -25
t-103.5 -11.5zM207 330l-69 21l337 6l-70 -22q0 48 -4 79t-14 44q-7 8 -21 15t-46 7q-38 0 -57 -7.5t-29 -18.5q-27 -28 -27 -124zM129 668v108h147v-108h-147zM354 668v108h147v-108h-147z" />
    <glyph glyph-name="uni0436" unicode="&#x436;" horiz-adv-x="977" 
d="M4 0l246 301v5l-222 282h187l195 -288l-216 -300h-190zM407 0l4 300l-4 288h155l-4 -288l4 -300h-155zM775 0l-216 300l195 288h187l-222 -282v-5l246 -301h-190z" />
    <glyph glyph-name="uni0437" unicode="&#x437;" horiz-adv-x="559" 
d="M318 -15q-75 0 -136.5 10.5t-98 20.5l-36.5 10l39 124l28 -7.5t70 -15t83 -7.5q34 0 50.5 5.5t21.5 19.5t5 38q0 19 -5.5 31.5t-24 19t-56.5 6.5h-133v109h137q30 0 45 5.5t20 19.5t5 40q0 24 -5 34t-13 14q-7 4 -37.5 5.5t-60.5 1.5q-17 0 -39 -1.5t-45.5 -4.5t-45.5 -6
l-20 127q26 5 56.5 9t63.5 7t66 3q76 0 127.5 -16.5t78.5 -53t27 -97.5q0 -55 -18.5 -82.5t-41.5 -41.5v-8q17 -7 35 -23.5t30.5 -45t12.5 -73.5q0 -44 -19 -84.5t-59.5 -66.5t-106.5 -26z" />
    <glyph glyph-name="uni0438" unicode="&#x438;" horiz-adv-x="720" 
d="M86 0l-3 588h145l-10 -412h4l213 412h202v-588h-145l11 436h-3l-224 -436h-190z" />
    <glyph glyph-name="uni0439" unicode="&#x439;" horiz-adv-x="716" 
d="M86 0l-3 588h145l-10 -412h4l213 412h202v-588h-145l11 436h-3l-224 -436h-190zM358 664q-95 0 -135.5 35.5t-46.5 111.5l79 5q10 -42 34.5 -57.5t68.5 -15.5q43 0 65 15.5t32 57.5l79 -5q-8 -81 -47.5 -114t-128.5 -33z" />
    <glyph glyph-name="uni043A" unicode="&#x43a;" horiz-adv-x="638" 
d="M451 0l-216 293l195 295h187l-222 -289v-5l246 -294h-190zM83 0l4 293l-4 295h155l-4 -295l4 -293h-155z" />
    <glyph glyph-name="uni045C" unicode="&#x45c;" horiz-adv-x="638" 
d="M451 0l-216 293l195 295h187l-222 -289v-5l246 -294h-190zM83 0l4 293l-4 295h155l-4 -295l4 -293h-155zM204 646l-22 81l293 89l31 -112z" />
    <glyph glyph-name="uni043B" unicode="&#x43b;" horiz-adv-x="655" 
d="M16 -7l-26 113q20 -1 39.5 2t36.5 11q16 8 23.5 20t10.5 31.5t5 47.5l32 370h444v-588h-155l1 236l-1 225h-148l-22 -297q-7 -85 -50.5 -131t-119.5 -46q-24 0 -41.5 1.5t-28.5 4.5z" />
    <glyph glyph-name="uni043C" unicode="&#x43c;" horiz-adv-x="843" 
d="M69 0l24 588h211l114 -363h6l113 363h210l27 -588h-156l4 412h-16l-115 -345h-138l-118 345h-16l6 -412h-156z" />
    <glyph glyph-name="uni043D" unicode="&#x43d;" horiz-adv-x="706" 
d="M85 0v588h155l-4 -292l4 -296h-155zM466 0l4 296l-4 292h155v-588h-155zM167 233v128h372v-128h-372z" />
    <glyph glyph-name="uni043E" unicode="&#x43e;" horiz-adv-x="612" 
d="M307 -13q-97 0 -154 37.5t-81 106.5t-24 164q0 94 24 162.5t81 106t155 37.5q97 0 153 -37.5t79.5 -106t23.5 -163.5q0 -94 -23.5 -163t-79.5 -106.5t-154 -37.5zM307 105q29 0 48 8t30.5 29t16 58t4.5 95q0 57 -5 94t-16 57.5t-30 28.5t-48 8t-48.5 -8t-31 -28.5
t-16.5 -57.5t-5 -94q0 -58 5 -95t16.5 -58t31 -29t48.5 -8z" />
    <glyph glyph-name="uni043F" unicode="&#x43f;" horiz-adv-x="674" 
d="M79 0v588h155v-588h-155zM440 0v588h155v-588h-155zM151 460v128h374v-128h-187h-187z" />
    <glyph glyph-name="uni0440" unicode="&#x440;" horiz-adv-x="630" 
d="M74 -166v754h99l18 -60h5q22 16 50.5 32.5t62.5 28.5t73 12q57 0 102.5 -30.5t71.5 -96t26 -170.5q0 -97 -22 -159t-58.5 -96.5t-80 -48t-86.5 -13.5q-22 0 -47 2.5t-42 4.5l-17 2v-162h-155zM329 113q23 0 36 3t23 10t18 24.5t13 54.5t5 103q0 44 -2 73t-6 47t-11 27
q-6 9 -16.5 14t-30.5 5q-27 0 -57 -9.5t-51 -20.5t-21 -14v-303l30.5 -7t69.5 -7z" />
    <glyph glyph-name="uni0441" unicode="&#x441;" horiz-adv-x="544" 
d="M314 -13q-78 0 -138 31.5t-94 99.5t-34 178q0 91 23 150.5t63.5 93t93.5 47.5t112 14q56 0 101.5 -8t67.5 -14l-17 -117q-29 5 -75.5 10.5t-87.5 5.5q-42 0 -59.5 -6.5t-26.5 -15.5q-18 -19 -27.5 -59t-9.5 -101q0 -58 7.5 -92.5t19 -52.5t21.5 -26q6 -4 18.5 -9.5
t34.5 -5.5q24 0 53.5 7.5t57.5 17t46 16.5l18 7l42 -110l-25.5 -15.5t-72.5 -30.5t-112 -15z" />
    <glyph glyph-name="uni0442" unicode="&#x442;" horiz-adv-x="505" 
d="M168 0l3 462l-167 -3v129h497v-129l-181 3l3 -462h-155z" />
    <glyph glyph-name="uni0443" unicode="&#x443;" horiz-adv-x="536" 
d="M112 -166l86 214l-198 540h160l106 -392h6l103 392h161l-205 -560l-58 -194h-161z" />
    <glyph glyph-name="uni045E" unicode="&#x45e;" horiz-adv-x="536" 
d="M112 -166l86 214l-198 540h160l106 -392h6l103 392h161l-205 -560l-58 -194h-161zM264 643q-50 0 -92.5 15.5t-69.5 51t-32 96.5l79 9q10 -43 39 -57.5t76 -14.5t76 14.5t39 57.5l79 -9q-5 -61 -32 -96.5t-69 -51t-93 -15.5z" />
    <glyph glyph-name="uni0444" unicode="&#x444;" horiz-adv-x="812" 
d="M407 -14q-107 0 -175 21.5t-106 61.5t-53 96.5t-15 127.5t15 127.5t53 96.5t106 61.5t175 21.5t175 -21.5t105.5 -61.5t52 -96.5t14.5 -127.5t-14.5 -127.5t-52 -96.5t-105.5 -61.5t-175 -21.5zM407 107q63 0 100.5 8t56.5 28.5t25.5 57t6.5 92.5q0 57 -6.5 93
t-25.5 56.5t-57 28.5t-100 8q-63 0 -101 -8t-57.5 -28.5t-26 -56.5t-6.5 -93q0 -56 6.5 -92.5t26 -57t57.5 -28.5t101 -8zM335 -180l4 445l-4 510h141l-3 -444l3 -511h-141z" />
    <glyph glyph-name="uni0445" unicode="&#x445;" horiz-adv-x="582" 
d="M4 0l191 309l-180 279h161l108 -194h6l108 194h161l-180 -279l191 -309h-166l-114 218h-6l-114 -218h-166z" />
    <glyph glyph-name="uni0447" unicode="&#x447;" horiz-adv-x="657" 
d="M428 0v220q-30 -15 -84.5 -33.5t-136.5 -18.5q-61 0 -93.5 29t-45 78.5t-12.5 110.5v202h155v-175q0 -39 4.5 -62t11.5 -33q5 -7 18.5 -11t40.5 -4q22 0 46.5 5.5t46.5 12.5t35.5 12.5l13.5 5.5v249h155v-588h-155z" />
    <glyph glyph-name="uni0446" unicode="&#x446;" horiz-adv-x="707" 
d="M117 0l-2 128l219 1l198 1v-130h-415zM83 0v588h155v-588h-155zM417 0v588h155v-588h-155zM514 -155l-20 229h160v-229h-140z" />
    <glyph glyph-name="uni0448" unicode="&#x448;" horiz-adv-x="989" 
d="M83 0v588h155v-588h-155zM117 0l-1 126h416v-126h-415zM417 0v588h155v-588h-155zM451 0v126h415v-126h-415zM751 0v588h155v-588h-155z" />
    <glyph glyph-name="uni0449" unicode="&#x449;" horiz-adv-x="989" 
d="M83 0v588h155v-588h-155zM117 0l-1 126h416v-126h-415zM417 0v588h155v-588h-155zM451 0v126h415v-126h-415zM751 0v588h155v-588h-155zM839 -155l-20 229h160v-229h-140z" />
    <glyph glyph-name="uni045F" unicode="&#x45f;" horiz-adv-x="655" 
d="M83 0v588h155v-588h-155zM117 0v128l415 2v-130h-415zM272 -155l-20 229h160v-229h-140zM417 0v588h155v-588h-155z" />
    <glyph glyph-name="uni044C" unicode="&#x44c;" 
d="M338 -13q-34 0 -81.5 6t-96 16.5t-86.5 21.5l1 265l-1 292h155v-188l21 3.5t54 7.5t67 4q68 0 116.5 -27t75 -74.5t26.5 -109.5q0 -79 -36 -126.5t-93.5 -69t-121.5 -21.5zM328 124q31 0 50.5 3t27.5 10q13 11 19 31t6 38q0 11 -3.5 28.5t-15.5 29.5q-7 8 -24.5 12.5
t-52.5 4.5q-41 0 -73.5 -6.5l-32.5 -6.5v-134l15 -2.5t38 -5t46 -2.5z" />
    <glyph glyph-name="uni044A" unicode="&#x44a;" horiz-adv-x="738" 
d="M10 460v128h255l-83 -125zM439 -13q-34 0 -81.5 6t-96 16.5t-86.5 21.5l1 265l-1 292h155v-188l21 3.5t54 7.5t67 4q68 0 116.5 -27t75 -74.5t26.5 -109.5q0 -79 -36 -126.5t-93.5 -69t-121.5 -21.5zM429 124q31 0 50.5 3t27.5 10q13 11 19 31t6 38q0 11 -3.5 28.5
t-15.5 29.5q-7 8 -24.5 12.5t-52.5 4.5q-41 0 -73.5 -6.5l-32.5 -6.5v-134l15 -2.5t38 -5t46 -2.5z" />
    <glyph glyph-name="uni044B" unicode="&#x44b;" horiz-adv-x="929" 
d="M700 0l5 304l-5 284h155l-5 -266l5 -322h-155zM343 -13q-34 0 -81.5 6t-96 16.5t-86.5 21.5l1 265l-1 292h155v-188l21 3.5t54 7.5t67 4q68 0 116.5 -27t75 -74.5t26.5 -109.5q0 -79 -36 -126.5t-93.5 -69t-121.5 -21.5zM333 124q31 0 50.5 3t27.5 10q13 11 19 31t6 38
q0 11 -3.5 28.5t-15.5 29.5q-7 8 -24.5 12.5t-52.5 4.5q-41 0 -73.5 -6.5l-32.5 -6.5v-134l15 -2.5t38 -5t46 -2.5z" />
    <glyph glyph-name="uni0459" unicode="&#x459;" horiz-adv-x="992" 
d="M37 -7l-26 118q20 -1 39.5 2t36.5 11q16 8 23.5 20t10.5 31.5t5 47.5l32 365h426v-188l21 3.5t54 7.5t67 4q68 0 116.5 -27t75 -74.5t26.5 -109.5q0 -79 -36 -126.5t-93.5 -69t-121.5 -21.5q-34 0 -81.5 6t-96 16.5t-86.5 21.5l1 265l-1 164h-66h-62l-22 -291
q-7 -88 -51 -135t-120 -47q-19 0 -36.5 1.5t-34.5 4.5zM683 124q31 0 50.5 3t27.5 10q13 11 19 31t6 38q0 11 -3.5 28.5t-15.5 29.5q-7 8 -24.5 12.5t-52.5 4.5q-41 0 -73.5 -6.5l-32.5 -6.5v-134l15 -2.5t38 -5t46 -2.5z" />
    <glyph glyph-name="uni045A" unicode="&#x45a;" horiz-adv-x="974" 
d="M74 0v588h155l-4 -294l4 -294h-155zM156 243v128h372v-128h-213h-159zM675 -13q-34 0 -82 6t-96 16.5t-86 21.5l1 265l-1 292h155v-188l21 3.5t54 7.5t67 4q68 0 116.5 -27t75 -74.5t26.5 -109.5q0 -79 -36 -126.5t-93.5 -69t-121.5 -21.5zM665 124q31 0 50.5 3t27.5 10
q13 11 19 31t6 38q0 11 -3.5 28.5t-15.5 29.5q-7 8 -24.5 12.5t-52.5 4.5q-41 0 -73.5 -6.5l-32.5 -6.5v-134l15 -2.5t38 -5t46 -2.5z" />
    <glyph glyph-name="uni0455" unicode="&#x455;" horiz-adv-x="537" 
d="M282 -13q-46 0 -89 9t-77 20t-54 20l-20 9l38 122l20.5 -8t53.5 -19t69.5 -19t67.5 -8q17 0 27.5 3t16.5 7q8 6 12.5 17t4.5 24q0 25 -16 38.5t-42.5 22.5t-59.5 18q-32 10 -65 21.5t-60.5 31t-44.5 50.5t-17 80q0 79 53 127t170 48q44 0 85 -6t73 -14t50 -14l-23 -120
l-19 4.5t-49 10.5t-64 10.5t-64 4.5q-25 0 -35 -3t-15 -7q-4 -3 -7.5 -9.5t-3.5 -17.5q0 -22 16 -35.5t42.5 -22.5t57.5 -18q32 -9 65.5 -19.5t61.5 -29t45 -50t17 -82.5q0 -88 -57 -142t-164 -54z" />
    <glyph glyph-name="uni0454" unicode="&#x454;" horiz-adv-x="551" 
d="M133 244l2 121h322v-123zM314 -13q-78 0 -138 31.5t-94 99.5t-34 178q0 91 23 150.5t63.5 93t93.5 47.5t112 14q56 0 101.5 -8t67.5 -14l-17 -117q-29 5 -75.5 10.5t-87.5 5.5q-42 0 -59.5 -6.5t-26.5 -15.5q-18 -19 -27.5 -59t-9.5 -101q0 -58 7.5 -92.5t19 -52.5
t21.5 -26q6 -4 18.5 -9.5t34.5 -5.5q24 0 53.5 7.5t57.5 17t46 16.5l18 7l42 -110l-25.5 -15.5t-72.5 -30.5t-112 -15z" />
    <glyph glyph-name="uni044D" unicode="&#x44d;" horiz-adv-x="551" 
d="M418 244l-2 121h-322v-123zM237 -13q78 0 138 31.5t94 99.5t34 178q0 91 -23 150.5t-63.5 93t-93.5 47.5t-112 14q-56 0 -101.5 -8t-67.5 -14l17 -117q29 5 75.5 10.5t87.5 5.5q42 0 59.5 -6.5t26.5 -15.5q18 -19 27.5 -59t9.5 -101q0 -58 -7.5 -92.5t-19 -52.5
t-21.5 -26q-6 -4 -18.5 -9.5t-34.5 -5.5q-24 0 -53.5 7.5t-57.5 17t-46 16.5l-18 7l-42 -110l25.5 -15.5t72.5 -30.5t112 -15z" />
    <glyph glyph-name="uni0456" unicode="&#x456;" horiz-adv-x="311" 
d="M78 0v588h155v-588h-155zM74 668v108h163v-108h-163z" />
    <glyph glyph-name="uni0457" unicode="&#x457;" horiz-adv-x="311" 
d="M78 0v588h155v-588h-155zM-30 668v108h147v-108h-147zM195 668v108h147v-108h-147z" />
    <glyph glyph-name="uni0458" unicode="&#x458;" horiz-adv-x="346" 
d="M69 -179q-20 0 -45.5 2.5t-43.5 5l-18 2.5l16 126l14.5 -2t34.5 -4t34 -2q22 0 31.5 9t12 35t2.5 77v518h155v-519q0 -93 -27.5 -147.5t-71.5 -77.5t-94 -23zM107 668v108h163v-108h-163z" />
    <glyph glyph-name="uni045B" unicode="&#x45b;" horiz-adv-x="644" 
d="M87 761h157v-220q20 10 49.5 22t63.5 21t68 9q62 0 95 -28.5t45.5 -78t12.5 -111.5v-375h-149v348q0 41 -4.5 62.5t-12.5 32.5q-5 7 -16 11t-25 4q-15 0 -36 -5.5t-42 -12.5t-35 -12.5l-14 -5.5v-422h-157v761zM-3 609v106h376v-106l-192 3z" />
    <glyph glyph-name="uni044E" unicode="&#x44e;" horiz-adv-x="844" 
d="M74 0v588h155l-3 -219h184v-128h-184l3 -241h-155zM564 -14q-85 0 -136.5 37.5t-74.5 107t-23 163.5q0 95 23 164t74.5 106.5t136.5 37.5t136 -37.5t73.5 -106.5t22.5 -164q0 -94 -22.5 -163.5t-73.5 -107t-136 -37.5zM564 105q20 0 34 8t22.5 29t13 58t4.5 94
q0 77 -8 118t-24 56t-42 15t-43 -15t-25 -56t-8 -118q0 -57 4.5 -94t13.5 -58t23.5 -29t34.5 -8z" />
    <glyph glyph-name="uni044F" unicode="&#x44f;" horiz-adv-x="628" 
d="M15 0l127 204q-40 21 -66 65.5t-26 123.5q0 70 23 116t67.5 69.5t107.5 23.5q16 0 47.5 -0.5t70.5 -2t77.5 -3t68 -3t42.5 -3.5l-4 -314l4 -276h-155v182q-17 -1 -44 -2t-68 -1l-105 -179h-167zM308 300q26 0 51.5 1.5t39.5 4.5v172q-16 2 -40 3t-44 1q-31 0 -57 -3
t-31 -8q-6 -5 -12.5 -17.5t-6.5 -53.5q0 -36 4 -58t14 -30q6 -4 31 -8t51 -4z" />
    <glyph glyph-name="uni0452" unicode="&#x452;" horiz-adv-x="636" 
d="M392 -179q-36 0 -65 4t-55 8l18 125q36 -5 54.5 -7t32.5 -2q35 0 43.5 15t8.5 64v42l149 -1v-15v-54q0 -84 -47 -131.5t-139 -47.5zM87 762h157v-220q20 10 49.5 22t63.5 21t68 9q62 0 95 -28.5t45.5 -78t12.5 -111.5v-375h-149v348q0 41 -4.5 62.5t-12.5 32.5
q-5 7 -16 11t-25 4q-15 0 -36 -5.5t-42 -12.5t-35 -12.5l-14 -5.5v-422h-157v761zM-3 610v106h376v-106l-192 3z" />
    <glyph glyph-name="uni0463" unicode="&#x463;" horiz-adv-x="737" 
d="M438 -13q-34 0 -81.5 6t-96 16.5t-86.5 21.5v377v353h155v-361l21 3.5t54 7.5t67 4q68 0 116.5 -27t75 -74.5t26.5 -109.5q0 -79 -36 -126.5t-93.5 -69t-121.5 -21.5zM428 124q31 0 50.5 3t27.5 10q13 11 19 31t6 38q0 11 -3.5 28.5t-15.5 29.5q-7 8 -24.5 12.5
t-52.5 4.5q-41 0 -73.5 -6.5l-32.5 -6.5v-134l15 -2.5t38 -5t46 -2.5zM50 508v112h482v-112l-293 3z" />
    <glyph glyph-name="uni0473" unicode="&#x473;" horiz-adv-x="612" 
d="M307 -13q-98 0 -155 36t-80.5 104.5t-23.5 166.5q0 117 30 184t88 95t141 28q98 0 154 -36t79.5 -104.5t23.5 -166.5q0 -116 -30 -183.5t-87.5 -95.5t-139.5 -28zM307 105q39 0 60.5 15.5t30 56.5t8.5 117q0 77 -9 118t-30.5 56t-59.5 15t-60.5 -15t-31.5 -56t-9 -118
q0 -76 9 -117t31 -56.5t61 -15.5zM471 345q-1 -46 -18.5 -74t-44 -41t-54.5 -13q-18 0 -34 5.5t-31 12.5t-28 12.5t-25 5.5q-20 0 -30.5 -8.5t-19.5 -24.5l-56 10q1 46 18.5 74t44 41t54.5 13q27 0 48.5 -9t40 -18t34.5 -9q17 0 27 8.5t18 24.5z" />
    <glyph glyph-name="uni0475" unicode="&#x475;" horiz-adv-x="583" 
d="M572 460q-9 0 -18 0.5t-18 0.5q-19 0 -30.5 -9t-18.5 -32q-9 -30 -18 -60.5t-18 -60.5l-134 22l8 38t8 37q15 59 33.5 103t47.5 69q20 18 48.5 26t65.5 8q8 0 21.5 -1t26.5 -5zM481 403l-117 -403h-184l-171 588h160l115 -524l-85 68h143l-82 -68l73 332z" />
    <glyph glyph-name="uni0493" unicode="&#x493;" horiz-adv-x="575" 
d="M35 201v134h420v-134l-234 1zM147 0v588h155v-588h-155zM221 588h322v-128l-324 2z" />
    <glyph glyph-name="uni0497" unicode="&#x497;" horiz-adv-x="974" 
d="M871 -155l-20 229h147v-229h-127zM4 0l246 301v5l-222 282h187l195 -288l-216 -300h-190zM407 0l4 300l-4 288h155l-4 -288l4 -300h-155zM775 0l-216 300l195 288h187l-222 -282v-5l246 -301h-190z" />
    <glyph glyph-name="uni049B" unicode="&#x49b;" horiz-adv-x="637" 
d="M539 -155l-20 229h147v-229h-127zM451 0l-216 293l195 295h187l-222 -289v-5l246 -294h-190zM83 0l4 293l-4 295h155l-4 -295l4 -293h-155z" />
    <glyph glyph-name="uni04A3" unicode="&#x4a3;" horiz-adv-x="706" 
d="M574 -155l-20 229h147v-229h-127zM85 0v588h155l-4 -292l4 -296h-155zM466 0l4 296l-4 292h155v-588h-155zM167 233v128h372v-128h-372z" />
    <glyph glyph-name="ustraitcy" unicode="&#x4af;" horiz-adv-x="540" 
d="M184 -166v264l25 -132l-213 622h172l121 -460l-88 67h146l-88 -67l123 460h159l-224 -622l28 132v-264h-161z" />
    <glyph glyph-name="ustraitstrokecy" unicode="&#x4b1;" horiz-adv-x="540" 
d="M184 -166l6 264l19 -132l-213 622h172l121 -460l-88 67h146l-88 -67l123 460h159l-224 -622l22 132l6 -264h-161zM9 25v116h510v-116l-274 1z" />
    <glyph glyph-name="uni04B3" unicode="&#x4b3;" horiz-adv-x="600" 
d="M482 -155l-20 229h147v-229h-127zM4 0l191 309l-180 279h161l108 -194h6l108 194h161l-180 -279l191 -309h-166l-114 218h-6l-114 -218h-166z" />
    <glyph glyph-name="uni04B7" unicode="&#x4b7;" horiz-adv-x="662" 
d="M530 -155l-20 229h147v-229h-127zM428 0v220q-30 -15 -84.5 -33.5t-136.5 -18.5q-61 0 -93.5 29t-45 78.5t-12.5 110.5v202h155v-175q0 -39 4.5 -62t11.5 -33q5 -7 18.5 -11t40.5 -4q22 0 46.5 5.5t46.5 12.5t35.5 12.5l13.5 5.5v249h155v-588h-155z" />
    <glyph glyph-name="uni04BB" unicode="&#x4bb;" horiz-adv-x="627" 
d="M74 0v761h155v-280l-23 58q14 7 46 22.5t73.5 28.5t84.5 13q61 0 93.5 -29t45 -78t12.5 -111v-385h-155v358q0 39 -4 62t-12 33q-5 7 -16 11t-23 4q-15 0 -38 -6.5t-46.5 -15t-40.5 -16t-20 -9.5l23 32v-453h-155z" />
    <glyph glyph-name="uni04CF" unicode="&#x4cf;" horiz-adv-x="303" 
d="M78 0v588h155v-588h-155z" />
    <glyph glyph-name="uni04D9" unicode="&#x4d9;" horiz-adv-x="604" 
d="M284 602q82 0 143 -30t95 -97.5t34 -181.5q0 -117 -36 -184t-97 -95t-137 -28q-77 0 -131.5 27t-83 88t-28.5 164v83h426l-70 -22q0 41 -5 68.5t-12 43.5t-14 22q-10 9 -27 14t-49 3q-17 -1 -40.5 -3t-62 -8t-101.5 -21l-39 112q34 14 74.5 24t82 15.5t78.5 5.5zM399 258
l69 -21l-337 -6l70 22q0 -48 4 -78.5t14 -44.5q7 -8 21 -15t46 -7q38 0 57 7.5t29 18.5q27 29 27 124z" />
    <glyph glyph-name="uni04E3" unicode="&#x4e3;" horiz-adv-x="699" 
d="M81 0l-3 588h145l-10 -412h4l213 412h202v-588h-145l11 436h-3l-224 -436h-190zM149 666v96h393v-96h-393z" />
    <glyph glyph-name="uni04E9" unicode="&#x4e9;" horiz-adv-x="600" 
d="M79 234v114h416v-114l-209 1zM307 -13q-97 0 -154 37.5t-81 106.5t-24 164q0 94 24 162.5t81 106t155 37.5q97 0 153 -37.5t79.5 -106t23.5 -163.5q0 -94 -23.5 -163t-79.5 -106.5t-154 -37.5zM307 105q29 0 48 8t30.5 29t16 58t4.5 95q0 57 -5 94t-16 57.5t-30 28.5
t-48 8t-48.5 -8t-31 -28.5t-16.5 -57.5t-5 -94q0 -58 5 -95t16.5 -58t31 -29t48.5 -8z" />
    <glyph glyph-name="uni04EF" unicode="&#x4ef;" horiz-adv-x="536" 
d="M112 -166l86 214l-198 540h160l106 -392h6l103 392h161l-205 -560l-58 -194h-161zM68 668v96h393v-96h-393z" />
    <glyph glyph-name="minus" unicode="&#x2212;" horiz-adv-x="600" 
d="M30 328v132h534v-132h-534z" />
    <glyph glyph-name="notequal" unicode="&#x2260;" horiz-adv-x="643" 
d="M30 371v133h589v-133h-589zM30 79v133h589v-133h-589zM97 0l169 321l117 267h144l-166 -330l-119 -258h-145z" />
    <glyph glyph-name="arrowup" unicode="&#x2191;" horiz-adv-x="830" 
d="M759 703h-699v-151l441 12l-458 -468l110 -109l456 474l-18 -461h168v703z" />
    <glyph glyph-name="arrowright" unicode="&#x2192;" horiz-adv-x="830" 
d="M747 0h-699v151l441 -12l-458 468l110 109l456 -474l-18 461h168v-703z" />
    <glyph glyph-name="arrowdown" unicode="&#x2193;" horiz-adv-x="830" 
d="M83 0h699v151l-441 -12l458 468l-110 109l-456 -474l18 461h-168v-703z" />
    <glyph glyph-name="arrowleft" unicode="&#x2190;" horiz-adv-x="830" 
d="M78 703h699v-151l-441 12l458 -468l-110 -109l-456 474l18 -461h-168v703z" />
    <glyph glyph-name="uni0308" unicode="&#x308;" horiz-adv-x="0" 
d="M0 668v108h147v-108h-147zM225 668v108h147v-108h-147z" />
    <glyph glyph-name="uni0307" unicode="&#x307;" horiz-adv-x="0" 
d="M0 668v108h163v-108h-163z" />
    <glyph glyph-name="gravecomb" unicode="&#x300;" horiz-adv-x="0" 
d="M305 646l-305 58l26 112l298 -87z" />
    <glyph glyph-name="acutecomb" unicode="&#x301;" horiz-adv-x="0" 
d="M22 646l-22 81l293 89l31 -112z" />
    <glyph glyph-name="uni030B" unicode="&#x30b;" horiz-adv-x="0" 
d="M50 622l-50 67l150 127l63 -86zM238 622l-50 67l150 127l63 -86z" />
    <glyph glyph-name="uni0302" unicode="&#x302;" horiz-adv-x="0" 
d="M33 637l-33 61l167 105h73l167 -105l-33 -61l-167 64h-7z" />
    <glyph glyph-name="uni030C" unicode="&#x30c;" horiz-adv-x="0" 
d="M167 651l-167 105l33 61l167 -64h7l167 64l33 -61l-167 -105h-73z" />
    <glyph glyph-name="uni0306" unicode="&#x306;" horiz-adv-x="0" 
d="M194 643q-50 0 -92.5 15.5t-69.5 51t-32 96.5l79 9q10 -43 39 -57.5t76 -14.5t76 14.5t39 57.5l79 -9q-5 -61 -32 -96.5t-69 -51t-93 -15.5z" />
    <glyph glyph-name="uni030A" unicode="&#x30a;" horiz-adv-x="0" 
d="M106 637q-25 0 -49.5 8.5t-40.5 29.5t-16 58q0 39 16 60t40.5 29t50.5 8q25 0 49 -8t39.5 -29t15.5 -60q0 -37 -15.5 -58t-39.5 -29.5t-50 -8.5zM106 694q22 0 31.5 8.5t9.5 30.5q0 24 -9.5 31t-31.5 7t-32 -7t-10 -31q0 -22 10 -30.5t32 -8.5z" />
    <glyph glyph-name="tildecomb" unicode="&#x303;" horiz-adv-x="0" 
d="M312 656q-22 0 -52.5 7t-61.5 15.5t-55.5 15.5t-34.5 7q-8 0 -15.5 -10t-12 -20.5l-4.5 -10.5l-76 10q2 69 28.5 98.5t68.5 29.5q23 0 53 -6.5t61 -15t55.5 -15t34.5 -6.5q8 0 15 10t11.5 20l4.5 10l75 -12q-1 -68 -27 -97.5t-68 -29.5z" />
    <glyph glyph-name="uni0304" unicode="&#x304;" horiz-adv-x="0" 
d="M0 668v96h393v-96h-393z" />
    <glyph glyph-name="hookabovecomb" unicode="&#x309;" horiz-adv-x="0" 
d="M0 761v92q23 2 40 3t39 1q71 0 97 -22.5t26 -58.5q0 -28 -11 -51.5t-41.5 -50.5t-87.5 -64l-60 53q35 27 56.5 44.5t21.5 29.5q0 24 -47 24h-33z" />
    <glyph glyph-name="uni0312" unicode="&#x312;" horiz-adv-x="0" 
d="M28 775l-28 -47q17 -11 25 -41.5t8 -77.5v-35h106v27q0 54 -17 90t-42.5 56.5t-51.5 27.5z" />
    <glyph glyph-name="uni031B" unicode="&#x31b;" horiz-adv-x="0" 
d="M-30 550h86q17 0 22 6t5 25q0 10 -1.5 22t-5.5 32t-11 53h123q7 -25 11 -45t4 -34q0 -52 -21.5 -84.5t-57.5 -47.5t-78 -15h-63z" />
    <glyph glyph-name="dotbelowcomb" unicode="&#x323;" horiz-adv-x="0" 
d="M0 -156v108h158v-108h-158z" />
    <glyph glyph-name="uni0326" unicode="&#x326;" horiz-adv-x="0" 
d="M28 -253l-28 47q17 11 25 41.5t8 77.5v35h106v-27q0 -54 -17 -90t-42.5 -56.5t-51.5 -27.5z" />
    <glyph glyph-name="uni0327" unicode="&#x327;" horiz-adv-x="0" 
d="M87 -179q-34 0 -60.5 4.5l-26.5 4.5v87l12.5 -1t30 -2.5t32.5 -1.5q23 0 34.5 5t11.5 25q0 23 -5 48.5t-6 29.5l76 20q1 -1 6 -16.5t10.5 -39.5t5.5 -52q0 -51 -31.5 -81t-89.5 -30z" />
    <glyph glyph-name="uni0328" unicode="&#x328;" horiz-adv-x="0" 
d="M102 -179q-49 0 -75.5 20.5t-26.5 61.5q0 23 11 44t33.5 40t56.5 34l81 -20q-45 -14 -70 -31.5t-25 -35.5q0 -12 12.5 -17t33.5 -5q16 0 33 2l17 2v-86l-23 -4.5t-58 -4.5z" />
    </font>
</defs>
</svg>
