<?xml version="1.0" standalone="no"?>
<!DOCTYPE svg PUBLIC "-//W3C//DTD SVG 1.1//EN" "http://www.w3.org/Graphics/SVG/1.1/DTD/svg11.dtd">
<svg xmlns="http://www.w3.org/2000/svg">
<metadata>Generated by Fontastic.me</metadata>
<defs>
<font id="auxin-front" horiz-adv-x="512">
<font-face font-family="auxin-front" units-per-em="512" ascent="480" descent="-32"/>
<missing-glyph horiz-adv-x="512" />

<glyph glyph-name="2-arrows" unicode="&#97;" d="M479 359c-1-1-3-2-5-2-2 0-4 1-6 2l-16 16-33 33-32-33-87-86c-1-2-3-3-5-3-2 0-5 1-6 3-3 3-3 8 0 11l86 87 33 32-33 33-16 16c-1 2-2 4-2 6 0 2 1 4 2 6 2 1 4 2 6 2l109 0c4 0 8-4 8-8l0-109c0-2-1-4-3-6z m-13 60l0 47-82 0 3-2 38-39 39-38 2-2z m-329-293l-33-33 33-33 16-16c1-1 2-3 2-6 0-2-1-4-2-5-2-2-4-3-6-3l-108 0c-5 0-9 4-9 8l0 109c0 2 1 5 3 6 3 3 8 3 11 0l16-16 33-33 33 33 86 86c3 4 8 4 11 0 4-3 4-8 0-11z m-50-39l-38 39-2 2 0-82 81 0-2 3z"/>
<glyph glyph-name="4-arrows" unicode="&#98;" d="M479 359c-1-1-3-2-5-2-2 0-4 1-6 2l-16 16-33 33-32-33-87-86c-1-2-3-3-5-3-2 0-5 1-6 3-3 3-3 8 0 11l86 87 33 32-33 33-16 16c-1 2-2 4-2 6 0 2 1 4 2 6 2 1 4 2 6 2l109 0c4 0 8-4 8-8l0-109c0-2-1-4-3-6z m-13 60l0 47-82 0 3-2 38-39 39-38 2-2z m-166-196l87-86 32-33 33 33 16 16c3 3 8 3 11 0 2-2 3-4 3-6l0-109c0-4-4-8-8-8l-109 0c-2 0-4 1-6 3-1 1-2 3-2 5 0 3 1 5 2 6l16 16 33 33-33 33-86 86c-3 3-3 8 0 11 3 3 8 3 11 0z m87-174l-3-3 82 0 0 82-3-2-38-39z m-169 237c-2 0-4 1-6 3l-86 86-33 33-33-33-16-16c-1-1-3-2-5-2-3 0-5 1-6 2-2 2-3 4-3 6l0 109c0 4 4 8 9 8l108 0c2 0 4-1 6-2 2-2 2-4 2-6 0-2 0-4-2-6l-16-16-33-33 33-32 86-87c4-3 4-8 0-11-1-2-3-3-5-3z m-92 178l2 2-81 0 0-81 2 2 38 38z m-82-311l16-16 33-33 33 33 86 86c3 4 8 4 11 0 4-3 4-8 0-11l-86-86-33-33 33-33 16-16c1-1 2-3 2-6 0-2-1-4-2-5-2-2-4-3-6-3l-108 0c-5 0-9 4-9 8l0 109c0 2 1 4 3 6 3 3 8 3 11 0z m3-60l0-47 81 0-2 3-39 38-38 39-2 2z"/>
<glyph glyph-name="back" unicode="&#99;" d="M323 356l-141-79c-7-3-12-9-14-15l0 101c0 5-4 8-8 8-5 0-8-3-8-8l0-214c0-4 3-8 8-8 4 0 8 4 8 8l0 101c2-6 7-11 14-15l141-79c5-3 10-4 15-4 13 0 22 11 22 26l0 156c0 21-18 33-37 22z m21-178c0-3-1-10-6-10-2 0-5 1-7 2l-142 79c-4 2-6 5-6 7 0 2 2 5 6 7l142 79c2 1 5 2 7 2 5 0 6-6 6-10z"/>
<glyph glyph-name="back-pack" unicode="&#100;" d="M318 413c0 2 1 4 1 6 0 35-28 63-63 63-34 0-62-28-62-63 0-2 0-4 0-6-50-24-82-74-82-130l0-218c0-19 16-35 35-35l218 0c0 0 0 0 0 0 9 0 18 4 25 10 6 7 10 16 10 25l0 218c0 56-32 106-82 130z m-62 53c25 0 46-21 46-46-4 1-8 2-12 3-2 0-5 1-7 2-9 1-18 2-27 2-9 0-18-1-27-2-2-1-5-2-7-2-4-1-8-2-12-3 0 25 21 46 46 46z m72-277c0-2-1-4-1-6-1-3-2-5-3-7 0-2-1-4-2-6-1-2-2-5-3-7-2-1-3-3-4-5-1-2-3-4-5-6-1-1-2-3-4-4-2-2-4-3-6-5-1-1-3-2-4-4-3-1-5-2-7-3-2-1-4-2-5-3-3-1-6-2-9-3-2 0-3-1-5-1-4-1-9-1-14-1-5 0-10 0-14 1-2 0-3 1-5 1-3 1-6 2-9 3-1 1-3 2-5 3-2 1-4 2-7 3-1 2-3 3-4 4-2 2-4 3-6 5-2 1-3 3-4 4-2 2-4 4-5 6-1 2-2 4-3 5-2 2-3 5-4 7-1 2-2 4-2 6-1 2-2 4-3 7 0 2-1 4-1 6 0 1 0 3 0 4l144 0c0-1 0-3 0-4z m-146-143l0 104c1-1 2-1 2-2 4-4 7-8 11-12 2-2 3-3 5-4 3-3 7-6 11-8 2-1 4-2 6-3 4-2 8-4 13-5 2-1 4-2 6-2 6-2 13-3 20-3 7 0 14 1 20 3 2 0 4 1 6 2 5 1 9 3 13 5 2 1 4 2 6 3 4 2 7 5 11 7 1 2 3 3 5 5 3 3 7 7 10 11 0 1 1 2 2 3l0-104z m202 19c0-5-2-9-6-13-3-4-8-6-13-6l-20 0 0 155c0 4-3 8-8 8l-162 0c0 0 0 0 0 0 0 0-1 0-1 0-4 0-8-4-8-8l0-155-19 0c-10 0-19 9-19 19l0 164c0 70 57 128 128 128 71 0 128-58 128-128z m-128 308c-55 0-103-32-127-78 4 47 34 87 77 106 32 14 68 13 100 0 44-19 73-59 77-106-24 46-72 78-127 78z"/>
<glyph glyph-name="basket-1" unicode="&#101;" d="M482 270c0 9-4 18-11 25-6 6-15 10-24 10l-52 0-109 110c3 5 5 11 5 18 0 9-3 18-10 25-7 7-15 10-25 10-19 0-35-16-35-35 0-7 2-13 6-18l-110-110-51 0c-20 0-36-16-36-35 0-17 13-31 29-34l26-185c0-4 4-7 8-7l326 0c4 0 8 3 8 7l27 185c6 1 13 4 17 9 7 6 11 15 11 25z m-226 182c11 0 19-8 19-19 0-5-2-10-5-14-6-5-14-6-21-4-2 1-5 3-6 4-4 4-6 9-6 14 0 11 9 19 19 19z m-18-49c1-1 2-1 3-2 1 0 2-1 3-1 4-1 7-2 10-2 1 0 1 0 2 0 1 0 1 0 2 0 3 0 7 1 10 2 1 0 2 1 3 1 1 1 3 1 4 2l98-98-233 0z m64-169l0-79-92 0 0 79z m135 0l-11-79-107 0 0 79z m-135-95l0-79-92 0 0 79z m-108 16l-108 0-11 79 119 0z m-105-16l105 0 0-79-94 0z m323-79l-93 0 0 79 105 0z m48 196c-4-3-8-5-13-5l-381 0c-11 0-19 8-19 19 0 10 8 19 19 19l381 0c10 0 19-9 19-19 0-5-2-10-6-14z"/>
<glyph glyph-name="basket-2" unicode="&#102;" d="M482 270c0 9-4 18-11 25-6 6-15 10-24 10l-52 0-109 110c3 5 5 11 5 18 0 9-3 18-10 25-7 7-15 10-25 10-19 0-35-16-35-35 0-7 2-13 6-18l-110-110-51 0c-20 0-36-16-36-35 0-17 13-31 29-34l26-185c1-4 4-7 8-7l326 0c4 0 8 3 8 7l27 185c6 1 13 4 17 9 7 6 11 15 11 25z m-226 182c11 0 19-8 19-19 0-5-2-10-5-14-8-7-20-7-27 0-4 4-6 9-6 14 0 11 9 19 19 19z m-18-49c1-1 2-1 3-1 1-1 2-2 3-2 4-1 7-2 10-2 1 0 1 0 2 0 1 0 1 0 2 0 3 0 7 1 10 2 1 0 2 1 3 1 1 1 3 1 4 2l98-98-233 0z m174-343l-312 0-25 174 362 0z m48 196c-4-3-8-5-13-5l-381 0c-11 0-19 8-19 19 0 10 8 19 19 19l381 0c10 0 19-9 19-19 0-5-2-10-6-14z"/>
<glyph glyph-name="big-candy" unicode="&#103;" d="M492 256c0 9-1 19-2 30-3 20-8 40-15 58-2 4-5 6-10 5-31-6-56-27-68-55-15 34-49 57-87 57l-108 0c-17 0-34-5-50-14-17-11-29-26-36-43-13 28-38 49-69 55-4 1-8-1-10-5-7-19-13-39-15-60-2-11-2-20-2-28 0-9 1-19 2-30 3-21 8-41 15-59 2-3 5-5 8-5 1 0 1 0 2 0 31 6 56 27 68 55 15-33 49-57 87-57l108 0c17 0 34 5 50 15 0 0 0 0 0 0 17 10 29 25 36 43 13-28 38-50 69-56 1 0 1 0 2 0 3 0 6 2 8 5 7 19 13 39 15 60l0 0c1 11 2 20 2 29z m-17 0c0-5 0-11-1-16l-50 16 50 17c1-6 1-12 1-17z m-13 75c4-13 8-27 10-41l-66-22c5 30 26 55 56 63z m-425-75c0 5 0 10 1 16l50-16-50-18c-1 7-1 12-1 18z m13 75c30-8 51-33 56-63l-23 7-43 14c2 15 5 29 10 42z m0-151c-4 13-8 27-10 41l49 17 17 6c-5-30-26-55-56-64z m152-3c-43 0-78 35-78 79 0 24 11 47 30 62l87-141z m59 0l-30 48-62 101c10 6 22 8 33 8l49 0 92-149c-10-5-22-8-33-8z m97 17l-87 140 39 0c43 0 78-35 78-78 0-25-11-47-30-62z m104-14c-30 9-51 34-56 64l66-22c-2-14-5-28-10-42z"/>
<glyph glyph-name="bottle" unicode="&#104;" d="M298 366l0 118c0 4-4 8-8 8l-68 0c-5 0-8-4-8-8l0-118c-21-14-34-37-34-62l0-276c0-5 4-8 8-8l135 0c5 0 9 3 9 8l0 276c0 25-13 48-34 62z m-67 109l50 0 0-17-50 0z m0-34l50 0 0-66c-1 1-3 1-4 2-1 0-2 0-3 0-6 2-12 3-18 3-6 0-12-1-18-3-1 0-2 0-3 0-1-1-3-1-4-2z m84-404l-118 0 0 16 93 0c4 0 8 4 8 9l0 211c0 5-4 8-8 8l-93 0 0 23c0 21 11 40 29 51 19 11 41 11 59 0 19-11 30-30 30-51z m-118 33l0 194 84 0 0-194z"/>
<glyph glyph-name="bow-tie" unicode="&#105;" d="M470 386c-7 4-16 3-26-3l-29-18-111-70c-12 15-29 24-48 24-19 0-36-9-48-24l-111 70-29 18c-9 6-19 7-26 3-7-4-12-13-12-23l0-214c0-10 5-19 12-23 3-2 6-2 10-2 5 0 10 1 16 5l29 18 111 70c12-15 29-23 48-23 19 0 36 8 48 23l111-70 29-18c6-4 11-5 16-5 4 0 7 0 10 2 8 4 12 13 12 23l0 214c0 10-4 19-12 23z m-381-225l-30-19c-4-2-7-3-9-2-2 1-3 5-3 9l0 59 47 9c5 1 8 5 7 9-1 5-5 8-10 7l-44-9 0 64 44-9c1 0 1 0 2 0 1 0 2 1 2 1 1 0 2 0 3 1 1 1 2 3 3 5 1 4-2 8-7 9l-47 9 0 59c0 4 1 8 3 9 2 1 5 0 9-2l30-19 110-69c0-1 0-1 0-1-2-5-3-9-4-13-1-4-1-8-1-12 0-4 0-8 1-12 1-4 2-8 4-13 0 0 0 0 0-1z m167 49c-16 0-31 8-39 22-3 5-5 10-6 15-1 3-1 6-1 9 0 3 0 6 1 9 1 5 3 11 6 15l0 0c8 14 23 22 39 22 16 0 31-8 39-21 3-5 5-11 6-16 1-3 1-6 1-9 0-3 0-6-1-9-1-5-3-10-6-15-8-14-23-22-39-22z m210-61c0-4-2-8-4-9-2-1-5 0-9 2l-29 19-111 69c0 1 0 1 0 1 2 5 4 9 4 13 1 4 2 8 2 12 0 4-1 8-2 12-1 4-2 8-4 13 0 0 0 1 0 1l111 69 29 19c4 2 7 3 9 2 2-1 4-5 4-9l0-59-48-9c-5-1-8-5-7-9 1-3 2-4 3-5 1-1 2-1 3-1 0 0 1-1 2-1 1 0 1 0 2 0l45 9 0-64-45 9c-5 1-9-2-10-7-1-4 2-8 7-9l48-9z"/>
<glyph glyph-name="box-1" unicode="&#106;" d="M457 377l-197 114c-2 2-6 2-8 0l-197-114c0 0 0 0 0 0-3-1-5-4-5-7l0-228c0-3 2-6 5-7l197-114c1-1 3-1 4-1 0 0 0 0 0 0 0 0 0 0 0 0 2 0 3 0 4 1l197 114c3 1 5 4 5 7l0 228c0 3-2 6-5 7z m-275 54l180-104-32-18-180 104z m157-203l0 66 32 18 0-65z m-83 246l180-104-57-33-180 104z m-123-71l180-104-57-33-180 104z m-66-48l181-104 0-208-181 104z m198-312l0 208 57 33 0-71c0-3 1-5 4-7 2-1 4-1 6-1 1 1 2 1 2 1l49 28c3 2 5 5 5 8l0 80 57 33 0-208z"/>
<glyph glyph-name="box-2" unicode="&#107;" d="M457 377l-197 114c-2 2-6 2-8 0l-197-114c-3-1-4-4-4-7l0-228c0-3 1-6 4-7l197-114c1-1 3-1 4-1 2 0 3 0 4 1l197 114c3 1 5 4 5 7l0 228c0 3-2 6-5 7z m-324 26l180-104-57-33-180 104z m49 28l180-104-32-18-180 104z m157-137l32 18 0-62-16 0c-3 0-5-1-7-3l-9-11z m-83 180l180-104-8-5-49-28-180 104z m-189-119l181-104 0-208-181 104z m378-208l-180-104 0 208 57 33 0-71c0-3 2-6 5-8 1 0 2 0 3 0 0 0 0 0 1 0 2 0 4 1 5 3l23 25 20 0c2 0 5 1 6 3 2 1 3 4 3 6l0 80 57 33z"/>
<glyph glyph-name="box-open" unicode="&#108;" d="M428 316l60 59c2 2 3 5 2 8 0 2-2 5-4 6l-160 93c-4 2-8 1-11-2l-59-59-60 59c-2 3-7 4-10 2l-160-93c-3-1-4-4-5-6 0-3 1-6 3-8l59-59-59-60c-2-2-3-4-3-7 1-2 2-5 5-6l61-35 0-78c0-3 1-5 4-7l161-93c1 0 2-1 4-1 1 0 3 1 4 1l161 93c2 2 4 4 4 7l0 78 61 35c2 1 4 4 4 6 1 3 0 5-2 7z m-29 0l-143-83-144 83 108 62 36 21 130-75z m-76 148l145-84-53-53-9 5-136 78z m-134 0l53-54-145-83-53 53z m-92-159l145-84-53-53-89 52c-1 0-1 0-1 0l-55 32z m7-107l82-48c1-1 3-1 4-1 0 0 1 0 1 0 2 0 4 1 5 3l51 51 0-151-143 83z m304-63l-144-83 0 151 51-51c2-2 4-3 6-3 0 0 0 0 0 0 2 0 3 0 5 1l82 48z m-85 33l-53 53 145 84 53-53z"/>
<glyph glyph-name="candy" unicode="&#109;" d="M432 322c1 3 1 5-1 7-1 3-3 4-6 4-4 1-8 2-12 2-30 0-56-18-70-44-2 5-3 11-6 15l0 0c-18 28-48 45-81 45-2 0-4 0-6 0l-2 0c-37-4-66-27-80-58-13 25-39 42-69 42-4 0-8-1-12-1-3-1-5-2-6-4-1-2-2-5-1-7 7-22 10-45 10-67 0-23-3-45-10-67-1-3 0-5 1-7 1-2 3-4 6-4 4-1 8-1 12-1 30 0 56 17 70 42 0-1 0-3 1-4l0 0c16-33 49-55 86-55 40 0 74 24 88 59 13-25 39-42 69-42 4 0 8 1 12 1 3 0 5 2 6 4 2 2 2 5 1 7-7 22-10 44-10 67 0 22 3 45 10 66z m-333-128c6 20 8 41 8 62 0 21-2 42-8 62 33 0 60-27 62-60 0-1 0-1 0-2 0-1 0-2 0-3-1-33-29-59-62-59z m80 45c-1 5-1 10-1 14 0 1 0 2 0 3 0 1 0 2 0 2 1 34 23 62 54 72l-27-46z m72-62c-27 2-51 17-64 41l8 14 59 102c0 0 1 0 2 0 25 0 49-12 64-33z m20 2l20 35 38 70c4-9 6-19 6-28 0-38-28-70-64-77z m142 15c-34 0-61 28-61 62 0 34 27 61 61 62-5-21-8-41-8-62 0-21 3-42 8-62z"/>
<glyph glyph-name="cd-cover" unicode="&#110;" d="M474 30l-436 0c-4 0-8 4-8 8l0 436c0 4 4 8 8 8l436 0c4 0 8-4 8-8l0-436c0-4-4-8-8-8z m-8 436l-419 0 0-420 419 0z m-255-275l37 0 0 204c0 2 1 4 2 6 1 0 1 0 2 1 0 0 1 1 2 1l90 23c3 0 5 0 7-2 2-1 3-4 3-6l0-68c0-4-2-7-6-8l-84-21 0-183c0-30-24-53-53-53-29 0-53 23-53 53 0 29 24 53 53 53z m53 147l74 19 0 51-74-19z m-53-237c20 0 37 16 37 37l0 37-37 0c-20 0-37-17-37-37 0-21 17-37 37-37z"/>
<glyph glyph-name="chopsticks" unicode="&#111;" d="M381 87l-106 175-4 214c0 9-8 16-17 16-9 0-17-7-17-16l-3-146-75 125c-4 7-15 10-23 6-8-5-11-15-6-23l102-187-4-205c0-15 12-26 26-26 14 0 25 11 25 26l-2 124 60-109c5-8 13-13 22-13l0 0c5 0 9 1 13 4 6 3 10 9 12 15 1 7 1 14-3 20z m-148 212l0-14-89 161z m21-262c-5 0-9 4-9 8l9 430 8-429c0-5-3-9-8-9z m109 29c-4-2-9 0-11 3l-76 138 0 21 91-150c1-2 1-4 0-6 0-3-2-4-4-6z"/>
<glyph glyph-name="cloud" unicode="&#112;" d="M338 112l-191 0c-64 0-117 52-117 117 0 64 53 117 117 117 23 0 46-7 65-20 25 45 74 74 126 74 79 0 144-65 144-144 0-80-65-144-144-144z m-191 218c-55 0-100-46-100-101 0-56 45-101 100-101l191 0c70 0 128 57 128 128 0 71-58 128-128 128-49 0-95-29-116-74-1-2-3-4-5-4-3-1-5-1-7 1-19 15-40 23-63 23z"/>
<glyph glyph-name="cloud-down" unicode="&#113;" d="M338 166l-191 0c-64 0-117 53-117 117 0 65 53 117 117 117 23 0 45-7 65-20 25 46 73 75 126 75 79 0 144-65 144-144 0-80-65-145-144-145z m0 272c-50 0-95-29-116-73-1-3-3-4-6-5-2 0-4 0-6 2-19 14-40 22-63 22-55 0-101-45-101-101 0-55 46-100 101-100l191 0c70 0 127 57 127 128 0 70-57 127-127 127z m-136-310l108 0c4 0 7-2 8-5 1-3 0-6-2-9l-54-54c-2-2-4-3-6-3-2 0-4 1-6 3l-54 54c-2 3-3 6-2 9 1 3 4 5 8 5z m54-51l35 35-70 0z"/>
<glyph glyph-name="cloud-up" unicode="&#114;" d="M338 166l-191 0c-64 0-117 53-117 117 0 65 53 117 117 117 23 0 46-7 65-20 25 46 74 75 126 75 79 0 144-65 144-144 0-80-65-145-144-145z m0 272c-49 0-95-29-116-73-1-3-3-4-5-5-3-1-5 0-7 2-19 14-40 22-63 22-55 0-100-45-100-101 0-55 45-100 100-100l191 0c70 0 128 57 128 128 0 70-58 127-128 127z m-88-312c3 3 9 3 12 0l53-53c2-2 4-4 4-7 0-5-4-9-8-9 0 0 0 0 0 0l-109 0c-4 0-7 2-8 5-1 4 0 7 2 9z m41-52l-35 35-35-35z"/>
<glyph glyph-name="cloud-v-1" unicode="&#115;" d="M338 186l-191 0c-64 0-117 52-117 117 0 64 53 117 117 117 23 0 46-7 65-20 25 45 74 74 126 74 79 0 144-65 144-144 0-80-65-144-144-144z m0 272c-49 0-95-29-116-74-1-2-3-4-5-5-3 0-5 0-7 2-19 15-40 22-63 22-55 0-100-45-100-100 0-56 45-101 100-101l191 0c70 0 128 57 128 128 0 70-58 128-128 128z m-134-367l33-33 71 71c3 3 8 3 12 0 3-3 3-8 0-11l-77-77c-2-2-4-3-6-3-2 0-4 1-6 3l-38 38c-3 3-3 9 0 12 3 3 8 3 11 0z"/>
<glyph glyph-name="cloud-v-2" unicode="&#116;" d="M473 237c-3 0-6-1-10-2 1 7 2 14 2 21 0 70-57 128-128 128-49 0-94-29-115-74-1-2-3-4-6-5-2 0-5 0-6 2-19 15-40 22-63 22-56 0-101-45-101-100 0-56 45-101 101-101l184 0 15-15c-3-1-5-1-9-1l-190 0c-64 0-117 52-117 117 0 64 53 117 117 117 23 0 45-7 65-21 25 46 73 75 125 75 80 0 145-65 145-144 0-7-2-13-2-20-3 0-4 1-7 1z m-115-71c2 0 4 0 6-2l25-25 8-8 71 71c1 1 2 2 4 2 0 0 1 1 1 1 3 0 5-1 6-3 3-3 3-8 0-11l-77-77c-1-2-3-2-5-2-3 0-5 0-6 2l-6 6-13 13-20 19c-3 4-3 9 0 12 2 2 4 2 6 2z"/>
<glyph glyph-name="cloud-x-1" unicode="&#117;" d="M338 186l-191 0c-64 0-117 52-117 117 0 64 53 117 117 117 23 0 45-7 65-20 25 45 73 74 126 74 79 0 144-65 144-144 0-80-65-144-144-144z m0 272c-49 0-95-29-116-74-1-2-3-4-5-5-3 0-5 0-7 2-19 15-40 22-63 22-55 0-100-45-100-100 0-56 45-101 100-101l191 0c70 0 128 57 128 128 0 70-58 128-128 128z m-126-329c3 3 8 3 11 0l33-33 33 33c3 3 8 3 11 0 3-3 3-8 0-11l-32-33 32-33c3-3 3-8 0-11-1-2-3-3-5-3-3 0-5 1-6 3l-33 32-33-32c-1-2-3-3-5-3-2 0-5 1-6 3-3 3-3 8 0 11l33 33-33 33c-3 3-3 8 0 11z"/>
<glyph glyph-name="cloud-x-2" unicode="&#118;" d="M473 237c-3 0-6-1-10-2 1 7 2 14 2 21 0 70-57 128-128 128-49 0-94-29-115-74-1-2-3-4-6-5-2 0-5 0-7 2-18 15-39 22-62 22-56 0-101-45-101-100 0-56 45-101 101-101l190 0c7 0 14 1 21 2-1-5-2-11-1-16-6-1-13-2-20-2l-190 0c-64 0-117 52-117 117 0 64 53 117 117 117 23 0 45-7 65-21 25 46 73 75 125 75 80 0 145-65 145-144 0-7-2-13-2-20-3 0-4 1-7 1z m-82-46c-3 3-3 8 0 11 1 2 3 3 6 3 2 0 4-1 5-3l31-30 2-2 33 32c1 1 2 2 4 2 0 0 1 1 1 1 2 0 5-1 6-3 3-3 3-8 0-11l-33-33 33-33c3-3 3-8 0-11-1-2-4-2-6-2-2 0-4 0-5 2l-33 33-33-33c-1-2-3-2-5-2-3 0-5 0-6 2-2 2-3 5-2 8 1 1 1 2 2 3l33 33-2 2z"/>
<glyph glyph-name="cofee-cup-1" unicode="&#119;" d="M370 127c0 0-1 0-1 0-4 0-9 1-13 2-10-17-23-31-39-43-1-1-3-2-5-2l-169 0c-2 0-4 1-5 2-39 29-61 73-61 121l0 85c0 5 4 8 8 8l285 0c5 0 8-3 8-8l0-35c33-5 58-32 57-65 0-36-30-65-65-65z m-9 122l0 34-267 0 0-76c0-42 19-80 52-106l163 0c15 11 27 25 36 42 8 15 13 30 15 47 1 5 1 11 1 17z m17-9l0-33c0-10-1-20-3-29 0-2 0-4-1-5-2-9-5-18-9-26 0-1 0-2-1-3 2 0 4 0 5 0l1 0c26 0 48 21 48 48 1 24-17 44-40 48z m-79 84c-5 0-9 3-9 8l0 67c0 5 4 9 9 9 4 0 8-4 8-9l0-67c0-5-4-8-8-8z m-71 0c-5 0-9 3-9 8l0 87c0 5 4 9 9 9 4 0 8-4 8-9l0-87c0-5-4-8-8-8z m-72 0c-4 0-8 3-8 8l0 67c0 5 4 9 8 9 5 0 9-4 9-9l0-67c0-5-4-8-9-8z"/>
<glyph glyph-name="cofee-cup-2" unicode="&#120;" d="M443 275c0 42-32 76-73 81l0 37c0 5-4 8-8 8l-285 0c-5 0-8-3-8-8l0-183c0-33 24-60 56-64l0-27c0-5 3-8 8-8l173 0c4 0 8 3 8 8l0 26c26 4 47 23 53 48 43 3 76 38 76 82z m-67 27c2-1 4-3 6-4 1-1 2-2 2-3 2-2 3-4 5-6 0-1 1-2 1-3 2-4 2-7 2-11 0-4 0-8-2-12 0-1-1-2-1-3-2-2-3-4-5-6 0-1-1-2-2-3-2-1-4-2-6-4-2 0-3-1-4-1-1 0-1 0-2-1l0 59c1 0 1 0 2-1 1 0 2-1 4-1z m-79-174l-156 0 0 17 156 0z m8 34l-171 0c-27 0-48 21-48 48l0 174 267 0 0-174c0-3 0-5-1-7-3-24-23-41-47-41z m65 48l0 17c0 0 0 1 1 1 4 1 9 2 13 5 1 0 2 0 2 1 4 2 8 5 11 9 1 1 1 1 2 2 3 4 5 8 7 12 0 1 0 1 1 2 1 5 2 10 2 16 0 5-1 10-2 15-1 1-1 1-1 2-2 4-4 9-7 12-1 1-1 2-2 2-3 4-7 7-11 9 0 1-1 1-2 1-4 3-9 5-13 6-1 0-1 0-1 0l0 17c32-4 56-32 56-64 0-33-24-61-56-65z"/>
<glyph glyph-name="credit-card-1" unicode="&#121;" d="M446 112c0 0 0 0 0 0l-381 0c-9 0-18 4-25 10-6 7-10 16-10 25l0 218c0 19 15 34 34 35l3 0 381 0c19-1 34-17 34-35l0-218c-1-20-16-35-36-35z m-400 152l259 0 33 66-292 0z m278 0l22 0 33 66-23 0z m141 101c1 10-7 18-17 19l-3 0-381 0c-10-1-18-9-18-19l0-19 419 0z m0-35l-68 0-33-66 101 0z m0-82l-419 0 0-101c0-5 2-10 6-13 3-4 8-6 13-6l381 0c11 0 19 9 19 19z m-209-55l-190 0c-5 0-9 4-9 8 0 5 4 8 9 8l190 0c4 0 8-3 8-8 0-4-4-8-8-8z m-190-11l136 0c4 0 8-3 8-8 0-4-4-8-8-8l-136 0c-5 0-9 4-9 8 0 5 4 8 9 8z"/>
<glyph glyph-name="credit-card-2" unicode="&#122;" d="M474 112l-436 0c-4 0-8 3-8 8l0 272c0 5 4 8 8 8l436 0c4 0 8-3 8-8l0-272c0-5-4-8-8-8z m-427 152l259 0 32 66-291 0z m277 0l22 0 33 66-23 0z m142 120l-419 0 0-38 419 0z m0-54l-69 0-33-66 102 0z m0-82l-155 0c0 0 0 0 0 0 0 0-1 0-1 0l-263 0 0-120 419 0z m-373-39l190 0c5 0 8-3 8-8 0-4-3-8-8-8l-190 0c-5 0-8 4-8 8 0 5 3 8 8 8z m0-27l136 0c4 0 8-4 8-8 0-4-4-8-8-8l-136 0c-5 0-8 4-8 8 0 4 3 8 8 8z"/>
<glyph glyph-name="credit-card-3" unicode="&#65;" d="M474 112l-435 0c-5 0-9 3-9 8l0 272c0 5 4 8 9 8l435 0c4 0 8-3 8-8l0-272c0-5-4-8-8-8z m-427 152l259 0 32 66-291 0z m277 0l22 0 33 66-23 0z m142 120l-419 0 0-38 419 0z m0-54l-69 0-33-66 102 0z m0-82l-155 0c0 0 0 0 0 0 0 0-1 0-1 0l-263 0 0-120 419 0z m-373-52l136 0c4 0 8-4 8-8 0-5-4-8-8-8l-136 0c-5 0-8 3-8 8 0 4 3 8 8 8z"/>
<glyph glyph-name="credit-card-4" unicode="&#66;" d="M446 112l-381 0c-9 0-18 4-25 10-6 7-10 16-10 25l0 218c0 19 15 34 34 35l3 0 381 0c19-1 34-17 34-35l0-218c0-20-16-35-36-35z m-399 152l258 0 33 66-291 0z m277 0l22 0 33 66-23 0z m142 101c0 10-8 18-18 19l-3 0-381 0c-10-1-17-9-17-19l0-19 419 0z m0-35l-69 0-33-66 102 0z m0-82l-419 0 0-101c-1-5 1-10 5-13 4-4 8-6 13-6l381 0c11 0 19 9 20 19z m-237-68l-136 0c-5 0-8 3-8 8 0 4 3 8 8 8l136 0c4 0 8-4 8-8 0-5-4-8-8-8z"/>
<glyph glyph-name="cup-1" unicode="&#67;" d="M405 400l-124 0 26 101c1 3 0 6-2 8-1 2-4 3-6 3l-28 0c-4 0-7-3-8-6l-27-106-129 0c-5 0-9-4-9-9l0-28c0-4 4-8 9-8l8 0 8-118c0 0 0 0 0 0 0 0 0 0 0-1l4-56c0 0 0 0 0 0 0 0 0 0 0 0l12-172c0-4 4-8 8-8l219 0c5 0 8 4 9 8l15 229c0 0 0 0 0 0 0 0 0 0 0 0l7 118 8 0c5 0 9 4 9 8l0 28c0 5-4 9-9 9z m-128 95l11 0-24-95-11 0z m-162-112l282 0 0-11-282 0z m17-28l248 0-7-110-233 0z m9-126l231 0-3-40-226 0z m217-212l-203 0-10 155 223 0z"/>
<glyph glyph-name="cup-2" unicode="&#68;" d="M412 438c-2 2-4 3-7 3l-10 0-26 27c-2 1-4 2-6 2l-214 0c-2 0-4-1-6-2l-26-27-10 0c-3 0-5-1-7-3-2-2-2-5-1-7l8-29c1-3 4-6 8-6l0 0 8-118 0 0 4-56 0 0 11-172c1-5 4-8 9-8l219 0c4 0 8 3 8 8l12 171c0 1 0 1 0 1 0 0 0 0 0 0l3 56c0 0 1 0 1 0 0 1-1 1-1 1l8 117 1 0c4 0 8 3 9 7l7 28c0 2 0 5-2 7z m-280-42l248 0-7-109-234 0z m9-126l231 0-3-40-226 0z m-20 143l-3 11 277 0-3-11z m32 40l206 0 12-11-229 0z m205-394l-203 0-11 154 224 0z"/>
<glyph glyph-name="diamond" unicode="&#69;" d="M480 324c0 1 0 1 0 1-1 1 0 2-1 2l-46 109c-1 3-4 5-7 5l-340 0c-3 0-6-2-7-5l-46-109c-1 0 0-1-1-2 0 0 0 0 0-1 0 0 0 0 0 0 0-2 1-4 2-5l216-245c0 0 0 0 1-1 0 0 1-1 1-1 1 0 1 0 1 0 1-1 2-1 3-1 1 0 2 0 3 1 0 0 0 0 1 0 0 0 1 1 1 1 1 1 1 1 1 1l216 245c1 1 2 3 2 5 0 0 0 0 0 0z m-169 101l40-93-190 0 40 93z m40-109l-95-217-95 217z m-207 0l84-193-170 193z m224 0l86 0-170-193z m92 16l-92 0-39 93 91 0z m-368 93l91 0-39-93-92 0z"/>
<glyph glyph-name="dollar" unicode="&#70;" d="M264 263l0 201c52-4 92-47 92-100 0-4 4-8 8-8 5 0 9 4 9 8 0 65-53 117-117 117-65 0-117-52-117-117 0-61 48-111 109-116l0-200c-52 4-92 47-92 99 0 5-4 8-9 8-4 0-8-3-8-8 0-64 53-116 117-116 64 0 116 52 116 116 0 62-48 112-108 116z m-109 101c0 53 41 96 93 100l0-199c-52 4-93 47-93 99z m109-316l0 199c51-5 92-47 92-100 0-52-41-95-92-99z"/>
<glyph glyph-name="dollar-bill" unicode="&#71;" d="M474 125l-435 0c-5 0-9 4-9 8l0 245c0 5 4 9 9 9l435 0c4 0 8-4 8-9l0-245c0-4-4-8-8-8z m-427 245l0-228 69 0c-2 3-3 6-5 9-2 4-4 8-6 12-3 6-5 12-7 18-1 4-3 8-4 12-2 7-3 14-5 21 0 3-1 7-2 10-1 10-2 21-2 32 0 11 1 21 2 32 1 3 2 7 2 10 2 7 3 14 5 21 1 4 3 8 4 12 2 6 4 12 7 18 2 4 4 8 6 12 2 3 3 6 5 9z m338-13c-3 4-5 9-8 13l-242 0c-3-4-5-9-8-13-2-4-4-8-6-12-3-5-5-11-7-17-1-4-3-7-4-11-2-7-3-14-4-20-1-4-2-7-3-10-1-10-2-21-2-31 0-10 1-21 2-31 1-3 2-7 3-10 1-7 2-13 4-20 1-4 3-7 4-11 2-6 4-12 7-17 2-4 4-8 6-12 3-4 5-9 8-13l242 0c3 4 5 9 8 13 2 4 4 8 6 12 3 5 5 11 7 17 1 4 3 7 4 11 2 7 3 13 5 20 0 3 1 7 2 10 1 10 2 21 2 31 0 10-1 21-2 31-1 3-2 6-2 10-2 6-3 13-5 20-1 4-3 7-4 11-2 6-4 12-7 17-2 4-4 8-6 12z m81 13l-70 0c2-3 3-6 5-9 2-4 4-8 6-12 3-6 5-12 7-18 2-4 3-8 4-12 2-7 4-14 5-21 1-3 2-7 2-10 2-11 2-21 2-32 0-11 0-22-2-32 0-3-1-7-2-10-1-7-3-14-5-21-1-4-2-8-4-12-2-6-4-12-7-18-2-4-4-8-6-12-2-3-3-6-5-9l70 0z m-210-203c-34 0-62 40-62 89 0 49 28 89 62 89 35 0 63-40 63-89 0-49-28-89-63-89z m0 162c-25 0-46-33-46-73 0-40 21-73 46-73 25 0 46 33 46 73 0 40-21 73-46 73z"/>
<glyph glyph-name="dollar-coin" unicode="&#72;" d="M256 30c-124 0-226 102-226 226 0 125 102 226 226 226 125 0 226-101 226-226 0-124-101-226-226-226z m0 436c-115 0-209-94-209-210 0-115 94-210 209-210 116 0 210 95 210 210 0 116-94 210-210 210z m55-164c-5 0-9 4-9 9 0 22-16 41-38 45l0-93c31-4 55-30 55-61 0-35-28-63-63-63-34 0-62 28-62 63 0 4 3 8 8 8 4 0 8-4 8-8 0-23 16-42 38-46l0 93c-31 4-54 30-54 62 0 34 28 62 62 62 35 0 63-28 63-62 0-5-4-9-8-9z m-47-146c22 4 38 23 38 46 0 22-16 41-38 45z m-16 200c-22-4-38-23-38-45 0-23 16-42 38-46z"/>
<glyph glyph-name="download" unicode="&#73;" d="M365 85l-218 0c-34 0-62 28-62 62 0 5 4 8 8 8 5 0 8-3 8-8 0-25 21-46 46-46l218 0c26 0 46 21 46 46 0 5 4 8 8 8 5 0 9-3 9-8 0-34-29-62-63-62z m-103 56c-1 0-1-1-2-1-1-1-2-1-4-1-2 0-4 1-6 3l-54 54c-3 3-3 8 0 11 3 3 8 3 12 0l40-40 0 252c0 5 4 8 8 8 5 0 8-3 8-8l0-252 41 40c3 3 8 3 11 0 4-3 4-8 0-11z"/>
<glyph glyph-name="euro" unicode="&#74;" d="M418 136c-4 1-9-1-11-5-18-51-66-85-119-85-71 0-128 58-128 128l0 46 201 0c4 0 8 4 8 9 0 4-4 8-8 8l-201 0 0 38 201 0c4 0 8 4 8 8 0 5-4 8-8 8l-201 0 0 46c0 71 57 128 128 128 53 0 101-34 119-84 2-5 7-7 11-5 4 1 6 6 5 10-21 57-75 96-135 96-80 0-145-65-145-145l0-46-46 0c-4 0-8-3-8-8 0-4 4-8 8-8l46 0 0-38-46 0c-4 0-8-4-8-8 0-5 4-9 8-9l46 0 0-46c0-79 65-144 145-144 60 0 114 38 135 96 1 4-1 8-5 10z"/>
<glyph glyph-name="euro-coin" unicode="&#75;" d="M256 30c-124 0-226 102-226 226 0 125 102 226 226 226 125 0 226-101 226-226 0-124-101-226-226-226z m0 436c-115 0-209-94-209-210 0-115 94-210 209-210 116 0 210 95 210 210 0 116-94 210-210 210z m0-311c25 0 47 16 56 40 1 4 6 6 10 5 4-2 7-6 5-10-11-31-40-51-71-51-42 0-77 34-77 76l0 6-19 0c-4 0-8 3-8 8 0 4 4 8 8 8l19 0 0 38-19 0c-4 0-8 4-8 8 0 5 4 8 8 8l19 0 0 6c0 42 35 76 77 76 32 0 60-20 71-50 2-4-1-9-5-11-4-1-9 1-10 5-9 24-31 40-56 40-33 0-60-27-60-60l0-6 96 0c5 0 8-3 8-8 0-4-3-8-8-8l-96 0 0-38 96 0c5 0 8-4 8-8 0-5-3-8-8-8l-96 0 0-6c0-33 27-60 60-60z"/>
<glyph glyph-name="folder" unicode="&#76;" d="M474 387l-186 0-25 50c-1 2-4 4-7 4l-190 0c-3 0-6-2-7-4l-28-55c0-1 0-1 0-2 0 0-1-1-1-2l0-299c0-4 4-8 9-8l435 0c4 0 8 4 8 8l0 299c0 5-4 9-8 9z m-403 38l180 0 19-38-218 0z m395-338l-419 0 0 283 235 0c1 0 1 0 1 0 1 0 1 0 2 0l181 0z"/>
<glyph glyph-name="folder-plus" unicode="&#77;" d="M466 182l0 188-181 0c-1 0-1 0-2 0 0 0 0 0-1 0l-235 0 0-283 324 0c0-6 1-11 3-16l-336 0c-4 0-8 4-8 8l0 299c0 1 1 2 1 2 0 1 0 1 0 2l27 55c2 2 5 4 8 4l190 0c3 0 6-2 7-4l25-50 186 0c4 0 8-4 8-9l0-199c-5 2-11 3-16 3z m-215 243l-180 0-19-38 218 0z m106-292c-2 0-4 1-6 3-1 1-2 3-2 6 0 4 3 8 8 8l46 0 0 46c0 4 4 8 8 8 5 0 8-4 8-8l0-46 47 0c4 0 8-4 8-8 0-5-4-9-8-9l-47 0 0-46c0-4-3-8-8-8-2 0-4 1-5 2-2 2-3 4-3 6l0 46z"/>
<glyph glyph-name="folder-v" unicode="&#78;" d="M466 205l0 0 0 165-181 0c-1 0-1 0-2 0 0 0 0 0-1 0l-235 0 0-283 285 0 16-16-309 0c-5 0-9 4-9 8l0 299c0 1 1 2 1 2 0 1 0 1 0 2l28 55c1 2 4 4 7 4l190 0c3 0 6-2 7-4l25-50 186 0c4 0 8-4 8-9l0-177c-5 2-11 4-16 4z m-215 220l-180 0-19-38 218 0z m94-294c1 2 3 3 5 3 2 0 4-1 6-3l33-32 71 71c2 1 4 2 6 2l0 0c2 0 4-1 5-2 4-3 4-8 0-12l-5-5-66-66-6-6c-1-1-3-2-5-2-2 0-4 1-6 2l-6 6-32 33c-4 3-4 8 0 11z"/>
<glyph glyph-name="folder-x" unicode="&#79;" d="M465 205l0 165-181 0c0 0 0 0-1 0 0 0-1 0-1 0l-236 0 0-283 302 0c0-5 1-11 4-16l-314 0c-4 0-8 4-8 8l0 299c0 1 1 2 1 2 0 1 0 1 0 2l27 55c2 2 4 4 8 4l190 0c3 0 6-2 7-4l25-50 185 0c5 0 9-4 9-9l0-177c-5 2-11 4-17 4z m-214 220l-180 0-20-38 219 0z m132-255c1 1 3 2 5 2 3 0 5-1 6-2l33-33 33 33c1 1 3 2 5 2 3 0 5-1 6-2 3-3 3-8 0-12l-6-5-27-27 27-27 6-6c3-3 3-8 0-12-1-1-4-2-6-2-2 0-4 1-5 2l-6 6-27 27-27-27-6-6c-1-1-3-2-6-2-2 0-4 1-5 2-2 2-3 4-3 6 0 2 1 4 3 6l32 33-32 32c-3 4-3 9 0 12z"/>
<glyph glyph-name="forward" unicode="&#80;" d="M352 371c-4 0-8-3-8-8l0-101c-2 6-6 12-13 15l-142 79c-19 11-37-1-37-22l0-156c0-15 9-26 22-26 5 0 10 1 15 4l142 79c7 4 11 9 13 15l0-101c0-4 4-8 8-8 5 0 8 4 8 8l0 214c0 5-3 8-8 8z m-29-122l-141-79c-3-1-6-2-8-2-5 0-6 7-6 10l0 156c0 4 1 10 6 10 2 0 5-1 8-2l141-79c4-2 6-5 6-7 0-2-2-5-6-7z"/>
<glyph glyph-name="glass-of-water" unicode="&#81;" d="M374 65c-1-4-4-8-9-8l-219 0c-4 0-8 4-8 8l-25 381c-1 2 0 4 2 6 1 2 4 3 6 3l270 0c2 0 5-1 6-3 2-2 3-4 2-6z m-220 9l203 0 17 246c-20 1-32 9-42 16-10 7-18 14-37 14-18 0-26-7-36-14-11-8-24-17-47-17-24 0-36 9-47 17-9 6-16 11-29 13z m-24 364l5-72c19-2 30-9 40-16 10-8 18-14 37-14 18 0 26 6 37 14 10 8 23 17 46 17 24 0 37-9 47-17 10-7 18-13 33-14l7 102z m41-152l8-163c1-4-3-8-8-9 0 0 0 0 0 0-5 0-8 4-8 8l-9 164c0 4 3 8 8 8 5 1 9-3 9-8z"/>
<glyph glyph-name="hamburger" unicode="&#82;" d="M441 214c3 4 4 8 4 13 0 4-2 8-4 12 4 2 7 4 10 7 7 7 11 16 11 26 0 8-3 15-7 21 1 1 2 2 3 3 1 3 1 6 0 9-44 71-119 113-202 113-83 0-158-42-201-113-2-3-2-6-1-9 1-1 2-2 4-3-5-6-8-14-8-21 0-15 9-27 21-33-2-4-4-8-4-13 0-5 2-9 4-12-4-2-7-4-10-7-7-7-11-16-11-26 0-8 3-15 7-21-4 0-7-3-7-8 0-31 25-58 57-58l297 0c0 0 0 0 0 0 32 0 58 26 58 58 0 5-3 8-7 8 4 6 7 13 7 21 0 14-9 27-21 33z m-2-47c-3-4-9-6-14-6l-86 0 50 40 36 0c11 0 20-9 20-20 0-6-2-10-6-14z m-11 59c0-2-1-4-2-6-2-1-4-2-6-2l-34 0c-2 0-4-1-5-2l-52-41-52 41c-1 1-3 2-5 2l-180 0c-4 0-8 4-8 8 0 5 4 9 8 9l327 0c5-1 9-4 9-9z m-172 175c72 0 138-34 179-92l-358 0c42 58 107 92 179 92z m-183-115c4 4 9 6 14 6l338 0c11 0 20-9 20-20 0-6-2-11-6-14-3-4-8-6-14-6l-338 0c-11 0-20 9-20 20 0 5 2 10 6 14z m0-91c4 4 9 6 14 6l182 0 50-40-232 0c-11 0-20 9-20 20 0 5 2 10 6 14z m331-84c0 0 0 0 0 0l-297 0c-19 0-36 14-39 33l376 0c-3-19-20-33-40-33z"/>
<glyph glyph-name="headphones" unicode="&#83;" d="M360 169c-7 0-14 2-20 5l0-136c0-4-3-8-8-8l-54 0c-5 0-8 4-8 8l0 245c0 20 15 36 35 36 3 0 6-1 8-2 12 20 28 31 47 31 34 0 62-39 62-89 0-50-28-90-62-90z m-36 20l0 94c0 6-3 12-9 16 0 0-3 1-3 1-3 2-5 2-7 2-11 0-19-8-19-19l0-128 38 0z m0-50l-38 0 0-93 38 0z m36 193c-13 0-24-8-33-22 0 0 1-1 1-1 3-3 6-6 8-10 1-1 1-1 1-2 2-4 3-9 3-14l0-90c6-5 13-7 20-7 24 0 46 33 46 73 0 39-22 73-46 73z m-180-29c-6 0-13 2-19 5l0-136c0-4-4-8-8-8l-19 0 0-126c0-4-4-8-8-8-5 0-9 4-9 8l0 126-19 0c-4 0-8 4-8 8l0 245c0 19 16 35 36 35 3 0 5 0 8-1 11 19 28 31 46 31 35 0 62-39 62-90 0-50-27-89-62-89z m-35 20l0 94c0 6-4 12-9 15 0 0-3 2-3 2-3 1-5 2-7 2-11 0-20-9-20-19l0-128 39 0z m0-50l-39 0 0-93 39 0z m35 193c-12 0-24-8-32-22 0-1 0-1 1-1 3-3 6-7 8-11 0 0 0-1 1-1 2-5 3-9 3-14l0-90c6-5 13-8 19-8 25 0 46 34 46 73 0 40-21 74-46 74z"/>
<glyph glyph-name="headset" unicode="&#84;" d="M422 245c-7 2-15 4-22 4l0 48c0 79-64 144-144 144-79 0-144-65-144-144l0-48c-7 0-15-2-22-5-36-12-60-46-60-83 0-38 24-72 60-84 10-4 20-6 30-6l27 0c4 0 8 4 8 8l0 163c0 4-4 8-8 8l-19 0 0 47c0 70 58 128 128 128 71 0 128-58 128-128l0-47-19 0c-4 0-8-4-8-8l0-163c0-4 4-8 8-8l27 0c10 0 20 2 30 5 36 13 60 47 60 85 0 37-24 71-60 84z m-375-84c0 26 14 51 37 63l0-127c-23 12-37 37-37 64z m92-74l-19 0c-6 0-13 1-19 3l0 141c6 2 13 3 19 3l19 0z m234 0l0 147 19 0c7 0 13-1 19-3l0-141c-6-2-12-3-19-3z m54 10l0 127c24-12 39-37 39-63 0-27-15-52-39-64z"/>
<glyph glyph-name="headset-with-microphone" unicode="&#85;" d="M422 286c-7 2-15 4-22 4l0 48c0 79-64 144-144 144-79 0-144-65-144-144l0-48c-7 0-15-2-22-4-36-13-60-47-60-84 0-38 24-72 60-84 10-4 20-6 30-6l27 0c4 0 8 4 8 8l0 163c0 4-4 8-8 8l-19 0 0 47c0 70 58 128 128 128 71 0 128-58 128-128l0-47-19 0c-4 0-8-4-8-8l0-163c0-4 4-8 8-8l19 0 0-47c0-5-2-9-5-13-4-4-9-6-14-6l-48 0c-2 7-4 13-9 17-6 7-15 11-25 11-19 0-35-16-35-36 0-4 4-8 8-8l109 0c10 0 19 4 25 11 7 6 11 15 11 24 0 1 0 1 0 1l0 47c7 1 14 2 21 5 36 12 60 46 60 84 0 37-24 71-60 84z m-338-148c-23 13-37 37-37 64 0 26 14 51 37 63z m55 137l0-147-19 0c-6 0-13 1-19 3l0 141c6 2 13 3 19 3z m127-229c3 7 10 11 17 11 8 0 15-4 18-11z m145 85c-6-2-12-3-19-3l-19 0 0 147 19 0c7 0 13-1 19-3z m16 7l0 128c24-13 39-38 39-64 0-27-15-52-39-64z"/>
<glyph glyph-name="highlighter" unicode="&#86;" d="M475 299l-220-182c-1-1-3-2-5-2-2 0-4 1-6 3l-13 13-29-28c-1-2-3-3-5-3l-154 0c-3 0-6 2-8 5-1 3 0 7 2 9l106 106-14 13c-3 3-3 8 0 11l181 219c1 2 3 3 6 3 2 0 4 0 6-2l153-154c2-1 3-3 2-6 0-2-1-4-2-5z m-413-183l131 0 27 27-66 65z m255 330l-171-207 14-14 0 0 77-77 14-14 206 171z m-274-384l398 0c5 0 8-4 8-8 0-5-3-8-8-8l-398 0c-5 0-8 3-8 8 0 4 3 8 8 8z"/>
<glyph glyph-name="hot-dog" unicode="&#87;" d="M325 77c-2 0-3 0-4 0-4-32-32-57-65-57-33 0-60 25-64 57-2 0-3 0-4 0-25 0-46 20-46 45l0 268c0 25 21 45 46 45 1 0 2 0 3 0 5 32 32 57 65 57 33 0 61-25 65-57 1 0 2 0 4 0 25 0 45-20 45-45l0-268c0-25-20-45-45-45z m-134 341c-1 0-2 0-3 0-16 0-29-13-29-28l0-268c0-16 13-29 29-29 1 0 2 1 3 1z m114-331l0 339c0 0 0 0 0 1 0 26-22 48-49 48-27 0-48-22-48-48l0-341c0 0 0-1 0-1 0-27 21-48 48-48 27 0 49 21 49 48z m48 303c0 15-13 28-28 28-1 0-2 0-3 0l0-324c1 0 2-1 3-1 15 0 28 13 28 29z m-90-226c4-5 8-12 8-24 0-4-4-8-8-8-5 0-9 4-9 8 0 7-2 10-5 15-3 5-8 11-8 24 0 12 5 18 8 24 3 4 5 7 5 14 0 7-2 10-5 14-3 6-8 12-8 24 0 12 5 19 8 24 3 4 5 7 5 14 0 7-2 10-5 15-3 5-8 11-8 24 0 12 5 18 8 23 3 5 5 8 5 15 0 4 4 8 9 8 4 0 8-4 8-8 0-12-4-19-8-24-3-4-5-7-5-14 0-7 2-11 5-15 4-5 8-12 8-24 0-12-4-18-8-23-3-5-5-8-5-15 0-7 2-10 5-14 4-5 8-12 8-24 0-12-4-19-8-24-3-4-5-7-5-14 0-7 2-10 5-15z"/>
<glyph glyph-name="ice-cream" unicode="&#88;" d="M373 284c0-10-4-19-11-25-5-6-12-8-19-10l-80-213c-1-3-4-6-7-6-4 0-7 3-8 6l-80 213c-16 3-29 17-29 35 0 11 5 21 14 27-9 17-14 35-14 54 0 64 53 117 117 117 64 0 116-53 116-117 0-19-4-37-13-54 8-6 14-16 14-27z m-117-222l70 188c-6 2-12 6-16 11-7-8-17-13-27-13-5 0-9 1-12 3-6 2-11 5-15 11-4-6-9-9-16-11-3-2-7-3-11-3-11 0-20 5-27 13-5-5-10-9-17-11z m85 251c10 16 15 34 15 52 0 55-45 100-100 100-56 0-101-45-101-100 0-18 6-36 15-52 2-2 2-5 1-7 0-2-2-4-4-5-7-3-12-10-12-17 0-11 9-20 19-20 8 0 15 5 18 12 1 2 3 4 5 4 2 1 5 1 7 0 1-2 3-2 5-3 1-1 3-3 4-4 4-5 10-9 16-9 1 0 3 1 6 2 5 1 9 5 11 10 1 3 4 5 7 5l5 0c4 0 6-2 8-5 2-5 6-9 11-10 7-3 16 0 21 7 1 1 2 2 3 3 4 2 5 2 7 4 1 0 3 1 4 1 1 0 2 0 3-1 2 0 4-2 5-4 5-12 22-15 31-6 3 4 5 8 5 14 0 7-4 14-11 17-2 1-4 3-5 5 0 2 0 5 1 7z m-85 109c-32 0-57-26-57-57 0-5-4-8-8-8-5 0-9 3-9 8 0 40 33 73 74 73 4 0 8-3 8-8 0-4-4-8-8-8z"/>
<glyph glyph-name="ipod" unicode="&#89;" d="M365 30l-218 0c-19 0-35 16-35 35l0 381c0 20 16 36 35 36l218 0c19 0 35-16 35-36l0-381c0-19-16-35-35-35z m19 416c0 11-9 19-19 19l-218 0c-10 0-19-8-19-19l0-381c0-10 9-19 19-19l218 0c10 0 19 9 19 19z m-128-363c-50 0-90 41-90 91 0 49 40 90 90 90 50 0 90-41 90-90 0-50-40-91-90-91z m0 165c-41 0-74-34-74-74 0-41 33-75 74-75 41 0 74 34 74 75 0 40-33 74-74 74z m0-110c-19 0-35 16-35 36 0 19 16 35 35 35 20 0 35-16 35-35 0-20-15-36-35-36z m0 55c-10 0-19-9-19-19 0-11 9-20 19-20 11 0 19 9 19 20 0 10-8 19-19 19z m81 109l-162 0c-5 0-9 4-9 8l0 109c0 5 4 8 9 8l162 0c4 0 8-3 8-8l0-109c0-4-4-8-8-8z m-9 109l-145 0 0-93 145 0z"/>
<glyph glyph-name="key" unicode="&#90;" d="M428 359l-18-18-4-40c-1-4-4-7-8-7l-33 0-4-38c0-4-4-7-8-7l-35 0-59-59c6-30-3-60-24-82-17-17-39-26-63-26-24 0-47 9-64 26-17 17-26 40-26 64 0 24 9 46 26 63 21 21 52 31 82 24l168 169c2 1 4 2 6 2l58 0c4 0 8-4 8-8l0-58c0-2-1-4-2-5z m-14 55l-47 0-169-169c-2-2-5-3-7-2-7 1-13 2-20 2-19 0-38-8-51-21-14-14-22-33-22-52 0-20 8-38 22-52 28-28 76-28 104 0 18 18 25 45 19 71-1 2 0 5 2 7l64 65c2 1 4 2 6 2l31 0 4 36c0 2 1 4 2 5 2 2 5 4 7 4l32 0 4 36c0 2 1 3 2 5l17 17z m-261-297c-10 0-19 4-25 11-14 13-14 36 0 49 13 14 36 14 49 1 14-14 14-37 1-50-7-7-16-11-25-11z m13 49c-4 4-8 6-13 6-6 0-10-2-14-6-7-7-7-20 0-27 7-7 20-7 27 0 7 7 7 20 0 27z"/>
<glyph glyph-name="keyboard" unicode="&#48;" d="M447 139l-381 0c-20 0-36 16-36 35l0 164c0 19 16 35 36 35l381 0c19 0 35-16 35-35l0-164c0-19-16-35-35-35z m19 199c0 10-9 19-19 19l-381 0c-11 0-19-9-19-19l0-164c0-10 8-19 19-19l381 0c10 0 19 9 19 19z m-74-36c-4 0-8 4-8 8 0 5 4 8 8 8 5 0 8-3 8-8 0-4-3-8-8-8z m-54-109l-163 0c-5 0-9 4-9 8 0 5 4 9 9 9l163 0c4 0 8-4 8-9 0-4-4-8-8-8z m0 71c4 0 8-4 8-8 0-5-4-8-8-8-5 0-8 3-8 8 0 4 3 8 8 8z m0 38c-5 0-8 4-8 8 0 5 3 8 8 8 4 0 8-3 8-8 0-4-4-8-8-8z m-55-38c5 0 8-4 8-8 0-5-3-8-8-8-4 0-8 3-8 8 0 4 4 8 8 8z m0 38c-4 0-8 4-8 8 0 5 4 8 8 8 5 0 8-3 8-8 0-4-3-8-8-8z m-54-38c4 0 8-4 8-8 0-5-4-8-8-8-5 0-8 3-8 8 0 4 3 8 8 8z m0 38c-5 0-8 4-8 8 0 5 3 8 8 8 4 0 8-3 8-8 0-4-4-8-8-8z m-55-38c5 0 9-4 9-8 0-5-4-8-9-8-4 0-8 3-8 8 0 4 4 8 8 8z m1 38c-5 0-9 4-9 8 0 5 4 8 9 8 4 0 8-3 8-8 0-4-4-8-8-8z m-55 0c-4 0-8 4-8 8 0 5 4 8 8 8 5 0 8-3 8-8 0-4-3-8-8-8z"/>
<glyph glyph-name="knife" unicode="&#49;" d="M282 459c-20 21-47 32-79 33-4 1-9 0-11-4-1-1-2-3-2-5l1-345 0-93c0-14 11-25 25-25 14 0 26 11 26 25l0 84 71 0c5 0 9 4 9 9l0 203c0 3 2 74-40 118z m-57-414c0-4-4-8-9-8-4 0-8 4-8 8l0 84 17 0z m80 296l0-195-97 0 0 328c25-1 46-10 62-27 37-38 35-105 35-106z"/>
<glyph glyph-name="lock-round" unicode="&#50;" d="M256 29c-97 0-176 80-176 177 0 58 28 112 76 145 0 0 0 0 0 0 59 41 141 41 200 0 0 0 0 0 0 0 48-33 76-87 76-145 0-97-79-177-176-177z m91 308c0 0 0 0 0 0-54 38-128 38-182 0-43-30-69-79-69-131 0-89 72-160 160-160 88 0 160 71 160 160 0 52-26 101-69 131z m-62-130l0-64c0-8-3-15-8-21-6-6-13-9-21-9-16 0-29 13-29 30l0 64c-13 9-21 24-21 41 0 13 5 26 15 36 19 18 51 18 70 0 10-10 16-23 16-36 0-17-8-32-22-41z m-5 65c-7 7-15 10-24 10-9 0-17-3-23-10-7-6-11-15-11-24 0-13 6-24 17-30 2-1 4-4 4-7l0-68c0-8 6-13 13-13 4 0 7 1 9 3 3 3 4 6 4 10l0 68c0 3 2 6 4 7 11 6 17 17 17 30 0 9-3 18-10 24z m77 94c-5 0-9 4-9 8 0 51-41 93-92 93-51 0-92-42-92-93 0-4-4-8-8-8-5 0-8 4-8 8 0 60 48 109 108 109 60 0 109-49 109-109 0-4-4-8-8-8z"/>
<glyph glyph-name="lock-square" unicode="&#51;" d="M424 29l-336 0c-5 0-8 4-8 8l0 337c0 5 3 8 8 8l60 0c5 56 51 101 108 101 57 0 104-45 108-101l60 0c5 0 8-3 8-8l0-337c0-4-3-8-8-8z m-168 437c-48 0-87-37-91-84l183 0c-5 47-44 84-92 84z m160-100l-320 0 0-320 320 0z m-195-82c19 18 51 18 70 0 0 0 0 0 0 0 10-10 16-23 16-36 0-17-8-32-22-41l0-64c0-8-3-15-8-21-6-6-13-9-21-9-16 0-29 13-29 30l0 64c-13 9-22 24-22 41 0 14 6 26 16 36z m18-66c2-1 4-4 4-7l0-68c0-8 6-13 13-13 4 0 7 1 9 3 3 3 4 6 4 10l0 68c0 3 2 6 4 7 11 6 17 17 17 30 0 9-3 18-10 24-1 1-1 1-1 1-6 6-14 9-23 9-9 0-17-3-23-10-7-6-11-15-11-24 0-13 6-24 17-30z"/>
<glyph glyph-name="mouse" unicode="&#52;" d="M387 329l0-174c0-74-59-134-131-134-72 0-131 60-131 134l0 174c0 71 54 129 123 133l0 21c0 5 3 8 8 8 5 0 8-3 8-8l0-21c69-4 123-62 123-133z m-131 117c-63 0-114-53-114-117l0-174c0-65 51-118 114-118 63 0 114 53 114 118l0 174c0 64-51 117-114 117z m0-113c-5 0-8 4-8 8l0 57c0 4 3 8 8 8 5 0 8-4 8-8l0-57c0-4-3-8-8-8z"/>
<glyph glyph-name="musical-note-1" unicode="&#53;" d="M454 473c0 0 0 0 0 1 0 1-1 1-1 2 0 0-1 1-2 2 0 1-1 1-2 1-1 0-2 1-3 1 0 0 0 0 0 0-1 0-1 0-1 0l-272-66c-1-1-2-1-2-2-1 0-2-1-3-1 0-1 0-2-1-3 0-1-1-1-1-2l0-248-46 0c-34 0-62-28-62-63 0-34 28-63 62-63 35 0 63 29 63 63l0 225 255 62 0-158-46 0c-34 0-62-28-62-63 0-34 28-62 62-62 35 0 63 28 63 62l0 311c0 0-1 0-1 1z m-334-424c-25 0-46 20-46 46 0 26 21 46 46 46l46 0 0-46c0-26-20-46-46-46z m63 288l0 62 255 62 0-62z m209-222c-25 0-46 21-46 46 0 26 21 46 46 46l46 0 0-46c0-25-20-46-46-46z"/>
<glyph glyph-name="musical-note-2" unicode="&#54;" d="M370 458c-2 2-5 3-7 2l-109-27c-1 0-2-1-3-2 0 0-1 0-1-1-1-1-2-3-2-5l0-248-47 0c-34 0-62-28-62-63 0-34 28-62 62-62 35 0 63 28 63 62l0 223 103 26c3 0 6 4 6 7l0 82c0 3-1 5-3 6z m-169-390c-25 0-46 21-46 46 0 26 21 46 46 46l47 0 0-46c0-25-21-46-47-46z m155 309l-92-23 0 65 92 23z"/>
<glyph glyph-name="paper" unicode="&#55;" d="M400 343c0 2-1 4-2 5l-109 109c-2 1-3 2-5 2-1 0-1 0-1 0l-163 0c-4 0-8-3-8-8l0-390c0-4 4-8 8-8l272 0c4 0 8 4 8 8l0 281c0 0 0 1 0 1z m-109 89l81-82-62 0c-10 0-19 9-19 19z m93-363l-256 0 0 374 147 0 0-74c0-19 16-35 35-35l74 0z"/>
<glyph glyph-name="pause" unicode="&#56;" d="M310 141c-4 0-8 4-8 8l0 214c0 5 4 8 8 8 5 0 8-3 8-8l0-214c0-4-3-8-8-8z m-108 0c-5 0-9 4-9 8l0 214c0 5 4 8 9 8 4 0 8-3 8-8l0-214c0-4-4-8-8-8z"/>
<glyph glyph-name="pause-round" unicode="&#57;" d="M256 30c-124 0-226 102-226 226 0 125 102 226 226 226 125 0 226-101 226-226 0-124-101-226-226-226z m0 436c-115 0-209-94-209-210 0-116 94-210 209-210 116 0 210 94 210 210 0 116-94 210-210 210z m54-314c-4 0-8 4-8 8l0 192c0 5 4 8 8 8 5 0 9-3 9-8l0-192c0-4-4-8-9-8z m-108 0c-5 0-8 4-8 8l0 192c0 5 3 8 8 8 4 0 8-3 8-8l0-192c0-4-4-8-8-8z"/>
<glyph glyph-name="pen" unicode="&#33;" d="M400 474c0 5-4 8-8 8l-272 0c-4 0-8-3-8-8 0-2-2-51 26-84l-26-77c-1-2 0-4 1-6l136-272c0-1 0-1 1-2 0 0 0 0 1-1 1-1 3-2 5-2 2 0 3 1 5 2 0 1 1 1 1 1 0 1 1 1 1 2l136 272c1 2 1 4 1 6l-27 77c29 33 27 82 27 84z m-16-8c-1-14-4-45-23-66l-210 0c-19 21-22 52-23 66z m-128-229l0 0c-11 0-19 9-19 19 0 11 8 19 19 19 10 0 19-8 19-19 0-5-2-10-6-13-3-4-8-6-13-6z m8-164l0 149c6 2 12 4 17 9 6 7 10 16 10 25 0 20-16 35-35 35-20 0-35-15-35-35 0-17 11-30 27-34l0-149-119 238 24 73 205 0 25-73z"/>
<glyph glyph-name="pencil" unicode="&#34;" d="M446 310c-10 28-25 52-45 74-19 21-42 38-69 51-3 1-6 1-9-1l-169-155-20-18c-1-1-2-2-2-4 0 0 0 0 0 0l-46-119-20-51c-1-2 0-6 2-8 2-2 4-3 6-3 1 0 2 1 2 1l52 15 123 34c1 1 2 1 2 1 1 1 1 1 1 1l20 19 170 155c2 2 3 5 2 8z m-348-186c0 0 1 0 1-1 3-2 7-4 9-7 3-3 5-7 7-10 0 0 0-1 0-1l-28-8z m147 18l-114-33c0 1-1 1-1 2-3 6-6 11-10 16-4 4-9 8-14 11-1 0-2 1-2 1l42 111 13 11 10-11 88-97z m24 22l-25 28 135 123c1 2 2 4 2 6 0 2 0 4-2 6-3 3-8 3-11 0l-135-123-5 6-21 22 135 123c2 2 3 4 3 6 0 2-1 4-2 6-3 3-9 3-12 0l-135-123-25 28 159 146c23-12 43-27 59-45 17-19 31-40 40-63z"/>
<glyph glyph-name="platter" unicode="&#35;" d="M439 117l-366 0c-4 0-8 4-8 8l0 34c0 97 72 177 165 189-3 5-5 10-5 16 0 17 14 31 31 31 17 0 31-14 31-31 0-6-2-11-5-16 93-12 165-92 165-189l0-34c0-4-4-8-8-8z m-183 261c-8 0-14-6-14-14 0-7 6-14 14-14 8 0 14 7 14 14 0 8-6 14-14 14z m0-45c-93 0-170-73-174-166l348 0c-4 93-81 166-174 166z m174-183l-348 0 0-16 348 0z m-175 155c5 0 9-4 9-9 0-5-4-9-9-8-34 0-66-14-90-38-2-1-4-2-6-2-2 0-4 1-6 2-3 4-3 9 0 12 27 28 64 43 102 43z"/>
<glyph glyph-name="play" unicode="&#36;" d="M156 123c-14 0-23 11-23 26l0 214c0 21 19 33 38 22l193-108c10-5 15-13 15-21 0-8-5-16-15-21l-193-108c-5-3-10-4-15-4z m0 250c-6 0-7-6-7-10l0-214c0-3 1-10 7-10 2 0 4 1 7 2l193 108c4 2 7 5 7 7 0 2-3 5-7 7l-193 108c-3 1-5 2-7 2z"/>
<glyph glyph-name="play-round" unicode="&#37;" d="M256 30c-124 0-226 101-226 226 0 125 102 226 226 226 125 0 226-101 226-226 0-125-101-226-226-226z m0 436c-115 0-209-94-209-210 0-116 94-210 209-210 116 0 210 94 210 210 0 116-94 210-210 210z m102-231l-141-79c-6-3-11-4-16-4-13 0-22 11-22 26l0 156c0 21 18 33 38 22l141-79c9-5 15-13 15-21 0-8-6-16-15-21z m-8 28l-141 79c-3 1-5 2-8 2-5 0-6-6-6-10l0-156c0-3 1-10 6-10 3 0 5 1 8 2l141 79c4 2 6 5 6 7 0 2-2 5-6 7z"/>
<glyph glyph-name="popsicle" unicode="&#38;" d="M369 134l-76 0 0-77c0-1 0-1-1-2 0-19-16-35-36-35 0 0 0 0 0 0-21 0-37 16-37 37l0 77-77 0c-4 0-8 3-8 8l0 228c0 68 55 122 122 122 67 0 122-54 122-122l0-228c0-5-4-8-9-8z m-133-77c0-11 9-20 20-20l0 0c11 0 20 9 20 20 0 0 0 0 0 1l0 76-40 0z m125 313c0 58-47 106-105 106-58 0-105-48-105-106l0-219 210 0z m-143-8c5 0 9-4 9-9l0-167c0-5-4-9-9-9-4 0-8 4-8 9l0 167c0 5 4 9 8 9z m75 0c5 0 9-4 9-9l0-173c0-5-4-9-9-9-4 0-8 4-8 9l0 173c0 5 4 9 8 9z"/>
<glyph glyph-name="pound" unicode="&#39;" d="M392 46l-223 0c53 57 52 146-4 201 0 1 0 1 0 1l173 0c4 0 8 4 8 8 0 5-4 8-8 8l-186 0c-16 22-24 47-24 74 0 34 13 66 37 90 25 24 57 38 91 38 34 0 66-14 90-38 24-24 38-56 38-90 0-5 3-8 8-8 4 0 8 3 8 8 0 38-15 75-42 102-27 27-64 42-102 42-39 0-75-15-102-42-27-27-42-64-42-102 0-27 7-52 21-74l-13 0c-4 0-8-3-8-8 0-4 4-8 8-8l24 0c3-4 6-9 10-12 50-50 50-132 1-181l-12-11c-3-2-4-5-2-9 1-3 4-5 7-5l244 0c4 0 8 4 8 8 0 5-4 8-8 8z"/>
<glyph glyph-name="pound-coin" unicode="&#40;" d="M256 30c-124 0-226 102-226 226 0 125 102 226 226 226 125 0 226-101 226-226 0-124-101-226-226-226z m0 436c-115 0-209-94-209-210 0-115 94-210 209-210 116 0 210 95 210 210 0 116-94 210-210 210z m76-319c0-4-3-8-8-8l-122 0c-3 0-6 2-7 5-2 3-1 7 2 9l6 5c23 24 23 62-1 85-1 2-2 3-4 5l-10 0c-4 0-8 4-8 8 0 5 3 8 8 8-14 29-9 64 14 87 30 30 78 30 108 0 14-14 22-34 22-54 0-4-3-8-8-8-4 0-8 4-8 8 0 16-6 31-17 42-24 24-62 24-85 0-21-20-23-51-8-75l91 0c4 0 8-3 8-8 0-4-4-8-8-8l-78 0c22-27 23-65 2-93l103 0c5 0 8-3 8-8z"/>
<glyph glyph-name="present-1" unicode="&#41;" d="M439 377l-82 0c13 12 21 29 21 48 0 36-29 65-65 65-25 0-46-13-57-33-11 20-32 33-57 33-36 0-65-29-65-65 0-19 8-36 22-48l-83 0c-5 0-9-4-9-9l0-71c0-5 4-9 9-9l6 0 0-258c0-5 3-9 8-9l338 0c5 0 9 4 9 9l0 258 5 0c5 0 9 4 9 9l0 71c0 5-4 9-9 9z m-8-17l0-55-166 0 0 55z m-118 113c27 0 48-21 48-48 0-27-21-48-48-48l-48 0 0 48c0 27 21 48 48 48z m-162-48c0 27 22 48 48 48 27 0 49-21 49-48l0-48-49 0c-26 0-48 21-48 48z m-70-65l167 0 0-55-167 0z m167-72l0-116-152 0 0 116z m-152-133l152 0 0-117-152 0z m169-117l0 117 152 0 0-117z m152 134l-152 0 0 116 152 0z"/>
<glyph glyph-name="present-2" unicode="&#42;" d="M425 377l-69 0c14 12 22 29 22 48 0 36-29 65-65 65-25 0-46-13-57-33-11 20-32 33-57 33-36 0-65-29-65-65 0-19 8-36 22-48l-69 0c-5 0-8-4-8-9l0-338c0-5 3-9 8-9l338 0c5 0 8 4 8 9l0 338c0 5-3 9-8 9z m-8-17l0-153-153 0 0 153z m-104 113c27 0 48-21 48-48 0-27-21-48-48-48l-49 0 0 48c0 27 22 48 49 48z m-162-48c0 27 21 48 48 48 27 0 49-21 49-48l0-48-49 0c-27 0-48 21-48 48z m48-65l49 0 0-153-153 0 0 153z m-104-170l153 0 0-152-153 0z m169-152l0 152 153 0 0-152z"/>
<glyph glyph-name="radio" unicode="&#43;" d="M472 41c-7-7-16-10-25-10l-381 0c-10 0-19 3-25 10-7 7-11 15-11 25l0 218c0 9 4 18 11 25 6 6 15 10 25 10l62 0-93 93c-3 3-3 8 0 12 3 3 8 3 12 0l101-102 156 157c3 3 9 3 12 0 3-3 3-8 0-11l-149-149 280 0c9 0 18-4 24-10 7-7 11-16 11-25l0-218c0-9-4-18-10-25z m-6 243c0 10-9 19-19 19l-381 0c-5 0-10-2-14-6-3-3-5-8-5-13l0-218c0-11 8-19 19-19l381 0c5 0 9 2 13 5 4 4 6 9 6 14z m-74-90l0 8 0-8c-19 0-35 16-35 35 0 10 4 19 10 25 14 14 37 14 50 0 7-6 10-15 10-25 0-9-3-18-10-25-7-6-15-10-25-10z m0 54c-5 0-10-2-13-5-4-4-6-9-6-14 0-10 9-19 19-19l0 0c5 0 10 2 14 6 3 3 5 8 5 13 0 11-8 19-19 19z m-134-103c-12-36-46-60-83-60-38 0-72 24-84 60-4 10-6 20-6 30 0 10 2 19 6 30 12 35 46 59 84 59 37 0 71-24 83-59 0 0 0 0 0 0 4-11 6-20 6-30 0-10-2-20-6-30 0 0 0 0 0 0z m-92 102c-23-3-44-16-55-37l55 0z m0-53l-62 0c-2-7-3-13-3-19 0-6 1-13 3-19l62 0z m0-54l-55 0c11-21 32-35 55-37z m17-37c23 2 44 16 55 37l-55 0z m0 144l0-37 55 0c-11 21-32 34-55 37z m62-53l-62 0 0-38 62 0c2 6 3 13 3 19 0 6-1 12-3 19z"/>
<glyph glyph-name="random" unicode="&#44;" d="M427 362c0-1-1-1-1-2-1 0-1-1-1-1l-54-54c-2-2-4-3-6-3-2 0-4 1-6 3-3 3-3 8 0 11l41 41-90 0c-55 0-100-45-100-100 0-1 0-1 0-1 0-65-53-117-117-117-5 0-8 4-8 8 0 4 3 8 8 8 55 0 100 45 101 100 0 0 0 1 0 1 0 64 52 117 116 117l90 0-41 40c-3 4-3 9 0 12 3 3 8 3 12 0l54-55c1-1 2-3 2-5 0 0 0-1 0-1 0-1 0-2 0-2z m-256-39c-2 0-4 1-6 2-19 21-45 32-72 32-5 0-8 3-8 8 0 4 3 8 8 8 32 0 62-13 84-36 3-4 3-9 0-12-2-1-4-2-6-2z m67-137c19-20 45-31 72-31l90 0-44 44c-3 3-3 8 0 11 3 4 8 4 11 0l58-57c0-1 0-1 1-1 0-1 1-1 1-2 0-1 0-1 0-2 0-1 0-1 0-2 0-2-1-3-2-5l-54-54c-2-2-4-3-6-3-2 0-4 1-6 3-3 3-3 8 0 11l41 41-90 0c-32 0-61 13-84 36-3 3-3 8 1 11 3 3 8 3 11 0z"/>
<glyph glyph-name="repeat-1" unicode="&#45;" d="M370 305c-1-2-3-3-5-3-2 0-4 1-6 3-3 3-3 8 0 11l41 41-199 0c-55 0-100-46-100-101 0-5-4-8-8-8-5 0-8 3-8 8 0 64 52 117 116 117l199 0-41 40c-3 4-3 9 0 12 3 3 8 3 11 0l55-55c3-3 3-8 0-11z m-283-152l0 0 0 0 54 54c4 3 9 3 12 0 1-1 2-4 2-6 0-2-1-4-2-5l-41-41 198 0c56 0 101 45 101 101 0 4 4 8 8 8 5 0 8-4 8-8 0-65-52-117-117-117l-198 0 41-41c3-3 3-8 0-11-2-2-4-3-6-3-2 0-4 1-6 3l-54 54c-1 1-1 2-2 3-1 3 0 6 2 9z"/>
<glyph glyph-name="repeat-2" unicode="&#46;" d="M419 357l-218 0c-55 0-100-46-100-101 0-5-4-8-8-8-5 0-8 3-8 8 0 64 52 117 116 117l199 0-41 40c-3 4-3 9 0 12 3 3 8 3 11 0l55-55c2-2 3-5 2-8-2-3-5-5-8-5z m-326-202l217 0c56 0 101 45 101 101 0 4 4 8 8 8 5 0 8-4 8-8 0-65-52-117-117-117l-198 0 41-41c3-3 3-8 0-11-2-2-4-3-6-3-2 0-4 1-6 3l-54 54c-2 3-3 6-2 9 1 3 4 5 8 5z"/>
<glyph glyph-name="ring" unicode="&#47;" d="M256 76c-79 0-144 64-144 144 0 50 25 95 68 122 3 2 8 1 11-3 2-3 1-8-3-11-37-23-60-64-60-108 0-71 57-128 128-128 71 0 128 57 128 128 0 44-23 85-60 108-4 3-5 8-3 11 3 4 8 5 11 3 43-27 68-72 68-122 0-80-65-144-144-144z m6 213c-1-2-4-3-6-3-2 0-5 1-6 3l-82 92c-2 3-2 6-1 9l17 41c2 3 5 5 8 5l128 0c3 0 6-2 8-5l17-41c1-3 1-6-1-9z m53 131l-118 0-13-32 72-82 72 82z"/>
<glyph glyph-name="ruler" unicode="&#58;" d="M323 481l-135 0c-4 0-8-4-8-8l0-434c0-5 4-8 8-8l135 0c5 0 9 3 9 8l0 434c0 4-4 8-9 8z m-127-434l0 418 119 0 0-64-19 0c-4 0-8-4-8-8 0-4 4-8 8-8l19 0 0-40-46 0c-4 0-8-3-8-8 0-4 4-8 8-8l46 0 0-38-18 0c-5 0-8-4-8-8 0-5 3-8 8-8l18 0 0-38-46 0c-4 0-8-4-8-8 0-5 4-8 8-8l46 0 0-39-18 0c-5 0-8-3-8-8 0-4 3-8 8-8l18 0 0-38-46 0c-4 0-8-3-8-8 0-4 4-8 8-8l46 0 0-65z"/>
<glyph glyph-name="settings-1" unicode="&#59;" d="M476 221l-56-14c-4-11-8-22-14-32l30-50c2-3 2-7-1-9l-38-39c-3-3-7-3-10-1l-50 30c-10-6-21-11-32-14l-14-56c-1-3-4-6-8-6l-54 0c-4 0-7 3-8 6l-14 56c-11 3-21 8-32 14l-49-30c-3-2-8-2-10 1l-39 38c-2 3-3 7-1 10l30 50c-6 10-10 21-13 32l-56 14c-4 1-7 4-7 8l0 54c0 4 3 7 7 8l55 14c4 11 8 22 14 32l-30 49c-2 4-1 8 1 10l39 39c2 3 6 3 10 1l49-30c10 6 21 10 32 14l14 56c1 3 4 6 8 6l54 0c4 0 7-3 8-6l14-56c11-4 22-8 32-14l50 30c3 2 7 2 9-1l39-39c3-2 3-6 1-9l-30-50c6-10 10-21 14-32l56-14c3-1 6-4 6-8l0-54c0-4-3-7-6-8z m-10 56l-55 13c-3 1-5 3-6 6-3 13-8 25-15 37-1 3-1 6 0 8l29 48-30 30-48-29c-2-1-5-2-8 0-12 7-24 12-37 16-3 0-5 3-5 5l-14 55-42 0-13-55c-1-3-3-5-6-6-13-3-25-8-37-15-2-2-6-2-8 0l-48 29-30-30 29-48c2-2 2-5 0-8-7-12-12-24-15-37-1-3-3-5-6-6l-54-13 0-42 54-14c3 0 5-3 6-5 3-13 9-26 15-37 2-3 2-6 0-8l-29-49 30-29 48 29c1 1 3 1 4 1 2 0 3 0 4-1 12-7 25-12 37-16 3-1 5-3 6-6l13-54 42 0 14 54c0 3 2 5 5 6 13 4 25 9 37 16 3 1 6 1 8 0l49-29 29 30-29 48c-1 2-1 5 0 8 7 12 12 24 15 37 1 3 3 5 6 5l55 14z m-210-84c-34 0-62 28-62 63 0 34 28 62 62 62 35 0 63-28 63-62 0-35-28-63-63-63z m0 109c-25 0-46-21-46-46 0-26 21-46 46-46 26 0 46 20 46 46 0 25-20 46-46 46z"/>
<glyph glyph-name="settings-2" unicode="&#60;" d="M472 221l-49 0c-4-21-12-41-24-58l35-35c3-3 3-8 0-11l-39-39c-3-3-8-3-11 0l-35 35c-17-12-37-20-58-24l0-49c0-5-3-8-8-8l-54 0c-5 0-8 3-8 8l0 49c-21 4-41 12-58 24l-35-35c-3-3-8-3-11 0l-39 39c-3 3-3 8 0 11l35 35c-12 17-20 37-24 58l-49 0c-4 0-8 3-8 8l0 54c0 5 4 8 8 8l49 0c4 21 12 41 24 58l-35 35c-3 3-3 8 0 11l39 39c3 3 8 3 11 0l35-35c17 12 37 20 58 24l0 49c0 4 3 8 8 8l54 0c5 0 8-4 8-8l0-49c21-4 41-12 58-24l35 35c3 3 8 3 11 0l39-39c3-3 3-8 0-11l-35-35c12-17 20-37 24-58l49 0c4 0 8-3 8-8l0-54c0-5-4-8-8-8z m-8 54l-48 0c-4 0-7 3-8 7-4 23-12 45-26 64-2 3-2 7 1 10l33 33-27 28-33-34c-3-3-7-3-10-1-19 14-41 23-64 27-4 0-7 4-7 8l0 47-38 0 0-47c0-4-3-8-7-8-23-4-45-13-64-27-3-2-7-2-10 1l-34 34-27-28 34-33c3-3 3-7 1-10-14-19-23-41-27-64 0-4-4-7-8-7l-47 0 0-38 47 0c4 0 8-3 8-7 4-23 13-45 27-64 2-3 2-7-1-10l-33-34 27-27 33 34c3 3 7 3 10 1 19-14 41-23 64-27 4 0 7-4 7-8l0-47 38 0 0 47c0 4 3 8 7 8 23 4 45 13 63 27 4 2 8 2 11-1l33-34 27 27-33 34c-3 3-3 7-1 10 14 19 22 41 26 64 1 4 4 7 8 7l48 0z m-208-82c-35 0-63 29-63 63 0 34 28 63 63 63 34 0 62-29 62-63 0-34-28-63-62-63z m0 109c-26 0-46-20-46-46 0-26 20-46 46-46 25 0 46 20 46 46 0 26-21 46-46 46z"/>
<glyph glyph-name="settings-3" unicode="&#61;" d="M467 221c-9-8-20-13-33-14-4-15-10-29-18-43 19-19 18-49 0-68-19-18-50-18-68-1-14-7-28-13-43-17-1-27-23-48-49-48-13 0-25 5-35 14-8 9-13 21-14 33-15 5-29 10-43 18-18-17-49-17-68 1-9 9-14 22-14 35 0 12 5 24 13 33-7 14-13 28-17 43-27 1-48 22-48 49 0 26 21 48 48 49 4 15 10 29 17 43-18 19-17 49 1 68 18 18 50 18 68 1 14 7 28 13 43 17 1 27 22 48 49 48 26 0 48-21 49-48 15-4 29-10 42-17 19 17 50 17 68-1 19-19 20-49 1-68 8-14 14-28 18-43 26-1 48-23 48-49 0-13-5-25-15-35z m-34 68c-1-1-3-1-4-1-4-1-8 2-9 6-4 18-11 35-21 51-2 4-2 9 2 11 1 1 2 1 3 2 13 13 13 33 0 46-12 13-34 13-46 0-1-1-1-2-2-3-3-3-7-4-11-2-16 10-33 17-51 21-4 1-7 5-6 9 0 1 0 2 0 4 0 18-14 33-32 33-18 0-33-15-33-33 1-2 1-3 1-4 1-4-2-8-6-9-18-4-36-11-51-21-4-2-9-1-11 2-1 1-1 2-2 3-13 13-34 12-46 0-13-13-13-33 0-46 1-1 2-1 3-2 3-3 4-7 2-11-10-16-17-33-21-51-1-4-5-7-9-6-1 0-3 0-4 0-17 0-33-14-33-32 0-18 15-33 33-33 0 0 3 1 4 1 4 0 8-2 9-6 4-18 11-36 21-52 2-3 1-8-2-10-1-1-2-1-3-2-6-6-10-15-10-23 0-9 4-17 10-23 12-13 34-13 46 0 1 1 1 2 2 3 2 2 4 3 6 3 2 0 3 0 5-1 16-10 33-17 51-22 4 0 7-4 6-8 0-1 0-3 0-4-1-9 3-17 9-23 6-6 14-10 23-10 18 0 33 15 33 33-1 1-1 3-1 4-1 4 2 8 6 8 18 5 35 12 51 22 4 2 8 1 11-2 1-1 1-2 2-3 12-13 34-13 46 0 13 12 13 33 0 46-1 1-2 1-3 2-3 2-4 7-2 11 10 16 17 33 21 51 1 4 5 7 9 6 1 0 2 0 3 0 10 0 18 3 24 9 6 6 9 14 9 23 0 18-14 33-32 33z m-177-122c-49 0-89 40-89 89 0 49 40 89 89 89 49 0 89-40 89-89 0-49-40-89-89-89z m0 162c-40 0-73-33-73-73 0-40 33-73 73-73 40 0 73 33 73 73 0 40-33 73-73 73z"/>
<glyph glyph-name="shirt-1" unicode="&#62;" d="M474 30l-435 0c-5 0-9 4-9 8l0 300c0 34 28 62 63 62l47 0c6 46 55 82 116 82 61 0 111-36 116-82l47 0c35 0 63-28 63-62l0-300c0-4-4-8-8-8z m-331 219c-2 2-4 4-4 7l0 128-46 0c-26 0-46-21-46-46l0-292 201 0 0 251-97-48c-3-1-6-1-8 0z m85 56c-31 6-57 22-73 42l0-78z m28 161c-55 0-101-33-101-74 0-40 46-73 101-73 56 0 101 33 101 73 0 41-45 74-101 74z m101-119c-16-20-42-36-72-42l72-36z m109-9c0 25-21 46-47 46l-46 0 0-128c0-3-1-5-4-7-2-1-5-1-8 0l-97 48 0-251 202 0z m-155-156l108 0c5 0 8-4 8-8 0-5-3-8-8-8l-108 0c-5 0-9 3-9 8 0 4 4 8 9 8z"/>
<glyph glyph-name="shirt-2" unicode="&#63;" d="M419 30l-326 0c-35 0-63 28-63 63l0 245c0 34 28 62 63 62l47 0c6 46 55 82 116 82 61 0 111-36 116-82l47 0c35 0 63-28 63-62l0-245c0-35-28-63-63-63z m-272 218c0 0 0 0 0 0-1 0-3 0-4 1-2 2-4 4-4 7l0 128-46 0c-26 0-46-21-46-46l0-245c0-26 20-47 46-47l155 0 0 251-97-48c-1-1-2-1-4-1z m80 57c-3 1-5 2-8 2-4 1-7 2-11 3-3 2-6 3-10 5-3 1-6 2-10 4-3 2-5 4-8 6-3 2-6 3-9 6-2 2-4 4-7 6-2 2-4 5-7 7 0 1-1 2-2 3l0-78z m29 161c-55 0-101-33-101-74 0-40 46-73 101-73 56 0 101 33 101 73 0 41-45 74-101 74z m101-119c-1-1-2-2-2-3-2-2-5-5-7-7-2-2-5-4-7-6-3-3-6-4-9-6-2-2-5-4-8-6-3-2-7-3-10-4-3-2-6-3-10-5-3-1-7-2-11-3-3 0-5-1-8-2l72-36z m109-9c0 25-21 46-47 46l-46 0 0-128c0-3-1-5-4-7-1-1-2-1-4-1 0 0 0 0 0 0-1 0-3 0-4 1l-97 48 0-251 155 0c26 0 47 21 47 47z m-47-172l-108 0c-5 0-9 3-9 8 0 4 4 8 9 8l108 0c5 0 8-4 8-8 0-5-3-8-8-8z"/>
<glyph glyph-name="shopping-bag-1" unicode="&#64;" d="M399 339c0 4-4 7-8 7l-20 0c-4 60-54 109-116 109-62 0-112-49-116-109l-20 0c-4 0-8-3-8-7l-25-273c-1-2 0-4 2-6 1-2 3-3 6-3l324 0c2 0 5 1 6 3 2 2 2 4 2 6z m-144 99c53 0 96-40 100-92l-200 0c4 52 47 92 100 92z m-129-108l258 0 14-147-285 0z m-23-256l8 92 289 0 9-92z"/>
<glyph glyph-name="shopping-bag-2" unicode="&#91;" d="M392 346l-20 0c-4 60-54 109-116 109-61 0-111-49-116-109l-20 0c-4 0-8-4-8-8l0-272c0-5 4-9 8-9l272 0c5 0 8 4 8 9l0 272c0 4-3 8-8 8z m-136 92c53 0 96-40 100-92l-200 0c4 52 47 92 100 92z m128-108l0-147-256 0 0 147z m-256-256l0 92 256 0 0-92z"/>
<glyph glyph-name="shopping-bag-3" unicode="&#93;" d="M403 392l20-20c3-2 5-4 5-7 0-1-1-1-1-1l0-271c0-5-3-8-8-8l-326 0c-5 0-8 3-8 8l0 272c0 0 0 0 0 0 0 2 1 4 2 6l21 21-21 21c-2 2-3 6-2 9 1 3 4 5 8 5l326 0c3 0 6-2 8-5 1-3 0-6-2-8z m-302-291l310 0 0 38-310 0z m0 256l0-202 310 0 0 202z m11 54l14-13c1-2 2-4 2-6 0-2-1-4-2-6l-14-13 287 0-13 13c-1 1-2 4-2 6 0 2 1 4 2 5l14 14z m144-190c-49 0-90 40-90 89 0 5 4 8 9 8 4 0 8-3 8-8 0-40 33-73 73-73 40 0 73 33 73 73 0 5 4 8 8 8 5 0 8-3 8-8 0-49-40-89-89-89z"/>
<glyph glyph-name="shopping-bag-4" unicode="&#94;" d="M445 373l-45 0 0 19c0 50-41 90-90 90-20 0-39-7-54-19-15 12-33 19-54 19-49 0-89-40-89-89l0-20-47 0c-4 0-8-4-8-8l0-327c0-4 4-8 8-8l379 0c5 0 8 4 8 8l0 327c0 4-3 8-8 8z m-62 19l0-19-92 0 0 20c0 23-9 43-23 59 12 8 27 13 42 13 41 0 73-32 73-73z m-146-19l0 19c0 19 7 36 19 49 12-13 19-30 19-48l0-20z m-108 20c0 40 33 73 73 73 16 0 30-5 42-14-14-16-23-37-23-60l0-19-92 0z m-8-312l35-35-70 0z m8 15l0 261 38 0 0-299z m-16 261l0-261-39-38 0 299z m324-311l-254 0 0 311 38 0 0-47c0-4 3-8 8-8 4 0 8 4 8 8l0 47 146 0 0-47c0-4 4-8 9-8 4 0 8 4 8 8l0 47 37 0z"/>
<glyph glyph-name="shopping-cart-1" unicode="&#95;" d="M422 123l-258 0c0 0 0 0 0 0-6 0-11 2-14 6-4 3-6 8-6 14 0 5 2 10 6 14 3 4 8 6 14 6 0 0 0 0 0 0l256 0c4 0 7 2 8 6l57 228c0 2 0 5-2 7-1 2-4 3-6 3l-364 0-12 49c-1 1-1 1-2 2 0 1-1 2-2 2 0 1-1 1-3 2 0 0-1 1-2 1l-56 0c-5 0-9-4-9-9 0-5 4-8 9-8l50 0 67-268c-6-2-11-5-15-9-7-7-11-16-11-26 0-10 4-19 11-26 1-1 2-2 3-3-1-1-2-1-3-2-7-7-11-16-11-26 0-21 16-37 37-37 0 0 0 0 0 0 10 0 19 4 26 11 7 7 11 16 11 26 0 7-3 14-7 20l198 0c-4-6-7-13-7-20 0-21 17-37 37-37 0 0 0 0 0 0 10 0 19 4 26 11 7 7 11 16 11 26 0 20-16 37-37 37z m-9 57l-243 0-38 153 320 0z m53 210l-10-40-328 0-10 40z m-282-304c0-6-2-11-6-14-4-4-9-6-14-6l0 0c-11 0-20 9-20 20 0 5 2 10 6 14 3 4 8 6 14 6 11 0 20-9 20-20z m252-14c-3-4-8-6-14-6l0 0c-11 0-20 9-20 20 0 5 2 10 6 14 4 4 9 6 14 6 11 0 20-9 20-20 0-6-2-11-6-14z"/>
<glyph glyph-name="shopping-cart-1-1" unicode="&#96;" d="M422 151l-259 0c-11 0-20 9-20 20 0 5 2 10 6 14 4 4 9 6 14 6 0 0 0 0 0 0l256 0c4 0 8 2 9 6l42 171c1 2 0 5-1 7-2 2-4 3-7 3l-335 0-12 51c-1 4-5 6-9 6l-56 0c-5 0-9-3-9-8 0-5 4-9 9-9l50 0 12-50 41-162c-6-2-11-5-16-9-7-7-11-16-11-26 0-12 6-22 15-29-1-1-3-1-4-2-7-7-11-16-11-26 0-21 17-37 37-37 0 0 0 0 0 0 10 0 19 4 26 11 7 7 11 16 11 26 0 7-3 14-6 20l198 0c-4-6-7-13-7-20 0-21 17-37 37-37 0 0 0 0 0 0 10 0 19 4 26 11 7 7 11 16 11 26 0 20-17 37-37 37z m29 211l-38-154-243 0-39 154z m-268-248c0-6-2-11-6-14-3-4-8-6-14-6l0 0c-11 0-20 9-20 20 0 5 2 10 6 14 4 4 9 6 14 6 11 0 20-9 20-20z m253-14c-4-4-9-6-14-6l0 0c-11 0-20 9-20 20 0 5 2 10 6 14 4 4 9 6 14 6 11 0 20-9 20-20 0-6-2-11-6-14z"/>
<glyph glyph-name="shopping-cart-out" unicode="&#123;" d="M470 369c0 0 0-1 0-1l-42-171c-1-4-5-6-9-6l-256 0c-5 0-10-2-14-6-4-4-6-9-6-14 0-11 9-20 20-20l259 0c20 0 37-17 37-37 0-10-4-19-11-26-7-7-16-11-26-11l0 0c-20 0-37 16-37 37 0 7 3 14 7 20l-198 0c3-6 6-13 6-20 0-10-4-19-10-26-7-7-17-11-27-11 0 0 0 0 0 0-20 0-37 16-37 37 0 10 4 19 11 26 1 1 3 1 4 2-9 7-15 17-15 29 0 10 4 19 11 26 5 4 10 7 16 9l-41 162-12 50-50 0c-5 0-9 4-9 9 0 5 4 8 9 8l56 0c4 0 8-2 9-6l12-51 67 0c5 0 9-3 9-8 0-5-4-8-9-8l-62 0 38-154 243 0 38 154-62 0c-5 0-9 3-9 8 0 5 4 8 9 8l73 0c0 0 1 0 1 0 0 0 1 0 1 0 1 0 1-1 2-1 1-1 2-1 2-2 1-1 1-2 2-3 0-1 1-1 1-2 0 0-1-1-1-1z m-48-275l0 0c5 0 10 2 14 6 4 3 6 8 6 14 0 11-9 20-20 20-5 0-10-2-14-6-4-4-6-9-6-14 0-11 9-20 20-20z m-259 0l0 0c6 0 11 2 15 6 3 3 5 8 5 14 0 11-9 20-20 20-5 0-10-2-14-6-4-4-6-9-6-14 0-11 9-20 20-20z m169 268c-3 0-5 0-6 2l-26 26 0-60c0-5-4-9-9-9-4 0-8 4-8 9l0 60-26-26c-3-3-9-3-12 0-3 3-3 9 0 12l40 40c4 4 9 4 12 0l41-40c3-3 3-9 0-12-2-2-4-2-6-2z"/>
<glyph glyph-name="shopping-cart-x" unicode="&#124;" d="M470 369c0 0 1-1 0-1l-42-171c-1-4-5-6-8-6l-256 0c0 0 0 0 0 0-6 0-11-2-15-6-3-4-5-9-5-14 0-11 9-20 20-20l258 0c21 0 37-17 37-37 0-21-16-37-37-37-20 0-37 16-37 37 0 7 3 14 7 20l-198 0c4-6 6-13 6-20 0-10-3-19-10-26-7-7-17-11-26-11-21 0-37 16-37 37 0 10 3 19 10 26 1 1 3 1 4 2-9 7-14 17-14 29 0 10 3 19 10 26 5 4 10 7 16 9l-40 162-13 50-50 0c-5 0-9 4-9 9 0 5 4 8 9 8l57 0c4 0 7-2 8-6l13-51 67 0c4 0 8-3 8-8 0-5-4-8-8-8l-63 0 38-154 243 0 38 154-62 0c-5 0-9 3-9 8 0 5 4 8 9 8l73 0c1 0 1 0 1 0 1 0 1 0 1 0 1 0 1-1 2-1 1-1 2-1 3-2 0-1 1-2 1-3 0-1 1-1 1-2 0 0-1-1-1-1z m-48-275c11 0 20 9 20 20 0 11-9 20-20 20-11 0-20-9-20-20 0-11 9-20 20-20z m-258 0c5 0 10 2 14 6 3 3 6 8 6 14 0 11-9 20-20 20-6 0-11-2-15-6-3-4-5-9-5-14 0-11 9-20 20-20z m174 230c-2-2-4-3-6-3-2 0-5 1-6 3l-34 34-35-34c-1-2-3-3-6-3-2 0-4 1-6 3-3 3-3 8 0 12l35 34-35 34c-3 4-3 9 0 12 4 4 9 4 12 0l35-34 34 34c3 4 8 4 12 0 3-3 3-8 0-12l-34-34 34-34c3-4 3-9 0-12z"/>
<glyph glyph-name="shpping-cart-in" unicode="&#125;" d="M470 369c0 0 0-1 0-1l-42-171c-1-4-5-6-8-6l-257 0c0 0 0 0 0 0-5 0-10-2-14-6-3-4-6-9-5-14 0-11 8-20 19-20l259 0c20 0 37-17 37-37 0-10-4-19-11-26-7-7-16-11-26-11-20 0-37 16-37 37 0 7 3 14 7 20l-198 0c4-6 6-13 6-20 0-10-3-19-10-26-7-7-17-11-27-11-20 0-36 16-36 37 0 10 3 19 10 26 1 1 3 1 4 2-9 7-14 17-14 29 0 10 3 19 10 26 5 4 10 7 16 9l-40 162-13 50-50 0c-5 0-9 4-9 9 0 5 4 8 9 8l57 0c3 0 7-2 8-6l12-51 67 0c5 0 9-3 9-8 0-5-4-8-9-8l-62 0 38-154 243 0 38 154-62 0c-5 0-9 3-9 8 0 5 4 8 9 8l73 0c1 0 1 0 1 0 1 0 1 0 1 0 1 0 1-1 2-1 1-1 2-1 3-2 0-1 0-2 1-3 0-1 1-1 1-2 0 0-1-1-1-1z m-48-275c5 0 10 2 14 6 4 3 6 8 6 14 0 11-9 20-20 20-5 0-10-2-14-6-4-4-6-9-6-14 0-11 9-20 20-20z m-259 0c6 0 11 2 15 6 3 3 5 8 5 14 0 11-9 20-20 20-5 0-10-2-14-6-3-4-6-9-5-14 0-11 8-20 19-20z m134 230c-1-2-3-3-6-3-2 0-4 1-6 3l-40 40c-3 3-3 9 0 12 4 3 9 3 12 0l26-26 0 60c0 5 4 9 8 9 5 0 9-4 9-9l0-60 26 26c3 3 8 3 12 0 3-3 3-9 0-12z"/>
<glyph glyph-name="slider" unicode="&#126;" d="M474 248l-82 0c-4 0-8 4-8 8 0 5 4 8 8 8l82 0c4 0 8-3 8-8 0-4-4-8-8-8z m-163-55c-34 0-62 29-62 63 0 35 28 63 62 63 35 0 63-28 63-63 0-34-28-63-63-63z m0 109c-25 0-46-20-46-46 0-26 21-46 46-46 26 0 46 20 46 46 0 26-20 46-46 46z m-81-54l-192 0c-4 0-8 4-8 8 0 5 4 8 8 8l192 0c4 0 8-3 8-8 0-4-4-8-8-8z"/>
<glyph glyph-name="soup" unicode="&#92;" d="M484 317l-36 0 20 3c14 3 23 16 20 30-2 12-12 21-25 21-1 0-2 0-4-1l-73-14 65 36c6 3 10 9 12 16 2 6 1 13-3 19-6 12-22 16-34 9l-178-107-59-12-161 0c-4 0-8-4-8-8 0-13 1-26 4-39-1-1-1-2 0-2 0-1 0-1 0-2 5-26 14-51 27-74 0 0 0 0 0-1 1 0 1-1 2-2 42-72 120-116 203-116 130 0 236 106 236 236 0 4-4 8-8 8z m-50 105c2 0 3 1 4 1 3 0 6-2 8-5 1-2 1-4 1-6-1-2-2-4-4-5l-112-62-34-6z m29-68c5 0 8-3 9-7 1-5-2-9-7-10l-127-20-61 0z m-207-265c-77 0-150 42-190 110 0 0 0 0 0 1-12 22-21 45-25 70 0 0 0 0 0 1 0 0-1 0-1 0-1 11-2 20-3 29l438 0c-4-117-101-211-219-211z"/>
<glyph glyph-name="spray" unicode="&#57344;" d="M451 262c-2 0-3-1-4-1-2 0-3 1-4 1l-164 95c-3 1-4 4-4 7 0 3 1 5 4 7l164 94c2 2 5 2 8 0 2-1 4-4 4-7l0-189c0-3-2-5-4-7z m-12 182l-140-80 140-81z m-211-399l-163 0c-4 0-8 4-8 8l0 284c0 4 4 8 8 8l46 0 0 46c0 4 4 8 9 8l54 0c4 0 8-4 8-8l0-46 46 0c4 0 8-4 8-8l0-284c0-4-4-8-8-8z m-62 338l-38 0 0-38 38 0z m54-118c-1 0-1 0-2 0-5 2-10 3-15 3l-2 0c-33 0-59-25-60-57 0-16 5-31 16-43 11-12 26-19 42-19 1 0 2 0 3 0 6 0 11 1 17 3 0 0 0 0 1 0z m0-130c-1 0-1 0-2 0-6-1-11-2-17-2l-3 0c-20 0-39 9-53 24-13 15-21 34-20 54 2 41 35 73 76 73l2 0c6 0 11-1 16-2 0 0 1 0 1 0l0 46-146 0 0-267 146 0z"/>
<glyph glyph-name="store" unicode="&#57345;" d="M482 310c0 0 0 0 0 0-1-22-12-40-27-51l0-221c0-4-4-8-8-8l-381 0c-5 0-8 4-8 8l0 221c-17 11-28 30-28 51l28 165c0 4 4 7 8 7l381 0c3 0 7-3 7-7l28-163c0-1 0-1 0-1 0 0 0-1 0-1z m-191-264l93 0 0 147-93 0z m-221 225c0-1 0 0 0-1 3-2 7-3 10-4 1 0 1 0 2 0 3-1 7-2 11-2 23 0 42 17 45 38l-91 0c2-13 11-25 23-31z m69 195l-66 0-25-148 91 0z m109 0l-93 0 0-148 93 0z m-92-164c4-21 23-38 46-38 22 0 41 17 45 38z m201 164l-93 0 0-148 93 0z m-92-164c4-21 23-38 45-38 23 0 42 17 46 38z m45-54c-23 0-43 13-54 32-11-19-31-32-54-32-24 0-44 13-55 32-10-19-31-32-54-32-6 0-12 1-18 3 0 0-1 0-1 0l0-205 201 0 0 155c0 5 4 9 8 9l109 0c5 0 8-4 8-9l0-155 38 0 0 205c0 0 0 0-1 0-6-2-11-3-18-3-23 0-43 13-54 32-11-19-31-32-55-32z m130 218l-67 0 0-148 91 0z m-66-164c4-21 23-38 45-38 4 0 8 1 12 2 0 0 0 0 1 0 4 1 7 2 10 4 0 0 0 0 1 0 11 7 19 19 22 32z m-145-218l-109 0c-4 0-8 4-8 9l0 108c0 5 4 9 8 9l109 0c4 0 8-4 8-9l0-108c0-5-4-9-8-9z m-8 109l-93 0 0-92 93 0z"/>
<glyph glyph-name="sunglasses-1" unicode="&#57346;" d="M507 299c-1 4-4 6-7 6l-160 0c-6 14-15 27-27 36l0 0c-31 24-76 24-107 0-12-9-21-22-27-36l-160 0c-3 0-7-2-8-6-10-40 2-83 31-112 0 0 0 0 0 0 8-8 16-14 24-18 8-5 16-8 27-11 0 0 0 0 0 0 10-3 20-4 31-4 36 0 71 17 94 48 3 3 5 6 7 9 15 27 19 58 11 88 0 1-1 2-1 2-1 1-1 2-1 2-2 1-4 2-6 2l-32 0c5 9 12 17 19 23 26 20 63 20 88 0 8-6 15-14 20-23l-33 0c-2 0-4-1-5-2 0 0-1-1-1-2 0 0-1-1-2-2-8-34-1-70 20-99 4-4 7-9 12-13 0 0 0 0 0 0 8-8 15-14 23-18 8-5 16-8 27-11 0 0 0 0 0 0 10-3 21-4 31-4 42 0 80 22 101 57 15 27 19 58 11 88z m-481-10l68 0-47-83c-19 23-27 54-21 83z m32-95l55 95 44 0-66-114c-6 2-12 5-17 8-5 3-10 7-16 11z m164 95c5-24 1-48-11-69-2-3-4-6-7-10-22-30-60-45-96-39l68 118z m75 0l68 0-47-83c-1 2-2 3-3 4-17 23-24 51-18 79z m32-95l55 95 44 0-65-114c-7 2-13 5-18 8-5 3-10 7-16 11z m153 26c-20-36-63-56-103-49l68 118 46 0c5-24 1-48-11-69z"/>
<glyph glyph-name="sunglasses-2" unicode="&#57347;" d="M477 339c0 0 0 0 0 0-8 8-16 13-24 18-7 5-16 8-27 11-43 12-90-3-119-37-29 18-66 18-95 0-2 3-4 5-6 8l0 0 0 0c-8 8-16 13-24 18-8 5-16 8-27 11-10 3-21 4-31 4-42 0-80-22-101-58-26-45-18-104 19-141 0 0 0 0 0 0 8-8 16-14 24-18 8-5 17-8 27-11 10-3 21-4 31-4 37 0 71 17 94 48 3 3 5 6 7 10 3 5 5 10 7 15 1 1 1 3 2 5 1 3 2 7 3 10 1 2 1 5 1 7 1 3 2 6 2 9 0 3 0 5 0 7 0 3 0 6 0 10 0 2 0 4 0 7-1 3-1 6-2 9 0 2-1 4-1 7-1 3-2 6-3 8-1 3-2 5-2 7-2 3-3 6-4 8-1 3-3 5-4 7-1 2-1 3-2 4 23 14 52 14 75 1-1-2-2-3-3-5-6-10-10-20-12-31-8-33-1-68 20-96 4-6 8-10 12-14 0 0 0 0 0 0 8-8 15-14 23-18 8-5 17-8 27-11 10-3 21-4 31-4 42 0 81 22 101 58 27 45 19 103-19 141z m-440-33c18 31 51 50 87 50 5 0 11 0 16-1l-93-162c-27 32-31 77-10 113z m21-126l99 171c6-3 12-5 17-8 5-3 10-7 16-11l-99-171c-6 2-12 5-17 8-5 3-10 7-16 11z m153 26c-1-2-2-4-4-6-1-1-2-2-3-4l0 0c-22-29-60-45-96-39l93 162c1-1 2-2 3-3 24-33 27-76 7-110z m184 150c6 0 11 0 16-1l-93-162c-1 1-2 2-3 3-24 32-27 76-7 110 2 3 4 5 6 8l1 2c19 25 49 40 80 40z m-65-176l98 171c7-3 12-5 17-8 6-3 11-7 16-11l-98-171c-7 2-13 5-18 8-5 3-10 7-15 11z m152 26c-20-36-62-56-103-49l29 51 65 111c26-32 30-77 9-113z"/>
<glyph glyph-name="tag-1" unicode="&#57348;" d="M461 271c0-2-1-4-3-6l-221-221c-2-2-4-3-6-3-2 0-4 1-6 3l-181 181c-2 1-3 4-3 6 0 2 1 4 3 6l221 222c2 1 4 2 6 2l191 10c2 0 5-1 6-3 2-1 3-4 3-6z m-186 173l-213-213 169-169 213 213 9 178z m107-99c-10 0-19 4-26 11-14 14-14 38 0 52 14 14 38 14 52 0 7-7 11-16 11-26 0-10-4-19-11-26-7-7-16-11-26-11z m14 51c-4 4-9 6-14 6-5 0-10-2-14-6-8-8-8-20 0-28 7-8 21-8 28 0 4 4 6 9 6 14 0 5-2 10-6 14z"/>
<glyph glyph-name="tag-2" unicode="&#57349;" d="M452 270c0-2-1-4-2-5l-212-212c-2-2-4-2-6-2-2 0-4 0-6 2l-173 173c-1 2-2 4-2 6 0 2 1 4 2 6l212 212c1 1 3 2 5 2l183 9c2 1 4 0 6-2 2-2 2-4 2-6z m-178 166l-204-204 162-162 204 204 9 171z m102-95c-9 0-18 4-24 11-14 13-14 36 0 49 13 14 36 14 49 0 7-6 11-15 11-25 0-9-4-18-11-25-6-6-15-10-25-10z m14 49c-4 4-8 6-14 6-5 0-9-2-13-6-7-7-7-20 0-27 4-4 8-6 13-6 6 0 10 2 14 6 4 4 6 8 6 13 0 6-2 10-6 14z m-191-222c-1-1-3-2-5-2-3 0-5 1-6 2-3 4-3 9 0 12l96 96c3 3 9 3 12 0 3-3 3-8 0-11z m-38 39c-2-2-4-3-6-3-2 0-4 1-6 3-3 3-3 8 0 11l97 97c3 3 8 3 11 0 3-3 3-8 0-12z"/>
<glyph glyph-name="tie" unicode="&#57350;" d="M318 474c1 2 0 5-1 7-2 2-4 3-7 3l-108 0c-3 0-5-1-7-3-1-2-2-5-1-7l27-108-14-261c0-2 0-4 1-5l41-68c2-2 4-4 7-4 3 0 5 2 7 4l41 68c1 1 1 3 1 5l-14 261z m-18-6l-23-93-42 0-23 93z m-44-416l-33 54 14 253 39 0 13-253z"/>
<glyph glyph-name="truck-1" unicode="&#57351;" d="M495 254l0-107c0-4-4-8-8-8l-27 0c-5 0-8 4-8 8 0 5 3 8 8 8l19 0 0 92-73 0c-5 0-8 4-8 8l0 101-65 0 0-148c0-5-4-8-9-8-4 0-8 3-8 8l0 203-96 0-154-256 13 0c5 0 9-3 9-8 0-4-4-8-9-8l-27 0c-3 0-6 2-7 4-1 3-1 6 0 8l163 272c2 3 4 4 7 4l109 0c5 0 9-3 9-8l0-46 154 0c4 0 8-4 8-8l0-109c0 0 0 0 0-1 0 0 0 0 0-1z m-16 102l-65 0 0-92 65 0z m-345 0l-109 0c-5 0-8 4-8 8 0 5 3 8 8 8l109 0c4 0 8-3 8-8 0-4-4-8-8-8z m-109-38l76 0c4 0 8-4 8-8 0-5-4-8-8-8l-76 0c-5 0-8 3-8 8 0 4 3 8 8 8z m0-54l43 0c5 0 9-4 9-8 0-5-4-8-9-8l-43 0c-5 0-8 3-8 8 0 4 3 8 8 8z m136-54c34 0 62-28 62-63 0-34-28-62-62-62-35 0-63 28-63 62 0 35 28 63 63 63z m0-109c25 0 46 21 46 46 0 26-21 46-46 46-26 0-46-20-46-46 0-25 20-46 46-46z m81 54l55 0c5 0 8-3 8-8 0-4-3-8-8-8l-55 0c-4 0-8 4-8 8 0 5 4 8 8 8z m136 55c35 0 63-28 63-63 0-34-28-62-63-62-34 0-62 28-62 62 0 35 28 63 62 63z m0-109c26 0 47 21 47 46 0 26-21 46-47 46-25 0-46-20-46-46 0-25 21-46 46-46z"/>
<glyph glyph-name="truck-2" unicode="&#57352;" d="M481 255l0-108c0-4-3-8-8-8l-27 0c-4 0-8 4-8 8 0 5 4 8 8 8l19 0 0 92-73 0c-4 0-8 4-8 8l0 101-65 0 0-148c0-5-4-8-8-8-5 0-8 3-8 8l0 203-256 0 0-256 19 0c4 0 8-3 8-8 0-4-4-8-8-8l-27 0c-5 0-9 4-9 8l0 272c0 5 4 8 9 8l272 0c4 0 8-3 8-8l0-46 154 0c5 0 8-4 8-8l0-109c1 0 1 0 1-1 0 0 0 0-1 0z m-16 101l-65 0 0-92 65 0z m-318-146c35 0 63-28 63-63 0-34-28-62-63-62-34 0-62 28-62 62 0 35 28 63 62 63z m0-109c26 0 47 21 47 46 0 26-21 46-47 46-25 0-46-20-46-46 0-25 21-46 46-46z m82 54l55 0c4 0 8-3 8-8 0-4-4-8-8-8l-55 0c-5 0-8 4-8 8 0 5 3 8 8 8z m136 55c34 0 62-28 62-63 0-34-28-62-62-62-35 0-63 28-63 62 0 35 28 63 63 63z m0-109c25 0 46 21 46 46 0 26-21 46-46 46-26 0-46-20-46-46 0-25 20-46 46-46z"/>
<glyph glyph-name="upload" unicode="&#57353;" d="M365 85l-218 0c-34 0-62 28-62 62 0 5 3 8 8 8 4 0 8-3 8-8 0-25 21-46 46-46l218 0c25 0 46 21 46 46 0 5 4 8 8 8 5 0 8-3 8-8 0-34-28-62-62-62z m-60 274l-41 41 0-253c0-4-4-8-8-8-5 0-8 4-8 8l0 253-41-41c-1-2-3-2-5-2-3 0-5 0-6 2-3 3-3 8 0 12l54 54c0 0 0 0 0 0 2 1 4 2 6 2 2 0 4-1 6-2l54-54c3-4 3-9 0-12-3-3-8-3-11 0z"/>
<glyph glyph-name="user" unicode="&#57354;" d="M477 56c-1-1-3-2-6-2l-430 0c-2 0-4 1-6 2-2 2-2 4-2 6 0 1 1 110 106 158 4 2 8 0 10-3 22-39 63-63 107-63 44 0 85 24 107 63 2 3 6 5 10 3 105-48 106-157 106-158 0-2 0-4-2-6z m-104 146c-25-40-69-64-117-64-47 0-92 24-117 64-75-37-87-108-90-132l414 0c-2 24-15 95-90 132z m-117-19c-52 0-94 42-94 94l0 87c0 52 42 94 94 94 52 0 94-42 94-94l0-87c0-52-42-94-94-94z m78 181c0 43-35 78-78 78-43 0-78-35-78-78l0-87c0-43 35-78 78-78 43 0 78 35 78 78z"/>
<glyph glyph-name="user-round" unicode="&#57355;" d="M444 131c-42-63-112-101-188-101-75 0-146 38-188 101-24 37-38 80-38 125 0 125 102 226 226 226 125 0 226-101 226-226 0-45-13-88-38-125z m-188-84c68 0 131 32 171 88-5 5-10 10-15 15-3 3-5 6-8 9-9 7-20 14-31 20-25-40-69-65-117-65-47 0-91 25-117 65-11-6-21-13-31-20-3-3-5-6-8-9-5-5-10-10-14-15 39-56 102-88 170-88z m0 419c-115 0-209-94-209-210 0-38 10-74 29-107 1 1 1 2 2 2 8 9 16 17 25 24 1 1 3 2 4 3 10 7 21 13 32 19 1 0 2 0 3 0 1 0 1 0 2 0 0 0 1 0 1-1 2 0 3-1 4-3 22-39 63-63 107-63 44 0 85 24 107 63 2 4 6 5 10 4 12-6 22-12 32-19 1-1 3-2 4-3 9-7 18-15 25-23 1-1 2-2 2-3 20 33 30 69 30 107 0 116-94 210-210 210z m0-306c-52 0-94 42-94 94l0 86c0 52 42 94 94 94 52 0 94-42 94-94l0-86c0-52-42-94-94-94z m78 180c0 43-35 78-78 78-43 0-78-35-78-78l0-86c0-43 35-78 78-78 43 0 78 35 78 78z"/>
<glyph glyph-name="user-v" unicode="&#57356;" d="M473 141l-8-8-12-12-51-51-6-6c-2-1-4-2-6-2-2 0-4 1-6 2l-5 6-33 33c-3 3-3 8 0 11 2 2 4 3 6 3 2 0 4-1 5-3l33-32 55 55 12 12 4 4c2 1 4 2 6 2 2 0 4-1 6-2 3-3 3-9 0-12z m-96 61c-26-40-70-64-117-64-48 0-92 24-117 64-74-37-87-108-90-132l280 0 16-16-304 0c-3 0-5 1-6 2-2 2-3 4-3 6 0 1 2 110 107 158 4 2 8 0 10-3 22-39 63-63 107-63 44 0 85 24 107 63 2 3 6 5 10 3 26-12 46-28 61-45l-12-11c-12 14-28 27-49 38z m-117-19c-52 0-94 42-94 94l0 87c0 52 42 94 94 94 52 0 94-42 94-94l0-87c0-52-42-94-94-94z m78 181c0 43-35 78-78 78-43 0-78-35-78-78l0-87c0-43 35-78 78-78 43 0 78 35 78 78z"/>
<glyph glyph-name="user-x" unicode="&#57357;" d="M477 133l-11-11-12-12-10-10 17-16 16-16c3-3 3-9 0-12-2-1-4-2-6-2-2 0-4 1-6 2l-13 14-19 19-19-19-14-14c-2-1-4-2-6-2-2 0-4 1-5 2-4 3-4 9 0 12l2 2 30 30-32 33c-4 3-4 9 0 12 1 1 3 2 5 2 2 0 4-1 6-2l33-33 14 14 12 12 7 7c1 1 3 2 5 2 2 0 4-1 6-2 3-4 3-9 0-12z m-48 22c-5 7-12 14-19 21-11 10-22 19-37 26-26-40-70-64-117-64-48 0-92 24-117 64-74-37-87-108-90-132l306 0c0-3-1-5-1-8 0-3 1-5 1-8l-314 0c-3 0-5 1-6 2-2 2-3 4-3 6 0 1 2 110 107 158 4 2 8 0 10-3 22-39 63-63 107-63 44 0 85 24 107 63 2 3 6 5 10 3 31-14 53-33 68-54l-8-8z m-173 28c-52 0-94 42-94 94l0 87c0 52 42 94 94 94 52 0 94-42 94-94l0-87c0-52-42-94-94-94z m78 181c0 43-35 78-78 78-43 0-78-35-78-78l0-87c0-43 35-78 78-78 43 0 78 35 78 78z"/>
<glyph glyph-name="vinyl" unicode="&#57358;" d="M256 30c-69 0-132 32-173 81l-30-23-6-51c-1-4-4-7-8-7-1 0-1 0-1 0-5 1-8 5-7 9l6 54c0 2 1 4 3 6l33 25c-27 37-43 83-43 132 0 124 102 226 226 226 125 0 226-102 226-226 0-125-101-226-226-226z m0 435c-115 0-209-94-209-209 0-46 14-87 39-122l13 10 18 150-5 1c-5 1-8 5-7 9l6 54c0 2 2 4 3 6 2 1 4 2 6 1l27-3c5-1 8-5 7-9l-6-54c-1-2-2-4-3-5-2-2-4-2-5-2-1 0-1 0-1 0l-6 1-19-154c0 0 0 0 0 0 0-2-1-4-3-5 0 0 0 0 0 0l-15-13c38-46 96-75 160-75 116 0 210 94 210 210 0 115-94 209-210 209z m-134-155l11-1 4 38-11 1z m134-144c-49 0-89 41-89 90 0 49 40 89 89 89 49 0 89-40 89-89 0-49-40-90-89-90z m0 163c-40 0-73-33-73-73 0-41 33-73 73-73 40 0 73 32 73 73 0 40-33 73-73 73z m0-108l0 8 0-8c-19 0-35 15-35 35 0 19 16 35 35 35 10 0 18-4 25-10 7-7 10-16 10-25 0-10-3-18-10-25-7-7-15-10-25-10z m0 54c-10 0-19-9-19-19 0-11 9-19 19-19l0 0c5 0 10 2 14 5 3 4 5 9 5 14 0 10-8 19-19 19z"/>
<glyph glyph-name="wallet" unicode="&#57359;" d="M492 156l0-111c0-5-4-9-8-9l-427 0c-20 0-37 17-37 37l0 309c0 10 4 19 11 26 7 7 16 11 26 11l89 0c5 0 9-4 9-8 0-5-4-9-9-9l-89 0c-5 0-11-2-14-6-4-4-6-9-6-14 0-2 1-4 1-6 1-3 3-6 5-8 4-4 9-6 14-6l55 0 112 111c1 2 3 3 6 3 2 0 4-1 6-3l78-78 50 50c3 3 9 3 12 0l83-83 25 0c4 0 8-4 8-8l0-141 0 0 0-57c0 0 0 0 0 0z m-262 299l-94-93 187 0z m140-28l-44-44 21-21 88 0z m105-222l-153 0 0-40 153 0z m0-57l-161 0c-5 0-9 4-9 8l0 57c0 5 4 9 9 9l161 0 0 123-418 0c0 0 0 0 0 0 0 0 0 0 0 0-5 0-9 1-13 3-1 0-2 1-3 1-1 1-3 1-4 2l0-278c0-11 9-20 20-20l418 0z m9 254l-57 0c-5 0-8 4-8 9 0 4 3 8 8 8l57 0c4 0 8-4 8-8 0-5-4-9-8-9z"/>
<glyph glyph-name="wallet-empty" unicode="&#57360;" d="M482 243c0 0 0 0 0 0l0 134c0 2-1 4-3 6-1 1-3 2-5 2l-408 0c-4 0-8 1-11 4-1 0-2 1-3 1-2 2-3 4-4 7l0 0c-1 2-1 4-1 7 0 5 2 10 5 14 4 3 9 5 14 5l401 0c5 0 8 4 8 8 0 5-3 8-8 8l-401 0c-10 0-19-3-25-10-7-7-11-16-11-25l0-295c0-20 16-36 36-36l408 0c4 0 8 4 8 8l0 107c0 0 0 0 0 0z m-16-47l-147 0 0 39 147 0z m-400-107c-11 0-19 9-19 20l0 265c1 0 2-1 3-1 1-1 2-2 4-2 3-1 7-2 12-2 0 0 0 0 0 0 0 0 0 0 0 0l400 0 0-118-155 0c-4 0-8-4-8-8l0-55c0-4 4-8 8-8l155 0 0-91z"/>
<glyph glyph-name="watch" unicode="&#57361;" d="M403 231c-5-6-13-9-21-10-6-23-18-45-35-63l-15-121c0-4-4-7-8-7l-163 0c-4 0-8 3-8 7l-15 120c-26 27-40 62-40 99 0 37 14 72 40 98l15 121c0 4 4 7 8 7l163 0c4 0 8-3 8-7l15-121c17-18 29-40 35-63 18-2 32-17 32-35 0-9-4-18-11-25z m-235-185l149 0 12 95c-1-1-3-1-4-2-2-2-5-3-7-5-5-3-10-6-16-9-2-1-5-2-8-3-6-2-11-4-17-6-3 0-6-1-8-2-9-1-18-2-27-2-8 0-17 1-26 2-3 1-5 2-8 2-6 2-11 3-17 6-3 1-6 2-8 3-6 3-11 6-16 9-3 1-5 3-7 4-2 1-3 2-4 2z m149 420l-149 0-12-95c1 1 2 2 4 3 2 1 4 3 7 4 5 3 10 6 16 9 2 1 5 2 8 3 6 2 11 4 17 6 3 0 5 1 8 2 9 1 18 2 26 2 9 0 18-1 27-3 2 0 5-1 8-1 5-2 11-4 17-6 3-1 6-2 8-4 6-2 11-5 16-8 2-2 5-3 7-5 1-1 3-1 4-2z m51-185c-5 24-17 46-34 64-25 25-57 39-92 39-34 0-66-14-91-38-23-25-36-56-36-90 0-34 13-66 36-90 25-24 57-38 91-38 35 0 67 14 92 39 17 18 29 40 34 64 2 9 2 17 2 25 0 8 0 17-2 25z m17-7c1-6 2-12 2-18 0-6-1-12-2-18 3 1 5 3 7 4 4 4 6 9 6 14 0 8-5 15-13 18z m-104-65c-2 0-4 1-6 3l-38 38c-2 2-3 4-3 6l0 82c0 4 4 8 8 8 5 0 9-4 9-8l0-79 36-36c3-3 3-8 0-11-2-2-4-3-6-3z"/>
<glyph glyph-name="wrench-1" unicode="&#57362;" d="M256 37c-27 0-49 21-49 48l0 210c-33 18-54 52-54 90 0 36 20 71 52 89 2 2 5 2 8 0 2-1 4-4 4-7l0-64 39-22 39 22 0 64c0 3 2 6 4 7 3 2 6 2 8 0 32-18 52-51 52-88 0-38-21-73-54-91l0-210c0 0 0-1 0-1-1-26-23-47-49-47 0 0 0 0 0 0z m-55 415c-20-17-32-41-32-67 0-33 19-63 50-78 2-1 4-4 4-7l0-215c0-18 15-32 33-32l0-8 0 8c18 0 33 14 33 32 0 1 0 1 0 2l0 213c0 3 2 6 4 7 31 15 50 45 50 79 0 26-12 50-32 66l0-53c0-3-1-6-4-7l-47-28c-2-1-6-1-8 0l-47 28c-3 1-4 4-4 7z"/>
<glyph glyph-name="wrench-2" unicode="&#57363;" d="M338 43l-164 0c-4 0-8 3-8 8l0 70c-66 34-108 101-108 175 0 71 38 136 100 172 2 2 5 2 8 0 2-1 4-4 4-7l0-133 86-50 86 50 0 133c0 3 2 6 4 7 3 2 6 2 8 0 62-35 100-99 100-170 1-74-42-143-108-177l0-70c0-5-3-8-8-8z m-156 16l148 0 0 67c0 3 2 6 5 8 63 30 103 95 103 164 0 60-30 115-80 149l0-123c0-3-1-6-4-7l-94-55c-2-1-5-1-8 0l-94 55c-3 1-4 4-4 7l0 122c-50-34-80-90-80-150 1-69 40-132 104-162 3-2 4-5 4-8z"/>
<glyph glyph-name="alarm-clock" unicode="&#57364;" d="M452 357c-4 6-7 12-11 18 12 7 20 20 20 35 0 22-19 41-41 41-15 0-28-9-35-21-6 4-12 8-18 11 11 18 31 30 53 30 34 0 61-27 61-61 0-23-12-42-29-53z m9-111c0-53-20-101-53-138l50-50c4-4 4-10 0-14-4-4-10-4-14 0l-51 50c-36-33-84-53-137-53-53 0-101 20-137 53l-51-50c-4-4-10-4-14 0-4 4-4 10 0 14l50 50c-33 37-53 85-53 138 0 113 92 205 205 205 113 0 205-92 205-205z m-205 184c-102 0-184-82-184-184 0-102 82-185 184-185 102 0 184 83 184 185 0 102-82 184-184 184z m10-224l0-93c0-6-4-11-10-11-6 0-10 5-10 11l0 93c-18 5-31 21-31 40 0 7 2 15 6 21l-44 44c-4 4-4 10 0 14 4 4 10 4 14 0l44-44c6 3 13 6 21 6 23 0 41-19 41-41 0-19-13-35-31-40z m-10 60c-11 0-20-9-20-20 0-12 9-21 20-21 11 0 20 9 20 21 0 11-9 20-20 20z m-164 185c-22 0-41-19-41-41 0-15 8-28 20-35-4-6-7-12-11-18-17 11-29 30-29 53 0 34 27 61 61 61 22 0 42-12 53-30-6-3-12-7-18-11-7 12-20 21-35 21z"/>
<glyph glyph-name="badge" unicode="&#57365;" d="M389 292l0-41-36-21-20-35-5 0c0 0 0 0 0 0l0-154c0 0 0 0 0 0 0-3-1-5-3-7-2-2-5-3-7-3 0 0-1 0-1 0-3 0-6 1-8 4l-53 53-53-53c-2-3-5-4-8-4 0 0-1 0-1 0-2 0-5 1-7 3-2 2-3 4-3 7 0 0 0 0 0 0l0 154c0 0 0 0 0 0l-5 0-20 35-36 21 0 41-21 36 21 35 0 42 36 20 20 36 41 0 36 20 36-20 41 0 20-36 36-20 0-42 21-35z m-184-97l0-130 43 43c0 1 0 1 1 2 2 2 4 3 7 3 3 0 5-1 7-3 1-1 1-1 1-2l43-43 0 130c0 0 0 0 0 0l-15 0-36-21-36 21-15 0c0 0 0 0 0 0z m164 163l0 35-31 17-17 30-35 0-30 18-30-18-35 0-17-30-31-17 0-35-17-30 17-31 0-34 31-18 17-30 35 0 30-17 30 17 35 0 17 30 31 18 0 34 17 31z"/>
<glyph glyph-name="bank" unicode="&#57366;" d="M481 49l-450 0c-6 0-11 5-11 10 0 6 5 10 11 10l450 0c6 0 11-4 11-10 0-5-5-10-11-10z m-307 102c6 0 10-4 10-10 0-6-4-10-10-10l-82 0c-5 0-10 4-10 10 0 6 5 10 10 10l10 0 0 133-10 0c-5 0-10 5-10 11 0 5 5 10 10 10l82 0c6 0 10-5 10-10 0-6-4-11-10-11l-10 0 0-133z m-31 133l-20 0 0-133 20 0z m154-133c6 0 10-4 10-10 0-6-4-10-10-10l-82 0c-6 0-10 4-10 10 0 6 4 10 10 10l10 0 0 133-10 0c-6 0-10 5-10 11 0 5 4 10 10 10l82 0c6 0 10-5 10-10 0-6-4-11-10-11l-10 0 0-133z m-31 133l-20 0 0-133 20 0z m195-184c0-5-5-10-10-10l-390 0c-5 0-10 5-10 10 0 6 5 10 10 10l390 0c5 0 10-4 10-10z m-41 51c5 0 10-4 10-10 0-6-5-10-10-10l-82 0c-6 0-10 4-10 10 0 6 4 10 10 10l10 0 0 133-10 0c-6 0-10 5-10 11 0 5 4 10 10 10l82 0c5 0 10-5 10-10 0-6-5-11-10-11l-10 0 0-133z m-31 133l-20 0 0-133 20 0z m-348 62l215 117 215-117 0-21-430 0z m384 0l-169 87-170-87z"/>
<glyph glyph-name="bell" unicode="&#57367;" d="M297 72c0 0 0 0 0 0 0-23-18-41-41-41-23 0-41 18-41 41 0 0 0 0 0 0-130 4-164 25-164 51 0 8 4 16 12 22 62 69 80 50 80 152 0 68 3 130 85 141-2 4-3 8-3 13 0 16 14 30 31 30 17 0 31-14 31-30 0-5-1-9-3-13 82-11 85-73 85-141 0-102 18-83 80-152 8-7 12-14 12-22 0-26-35-47-164-51z m-41-21c11 0 20 9 20 21 0 0 0 0 0 0-6 0-13 0-20 0-7 0-14 0-20 0 0 0 0 0 0 0 0-12 9-21 20-21z m0 410c-6 0-10-5-10-10 0-6 4-11 10-11 6 0 10 5 10 11 0 5-4 10-10 10z m180-332c0 0-15 17-41 41-35 32-47 47-47 127 0 78-4 123-92 123-88 0-92-45-92-123 0-80-12-95-47-127-25-23-41-41-41-41-4-3-4-5-4-6 0-1 2-31 184-31 182 0 184 30 184 31 0 1 0 3-4 6z"/>
<glyph glyph-name="brush" unicode="&#57368;" d="M486 433c-61-91-244-273-244-273l0 0c-1-1-1-1-1-2-12-11-28-16-43-14 5-20 0-42-15-58 0 0-77-95-163-35 0 0 47 12 51 50 0 0-7 37 27 72 15 15 36 21 56 16-2 15 3 30 14 41 1 1 1 1 2 2l0 0c0 0 183 183 273 243 12 9 29 8 40-3 10-11 11-27 3-39z m-317-274c-8 7-18 12-28 12-11 0-21-5-29-12-25-27-22-58-21-58-3-21-14-39-27-49 5-1 9-2 13-2 49 0 90 48 90 49 0 0 29 33 2 60z m5 35c0-8 3-15 9-21 6-6 14-9 22-9 8 0 15 3 21 9l16 16c1 0 2 2 3 3l-43 43c-1-1-2-3-3-3l-16-16c-6-6-9-13-9-22z m294 264c-2 2-5 3-7 3-2 0-4-1-6-3-64-42-185-157-239-210l43-42c52 54 167 175 210 239 3 4 3 9-1 13z"/>
<glyph glyph-name="calendar" unicode="&#57369;" d="M451 61l-390 0c-22 0-41 19-41 41l0 308c0 22 19 41 41 41l390 0c22 0 41-19 41-41l0-308c0-22-19-41-41-41z m20 349c0 11-9 20-20 20l-390 0c-11 0-20-9-20-20l0-62 430 0z m0-82l-430 0 0-226c0-11 9-20 20-20l390 0c11 0 20 9 20 20z m-41-144l-20 0c-6 0-11 5-11 11l0 20c0 6 5 10 11 10l20 0c6 0 10-4 10-10l0-20c0-6-4-11-10-11z m0 72l-20 0c-6 0-11 5-11 10l0 21c0 5 5 10 11 10l20 0c6 0 10-5 10-10l0-21c0-5-4-10-10-10z m-82-72l-20 0c-6 0-11 5-11 11l0 20c0 6 5 10 11 10l20 0c6 0 10-4 10-10l0-20c0-6-4-11-10-11z m0 72l-20 0c-6 0-11 5-11 10l0 21c0 5 5 10 11 10l20 0c6 0 10-5 10-10l0-21c0-5-4-10-10-10z m-82-72l-20 0c-6 0-10 5-10 11l0 20c0 6 4 10 10 10l20 0c6 0 10-4 10-10l0-20c0-6-4-11-10-11z m0 72l-20 0c-6 0-10 5-10 10l0 21c0 5 4 10 10 10l20 0c6 0 10-5 10-10l0-21c0-5-4-10-10-10z m-82-143l-20 0c-6 0-10 4-10 10l0 20c0 6 4 11 10 11l20 0c6 0 11-5 11-11l0-20c0-6-5-10-11-10z m0 71l-20 0c-6 0-10 5-10 11l0 20c0 6 4 10 10 10l20 0c6 0 11-4 11-10l0-20c0-6-5-11-11-11z m0 72l-20 0c-6 0-10 5-10 10l0 21c0 5 4 10 10 10l20 0c6 0 11-5 11-10l0-21c0-5-5-10-11-10z m-82-143l-20 0c-6 0-10 4-10 10l0 20c0 6 4 11 10 11l20 0c6 0 11-5 11-11l0-20c0-6-5-10-11-10z m0 71l-20 0c-6 0-10 5-10 11l0 20c0 6 4 10 10 10l20 0c6 0 11-4 11-10l0-20c0-6-5-11-11-11z m144-30l20 0c6 0 10-5 10-11l0-20c0-6-4-10-10-10l-20 0c-6 0-10 4-10 10l0 20c0 6 4 11 10 11z"/>
<glyph glyph-name="camera-back" unicode="&#57370;" d="M451 82l-390 0c-22 0-41 18-41 41l0 225c0 23 19 41 41 41l93 0c0 0 11 1 20 10l21 21c0 0 8 10 20 10l82 0c13 0 20-10 20-10l21-21c9-9 20-10 20-10l21 0c0 11 9 21 20 21l21 0c11 0 20-10 20-21l11 0c22 0 41-18 41-41l0-225c0-23-19-41-41-41z m20 266c0 11-9 21-20 21l-31 0c0 0 0 0 0 0l-21 0c0 0 0 0 0 0l-43 0c-3 0-19 3-33 16l-21 22-1 1c0 0-2 2-4 2l-82 0c-2 0-4-2-4-3l-1-1-21-21c-14-13-30-16-33-16l-95 0c-11 0-20-10-20-21l0-225c0-11 9-21 20-21l390 0c11 0 20 10 20 21z m-41-205l-20 0c-6 0-11 5-11 11 0 5 5 10 11 10l20 0c6 0 10-5 10-10 0-6-4-11-10-11z m0 41l-20 0c-6 0-11 5-11 11 0 5 5 10 11 10l20 0c6 0 10-5 10-10 0-6-4-11-10-11z m-36 52c-25 0-46 20-46 46 0 25 21 46 46 46 26 0 46-21 46-46 0-26-20-46-46-46z m0 71c-14 0-25-11-25-25 0-15 11-26 25-26 14 0 26 11 26 26 0 14-12 25-26 25z m-36-102l21 0c6 0 10-5 10-10 0-6-4-11-10-11l-21 0c-5 0-10 5-10 11 0 5 5 10 10 10z m0-41l21 0c6 0 10-5 10-10 0-6-4-11-10-11l-21 0c-5 0-10 5-10 11 0 5 5 10 10 10z m-51-31l-225 0c-6 0-10 5-10 10l0 185c0 5 4 10 10 10l225 0c6 0 10-5 10-10l0-185c0-5-4-10-10-10z m-64 21c-1 4-4 9-6 10 0 1-2 8-20 9 0 0 0 0 0 0-5 0-13 4-13 14 0 3 1 11 1 11 0 0 0 0 0 0 0 0-1 9-1 9 0 0 5 2 11 8 3 3 7 12 7 12 1 6 3 17 3 23 0 13-15 27-30 27 0 0 0 0 0 0 0 0 0 0 0 0-17 0-31-13-31-27 0-6 1-17 2-23 0 0 5-9 8-12 6-6 10-8 10-8 0 0 0-9 0-9 0 0 0 0 0 0 0 0 0-8 0-11 0-10-7-14-13-14 0 0 0 0 0 0-17-1-19-8-19-9-1-1-5-6-6-10z m54 163l-205 0 0-163 29 0c2 4 4 10 8 15 0 0 6 22 40 23-2 1-5 4-7 7-2 1-13 9-15 22-1 4-4 20-4 29 0 27 21 47 51 47 0 0 1 0 1 0 31 0 51-20 51-47 0-9-4-25-4-29-3-13-12-21-14-22-3-3-8-7-8-7 34-1 40-23 40-23 4-5 6-11 8-15l29 0z"/>
<glyph glyph-name="camera-front" unicode="&#57371;" d="M451 82l-390 0c-22 0-41 18-41 41l0 225c0 23 19 41 41 41l11 0c0 11 9 21 20 21l21 0c11 0 20-10 20-21l21 0c0 0 11 1 20 10l21 21c0 0 8 10 20 10l82 0c13 0 20-10 20-10l21-21c9-9 20-10 20-10l93 0c22 0 41-18 41-41l0-225c0-23-19-41-41-41z m20 266c0 11-9 21-20 21l-95 0c-3 0-19 3-33 16l-21 22-1 1c0 0-2 2-4 2l-82 0c-2 0-4-2-4-3l-1-1-21-21c-14-13-30-16-33-16l-43 0c0 0 0 0 0 0l-21 0c0 0 0 0 0 0l-31 0c-11 0-20-10-20-21l0-225c0-11 9-21 20-21l390 0c11 0 20 10 20 21z m-215-225c-62 0-113 50-113 113 0 62 51 112 113 112 62 0 113-50 113-112 0-63-51-113-113-113z m0 205c-51 0-92-42-92-92 0-51 41-93 92-93 51 0 92 42 92 93 0 50-41 92-92 92z m0-144c-28 0-51 23-51 52 0 28 23 51 51 51 28 0 51-23 51-51 0-29-23-52-51-52z m0 82c-17 0-31-14-31-30 0-17 14-31 31-31 17 0 31 14 31 31 0 16-14 30-31 30z m-143 41l-41 0c-6 0-11 5-11 10l0 21c0 6 5 10 11 10l41 0c5 0 10-4 10-10l0-21c0-5-5-10-10-10z"/>
<glyph glyph-name="clipboard" unicode="&#57372;" d="M389 20l-266 0c-23 0-41 19-41 41l0 359c0 22 18 41 41 41l31 0c5 0 10-5 10-10 0-6-5-11-10-11l-31 0c-11 0-21-9-21-20l0-359c0-11 10-20 21-20l266 0c11 0 21 9 21 20l0 359c0 11-10 20-21 20l-31 0c-5 0-10 5-10 11 0 5 5 10 10 10 0 0 0 0 0 0l31 0c23 0 41-19 41-41l0-359c0-22-18-41-41-41z m-20 390c0-6-5-11-11-11l-204 0c-6 0-11 5-11 11 0 5 5 10 11 10 0 0 11 1 20 10l21 21c0 0 8 10 20 10l10 0c0 17 14 31 31 31 17 0 31-14 31-31l10 0c13 0 20-10 20-10l21-21c9-9 20-10 20-10 6 0 11-5 11-10z m-113 61c-6 0-10-5-10-10l20 0c0 5-4 10-10 10z m55-41c0 0-7 10-19 10l-72 0c-12 0-19-10-19-10l-9-10 128 0z"/>
<glyph glyph-name="cloud-1" unicode="&#57373;" d="M369 92l-246 0 0 1c-52 5-92 48-92 102 0 53 40 96 92 101 0 1 0 1 0 1 0 68 55 123 123 123 61 0 111-45 121-103 0 0 1 0 2 0 62 0 112-50 112-112 0-62-50-113-112-113z m0 205c-4 0-7 0-11-1l0 0c0 0 0 0 0 0-6 0-10 5-10 10l0 0c-5 53-49 93-102 93-57 0-103-45-103-102 0-3 1-6 1-9l0 0c0 0 0-1 0-1 0-6-4-10-10-10l0-1c0 0-1 0-1 0-45 0-82-36-82-81 0-42 31-77 72-82l0 0 246 0c51 0 92 41 92 92 0 51-41 92-92 92z"/>
<glyph glyph-name="credit-card" unicode="&#57374;" d="M451 92l-390 0c-22 0-41 18-41 41l0 246c0 22 19 41 41 41l390 0c22 0 41-19 41-41l0-246c0-23-19-41-41-41z m-410 195l430 0 0 41-430 0z m430 92c0 11-9 20-20 20l-390 0c-11 0-20-9-20-20l0-31 430 0z m0-113l-430 0 0-133c0-11 9-20 20-20l390 0c11 0 20 9 20 20z m-195-61l-40 0c-6 0-11 4-11 10 0 6 5 10 11 10l40 0c6 0 11-4 11-10 0-6-5-10-11-10z m-92 0l-92 0c-5 0-10 4-10 10 0 6 5 10 10 10l92 0c6 0 11-4 11-10 0-6-5-10-11-10z m-92-31l62 0c5 0 10-5 10-10 0-6-5-10-10-10l-62 0c-5 0-10 4-10 10 0 5 5 10 10 10z"/>
<glyph glyph-name="dashboard" unicode="&#57375;" d="M470 164c0 0 0 0 0 0 0 0 0 0 0 0 0 0 0 0 0 0 0-6-4-11-10-11 0 0-91 1-91 1-6 0-11 4-11 10 0 6 5 10 11 10l81 0c0 4 1 7 1 10 0 108-88 195-195 195-107 0-195-87-195-195 0-3 1-6 1-10l81 0c6 0 11-4 11-10 0-6-5-10-11-10 0 0-91-1-91-1-5 0-10 5-10 11 0 0 0 0 0 0 0 0 0 0 0 0 0 0 0 0 0 0-1 7-1 14-1 20 0 119 96 215 215 215 119 0 215-96 215-215 0-6 0-13-1-20z m-280 121c4 3 9 2 12-1l-1 1c90-66 109-96 109-97 15-24 6-55-19-69-26-13-58-5-73 19 0 0-19 31-34 138l1-1c-1 4 1 8 5 10z m46-137c6-9 17-15 28-15 6 0 11 1 16 4 7 4 13 11 15 18 2 8 1 16-3 23 0 0-16 25-83 75 13-80 27-105 27-105z"/>
<glyph glyph-name="explore" unicode="&#57376;" d="M256 41c-119 0-215 96-215 215 0 119 96 215 215 215 119 0 215-96 215-215 0-119-96-215-215-215z m0 410c-107 0-195-88-195-195 0-107 88-195 195-195 107 0 195 88 195 195 0 107-88 195-195 195z m164-205l-10 0c-6 0-11 4-11 10 0 6 5 10 11 10l10 0c5 0 10-4 10-10 0-6-5-10-10-10z m-62-84c0-2-1-4-2-6-4-3-8-3-12-1l1-1 0 0c-2 1-4 1-5 2-53 22-84 40-101 51-14 8-18 13-19 13 0 1-25 25-66 125l0 0 1-1c0 0 0 0 0 1-1 2-2 4-1 6 1 2 1 3 2 5 4 3 8 3 12 1 0 0 0 0 0 0l0 1-1 0c0 0 0 0 0 0l0 0c100-41 124-66 125-66 0-1 25-25 66-125l0 0c0 0 0 0 0 0l0 1-1 0c1 0 1-1 1-1 0-2 0-4 0-5z m-81 115c0 0-21 20-94 52 32-73 52-94 52-94 0 0 21-20 94-52-32 73-52 94-52 94z m-21-11c6 0 10-4 10-10 0-6-4-10-10-10-6 0-10 4-10 10 0 6 4 10 10 10z m0 133c-6 0-10 5-10 11l0 10c0 5 4 10 10 10 6 0 10-5 10-10l0-10c0-6-4-11-10-11z m0-286c6 0 10-5 10-11l0-10c0-5-4-10-10-10-6 0-10 5-10 10l0 10c0 6 4 11 10 11z m-154 133l-10 0c-5 0-10 4-10 10 0 6 5 10 10 10l10 0c6 0 11-4 11-10 0-6-5-10-11-10z"/>
<glyph glyph-name="file" unicode="&#57377;" d="M389 20l-266 0c-23 0-41 19-41 41l0 390c0 22 18 41 41 41l194 0c0 0 0 0 0 0l0 0c0 0 0 0 0 0 4 0 7-2 8-5l101-100c2-2 4-5 4-8l0 0c0 0 0 0 0 0l0-318c0-22-18-41-41-41z m-61 437l0-68 67 0z m82-88l-93 0c-5 0-10 4-10 10l0 92-184 0c-11 0-21-9-21-20l0-390c0-11 10-20 21-20l266 0c11 0 21 9 21 20z m-62-267l-184 0c-6 0-10 5-10 11 0 5 4 10 10 10l184 0c6 0 10-5 10-10 0-6-4-11-10-11z m0 82l-184 0c-6 0-10 5-10 11 0 5 4 10 10 10l184 0c6 0 10-5 10-10 0-6-4-11-10-11z m0 82l-184 0c-6 0-10 5-10 10 0 6 4 11 10 11l184 0c6 0 10-5 10-11 0-5-4-10-10-10z"/>
<glyph glyph-name="folder-1" unicode="&#57378;" d="M440 61l-368 0c-29 0-52 23-52 52l0 235c0 6 5 10 11 10l30 0 0 52c0 22 19 41 41 41l103 0c22 0 41-19 41-41l0-11 235 0c6 0 11-4 11-10l0-276c0-29-23-52-52-52z m-399 277l0-225c0-17 14-31 31-31l328 0c-7 8-11 19-11 31l0 225z m430 41l-246 0 0 31c0 11-9 20-20 20l-103 0c-11 0-20-9-20-20l0-52 317 0c3 0 6-1 8-3 1-1 3-4 3-7l0-235c0-17 13-31 30-31 17 0 31 14 31 31z"/>
<glyph glyph-name="handbag" unicode="&#57379;" d="M451 31l-390 0c-22 0-41 18-41 41l41 245c7 36 28 41 50 41l28 0c15 72 62 123 117 123 55 0 102-51 117-123l28 0c22 0 43-5 50-41l41-245c0-23-19-41-41-41z m-195 430c-45 0-82-43-96-103l192 0c-14 60-51 103-96 103z m174-144c-3 14-10 21-24 21l-29 0c1-10 2-20 2-31 0-5-5-10-10-10-6 0-11 5-11 10 0 11 0 21-2 31l-200 0c-2-10-2-20-2-31 0-5-5-10-11-10-5 0-10 5-10 10 0 11 1 21 2 31l-29 0c-14 0-21-7-24-21l-41-245c0-12 9-21 20-21l390 0c11 0 20 9 20 21z"/>
<glyph glyph-name="heart" unicode="&#57380;" d="M264 50l-8-4-8 4c-106 65-217 212-217 294 0 67 55 122 123 122 42 0 80-22 102-55 22 33 60 55 102 55 68 0 123-55 123-122 0-82-111-229-217-294z m94 396c-34 0-66-18-85-46l-17-26-17 26c-19 28-51 46-85 46-57 0-103-46-103-102 0-72 105-213 205-275 100 62 205 203 205 275 0 56-46 102-103 102z"/>
<glyph glyph-name="home" unicode="&#57381;" d="M468 259c-4-4-10-4-14 0l-92 91c0 1-1 2-1 2l-40 39c0 1-1 1-1 2l-64 64-198-198c-4-4-10-4-14 0-4 4-4 10 0 14l204 204c0 0 0 1 1 1 2 2 4 3 7 3 3 0 5-1 7-3 1 0 1-1 1-1l53-53 0 27c0 5 5 10 11 10l41 0c2 0 5-1 7-3 2-2 3-5 3-7l0-89 89-89c4-4 4-10 0-14z m-110 181l-20 0 0-37 20-20z m-245-164c5 0 10-4 10-10l0-194c0-12 9-21 20-21l62 0 0 133c0 6 4 11 10 11l82 0c6 0 10-5 10-11l0-133 62 0c11 0 20 9 20 21l0 194c0 6 5 10 10 10 6 0 11-4 11-10l0-194c0-23-19-41-41-41l-226 0c-22 0-41 18-41 41l0 194c0 6 5 10 11 10z m174-225l0 123-62 0 0-123z"/>
<glyph glyph-name="id-horizontal" unicode="&#57382;" d="M451 67l-390 0c-22 0-41 18-41 41l0 215c0 22 19 41 41 41l154 0 0 40c0 23 18 41 41 41 23 0 41-18 41-41l0-40 154 0c22 0 41-19 41-41l0-215c0-23-19-41-41-41z m-267 76c0 0 0 0 0 0 0 0 0 8 0 8 0 0 12 7 21 15 5 4 8 13 8 13 1 9 2 30 2 38 0 22-10 44-41 44 0 0 0 0 0 0 0 0 0 0 0 0-30 0-41-22-41-44 0-8 1-29 2-38 0 0 3-9 8-13 9-8 21-15 21-15 0 0 0-8 0-8 0 0 0 0 0 0 0 0 0-11 0-15 0-14-14-20-23-20 0 0 0 0 0 0-26-2-33-10-33-10-1-3-4-6-6-11l144 0c-2 5-5 8-6 11 0 0-7 8-33 10 0 0 0 0 0 0-9 0-23 6-23 20 0 4 0 15 0 15z m92 261c0 12-9 21-20 21-11 0-20-9-20-21l0-61c0-11 9-20 20-20 11 0 20 9 20 20z m195-81c0 11-9 20-20 20l-154 0c0-23-18-41-41-41-23 0-41 18-41 41l-154 0c-11 0-20-9-20-20l0-215c0-12 9-21 20-21l19 0c2 6 7 16 12 23 0 0 8 18 51 18 0 1 0 11 0 11-3 2-7 5-11 8-2 2-12 11-14 27-1 5-6 31-6 42 0 33 13 66 61 66 1 0 1 0 2 0 48 0 61-33 61-66 0-11-4-37-5-42-3-16-13-25-15-27-3-3-8-6-11-8 0 0 0-10 0-11 43 0 51-18 51-18 6-7 10-17 12-23l183 0c11 0 20 9 20 21z m-51-93l-123 0c-6 0-10 5-10 11 0 5 4 10 10 10l123 0c5 0 10-5 10-10 0-6-5-11-10-11z m-123-41l20 0c6 0 11-4 11-10 0-5-5-10-11-10l-20 0c-6 0-10 5-10 10 0 6 4 10 10 10z m0-41l61 0c6 0 11-4 11-10 0-5-5-10-11-10l-61 0c-6 0-10 5-10 10 0 6 4 10 10 10z m41 31c0 6 5 10 10 10l41 0c6 0 10-4 10-10 0-5-4-10-10-10l-41 0c-5 0-10 5-10 10z m-92 225l20 0 0-20-20 0z"/>
<glyph glyph-name="id-vertical" unicode="&#57383;" d="M369 20l-226 0c-22 0-41 19-41 41l0 308c0 22 19 41 41 41l72 0 0 41c0 22 18 41 41 41 23 0 41-19 41-41l0-41 72 0c22 0 41-19 41-41l0-308c0-22-19-41-41-41z m-93 431c0 11-9 20-20 20-11 0-20-9-20-20l0-62c0-11 9-20 20-20 11 0 20 9 20 20z m113-82c0 11-9 20-20 20l-72 0c0-23-18-41-41-41-23 0-41 18-41 41l-72 0c-11 0-20-9-20-20l0-246 39 0c2 6 6 16 12 23 0 0 8 18 51 18 0 0 0 11 0 11-3 2-8 5-11 8-2 2-12 11-15 26 0 6-5 32-5 43 0 33 13 65 61 65 1 0 1 0 2 0 48 0 61-32 61-65 0-11-5-37-5-43-3-15-13-24-15-26-3-3-8-6-11-8 0 0 0-11 0-11 43 0 51-18 51-18 6-7 10-17 12-23l39 0z m-123-190c0 0 0 0 0 0 0 0 0 8 0 8 0 0 12 6 21 14 5 5 8 14 8 14 1 9 2 30 2 38 0 21-11 44-41 44 0 0 0 0 0 0 0 0 0 0 0 0-30 0-41-23-41-44 0-8 1-29 2-38 0 0 3-9 8-14 9-8 21-14 21-14 0 0 0-8 0-8 0 0 0 0 0 0 0 0 0-11 0-15 0-14-14-21-23-21 0 0 0 0 0 0-26-1-33-10-33-10-1-2-4-5-6-10l144 0c-2 5-5 8-6 10 0 0-7 9-33 10 0 0 0 0 0 0-9 0-23 7-23 21 0 4 0 15 0 15z m123-77l-266 0 0-41c0-11 9-20 20-20l226 0c11 0 20 9 20 20z m-61-41l-31 0c-6 0-10 5-10 11 0 5 4 10 10 10l31 0c5 0 10-5 10-10 0-6-5-11-10-11z m-82 0l-62 0c-5 0-10 5-10 11 0 5 5 10 10 10l62 0c5 0 10-5 10-10 0-6-5-11-10-11z m0 390l20 0 0-21-20 0z"/>
<glyph glyph-name="location-pin" unicode="&#57384;" d="M256 20c0 0-184 97-184 287 0 102 82 185 184 185 102 0 184-83 184-185 0-190-184-287-184-287z m0 451c-90 0-164-73-164-164 0-151 128-240 164-263 36 22 164 112 164 263 0 91-74 164-164 164z m0-256c-51 0-92 41-92 92 0 51 41 92 92 92 51 0 92-41 92-92 0-51-41-92-92-92z m0 164c-40 0-72-32-72-72 0-39 32-71 72-71 40 0 72 32 72 71 0 40-32 72-72 72z"/>
<glyph glyph-name="mac" unicode="&#57385;" d="M451 143l-142 0c6-33 27-57 45-71l25 0c6 0 10-5 10-11 0-5-4-10-10-10l-246 0c-6 0-10 5-10 10 0 6 4 11 10 11l25 0c18 14 39 38 45 71l-142 0c-22 0-41 19-41 41l0 236c0 22 19 41 41 41l390 0c22 0 41-19 41-41l0-236c0-22-19-41-41-41z m-263-71l136 0c-17 17-31 40-36 71l-64 0c-5-31-19-54-36-71z m283 348c0 11-9 20-20 20l-390 0c-11 0-20-9-20-20l0-195 430 0z m0-215l-430 0 0-21c0-11 9-20 20-20l390 0c11 0 20 9 20 20z m-215-31c-6 0-10 5-10 10 0 6 4 11 10 11 6 0 10-5 10-11 0-5-4-10-10-10z"/>
<glyph glyph-name="music" unicode="&#57386;" d="M410 72l-62 0c-28 0-51 23-51 51l0 20c0 29 23 52 51 52l92 0c0 87 0 256 0 256 0 11-9 20-20 20-1 0-2 0-3 0l-188-52 0 0-1 0c-7-3-13-11-13-20l0-327c0-29-23-52-51-52l-62 0c-28 0-51 23-51 52l0 20c0 28 23 51 51 51l93 0 0 256c0 18 11 33 27 39l0 0 188 52 0 0c3 1 6 2 10 2 22 0 41-19 41-41l0-328c0-28-23-51-51-51z m-215 20l0 31-93 0c-17 0-30-14-30-31l0-20c0-17 13-31 30-31l62 0c17 0 31 14 31 31z m245 51c0 0 0 0 0 0l0 31-92 0c-17 0-31-14-31-31l0-20c0-17 14-31 31-31l62 0c17 0 30 14 30 31z"/>
<glyph glyph-name="music-playlist" unicode="&#57387;" d="M464 455l0 0-71-20 0 0-1 0c-8-3-13-10-13-19l0-328c0-28-23-51-51-51l-62 0c-28 0-51 23-51 51l0 21c0 28 23 51 51 51l92 0 0 256c0 18 12 33 28 38l0 1 71 19c0 0 1 0 1 0l2 1 0 0c0 0 1 0 1 0 5 0 10-5 10-10 0-5-3-8-7-10z m-106-346l0 30-92 0c-17 0-30-13-30-30l0-21c0-17 13-31 30-31l62 0c17 0 30 14 30 31z m-71 92l-236 0c-5 0-10 4-10 10 0 6 5 10 10 10l236 0c5 0 10-4 10-10 0-6-5-10-10-10z m0 82l-236 0c-5 0-10 4-10 10 0 6 5 10 10 10l236 0c5 0 10-4 10-10 0-6-5-10-10-10z m0 82l-236 0c-5 0-10 4-10 10 0 6 5 10 10 10l236 0c5 0 10-4 10-10 0-6-5-10-10-10z m-236-226l92 0c6 0 11-4 11-10 0-6-5-10-11-10l-92 0c-5 0-10 4-10 10 0 6 5 10 10 10z"/>
<glyph glyph-name="news" unicode="&#57388;" d="M430 20l-348 0c-28 0-51 23-51 52l0 409c0 6 4 11 10 11l348 0c4 0 8-3 10-7 0-1 0-2 0-4l0-143 72 0c6 0 10-5 10-10l0-256c0-29-23-52-51-52z m-51 52l0 399-328 0 0-399c0-17 14-31 31-31l307 0c-6 9-10 19-10 31z m82 245l-62 0 0-245c0-17 14-31 31-31 17 0 31 14 31 31z m-379-225c0 6 5 10 10 10l92 0c6 0 11-4 11-10 0-5-5-10-11-10l-92 0c-5 0-10 5-10 10z m48 167c-4-4-11-4-14 0-4 4-4 10 0 14l60 61c0 0 1 1 1 1 2 2 5 3 7 3 3 0 6-1 8-3 0 0 0-1 1-1l43-43 22 22c0 1 0 1 1 2 2 2 5 2 7 2 3 0 6 0 8-2 0-1 0-1 1-2l40-40c3-4 3-10 0-14-4-4-11-4-15 0l-34 34-16-17 3-3c4-4 4-10 0-14-4-4-10-4-14 0l-55 55z m116-54l92 0c6 0 10-5 10-10 0-6-4-11-10-11l-92 0c-6 0-10 5-10 11 0 5 4 10 10 10z m0-51l92 0c6 0 10-5 10-11 0-5-4-10-10-10l-92 0c-6 0-10 5-10 10 0 6 4 11 10 11z m0-52l92 0c6 0 10-4 10-10 0-5-4-10-10-10l-92 0c-6 0-10 5-10 10 0 6 4 10 10 10z m10 241c0-8-7-15-15-15-9 0-16 7-16 15 0 9 7 15 16 15 8 0 15-6 15-15z m31 56l-144 0c-5 0-10 5-10 11 0 5 5 10 10 10l144 0c5 0 10-5 10-10 0-6-5-11-10-11z m-195-245l92 0c6 0 11-5 11-11 0-5-5-10-11-10l-92 0c-5 0-10 5-10 10 0 6 5 11 10 11z m103 41c0-6-5-11-11-11l-92 0c-5 0-10 5-10 11 0 5 5 10 10 10l92 0c6 0 11-5 11-10z"/>
<glyph glyph-name="office" unicode="&#57390;" d="M72 20l0 277c0 23 18 41 41 41l0 41c0 11 9 20 20 20l21 0 0 82c0 6 4 11 10 11 5 0 10-5 10-11l0-82 21 0c11 0 20-9 20-20l0-41c23 0 41-18 41-41l0-82 72 0 0 61 41 0 0 31 61 0 0-31 10 0 0-256z m123 349c0 5-5 10-11 10l-41 0c-5 0-10-5-10-10l0-31 62 0z m41-72c0 11-10 20-21 20l-102 0c-12 0-21-9-21-20l0-256 144 0z m92-102l-72 0 0-154 72 0z m92 61l-72 0 0-215 72 0z m-41-31l10 0c6 0 10-4 10-10l0-10c0-6-4-10-10-10l-10 0c-6 0-10 4-10 10l0 10c0 6 4 10 10 10z m0-61l10 0c6 0 10-5 10-10l0-11c0-5-4-10-10-10l-10 0c-6 0-10 5-10 10l0 11c0 5 4 10 10 10z m0-62l10 0c6 0 10-4 10-10l0-10c0-6-4-10-10-10l-10 0c-6 0-10 4-10 10l0 10c0 6 4 10 10 10z m-92 62l10 0c6 0 10-5 10-10l0-11c0-5-4-10-10-10l-10 0c-6 0-11 5-11 10l0 11c0 5 5 10 11 10z m0-62l10 0c6 0 10-4 10-10l0-10c0-6-4-10-10-10l-10 0c-6 0-11 4-11 10l0 10c0 6 5 10 11 10z m-92-30l-11 0c-5 0-10 4-10 10l0 10c0 6 5 10 10 10l11 0c5 0 10-4 10-10l0-10c0-6-5-10-10-10z m0 61l-11 0c-5 0-10 5-10 10l0 11c0 5 5 10 10 10l11 0c5 0 10-5 10-10l0-11c0-5-5-10-10-10z m0 62l-11 0c-5 0-10 4-10 10l0 10c0 6 5 10 10 10l11 0c5 0 10-4 10-10l0-10c0-6-5-10-10-10z m0 61l-11 0c-5 0-10 5-10 10l0 10c0 6 5 11 10 11l11 0c5 0 10-5 10-11l0-10c0-5-5-10-10-10z m-52-184l-10 0c-6 0-10 4-10 10l0 10c0 6 4 10 10 10l10 0c6 0 11-4 11-10l0-10c0-6-5-10-11-10z m0 61l-10 0c-6 0-10 5-10 10l0 11c0 5 4 10 10 10l10 0c6 0 11-5 11-10l0-11c0-5-5-10-11-10z m0 62l-10 0c-6 0-10 4-10 10l0 10c0 6 4 10 10 10l10 0c6 0 11-4 11-10l0-10c0-6-5-10-11-10z m0 61l-10 0c-6 0-10 5-10 10l0 10c0 6 4 11 10 11l10 0c6 0 11-5 11-11l0-10c0-5-5-10-11-10z"/>
<glyph glyph-name="pen-1" unicode="&#57391;" d="M491 450c0-2 0-5-3-7 0 0 0-1-1-1l-28-27 8-8c0 0 1 0 1-1 2-2 3-4 3-7 0-2-1-5-3-7 0-1-1-1-1-1l-327-327c0 0 0 0 0 0-1-1-2-2-4-3l-100-39c0 0-1-1-2-1l0 0c0 0 0 0 0 0-1 0-2 0-3 0-1 0-2 0-3 0 0 0 0 0-1 0 0 0 0 0 0 0-1 1-1 1-2 2-1 0-1 0-1 0-1 1-1 1-1 2-1 0-1 1-2 2 0 0 0 0 0 0 0 1 0 1 0 1 0 1 0 2 0 3 0 1 0 2 0 3 0 0 0 0 0 0l0 0c0 1 1 1 1 2l40 100c0 2 1 3 3 4 0 0 0 0 0 0l285 286c-2 9-10 15-20 15-6 0-11-3-15-7l0 0-34-34 1 0-70-70c-4-4-11-4-15 0-4 4-4 11 0 15l103 102c0 1 1 1 1 1 7 8 18 13 29 13 15 0 28-8 35-20l26 25c0 1 0 1 1 2 2 2 5 3 7 3 3 0 6-1 8-3 0-1 0-1 1-2l7-7 27 28c0 0 1 1 1 1 2 2 5 3 7 3 3 0 6-1 8-3 0 0 0-1 1-1l28-28c1-1 1-1 1-1 3-2 3-5 3-8z m-441-400l65 26-39 39z m349 396l-313-313 47-47 314 313z m51 21l-21-22 16-16 22 21z"/>
<glyph glyph-name="pencil-1" unicode="&#57392;" d="M470 354c0-1-1-2-2-3l-287-286c0 0 0 0 0 0 0 0 0 0 0 0l0-1c0 0 0 0 0 0-1-1-2-2-4-2l-141-41c-1 0-1 0-1 0l-1 0c0 0 0 0 0 0-1 0-2 0-3 0-1 0-2 0-3 0 0 0 0 0 0 0-1 0-1 0-1 0-1 1-1 1-2 2-1 0-1 0-1 0-1 1-1 1-1 2-1 0-1 1-2 2 0 0 0 0 0 0 0 1 0 1 0 1 0 1 0 2 0 3 0 1 0 2 0 3 0 0 0 0 0 0l0 0c0 1 1 1 1 1l40 142c1 1 1 2 3 3 0 1 0 1 0 1l0 0c0 0 0 0 0 0 0 0 0 0 0 0l282 283c1 0 1 0 2 1l3 3c0 0 0 0 0 0 15 14 35 23 57 23 45 0 82-37 82-82 0-21-8-40-21-55z m-39-11l-37 37-242-242c0 0 0 0 0 0l24-50z m-385-297l29 8-20 20z m15 50l36-35 62 17c0 0-26 55-26 55l-54 26z m77 56c0 0 0 0 0 0l242 242-37 37-255-255z m270 319c-18 0-34-8-45-21l-1 0-5-5 88-88 6 5 0 0c12 12 20 28 20 46 0 35-28 63-63 63z"/>
<glyph glyph-name="phone" unicode="&#57393;" d="M348 20l-184 0c-23 0-41 19-41 41l0 390c0 22 18 41 41 41l184 0c23 0 41-19 41-41l0-390c0-22-18-41-41-41z m21 431c0 11-10 20-21 20l-184 0c-11 0-21-9-21-20l0-41 226 0z m0-62l-226 0 0-266 226 0z m0-287l-226 0 0-41c0-11 10-20 21-20l184 0c11 0 21 9 21 20z m-113-51c-11 0-20 9-20 21 0 11 9 20 20 20 11 0 20-9 20-20 0-12-9-21-20-21z m-72 307l21 0c5 0 10-4 10-10l0-20c0-6-5-11-10-11l-21 0c-5 0-10 5-10 11l0 20c0 6 5 10 10 10z m0-71l21 0c5 0 10-5 10-11l0-20c0-6-5-10-10-10l-21 0c-5 0-10 4-10 10l0 20c0 6 5 11 10 11z m0-72l21 0c5 0 10-5 10-10l0-21c0-5-5-10-10-10l-21 0c-5 0-10 5-10 10l0 21c0 5 5 10 10 10z m62 143l20 0c6 0 10-4 10-10l0-20c0-6-4-11-10-11l-20 0c-6 0-10 5-10 11l0 20c0 6 4 10 10 10z m0-71l20 0c6 0 10-5 10-11l0-20c0-6-4-10-10-10l-20 0c-6 0-10 4-10 10l0 20c0 6 4 11 10 11z m0-72l20 0c6 0 10-5 10-10l0-21c0-5-4-10-10-10l-20 0c-6 0-10 5-10 10l0 21c0 5 4 10 10 10z m61 143l21 0c5 0 10-4 10-10l0-20c0-6-5-11-10-11l-21 0c-5 0-10 5-10 11l0 20c0 6 5 10 10 10z m0-71l21 0c5 0 10-5 10-11l0-20c0-6-5-10-10-10l-21 0c-5 0-10 4-10 10l0 20c0 6 5 11 10 11z m-82 164l62 0c5 0 10-5 10-11 0-5-5-10-10-10l-62 0c-5 0-10 5-10 10 0 6 5 11 10 11z"/>
<glyph glyph-name="photos" unicode="&#57394;" d="M488 278l-95-203c-9-21-34-29-54-20l-56 26c-4 1-7 5-7 10 0 5 5 10 11 10 1 0 3-1 4-2l1 1 56-26c10-5 22-1 27 9l94 203c5 10 1 22-10 27l-70 33c0 0-10 4-10 11 0 6 4 11 10 11 2 0 3-1 5-2l74-34c20-10 29-34 20-54z m-181-145l-246 0c-22 0-41 18-41 41l0 246c0 22 19 41 41 41l246 0c23 0 41-19 41-41l0-246c0-23-18-41-41-41z m-112 103l0 10 11 5c6 4 21 18 21 18l1 2c3 16 7 41 7 50 0 33-15 48-51 48-35 0-51-15-51-48 0-9 5-35 8-49l0-3c4-3 13-12 21-18l12-5 0-10c0 0 0-21 0-21 0-17-11-21-27-21 0 0 0 0 0 0-35-2-40-13-41-14-1-2-3-23-4-26l164 0c-1 3-2 24-3 26-1 0-5 12-41 14-16 0-27 4-27 21 0 0 0 22 0 21z m133 184c0 11-9 20-21 20l-246 0c-11 0-20-9-20-20l0-246c0-11 9-20 20-20l19 0c3 6 5 32 9 37 0 0 6 21 57 23 5 0 7 3 7 8 0 4 0 7 0 7 0 1 0 2 0 3-4 4-5 5-13 12 0 0-17 11-19 23 0 0-8 39-8 54 0 35 16 68 71 68 55 0 72-33 72-68 0-14-8-54-8-54-2-12-19-23-19-23-7-7-10-10-14-12 0-1 0-2 0-3 0 0 0-3 0-7 0-5 2-8 7-8 51-2 58-23 58-23 3-5 5-31 9-37l18 0c12 0 21 9 21 20z"/>
<glyph glyph-name="pictures-day" unicode="&#57395;" d="M451 82l-390 0c-22 0-41 18-41 41l0 266c0 23 19 41 41 41l390 0c22 0 41-18 41-41l0-266c0-23-19-41-41-41z m20 307c0 11-9 21-20 21l-390 0c-11 0-20-10-20-21l0-266c0-11 9-21 20-21l390 0c11 0 20 10 20 21z m-37-243l-65 65-37-37 34-34c4-4 4-10 0-14-4-4-11-4-14 0l-147 147-126-127c-4-4-11-4-15 0-4 4-4 11 0 14l133 133c0 0 0 1 0 1 2 2 5 3 8 3 2 0 5-1 7-3 1 0 1-1 1-1l104-105 43 43c1 1 1 1 1 2 2 2 5 3 8 2 2 1 5 0 7-2 0-1 1-1 1-2l71-71c4-3 4-10 0-14-4-4-11-4-14 0z m-127 161c-22 0-41 19-41 41 0 23 19 41 41 41 23 0 41-18 41-41 0-22-18-41-41-41z m0 62c-11 0-20-10-20-21 0-11 9-20 20-20 12 0 21 9 21 20 0 11-9 21-21 21z"/>
<glyph glyph-name="pictures-night" unicode="&#57396;" d="M451 82l-390 0c-22 0-41 18-41 41l0 266c0 23 19 41 41 41l390 0c22 0 41-18 41-41l0-266c0-23-19-41-41-41z m20 307c0 11-9 21-20 21l-390 0c-11 0-20-10-20-21l0-266c0-11 9-21 20-21l390 0c11 0 20 10 20 21z m-37-243l-65 65-37-37 34-34c4-4 4-10 0-14-4-4-11-4-14 0l-147 147-126-127c-4-4-11-4-15 0-4 4-4 11 0 14l133 133c0 0 0 1 0 1 2 2 5 3 8 3 2 0 5-1 7-3 1 0 1-1 1-1l104-105 43 43c1 1 1 1 1 2 2 2 5 3 8 2 2 1 5 0 7-2 0-1 1-1 1-2l71-71c4-3 4-10 0-14-4-4-11-4-14 0z m-127 161c-22 0-41 19-41 41 0 17 10 31 24 37-2-5-3-10-3-16 0-23 18-41 41-41 6 0 11 1 16 3-6-14-20-24-37-24z"/>
<glyph glyph-name="settings" unicode="&#57397;" d="M369 276l-226 0c-56 0-102 46-102 103 0 56 46 102 102 102l226 0c56 0 102-46 102-102 0-57-46-103-102-103z m0 185l-226 0c-45 0-82-37-82-82 0-45 37-82 82-82l226 0c45 0 82 37 82 82 0 45-37 82-82 82z m-226-144c-34 0-61 28-61 62 0 34 27 61 61 61 34 0 62-27 62-61 0-34-28-62-62-62z m0 103c-22 0-41-19-41-41 0-23 19-41 41-41 23 0 41 18 41 41 0 22-18 41-41 41z m0-184l226 0c56 0 102-46 102-103 0-56-46-102-102-102l-226 0c-56 0-102 46-102 102 0 57 46 103 102 103z m0-185l226 0c45 0 82 37 82 82 0 45-37 82-82 82l-226 0c-45 0-82-37-82-82 0-45 37-82 82-82z m226 144c34 0 61-28 61-62 0-34-27-61-61-61-34 0-62 27-62 61 0 34 28 62 62 62z m0-103c22 0 41 18 41 41 0 23-19 41-41 41-23 0-41-18-41-41 0-23 18-41 41-41z"/>
<glyph glyph-name="share-10" unicode="&#57398;" d="M358 20l-204 0c-29 0-52 23-52 52l0 184c0 28 23 51 52 51l41 0c5 0 10-4 10-10 0-6-5-10-10-10l-41 0c-17 0-31-14-31-31l0-184c0-17 14-31 31-31l204 0c17 0 31 14 31 31l0 184c0 17-14 31-31 31l-41 0c-5 0-10 4-10 10 0 6 5 10 10 10l41 0c29 0 52-23 52-51l0-184c0-29-23-52-52-52z m-27 372l-65 65 0-262c0-6-4-11-10-11-6 0-10 5-10 11l0 262-65-65c-4-4-10-4-14 0-4 4-4 10 0 14l81 81c0 1 0 1 1 2 2 2 4 3 7 2 0 0 0 1 0 1 0 0 0-1 0-1 3 1 5 0 7-2 1-1 1-1 1-2l81-81c4-4 4-10 0-14-4-4-10-4-14 0z"/>
<glyph glyph-name="shop" unicode="&#57399;" d="M451 61l-359 0c-22 0-41 19-41 41l0 196c-17 5-31 21-31 40l0 30c0 0 0 0 0 0l0 1c0 1 1 3 2 4 0 0 0 0 0 0 0 2 1 3 3 4l69 70c2 2 5 4 8 4l1 0c0 0 0 0 0 0l61 0c0 0 0 0 0 0l61 0c1 0 1 0 1 0l61 0c0 0 0 0 0 0l61 0c0 0 0 0 0 0l103 0c22 0 41-19 41-41l0-308c0-22-19-41-41-41z m-287 21l0 92-41 0 0-92z m-123 256c0-11 9-21 20-21 12 0 21 10 21 21l0 20-41 0z m65 92l-51-51 33 0 51 51z m-4-92c0-11 10-21 21-21 11 0 20 10 20 21l0 20-41 0z m66 92l-51-51 33 0 51 51z m-4-92c0-11 9-21 20-21 12 0 21 10 21 21l0 20-41 0z m65 92l-51-51 33 0 51 51z m-4-92c0-11 9-21 21-21 11 0 20 10 20 21l0 20-41 0z m66 92l-52-51 34 0 51 51z m47-14l-51-51 0-27c0-23-19-41-41-41-13 0-23 5-31 14-7-9-18-14-31-14-12 0-23 5-30 14-8-9-19-14-31-14-12 0-23 6-31 14-5-6-12-10-20-13l0-196c0-11 9-20 20-20l10 0 0 102c0 6 5 11 11 11l61 0c6 0 10-5 10-11l0-102 133 0c12 0 21 9 21 20z m133-6c0 11-9 20-20 20l-93 0 0-328c0-7-2-14-5-20l98 0c11 0 20 9 20 20z m-174-236l-82 0c-6 0-10 5-10 10l0 72c0 6 4 10 10 10l82 0c6 0 10-4 10-10l0-72c0-5-4-10-10-10z m-10 72l-62 0 0-51 62 0z"/>
<glyph glyph-name="stopwatch" unicode="&#57400;" d="M393 348c29-32 47-75 47-123 0-102-82-184-184-184-102 0-184 82-184 184 0 92 66 167 153 182l0 44-20 0c-6 0-10 4-10 10 0 5 4 10 10 10l102 0c6 0 10-5 10-10 0-6-4-10-10-10l-20 0 0-44c35-6 67-22 92-45l24 24c4 4 10 4 14 0 4-4 4-10 0-14z m-127 103l-20 0 0-42c3 0 7 1 10 1 3 0 7-1 10-1z m-10-62c-90 0-164-73-164-164 0-90 74-164 164-164 90 0 164 74 164 164 0 91-74 164-164 164z m0-205c-23 0-41 19-41 41 0 8 2 15 6 21l-54 54c-4 4-4 11 0 15 4 3 10 3 14 0l54-55c6 4 13 6 21 6 23 0 41-18 41-41 0-22-18-41-41-41z m0 62c-11 0-20-9-20-21 0-11 9-20 20-20 11 0 20 9 20 20 0 12-9 21-20 21z"/>
<glyph glyph-name="tablet" unicode="&#57401;" d="M399 20l-286 0c-23 0-41 19-41 41l0 390c0 22 18 41 41 41l286 0c23 0 41-19 41-41l0-390c0-22-18-41-41-41z m21 431c0 11-9 20-21 20l-286 0c-12 0-21-9-21-20l0-390c0-11 9-20 21-20l286 0c12 0 21 9 21 20z m-307-349l0 328 286 0 0-328z m20 21l246 0 0 287-246 0z m205 215l-21 0c-5 0-10 5-10 10l0 21c0 5 5 10 10 10l21 0c6 0 10-5 10-10l0-21c0-5-4-10-10-10z m-72-72l-20 0c-6 0-10 5-10 10l0 21c0 6 4 10 10 10l20 0c6 0 10-4 10-10l0-21c0-5-4-10-10-10z m0 72l-20 0c-6 0-10 5-10 10l0 21c0 5 4 10 10 10l20 0c6 0 10-5 10-10l0-21c0-5-4-10-10-10z m-71-72l-21 0c-6 0-10 5-10 10l0 21c0 6 4 10 10 10l21 0c5 0 10-4 10-10l0-21c0-5-5-10-10-10z m0 72l-21 0c-6 0-10 5-10 10l0 21c0 5 4 10 10 10l21 0c5 0 10-5 10-10l0-21c0-5-5-10-10-10z m51 123l20 0 0-21-20 0z m10-369c11 0 20-9 20-20 0-12-9-21-20-21-11 0-20 9-20 21 0 11 9 20 20 20z"/>
</font>
</defs>
</svg>
