<?xml version="1.0" standalone="no"?>
<!DOCTYPE svg PUBLIC "-//W3C//DTD SVG 1.1//EN" "http://www.w3.org/Graphics/SVG/1.1/DTD/svg11.dtd" >
<svg xmlns="http://www.w3.org/2000/svg" xmlns:xlink="http://www.w3.org/1999/xlink" version="1.1">
<metadata>
Created by FontForge 20170910 at Wed Jun  5 17:19:10 2002
 By Jimmy Wärting
 The digitally encoded machine readable outline data for producing the Typefaces 
 provided as part of your laser printer is copyrighted (c) 1989, 1998, 2002 Heidelberger Druckmaschinen AG. 
 All rights reserved. This data is the property of Heidelberger Druckmaschinen AG, 
 and may not be reproduced, used, displayed, modified, disclosed or transferred 
 without the express written approval of Heidelberger Druckmaschinen AG. 
</metadata>
<defs>
<font id="EurostileLTStd-Ex2" horiz-adv-x="272" >
  <font-face 
    font-family="Eurostile LT Std"
    font-weight="400"
    font-stretch="expanded"
    units-per-em="1000"
    panose-1="2 11 6 7 2 2 2 6 2 4"
    ascent="750"
    descent="-250"
    x-height="510"
    cap-height="724"
    bbox="-221 -279 1326 1042"
    underline-thickness="50"
    underline-position="-100"
    stemh="70"
    stemv="86"
    unicode-range="U+0020-FB02"
  />
<missing-glyph horiz-adv-x="500" 
d="M0 0v700h500v-700h-500zM250 395l170 255h-340zM280 350l170 -255v510zM80 50h340l-170 255zM50 605v-510l170 255z" />
    <glyph glyph-name="fi" unicode="fi" horiz-adv-x="791" 
d="M139 0v440h-111v70h111v45c0 121 74 169 168 169h161v-70h-154c-64 0 -89 -36 -89 -81v-63h243v-70h-243v-440h-86zM594 0v510h86v-510h-86zM594 630v94h86v-94h-86z" />
    <glyph glyph-name="fl" unicode="fl" horiz-adv-x="791" 
d="M139 0v440h-111v70h111v45c0 121 74 169 168 169h161v-70h-154c-64 0 -89 -36 -89 -81v-63h243v-70h-243v-440h-86zM594 0v724h86v-724h-86z" />
    <glyph glyph-name=".notdef" horiz-adv-x="500" 
d="M0 0v700h500v-700h-500zM250 395l170 255h-340zM280 350l170 -255v510zM80 50h340l-170 255zM50 605v-510l170 255z" />
    <glyph glyph-name="space" unicode=" " horiz-adv-x="482" 
 />
    <glyph glyph-name="exclam" unicode="!" horiz-adv-x="482" 
d="M185 0v124h112v-124h-112zM201 210v514h80v-514h-80z" />
    <glyph glyph-name="quotedbl" unicode="&#x22;" horiz-adv-x="334" 
d="M202 482v242h98v-242h-98zM34 482v242h98v-242h-98z" />
    <glyph glyph-name="numbersign" unicode="#" horiz-adv-x="964" 
d="M550 292l19 140h-154l-19 -140h154zM319 292l19 140h-92v70h101l30 222h77l-30 -222h154l30 222h77l-30 -222h92v-70h-101l-19 -140h92v-70h-101l-30 -222h-78l30 222h-153l-30 -222h-78l30 222h-92v70h102z" />
    <glyph glyph-name="dollar" unicode="$" horiz-adv-x="964" 
d="M519 72h101c143 0 186 30 186 134c0 91 -37 114 -160 114h-127v-248zM439 408v244h-23c-190 0 -258 -7 -258 -123c0 -92 28 -121 182 -121h99zM439 72v248c-280 1 -373 23 -373 210c0 165 98 202 300 202h73v47h80v-47h57c243 0 304 -62 304 -191v-25h-92
c-1 118 -16 136 -269 136v-244h108c191 0 271 -55 271 -178v-47c0 -178 -146 -191 -291 -191h-88v-50h-80v50h-103c-143 0 -269 25 -269 183v53h92v-49c0 -72 39 -107 162 -107h118z" />
    <glyph glyph-name="percent" unicode="%" horiz-adv-x="1333" 
d="M484 374v234c0 45 -34 54 -68 54h-243c-34 0 -68 -9 -68 -54v-234c0 -44 34 -53 68 -53h243c34 0 68 9 68 53zM507 -8l248 740h66l-247 -740h-67zM1228 115v234c0 45 -34 54 -68 54h-243c-34 0 -68 -9 -68 -54v-234c0 -44 34 -53 68 -53h243c34 0 68 9 68 53zM25 371v241
c0 113 72 120 133 120h273c61 0 133 -7 133 -120v-241c0 -113 -72 -120 -133 -120h-273c-61 0 -133 7 -133 120zM769 112v241c0 113 72 120 133 120h273c61 0 133 -7 133 -120v-241c0 -113 -72 -120 -133 -120h-273c-61 0 -133 7 -133 120z" />
    <glyph glyph-name="ampersand" unicode="&#x26;" horiz-adv-x="1087" 
d="M1053 0l-135 70c-45 -68 -141 -78 -239 -78h-350c-209 0 -262 72 -262 238c0 133 34 198 177 198v2c-66 43 -79 53 -79 156c0 104 67 146 162 146h353c140 0 188 -63 188 -162v-60h-92v54c0 67 -42 88 -95 88h-325c-77 0 -93 -29 -93 -76s1 -69 35 -87l558 -295v162h92
v-153c0 -16 -2 -34 -5 -52l146 -77zM828 113l-514 269h-30c-26 0 -119 -10 -119 -126v-49c0 -83 22 -135 166 -135h335c94 0 151 11 162 41z" />
    <glyph glyph-name="quoteright" unicode="&#x2019;" 
d="M192 724v-124c0 -71 -15 -118 -112 -118v58c35 0 44 12 44 54h-38v130h106z" />
    <glyph glyph-name="parenleft" unicode="(" horiz-adv-x="370" 
d="M61 216v240c0 177 21 276 196 276h66v-80h-62c-75 0 -108 -20 -108 -155v-310c0 -83 24 -115 108 -115h62v-80h-66c-102 0 -196 23 -196 224z" />
    <glyph glyph-name="parenright" unicode=")" horiz-adv-x="370" 
d="M47 -8v80h62c75 0 108 20 108 155v310c0 83 -24 115 -108 115h-62v80h66c102 0 196 -23 196 -224v-240c0 -177 -21 -276 -196 -276h-66z" />
    <glyph glyph-name="asterisk" unicode="*" horiz-adv-x="592" 
d="M351 492v62l-55 32l-54 -32v-62l54 -32zM82 491v64h159l-80 137l56 32l79 -137l79 137l56 -32l-79 -137h158v-64h-158l79 -137l-56 -32l-79 137l-79 -137l-56 32l80 137h-159z" />
    <glyph glyph-name="plus" unicode="+" horiz-adv-x="600" 
d="M265 0v218h-218v70h218v218h70v-218h218v-70h-218v-218h-70z" />
    <glyph glyph-name="comma" unicode="," horiz-adv-x="482" 
d="M185 0v124h112v-127c0 -86 -40 -111 -123 -111v58c40 1 49 7 49 56h-38z" />
    <glyph glyph-name="hyphen" unicode="-" horiz-adv-x="444" 
d="M82 225v80h280v-80h-280z" />
    <glyph glyph-name="period" unicode="." horiz-adv-x="482" 
d="M185 0v124h112v-124h-112z" />
    <glyph glyph-name="slash" unicode="/" horiz-adv-x="370" 
d="M-45 -8l375 740h85l-376 -740h-84z" />
    <glyph glyph-name="zero" unicode="0" horiz-adv-x="964" 
d="M61 234v256c0 157 53 242 249 242h344c196 0 249 -85 249 -242v-256c0 -157 -53 -242 -249 -242h-344c-196 0 -249 85 -249 242zM811 280v164c0 188 -28 208 -220 208h-218c-192 0 -220 -20 -220 -208v-164c0 -188 28 -208 220 -208h218c192 0 220 20 220 208z" />
    <glyph glyph-name="one" unicode="1" horiz-adv-x="964" 
d="M510 0v640l-271 -215l-50 63l298 236h115v-724h-92z" />
    <glyph glyph-name="two" unicode="2" horiz-adv-x="964" 
d="M73 0v128c0 158 77 199 241 211l322 23c141 10 153 46 153 138c0 105 -22 152 -152 152h-304c-104 0 -165 -11 -165 -155v-40h-92v68c0 152 83 207 254 207h306c208 0 245 -94 245 -237c0 -193 -73 -205 -311 -221l-150 -10c-230 -15 -255 -24 -255 -120v-64h726v-80
h-818z" />
    <glyph glyph-name="three" unicode="3" horiz-adv-x="964" 
d="M388 329v80h277c127 0 130 33 130 119c0 111 -24 124 -173 124h-280c-130 0 -174 -25 -174 -92v-52h-92v49c0 116 62 175 204 175h359c198 0 248 -56 248 -186c0 -133 -16 -152 -113 -175v-2c88 -11 125 -36 125 -166c0 -132 -9 -211 -262 -211h-307
c-198 0 -259 51 -259 187v46h92c0 -113 12 -153 154 -153h279c188 0 211 3 211 131c0 118 -32 126 -117 126h-302z" />
    <glyph glyph-name="four" unicode="4" horiz-adv-x="964" 
d="M49 152v114l595 458h134v-492h121v-80h-121v-152h-92v152h-637zM686 232v422l-545 -420v-2h545z" />
    <glyph glyph-name="five" unicode="5" horiz-adv-x="964" 
d="M89 338v386h779v-80h-687v-226h2c32 64 74 75 217 75h241c166 0 253 -45 253 -206v-88c0 -130 -27 -207 -272 -207h-323c-172 0 -224 63 -224 214v15h92c0 -95 12 -149 148 -149h277c195 0 210 34 210 168v33c0 107 -48 140 -195 140h-279c-78 0 -128 -7 -151 -75h-88z
" />
    <glyph glyph-name="six" unicode="6" horiz-adv-x="964" 
d="M413 72h134c182 0 245 0 245 146c0 124 -14 135 -255 135h-140c-199 0 -225 -33 -225 -140c0 -141 72 -141 241 -141zM783 510v44c0 59 -32 98 -162 98h-297c-67 0 -152 -20 -152 -117v-196h2c27 83 102 94 170 94h334c141 0 206 -54 206 -178v-68
c0 -183 -128 -195 -292 -195h-244c-129 0 -268 15 -268 211v339c0 150 132 190 230 190h295c217 0 270 -73 270 -190v-32h-92z" />
    <glyph glyph-name="seven" unicode="7" horiz-adv-x="964" 
d="M248 0l562 644h-739v80h831v-109l-537 -615h-117z" />
    <glyph glyph-name="eight" unicode="8" horiz-adv-x="964" 
d="M388 72h188c205 0 222 19 222 137c0 117 -37 123 -193 123h-246c-156 0 -193 -6 -193 -123c0 -118 17 -137 222 -137zM364 412h236c158 0 189 9 189 124c0 92 -24 116 -166 116h-282c-142 0 -166 -24 -166 -116c0 -115 31 -124 189 -124zM74 161v57c0 115 25 141 138 155
v2c-122 16 -129 96 -129 143v47c0 121 67 167 222 167h354c155 0 222 -46 222 -167v-47c0 -47 -7 -127 -122 -143v-2c72 -12 131 -43 131 -141v-71c0 -125 -67 -169 -211 -169h-394c-144 0 -211 44 -211 169z" />
    <glyph glyph-name="nine" unicode="9" horiz-adv-x="964" 
d="M427 371h140c199 0 225 33 225 140c0 141 -72 141 -241 141h-134c-182 0 -245 0 -245 -146c0 -124 14 -135 255 -135zM89 182v32h92v-44c0 -59 32 -98 162 -98h297c67 0 152 20 152 117v194h-2c-27 -81 -102 -92 -170 -92h-334c-141 0 -206 54 -206 178v68
c0 183 128 195 292 195h244c129 0 268 -15 268 -211v-339c0 -150 -132 -190 -230 -190h-295c-217 0 -270 73 -270 190z" />
    <glyph glyph-name="colon" unicode=":" horiz-adv-x="482" 
d="M185 0v124h112v-124h-112zM185 386v124h112v-124h-112z" />
    <glyph glyph-name="semicolon" unicode=";" horiz-adv-x="482" 
d="M185 0v124h112v-127c0 -86 -40 -111 -123 -111v58c39 -2 49 13 49 56h-38zM185 386v124h112v-124h-112z" />
    <glyph glyph-name="less" unicode="&#x3c;" horiz-adv-x="600" 
d="M47 215v76l506 223v-86l-397 -175l397 -175v-86z" />
    <glyph glyph-name="equal" unicode="=" horiz-adv-x="600" 
d="M47 322v70h506v-70h-506zM47 114v70h506v-70h-506z" />
    <glyph glyph-name="greater" unicode="&#x3e;" horiz-adv-x="600" 
d="M553 291v-76l-506 -223v86l397 175l-397 175v86z" />
    <glyph glyph-name="question" unicode="?" horiz-adv-x="791" 
d="M47 490v80c0 162 111 162 320 162c286 0 365 -10 365 -210c0 -167 -71 -177 -232 -205c-34 -6 -116 -19 -116 -74v-22h-80v19c0 107 34 123 207 155c114 21 135 29 135 138c0 116 -25 129 -262 129c-190 0 -251 0 -251 -107v-65h-86zM288 0v124h112v-124h-112z" />
    <glyph glyph-name="at" unicode="@" horiz-adv-x="800" 
d="M285 319c0 -62 31 -102 80 -102c76 0 133 96 133 177c0 56 -37 95 -81 95c-77 0 -132 -92 -132 -170zM667 156h58c-66 -104 -180 -164 -304 -164c-210 0 -379 138 -379 371c0 207 170 369 374 369c180 0 342 -123 342 -304c0 -190 -165 -281 -242 -281
c-31 0 -58 19 -58 58h-2c-29 -32 -71 -58 -113 -58c-75 0 -138 75 -138 160c0 122 83 252 206 252c47 0 89 -20 115 -70l17 58h77l-69 -259c-4 -14 -7 -31 -7 -45c0 -15 4 -26 18 -26c60 0 126 86 126 195c0 155 -122 240 -273 240c-179 0 -303 -127 -303 -292
c0 -184 134 -310 314 -310c97 0 174 33 241 106z" />
    <glyph glyph-name="A" unicode="A" horiz-adv-x="1012" 
d="M15 0l430 724h122l430 -724h-111l-90 153h-580l-90 -153h-111zM749 233l-243 411l-243 -411h486z" />
    <glyph glyph-name="B" unicode="B" horiz-adv-x="1012" 
d="M836 177v52c0 90 -50 104 -139 104h-503v-253h518c91 0 124 33 124 97zM808 502v66c0 66 -73 76 -103 76h-511v-231h506c53 0 108 17 108 89zM96 0v724h618c150 0 192 -78 192 -161v-62c0 -52 -29 -105 -117 -114v-4c77 -4 145 -33 145 -143v-86
c0 -101 -90 -154 -210 -154h-628z" />
    <glyph glyph-name="C" unicode="C" horiz-adv-x="1012" 
d="M77 263v198c0 183 62 271 258 271h375c178 0 227 -83 227 -180v-62h-86v33c0 123 -76 129 -166 129h-340c-94 0 -170 -28 -170 -154v-272c0 -126 76 -154 170 -154h343c132 0 170 28 170 126v45h92v-49c0 -131 -42 -202 -245 -202h-370c-196 0 -258 88 -258 271z" />
    <glyph glyph-name="D" unicode="D" horiz-adv-x="1061" 
d="M886 323v74c0 209 -65 247 -185 247h-513v-564h497c119 0 201 26 201 243zM90 0v724h585c243 0 309 -76 309 -362c0 -266 -66 -362 -312 -362h-582z" />
    <glyph glyph-name="E" unicode="E" horiz-adv-x="864" 
d="M96 0v724h711v-80h-613v-231h589v-80h-589v-253h617v-80h-715z" />
    <glyph glyph-name="F" unicode="F" horiz-adv-x="839" 
d="M96 0v724h690v-80h-592v-231h569v-80h-569v-333h-98z" />
    <glyph glyph-name="G" unicode="G" horiz-adv-x="1061" 
d="M984 359v-100c0 -197 -64 -267 -245 -267h-404c-196 0 -258 88 -258 271v198c0 183 62 271 258 271h370c130 0 269 -32 269 -199v-26h-92c0 135 -41 145 -283 145h-254c-94 0 -170 -28 -170 -154v-272c0 -126 76 -154 170 -154h383c98 0 158 34 158 134v73h-371v80h469z
" />
    <glyph glyph-name="H" unicode="H" horiz-adv-x="1042" 
d="M96 0v724h98v-311h654v311h98v-724h-98v333h-654v-333h-98z" />
    <glyph glyph-name="I" unicode="I" horiz-adv-x="296" 
d="M99 0v724h98v-724h-98z" />
    <glyph glyph-name="J" unicode="J" horiz-adv-x="791" 
d="M26 187v80h92v-57c0 -114 28 -138 154 -138h171c113 0 160 19 160 112v540h98v-521c0 -167 -72 -211 -250 -211h-186c-172 0 -239 59 -239 195z" />
    <glyph glyph-name="K" unicode="K" horiz-adv-x="987" 
d="M96 0v724h98v-307h123l454 307h160l2 -2l-519 -346l566 -374l-2 -2h-172l-497 337h-115v-337h-98z" />
    <glyph glyph-name="L" unicode="L" horiz-adv-x="765" 
d="M96 0v724h98v-644h562v-80h-660z" />
    <glyph glyph-name="M" unicode="M" horiz-adv-x="1332" 
d="M90 0v724h153l423 -607l423 607h153v-724h-98v636h-2l-441 -636h-70l-441 636h-2v-636h-98z" />
    <glyph glyph-name="N" unicode="N" horiz-adv-x="1087" 
d="M90 0v724h146l663 -636v636h98v-724h-146l-663 636v-636h-98z" />
    <glyph glyph-name="O" unicode="O" horiz-adv-x="1087" 
d="M912 226v272c0 126 -76 154 -170 154h-397c-94 0 -170 -28 -170 -154v-272c0 -126 76 -154 170 -154h397c94 0 170 28 170 154zM77 263v198c0 183 62 271 258 271h417c196 0 258 -88 258 -271v-198c0 -183 -62 -271 -258 -271h-417c-196 0 -258 88 -258 271z" />
    <glyph glyph-name="P" unicode="P" horiz-adv-x="939" 
d="M96 0v724h596c132 0 207 -28 207 -197c0 -161 -13 -242 -226 -242h-479v-285h-98zM801 468v69c0 86 -47 107 -132 107h-475v-279h483c78 0 124 28 124 103z" />
    <glyph glyph-name="Q" unicode="Q" horiz-adv-x="1087" 
d="M1027 31l-64 40c-38 -53 -104 -79 -211 -79h-417c-196 0 -258 88 -258 271v198c0 183 62 271 258 271h417c196 0 258 -88 258 -271v-198c0 -45 -4 -84 -12 -117l73 -46zM912 201v297c0 126 -76 154 -170 154h-397c-94 0 -170 -28 -170 -154v-272c0 -126 76 -154 170 -154
h397c75 0 112 11 140 51l-290 184l44 69z" />
    <glyph glyph-name="R" unicode="R" horiz-adv-x="987" 
d="M90 0v724h579c209 0 242 -69 242 -205v-59c0 -102 -58 -130 -133 -137v-2c100 -18 124 -70 124 -136v-185h-92v159c0 113 -55 127 -144 127h-478v-286h-98zM188 366h470c109 0 155 29 155 105v66c0 81 -35 107 -179 107h-446v-278z" />
    <glyph glyph-name="S" unicode="S" horiz-adv-x="987" 
d="M78 175v53h92v-51c0 -71 38 -105 160 -105h304c142 0 184 30 184 134c0 91 -36 114 -158 114h-186c-299 0 -397 18 -397 210c0 165 98 202 300 202h211c243 0 304 -62 304 -191v-25h-92c-2 115 -14 136 -271 136h-104c-189 0 -256 -10 -256 -129c0 -86 27 -115 180 -115
h290c191 0 271 -55 271 -178v-47c0 -178 -146 -191 -291 -191h-272c-143 0 -269 25 -269 183z" />
    <glyph glyph-name="T" unicode="T" horiz-adv-x="864" 
d="M383 0v644h-366v80h830v-80h-366v-644h-98z" />
    <glyph glyph-name="U" unicode="U" horiz-adv-x="1042" 
d="M96 182v542h98v-541c0 -70 24 -111 157 -111h340c133 0 157 41 157 111v541h98v-542c0 -147 -74 -190 -258 -190h-334c-184 0 -258 43 -258 190z" />
    <glyph glyph-name="V" unicode="V" horiz-adv-x="964" 
d="M422 0l-401 724h110l351 -636l351 636h110l-401 -724h-120z" />
    <glyph glyph-name="W" unicode="W" horiz-adv-x="1332" 
d="M294 0l-288 724h96l253 -633l248 633h126l245 -636l256 636h96l-288 -724h-126l-246 636l-246 -636h-126z" />
    <glyph glyph-name="X" unicode="X" horiz-adv-x="1012" 
d="M21 0l399 383l-354 341h139l301 -291l305 291h135l-354 -341l399 -383h-138l-347 336l-342 -336h-143z" />
    <glyph glyph-name="Y" unicode="Y" horiz-adv-x="964" 
d="M433 0v306l-415 418h132l332 -336l332 336h132l-415 -418v-306h-98z" />
    <glyph glyph-name="Z" unicode="Z" horiz-adv-x="913" 
d="M42 0v76l661 568h-640v80h794v-70l-664 -574h678v-80h-829z" />
    <glyph glyph-name="bracketleft" unicode="[" horiz-adv-x="370" 
d="M73 0v724h256v-80h-170v-564h170v-80h-256z" />
    <glyph glyph-name="backslash" unicode="\" horiz-adv-x="370" 
d="M331 -8l-376 740h85l375 -740h-84z" />
    <glyph glyph-name="bracketright" unicode="]" horiz-adv-x="370" 
d="M41 0v80h170v564h-170v80h256v-724h-256z" />
    <glyph glyph-name="asciicircum" unicode="^" horiz-adv-x="600" 
d="M60 320l199 404h82l199 -404h-80l-160 324l-160 -324h-80z" />
    <glyph glyph-name="underscore" unicode="_" horiz-adv-x="500" 
d="M0 -125v50h500v-50h-500z" />
    <glyph glyph-name="quoteleft" unicode="&#x2018;" 
d="M80 482v124c0 71 15 118 112 118v-58c-35 0 -44 -12 -44 -54h38v-130h-106z" />
    <glyph glyph-name="a" unicode="a" horiz-adv-x="765" 
d="M608 0v51h-2c-23 -46 -50 -59 -182 -59h-206c-130 0 -164 57 -164 153v34c0 116 82 130 232 130h138c112 0 152 -12 182 -61h2v96c0 92 -58 104 -190 104h-126c-108 0 -129 -26 -129 -68v-18h-86v25c0 93 59 131 213 131h136c160 0 268 -24 268 -176v-342h-86zM608 137
v23c0 70 -62 79 -194 79h-132c-111 0 -142 -16 -142 -80v-16c0 -57 20 -81 138 -81h114c156 0 216 11 216 75z" />
    <glyph glyph-name="b" unicode="b" horiz-adv-x="791" 
d="M647 208v100c0 118 -59 140 -177 140h-116c-116 0 -187 -20 -187 -142v-97c0 -93 41 -147 169 -147h140c140 0 171 47 171 146zM81 0v724h86v-282h2c18 53 65 76 163 76h131c207 0 270 -58 270 -221v-90c0 -176 -109 -215 -265 -215h-120c-90 0 -160 27 -185 89h-2v-81
h-80z" />
    <glyph glyph-name="c" unicode="c" horiz-adv-x="741" 
d="M58 198v114c0 185 130 206 256 206h144c160 0 223 -65 223 -173v-14h-80v12c0 85 -56 105 -142 105h-158c-81 0 -157 -12 -157 -139v-107c0 -114 70 -140 174 -140h145c80 0 147 24 147 107v17h80v-15c0 -129 -64 -179 -224 -179h-194c-77 0 -214 21 -214 206z" />
    <glyph glyph-name="d" unicode="d" horiz-adv-x="791" 
d="M144 308v-100c0 -99 31 -146 171 -146h140c128 0 169 54 169 147v97c0 122 -71 142 -187 142h-116c-118 0 -177 -22 -177 -140zM710 724v-724h-80v81h-2c-25 -62 -95 -89 -185 -89h-120c-156 0 -265 39 -265 215v90c0 163 63 221 270 221h131c98 0 145 -23 163 -76h2v282
h86z" />
    <glyph glyph-name="e" unicode="e" horiz-adv-x="765" 
d="M625 310v34c0 52 -39 104 -179 104h-126c-136 0 -168 -22 -176 -138h481zM58 201v111c0 185 128 206 250 206h138c154 0 265 -39 265 -221v-57h-567v-32c0 -116 56 -146 206 -146h118c108 0 152 14 157 92h86v-10c0 -117 -97 -152 -257 -152h-156
c-112 0 -240 21 -240 209z" />
    <glyph glyph-name="f" unicode="f" horiz-adv-x="494" 
d="M139 0v440h-111v70h111v45c0 121 74 169 168 169h161v-70h-154c-64 0 -89 -36 -89 -81v-63h243v-70h-243v-440h-86z" />
    <glyph glyph-name="g" unicode="g" horiz-adv-x="791" 
d="M624 230v62c2 95 -32 156 -153 156h-175c-88 0 -151 -24 -152 -108v-94c-1 -117 41 -153 146 -153h166c123 0 168 49 168 137zM710 510v-509c0 -154 -135 -185 -242 -185h-194c-158 0 -200 87 -200 152v17h80v-14c0 -66 68 -85 148 -85h84c170 0 238 2 238 140v76h-2
c-18 -48 -53 -79 -173 -79h-177c-143 0 -214 73 -214 204v85c0 185 134 206 230 206h183c65 0 130 -16 157 -99h2v91h80z" />
    <glyph glyph-name="h" unicode="h" horiz-adv-x="791" 
d="M81 0v724h86v-302h2c32 79 99 96 206 96h123c161 0 212 -81 212 -173v-345h-86v324c0 75 -21 124 -188 124h-22c-201 0 -247 -38 -247 -158v-290h-86z" />
    <glyph glyph-name="i" unicode="i" 
d="M93 0v510h86v-510h-86zM93 630v94h86v-94h-86z" />
    <glyph glyph-name="j" unicode="j" 
d="M9 -178v70c67 0 84 11 84 62v556h86v-569c0 -72 -48 -119 -136 -119h-34zM93 630v94h86v-94h-86z" />
    <glyph glyph-name="k" unicode="k" horiz-adv-x="716" 
d="M81 0v724h86v-407h42l297 193h134l2 -2l-352 -226l419 -280l-2 -2h-134l-369 247h-37v-247h-86z" />
    <glyph glyph-name="l" unicode="l" 
d="M93 0v724h86v-724h-86z" />
    <glyph glyph-name="m" unicode="m" horiz-adv-x="1235" 
d="M81 0v510h80v-60h2c36 53 85 68 171 68h139c78 0 138 -31 165 -94c32 69 101 94 189 94h104c138 0 223 -60 223 -176v-342h-86v332c0 59 -26 116 -163 116h-61c-155 0 -176 -64 -176 -146v-302h-86v309c0 99 -31 139 -168 139h-86c-110 0 -161 -46 -161 -128v-320h-86z
" />
    <glyph glyph-name="n" unicode="n" horiz-adv-x="791" 
d="M81 0v510h80v-88h2c32 79 99 96 206 96h129c161 0 212 -81 212 -173v-345h-86v324c0 75 -21 124 -188 124h-22c-201 0 -247 -38 -247 -158v-290h-86z" />
    <glyph glyph-name="o" unicode="o" horiz-adv-x="815" 
d="M64 199v112c0 168 119 207 282 207h123c163 0 282 -39 282 -207v-112c0 -168 -119 -207 -282 -207h-123c-163 0 -282 39 -282 207zM665 204v102c0 119 -70 142 -170 142h-175c-100 0 -170 -23 -170 -142v-102c0 -119 70 -142 170 -142h175c100 0 170 23 170 142z" />
    <glyph glyph-name="p" unicode="p" horiz-adv-x="791" 
d="M647 202v100c0 99 -32 146 -153 146h-171c-113 0 -156 -59 -156 -147v-97c0 -122 76 -142 167 -142h153c100 0 160 22 160 140zM81 -178v688h80v-81h2c25 62 95 89 171 89h163c122 0 236 -39 236 -215v-90c0 -165 -73 -221 -250 -221h-164c-91 0 -132 23 -150 76h-2v-246
h-86z" />
    <glyph glyph-name="q" unicode="q" horiz-adv-x="791" 
d="M624 204v97c0 88 -43 147 -156 147h-171c-121 0 -153 -47 -153 -146v-100c0 -118 60 -140 160 -140h153c91 0 167 20 167 142zM624 -178v246h-2c-18 -53 -59 -76 -150 -76h-164c-177 0 -250 56 -250 221v90c0 176 114 215 236 215h163c76 0 146 -27 171 -89h2v81h80v-688
h-86z" />
    <glyph glyph-name="r" unicode="r" horiz-adv-x="642" 
d="M88 0v510h80v-74h2c32 66 97 82 156 82h81c161 0 214 -52 214 -177v-61h-80v22c0 126 -26 146 -179 146h-53c-91 0 -135 -58 -135 -124v-324h-86z" />
    <glyph glyph-name="s" unicode="s" horiz-adv-x="765" 
d="M62 145v31h80v-25c0 -63 33 -89 121 -89h184c129 0 170 5 170 81v4c0 49 -14 76 -117 76h-265c-121 0 -166 39 -166 136v30c0 83 47 129 259 129h132c194 0 221 -56 221 -128v-27h-80v5c0 78 -52 80 -146 80h-150c-123 0 -150 -12 -150 -70v-19c0 -42 14 -66 104 -66h227
c129 0 217 -13 217 -151v-2c0 -143 -132 -148 -237 -148h-158c-127 0 -246 0 -246 153z" />
    <glyph glyph-name="t" unicode="t" horiz-adv-x="593" 
d="M127 153v287h-112v70h112v121h86v-121h341v-70h-341v-254c0 -95 33 -124 127 -124h27c114 0 132 24 132 131v38h70v-56c0 -102 -10 -183 -196 -183h-47c-161 0 -199 78 -199 161z" />
    <glyph glyph-name="u" unicode="u" horiz-adv-x="791" 
d="M630 0v88h-2c-32 -79 -99 -96 -206 -96h-129c-161 0 -212 81 -212 173v345h86v-324c0 -75 21 -124 188 -124h22c201 0 247 38 247 158v290h86v-510h-80z" />
    <glyph glyph-name="v" unicode="v" horiz-adv-x="690" 
d="M294 0l-288 510h91l248 -440l248 440h91l-288 -510h-102z" />
    <glyph glyph-name="w" unicode="w" horiz-adv-x="1042" 
d="M239 0l-232 510h91l199 -440l162 440h124l162 -440l199 440h91l-232 -510h-119l-163 440l-163 -440h-119z" />
    <glyph glyph-name="x" unicode="x" horiz-adv-x="690" 
d="M5 0l279 272l-242 238h118l185 -187l185 187h118l-242 -238l279 -272h-123l-217 221l-217 -221h-123z" />
    <glyph glyph-name="y" unicode="y" horiz-adv-x="667" 
d="M109 -190v70c132 0 160 9 205 112h-21l-289 518h97l247 -451l222 451h93l-288 -573c-53 -105 -89 -125 -266 -127z" />
    <glyph glyph-name="z" unicode="z" horiz-adv-x="667" 
d="M45 0v70l453 368v2h-438v70h556v-70l-453 -368v-2h459v-70h-577z" />
    <glyph glyph-name="braceleft" unicode="{" horiz-adv-x="370" 
d="M46 327v70c41 1 87 40 87 106v89c0 87 65 132 113 132h78v-70h-55c-41 0 -50 -41 -50 -80v-85c0 -92 -66 -121 -93 -126v-2c27 -5 93 -29 93 -131v-80c0 -39 9 -80 50 -80h55v-70h-78c-48 0 -113 45 -113 132v84c0 71 -46 110 -87 111z" />
    <glyph glyph-name="bar" unicode="|" horiz-adv-x="222" 
d="M71 750h80v-1000h-80v1000z" />
    <glyph glyph-name="braceright" unicode="}" horiz-adv-x="370" 
d="M46 0v70h55c41 0 50 41 50 80v85c0 92 66 121 93 126v2c-27 5 -93 29 -93 131v80c0 39 -9 80 -50 80h-55v70h78c48 0 113 -45 113 -132v-84c0 -71 46 -110 87 -111v-70c-41 -1 -87 -40 -87 -106v-89c0 -87 -65 -132 -113 -132h-78z" />
    <glyph glyph-name="asciitilde" unicode="~" horiz-adv-x="600" 
d="M105 179l-36 59c22 42 58 84 125 84c38 0 79 -15 116 -32c38 -18 73 -35 97 -35c40 0 65 38 88 73l36 -59c-22 -42 -58 -84 -125 -84c-38 0 -79 15 -116 32c-38 18 -73 35 -97 35c-40 0 -65 -38 -88 -73z" />
    <glyph glyph-name="exclamdown" unicode="&#xa1;" horiz-adv-x="482" 
d="M185 386v124h112v-124h-112zM201 -214v514h80v-514h-80z" />
    <glyph glyph-name="cent" unicode="&#xa2;" horiz-adv-x="964" 
d="M398 63l111 385h-100c-81 0 -157 -12 -157 -139v-107c0 -103 58 -134 146 -139zM341 -133l36 125c-78 1 -211 24 -211 206v114c0 185 134 206 230 206h133l36 125h76l-37 -126c123 -5 185 -69 185 -172v-14h-80v12c0 78 -48 102 -125 104l-111 -385h98
c84 0 147 30 147 109v15h80v-15c0 -129 -64 -179 -224 -179h-121l-36 -125h-76z" />
    <glyph glyph-name="sterling" unicode="&#xa3;" horiz-adv-x="964" 
d="M64 0v80c100 2 124 42 124 122v98h-124v70h124v192c0 138 86 170 210 170h230c185 0 253 -31 253 -222h-86c0 108 -12 142 -161 142h-217c-96 0 -137 -19 -137 -98v-184h371v-70h-371v-72c0 -119 -13 -124 -52 -146v-2h672v-80h-836z" />
    <glyph glyph-name="fraction" unicode="&#x2044;" horiz-adv-x="222" 
d="M-221 -8l581 740h83l-581 -740h-83z" />
    <glyph glyph-name="yen" unicode="&#xa5;" horiz-adv-x="964" 
d="M439 0v144h-224v64h224v92h-224v64h166l-321 360h106l316 -356l316 356h106l-321 -360h166v-64h-224v-92h224v-64h-224v-144h-86z" />
    <glyph glyph-name="florin" unicode="&#x192;" horiz-adv-x="964" 
d="M49 -172v74c27 -5 55 -10 82 -10c179 0 221 65 255 198l59 233h-183v70h199l30 122c42 172 144 217 270 217c86 0 98 -3 148 -10v-71c-50 6 -89 11 -135 11c-107 0 -164 -20 -207 -196l-18 -73h201v-70h-217l-64 -262c-35 -143 -85 -239 -338 -239c-21 0 -52 -1 -82 6z
" />
    <glyph glyph-name="section" unicode="&#xa7;" horiz-adv-x="815" 
d="M132 119v29h80c0 -85 5 -92 139 -92h168c70 0 84 14 84 74c0 50 -15 58 -61 67l-340 63c-57 11 -112 46 -112 124c0 51 20 94 93 112c-34 23 -52 64 -52 107c0 69 27 129 139 129h244c122 0 143 -46 143 -110v-27h-70v17c0 57 -41 62 -76 62h-200c-72 0 -100 -2 -100 -69
c0 -36 28 -46 72 -55l317 -62c79 -15 125 -45 125 -122c0 -62 -32 -102 -98 -121c56 -30 56 -61 56 -113c0 -134 -63 -140 -165 -140h-247c-97 0 -139 47 -139 127zM593 413l-330 64c-42 8 -93 -29 -93 -78s50 -61 81 -67l278 -56c21 -4 40 -7 43 -7c34 0 83 21 83 81
c0 39 -31 57 -62 63z" />
    <glyph glyph-name="currency" unicode="&#xa4;" horiz-adv-x="964" 
d="M227 158l57 57c-32 41 -50 92 -50 147s18 105 49 148l-56 56l51 51l56 -56c42 31 93 49 148 49s105 -18 147 -50l57 57l51 -51l-57 -57c32 -41 50 -92 50 -147s-18 -106 -50 -147l57 -57l-51 -51l-57 57c-41 -32 -92 -50 -147 -50c-56 0 -108 19 -147 50l-57 -57z
M314 362c0 -99 69 -174 168 -174s168 75 168 174s-69 174 -168 174s-168 -75 -168 -174z" />
    <glyph glyph-name="quotesingle" unicode="'" 
d="M87 482v242h98v-242h-98z" />
    <glyph glyph-name="quotedblleft" unicode="&#x201c;" horiz-adv-x="494" 
d="M89 482v124c0 71 15 118 112 118v-58c-35 0 -44 -12 -44 -54h38v-130h-106zM293 482v124c0 71 15 118 112 118v-58c-35 0 -44 -12 -44 -54h38v-130h-106z" />
    <glyph glyph-name="guillemotleft" unicode="&#xab;" horiz-adv-x="519" 
d="M356 111l-109 154l109 154h83l-109 -154l109 -154h-83zM189 111l-109 154l109 154h83l-109 -154l109 -154h-83z" />
    <glyph glyph-name="guilsinglleft" unicode="&#x2039;" horiz-adv-x="296" 
d="M161 111l-109 154l109 154h83l-109 -154l109 -154h-83z" />
    <glyph glyph-name="guilsinglright" unicode="&#x203a;" horiz-adv-x="296" 
d="M52 111l109 154l-109 154h83l109 -154l-109 -154h-83z" />
    <glyph glyph-name="endash" unicode="&#x2013;" horiz-adv-x="500" 
d="M0 225v80h500v-80h-500z" />
    <glyph glyph-name="dagger" unicode="&#x2020;" horiz-adv-x="668" 
d="M294 0v466h-218v70h218v188h80v-188h218v-70h-218v-466h-80z" />
    <glyph glyph-name="daggerdbl" unicode="&#x2021;" horiz-adv-x="668" 
d="M294 233v258h-206v70h206v163h80v-163h206v-70h-206v-258h206v-70h-206v-163h-80v163h-206v70h206z" />
    <glyph glyph-name="periodcentered" unicode="&#xb7;" horiz-adv-x="482" 
d="M241 375c40 0 74 -34 74 -74s-34 -74 -74 -74s-74 34 -74 74c0 39 34 74 74 74z" />
    <glyph glyph-name="paragraph" unicode="&#xb6;" horiz-adv-x="600" 
d="M410 0v660h-104v-660h-80v410c-108 0 -176 61 -176 155c0 118 78 159 192 159h248v-724h-80z" />
    <glyph glyph-name="bullet" unicode="&#x2022;" horiz-adv-x="500" 
d="M69 362c0 100 81 181 181 181s181 -81 181 -181s-81 -181 -181 -181s-181 81 -181 181z" />
    <glyph glyph-name="quotesinglbase" unicode="&#x201a;" 
d="M192 130v-124c0 -71 -15 -118 -112 -118v58c35 0 44 12 44 54h-38v130h106z" />
    <glyph glyph-name="quotedblbase" unicode="&#x201e;" horiz-adv-x="494" 
d="M405 130v-124c0 -71 -15 -118 -112 -118v58c35 0 44 12 44 54h-38v130h106zM201 130v-124c0 -71 -15 -118 -112 -118v58c35 0 44 12 44 54h-38v130h106z" />
    <glyph glyph-name="quotedblright" unicode="&#x201d;" horiz-adv-x="494" 
d="M405 724v-124c0 -71 -15 -118 -112 -118v58c35 0 44 12 44 54h-38v130h106zM201 724v-124c0 -71 -15 -118 -112 -118v58c35 0 44 12 44 54h-38v130h106z" />
    <glyph glyph-name="guillemotright" unicode="&#xbb;" horiz-adv-x="519" 
d="M80 111l109 154l-109 154h83l109 -154l-109 -154h-83zM247 111l109 154l-109 154h83l109 -154l-109 -154h-83z" />
    <glyph glyph-name="ellipsis" unicode="&#x2026;" horiz-adv-x="1000" 
d="M111 0v124h112v-124h-112zM444 0v124h112v-124h-112zM777 0v124h112v-124h-112z" />
    <glyph glyph-name="perthousand" unicode="&#x2030;" horiz-adv-x="1333" 
d="M315 497v92c0 76 -13 79 -120 79s-120 -3 -120 -79v-92c0 -76 13 -79 120 -79s120 3 120 79zM291 -8l245 740h65l-245 -740h-65zM820 135v92c0 76 -13 79 -120 79s-120 -3 -120 -79v-92c0 -76 13 -79 120 -79s120 3 120 79zM195 354c-160 0 -184 3 -184 189
s23 189 184 189c160 0 184 -3 184 -189s-23 -189 -184 -189zM700 -8c-160 0 -184 3 -184 189s23 189 184 189c160 0 184 -3 184 -189h1c-1 -186 -24 -189 -185 -189zM1137 -8c-160 0 -184 3 -184 189s23 189 184 189c160 0 184 -3 184 -189h1c-1 -186 -24 -189 -185 -189z
M1257 135v92c0 76 -13 79 -120 79s-120 -3 -120 -79v-92c0 -76 13 -79 120 -79s120 3 120 79z" />
    <glyph glyph-name="questiondown" unicode="&#xbf;" horiz-adv-x="791" 
d="M407 267v22h80v-19c0 -107 -34 -122 -207 -155c-114 -21 -135 -29 -135 -138c0 -116 25 -129 262 -129c190 0 251 0 251 107v65h86v-80c0 -162 -111 -162 -320 -162c-286 0 -365 10 -365 210c0 167 71 179 232 205c34 6 116 19 116 74zM391 386v124h112v-124h-112z" />
    <glyph glyph-name="grave" unicode="`" 
d="M153 588l-184 185h103l148 -185h-67z" />
    <glyph glyph-name="acute" unicode="&#xb4;" 
d="M52 588l148 185h103l-184 -185h-67z" />
    <glyph glyph-name="circumflex" unicode="&#x2c6;" 
d="M-56 588l151 185h82l151 -185h-80l-113 139l-113 -139h-78z" />
    <glyph glyph-name="tilde" unicode="&#x2dc;" 
d="M294 737h50c-3 -63 -55 -130 -117 -130c-33 0 -68 15 -100 31s-64 30 -91 30c-36 0 -51 -35 -58 -66h-50c3 63 55 130 117 130c34 0 68 -15 100 -30c33 -16 64 -31 91 -31c36 0 51 35 58 66z" />
    <glyph glyph-name="macron" unicode="&#xaf;" 
d="M-61 637v64h394v-64h-394z" />
    <glyph glyph-name="breve" unicode="&#x2d8;" 
d="M-56 764h52c10 -74 68 -106 141 -106c75 0 124 33 142 106h49c-12 -114 -90 -170 -200 -170c-106 0 -174 65 -184 170z" />
    <glyph glyph-name="dotaccent" unicode="&#x2d9;" 
d="M93 602v112h86v-112h-86z" />
    <glyph glyph-name="dieresis" unicode="&#xa8;" 
d="M-12 602v112h86v-112h-86zM198 602v112h86v-112h-86z" />
    <glyph glyph-name="ring" unicode="&#x2da;" 
d="M59 723c0 -43 34 -77 77 -77s77 34 77 77s-34 77 -77 77s-77 -34 -77 -77zM1 723c0 75 60 135 135 135s135 -60 135 -135s-60 -135 -135 -135s-135 60 -135 135z" />
    <glyph glyph-name="cedilla" unicode="&#xb8;" 
d="M12 -252l19 38c26 -12 57 -19 84 -19c37 0 86 13 86 59c0 38 -34 54 -66 54c-18 0 -35 -6 -55 -10l-21 18l83 112h51l-65 -80l2 -2c12 4 28 8 43 8c60 0 108 -32 108 -96c0 -81 -81 -109 -148 -109c-42 0 -83 11 -121 27z" />
    <glyph glyph-name="hungarumlaut" unicode="&#x2dd;" 
d="M164 588l148 185h103l-184 -185h-67zM-60 588l148 185h103l-184 -185h-67z" />
    <glyph glyph-name="ogonek" unicode="&#x2db;" 
d="M142 0h51c-47 -48 -77 -88 -77 -123c0 -24 18 -45 53 -45c14 0 35 4 45 8l12 -34c-19 -8 -54 -14 -85 -14c-64 0 -95 28 -95 71c0 46 46 109 96 137z" />
    <glyph glyph-name="caron" unicode="&#x2c7;" 
d="M91 588l-147 185h81l110 -139l112 139h81l-149 -185h-88z" />
    <glyph glyph-name="emdash" unicode="&#x2014;" horiz-adv-x="1000" 
d="M0 225v80h1000v-80h-1000z" />
    <glyph glyph-name="AE" unicode="&#xc6;" horiz-adv-x="1259" 
d="M605 249v395h-76l-245 -395h321zM20 0l453 724h710v-80h-480v-231h458v-80h-458v-253h489v-80h-587v169h-366l-109 -169h-110z" />
    <glyph glyph-name="ordfeminine" unicode="&#xaa;" horiz-adv-x="497" 
d="M402 421v31h-2c-7 -14 -15 -23 -32 -28c-17 -6 -42 -8 -85 -8h-137c-84 0 -106 34 -106 92v20c0 61 49 77 108 77h136c62 0 88 -8 107 -35h2v47c0 53 -38 63 -100 63h-111c-61 0 -68 -24 -68 -42h-58v15c0 42 21 79 125 79h114c55 0 162 0 162 -105v-206h-55zM287 559
h-115c-54 0 -74 -14 -74 -49c0 -28 12 -48 67 -48h113c70 0 115 6 115 47c0 45 -44 50 -106 50z" />
    <glyph glyph-name="Lslash" unicode="&#x141;" horiz-adv-x="765" 
d="M96 0v276l-52 -35v80l52 35v368h98v-313l250 169v-80l-250 -169v-251h562v-80h-660z" />
    <glyph glyph-name="Oslash" unicode="&#xd8;" horiz-adv-x="1087" 
d="M197 133l642 502c-20 14 -54 17 -97 17h-397c-94 0 -170 -28 -170 -154v-272c0 -41 8 -71 22 -93zM912 226v272c0 40 -8 70 -22 92l-641 -502c28 -12 61 -16 96 -16h397c94 0 170 28 170 154zM87 -38l-42 53l76 59c-31 44 -44 107 -44 189v198c0 183 62 271 258 271h417
c72 0 125 -12 164 -36l84 66l42 -53l-76 -59c32 -45 44 -108 44 -189v-198c0 -183 -62 -271 -258 -271h-417c-71 0 -125 12 -164 35z" />
    <glyph glyph-name="OE" unicode="&#x152;" horiz-adv-x="1332" 
d="M711 226v272c0 126 -76 154 -170 154h-245c-94 0 -170 -28 -170 -154v-272c0 -126 76 -154 170 -154h245c94 0 170 28 170 154zM711 0v74h-2c-23 -76 -92 -82 -149 -82h-274c-196 0 -258 88 -258 271v198c0 183 62 271 258 271h274c57 0 126 -6 149 -82h2v74h575v-80
h-477v-231h458v-80h-458v-253h495v-80h-593z" />
    <glyph glyph-name="ordmasculine" unicode="&#xba;" horiz-adv-x="530" 
d="M42 540v68c0 100 77 124 183 124h80c106 0 183 -24 183 -124v-68c0 -100 -77 -124 -183 -124h-80c-106 0 -183 24 -183 124zM424 553v42c0 71 -46 85 -111 85h-97c-65 0 -110 -14 -110 -85v-42c0 -71 45 -85 110 -85h97c65 0 111 14 111 85z" />
    <glyph glyph-name="ae" unicode="&#xe6;" horiz-adv-x="1259" 
d="M582 248v96c0 87 -58 104 -154 104h-136c-108 0 -129 -26 -129 -68v-18h-86v25c0 93 59 131 213 131h156c51 0 160 -2 182 -80c35 76 126 80 220 80h100c146 0 257 -39 257 -221v-57h-537v-32c0 -116 56 -146 204 -146h98c101 0 150 14 155 92h80v-10
c0 -117 -101 -152 -251 -152h-84c-112 0 -191 11 -239 79c-42 -72 -143 -79 -287 -79h-126c-130 0 -164 57 -164 153v34c0 116 82 130 232 130h129c95 0 135 -12 165 -61h2zM582 131v29c0 70 -67 79 -162 79h-138c-111 0 -142 -16 -142 -80v-22c0 -47 18 -81 103 -81h162
c108 0 177 11 177 75zM1119 310v34c0 52 -37 104 -177 104h-102c-130 0 -164 -22 -172 -138h451z" />
    <glyph glyph-name="dotlessi" unicode="&#x131;" 
d="M93 0v510h86v-510h-86z" />
    <glyph glyph-name="lslash" unicode="&#x142;" 
d="M93 0v320l-78 -61v77l78 61v327h86v-261l78 60v-77l-78 -60v-386h-86z" />
    <glyph glyph-name="oslash" unicode="&#xf8;" horiz-adv-x="815" 
d="M170 118l432 312c-28 14 -65 18 -107 18h-175c-100 0 -170 -23 -170 -142v-102c0 -38 7 -66 20 -86zM665 204v102c0 39 -7 68 -21 87l-431 -312c27 -15 64 -19 107 -19h175c100 0 170 23 170 142zM64 -28l-32 45l71 52c-26 31 -39 73 -39 130v112c0 168 119 207 282 207
h123c81 0 151 -10 200 -39l82 59l32 -45l-71 -51c25 -32 39 -74 39 -131v-112c0 -168 -119 -207 -282 -207h-123c-80 0 -150 10 -200 40z" />
    <glyph glyph-name="oe" unicode="&#x153;" horiz-adv-x="1333" 
d="M1199 310v34c0 52 -39 104 -179 104h-126c-131 0 -163 -22 -171 -138h476zM48 199v112c0 168 119 207 282 207h86c144 0 214 -3 268 -80c39 55 87 80 248 80h88c154 0 265 -39 265 -221v-57h-562v-32c0 -116 56 -146 206 -146h113c108 0 152 14 157 92h86v-10
c0 -117 -97 -152 -257 -152h-182c-88 0 -147 59 -162 91c-34 -91 -138 -91 -211 -91h-143c-163 0 -282 39 -282 207zM637 204v102c0 119 -63 142 -193 142h-140c-100 0 -170 -23 -170 -142v-102c0 -119 70 -142 170 -142h146c116 0 187 23 187 142z" />
    <glyph glyph-name="germandbls" unicode="&#xdf;" horiz-adv-x="815" 
d="M88 0v555c0 110 76 177 214 177h153c158 0 249 -38 249 -174v-30c0 -73 -31 -109 -97 -129v-2c110 -16 130 -91 130 -167v-56c0 -166 -103 -182 -256 -182c-71 0 -112 5 -153 7v73c47 -5 96 -10 145 -10c129 0 178 4 178 149c0 138 -52 150 -201 150h-119v64h86
c178 0 201 7 201 125c0 108 -67 118 -227 118c-217 0 -217 -34 -217 -238v-430h-86z" />
    <glyph glyph-name="onesuperior" unicode="&#xb9;" horiz-adv-x="626" 
d="M321 293v364l-161 -120l-36 49l191 141h76v-434h-70z" />
    <glyph glyph-name="logicalnot" unicode="&#xac;" horiz-adv-x="600" 
d="M483 111v211h-436v70h506v-281h-70z" />
    <glyph glyph-name="mu" unicode="&#xb5;" horiz-adv-x="791" 
d="M630 0v88h-2c-32 -79 -99 -96 -206 -96h-129c-57 0 -100 10 -126 25v-195h-86v688h86v-324c0 -75 21 -124 188 -124h22c201 0 247 38 247 158v290h86v-510h-80z" />
    <glyph glyph-name="trademark" unicode="&#x2122;" horiz-adv-x="990" 
d="M177 312v342h-126v70h332v-70h-126v-342h-80zM859 312v324h-2l-119 -324h-62l-119 324h-2v-324h-80v412h129l103 -281l103 281h129v-412h-80z" />
    <glyph glyph-name="Eth" unicode="&#xd0;" horiz-adv-x="1061" 
d="M886 323v74c0 209 -65 247 -185 247h-513v-231h418v-80h-418v-253h497c119 0 201 26 201 243zM90 0v333h-63v80h63v311h585c243 0 309 -76 309 -362c0 -266 -66 -362 -312 -362h-582z" />
    <glyph glyph-name="onehalf" unicode="&#xbd;" horiz-adv-x="1444" 
d="M260 -8l581 740h83l-581 -740h-83zM341 293v364l-161 -120l-36 49l191 141h76v-434h-70zM747 0v83c0 95 51 119 156 126l214 15c75 5 86 27 86 70c0 58 -15 87 -99 87h-178c-68 0 -107 -7 -107 -93v-14h-70v41c0 91 54 124 166 124h198c136 0 160 -56 160 -142
c0 -107 -46 -122 -166 -130l-170 -11c-107 -7 -120 -24 -120 -70v-28h460v-58h-530z" />
    <glyph glyph-name="plusminus" unicode="&#xb1;" horiz-adv-x="600" 
d="M265 123v157h-218v70h218v156h70v-156h218v-70h-218v-157h-70zM47 0v75h506v-75h-506z" />
    <glyph glyph-name="Thorn" unicode="&#xde;" horiz-adv-x="939" 
d="M96 0v724h98v-89h498c132 0 207 -28 207 -197c0 -161 -13 -242 -226 -242h-479v-196h-98zM801 379v69c0 86 -47 107 -132 107h-475v-279h483c78 0 124 28 124 103z" />
    <glyph glyph-name="onequarter" unicode="&#xbc;" horiz-adv-x="1444" 
d="M745 89v72l397 273h83v-287h75v-58h-75v-89h-70v89h-410zM1155 147v229l-330 -227v-2h330zM340 -8l581 740h83l-581 -740h-83zM341 293v364l-161 -120l-36 49l191 141h76v-434h-70z" />
    <glyph glyph-name="divide" unicode="&#xf7;" horiz-adv-x="600" 
d="M47 213v80h506v-80h-506zM226 45c0 41 33 74 74 74s74 -33 74 -74s-33 -74 -74 -74s-74 33 -74 74zM226 461c0 41 33 74 74 74s74 -33 74 -74s-33 -74 -74 -74s-74 33 -74 74z" />
    <glyph glyph-name="brokenbar" unicode="&#xa6;" horiz-adv-x="222" 
d="M71 675h80v-350h-80v350zM71 175h80v-350h-80v350z" />
    <glyph glyph-name="degree" unicode="&#xb0;" horiz-adv-x="400" 
d="M200 446c-80 0 -143 63 -143 143s63 143 143 143s143 -63 143 -143s-63 -143 -143 -143zM115 589c0 -47 38 -85 85 -85s85 38 85 85s-38 85 -85 85s-85 -38 -85 -85z" />
    <glyph glyph-name="thorn" unicode="&#xfe;" horiz-adv-x="791" 
d="M647 202v100c0 99 -32 146 -153 146h-171c-113 0 -156 -59 -156 -147v-97c0 -122 76 -142 167 -142h153c100 0 160 22 160 140zM81 -178v902h86v-295h2c25 62 95 89 171 89h157c122 0 236 -39 236 -215v-90c0 -165 -73 -221 -250 -221h-164c-91 0 -132 23 -150 76h-2
v-246h-86z" />
    <glyph glyph-name="threequarters" unicode="&#xbe;" horiz-adv-x="1444" 
d="M440 -8l581 740h83l-581 -740h-83zM86 397v38h70c0 -68 8 -92 100 -92h161c122 0 137 2 137 74c0 65 -21 69 -76 69h-186v58h171c83 0 84 19 84 62c0 60 -15 68 -112 68h-163c-85 0 -113 -15 -113 -56v-20h-70v29c0 70 41 105 133 105h233c129 0 162 -33 162 -111
c0 -80 -11 -92 -74 -105v-2c57 -6 81 -21 81 -102c0 -79 -6 -127 -170 -127h-199c-129 0 -169 31 -169 112zM745 89v72l397 273h83v-287h75v-58h-75v-89h-70v89h-410zM1155 147v229l-330 -227v-2h330z" />
    <glyph glyph-name="twosuperior" unicode="&#xb2;" horiz-adv-x="626" 
d="M48 293v83c0 95 51 119 156 126l128 8c165 11 172 19 172 77s-15 87 -99 87h-178c-68 0 -107 -7 -107 -93v-14h-70v41c0 91 54 124 166 124h198c136 0 160 -56 160 -142c0 -107 -46 -122 -166 -130l-170 -11c-107 -7 -120 -24 -120 -70v-28h460v-58h-530z" />
    <glyph glyph-name="registered" unicode="&#xae;" horiz-adv-x="800" 
d="M30 362c0 204 166 370 370 370s370 -166 370 -370s-166 -370 -370 -370s-370 166 -370 370zM100 362c0 -166 134 -300 300 -300s300 134 300 300s-134 300 -300 300s-300 -134 -300 -300zM258 153v419h155c103 0 158 -35 158 -123c0 -76 -47 -106 -112 -113l115 -183h-80
l-105 180h-61v-180h-70zM328 391h84c49 0 89 7 89 64c0 50 -47 59 -88 59h-85v-123z" />
    <glyph glyph-name="minus" unicode="&#x2212;" horiz-adv-x="600" 
d="M47 218v70h506v-70h-506z" />
    <glyph glyph-name="eth" unicode="&#xf0;" horiz-adv-x="815" 
d="M665 204v102c0 119 -70 142 -170 142h-175c-100 0 -170 -23 -170 -142v-102c0 -119 70 -142 170 -142h175c100 0 170 23 170 142zM278 603l131 79c-74 20 -156 26 -234 26l26 64c116 0 213 -12 291 -40l132 79l50 -35l-119 -72c131 -70 196 -202 196 -420v-85
c0 -168 -119 -207 -282 -207h-123c-163 0 -282 39 -282 207v112c0 168 119 207 282 207h123c64 0 122 -6 167 -24c-26 81 -84 133 -157 164l-151 -90z" />
    <glyph glyph-name="multiply" unicode="&#xd7;" horiz-adv-x="600" 
d="M521 80l-49 -48l-172 171l-172 -171l-49 48l173 173l-172 170l49 49l171 -171l172 171l49 -49l-172 -170z" />
    <glyph glyph-name="threesuperior" unicode="&#xb3;" horiz-adv-x="626" 
d="M40 397v38h70c0 -68 8 -92 100 -92h161c122 0 137 2 137 74c0 65 -21 69 -76 69h-186v58h171c83 0 84 19 84 62c0 60 -15 68 -112 68h-163c-85 0 -113 -15 -113 -56v-20h-70v29c0 70 41 105 133 105h233c129 0 162 -33 162 -111c0 -80 -11 -92 -74 -105v-2
c57 -6 81 -21 81 -102c0 -79 -6 -127 -170 -127h-199c-129 0 -169 31 -169 112z" />
    <glyph glyph-name="copyright" unicode="&#xa9;" horiz-adv-x="800" 
d="M519 299h76c-17 -98 -92 -155 -181 -155c-129 0 -211 95 -211 219c0 127 77 219 208 219c92 0 167 -53 181 -149h-73c-11 53 -53 85 -107 85c-83 0 -129 -65 -129 -157c0 -87 52 -153 131 -153c57 0 97 31 105 91zM30 362c0 204 166 370 370 370s370 -166 370 -370
s-166 -370 -370 -370s-370 166 -370 370zM100 362c0 -166 134 -300 300 -300s300 134 300 300s-134 300 -300 300s-300 -134 -300 -300z" />
    <glyph glyph-name="Aacute" unicode="&#xc1;" horiz-adv-x="1012" 
d="M15 0l430 724h122l430 -724h-111l-90 153h-580l-90 -153h-111zM749 233l-243 411l-243 -411h486zM422 772l148 185h103l-184 -185h-67z" />
    <glyph glyph-name="Acircumflex" unicode="&#xc2;" horiz-adv-x="1012" 
d="M15 0l430 724h122l430 -724h-111l-90 153h-580l-90 -153h-111zM749 233l-243 411l-243 -411h486zM314 772l151 185h82l151 -185h-80l-113 139l-113 -139h-78z" />
    <glyph glyph-name="Adieresis" unicode="&#xc4;" horiz-adv-x="1012" 
d="M15 0l430 724h122l430 -724h-111l-90 153h-580l-90 -153h-111zM749 233l-243 411l-243 -411h486zM358 786v112h86v-112h-86zM568 786v112h86v-112h-86z" />
    <glyph glyph-name="Agrave" unicode="&#xc0;" horiz-adv-x="1012" 
d="M15 0l430 724h122l430 -724h-111l-90 153h-580l-90 -153h-111zM749 233l-243 411l-243 -411h486zM523 772l-184 185h103l148 -185h-67z" />
    <glyph glyph-name="Aring" unicode="&#xc5;" horiz-adv-x="1012" 
d="M15 0l430 724h122l430 -724h-111l-90 153h-580l-90 -153h-111zM749 233l-243 411l-243 -411h486zM429 907c0 -43 34 -77 77 -77s77 34 77 77s-34 77 -77 77s-77 -34 -77 -77zM371 907c0 75 60 135 135 135s135 -60 135 -135s-60 -135 -135 -135s-135 60 -135 135z" />
    <glyph glyph-name="Atilde" unicode="&#xc3;" horiz-adv-x="1012" 
d="M15 0l430 724h122l430 -724h-111l-90 153h-580l-90 -153h-111zM749 233l-243 411l-243 -411h486zM664 921h50c-3 -63 -55 -130 -117 -130c-33 0 -68 15 -100 31s-64 30 -91 30c-36 0 -51 -35 -58 -66h-50c3 63 55 130 117 130c34 0 68 -15 100 -30c33 -16 64 -31 91 -31
c36 0 51 35 58 66z" />
    <glyph glyph-name="Ccedilla" unicode="&#xc7;" horiz-adv-x="1012" 
d="M77 263v198c0 183 62 271 258 271h375c178 0 227 -83 227 -180v-62h-86v33c0 123 -76 129 -166 129h-340c-94 0 -170 -28 -170 -154v-272c0 -126 76 -154 170 -154h343c132 0 170 28 170 126v45h92v-49c0 -131 -42 -202 -245 -202h-158l-59 -72l2 -2c12 4 28 8 43 8
c60 0 108 -32 108 -96c0 -81 -81 -109 -148 -109c-42 0 -83 11 -121 27l19 38c26 -12 57 -19 84 -19c37 0 86 13 86 59c0 38 -34 54 -66 54c-18 0 -35 -6 -55 -10l-21 18l77 104h-161c-196 0 -258 88 -258 271z" />
    <glyph glyph-name="Eacute" unicode="&#xc9;" horiz-adv-x="864" 
d="M96 0v724h711v-80h-613v-231h589v-80h-589v-253h617v-80h-715zM348 772l148 185h103l-184 -185h-67z" />
    <glyph glyph-name="Ecircumflex" unicode="&#xca;" horiz-adv-x="864" 
d="M96 0v724h711v-80h-613v-231h589v-80h-589v-253h617v-80h-715zM240 772l151 185h82l151 -185h-80l-113 139l-113 -139h-78z" />
    <glyph glyph-name="Edieresis" unicode="&#xcb;" horiz-adv-x="864" 
d="M96 0v724h711v-80h-613v-231h589v-80h-589v-253h617v-80h-715zM284 786v112h86v-112h-86zM494 786v112h86v-112h-86z" />
    <glyph glyph-name="Egrave" unicode="&#xc8;" horiz-adv-x="864" 
d="M96 0v724h711v-80h-613v-231h589v-80h-589v-253h617v-80h-715zM449 772l-184 185h103l148 -185h-67z" />
    <glyph glyph-name="Iacute" unicode="&#xcd;" horiz-adv-x="296" 
d="M99 0v724h98v-724h-98zM64 772l148 185h103l-184 -185h-67z" />
    <glyph glyph-name="Icircumflex" unicode="&#xce;" horiz-adv-x="296" 
d="M99 0v724h98v-724h-98zM-44 772l151 185h82l151 -185h-80l-113 139l-113 -139h-78z" />
    <glyph glyph-name="Idieresis" unicode="&#xcf;" horiz-adv-x="296" 
d="M99 0v724h98v-724h-98zM0 786v112h86v-112h-86zM210 786v112h86v-112h-86z" />
    <glyph glyph-name="Igrave" unicode="&#xcc;" horiz-adv-x="296" 
d="M99 0v724h98v-724h-98zM165 772l-184 185h103l148 -185h-67z" />
    <glyph glyph-name="Ntilde" unicode="&#xd1;" horiz-adv-x="1087" 
d="M90 0v724h146l663 -636v636h98v-724h-146l-663 636v-636h-98zM702 921h50c-3 -63 -55 -130 -117 -130c-33 0 -68 15 -100 31s-64 30 -91 30c-36 0 -51 -35 -58 -66h-50c3 63 55 130 117 130c34 0 68 -15 100 -30c33 -16 64 -31 91 -31c36 0 51 35 58 66z" />
    <glyph glyph-name="Oacute" unicode="&#xd3;" horiz-adv-x="1087" 
d="M912 226v272c0 126 -76 154 -170 154h-397c-94 0 -170 -28 -170 -154v-272c0 -126 76 -154 170 -154h397c94 0 170 28 170 154zM77 263v198c0 183 62 271 258 271h417c196 0 258 -88 258 -271v-198c0 -183 -62 -271 -258 -271h-417c-196 0 -258 88 -258 271zM460 772
l148 185h103l-184 -185h-67z" />
    <glyph glyph-name="Ocircumflex" unicode="&#xd4;" horiz-adv-x="1087" 
d="M912 226v272c0 126 -76 154 -170 154h-397c-94 0 -170 -28 -170 -154v-272c0 -126 76 -154 170 -154h397c94 0 170 28 170 154zM77 263v198c0 183 62 271 258 271h417c196 0 258 -88 258 -271v-198c0 -183 -62 -271 -258 -271h-417c-196 0 -258 88 -258 271zM352 772
l151 185h82l151 -185h-80l-113 139l-113 -139h-78z" />
    <glyph glyph-name="Odieresis" unicode="&#xd6;" horiz-adv-x="1087" 
d="M912 226v272c0 126 -76 154 -170 154h-397c-94 0 -170 -28 -170 -154v-272c0 -126 76 -154 170 -154h397c94 0 170 28 170 154zM77 263v198c0 183 62 271 258 271h417c196 0 258 -88 258 -271v-198c0 -183 -62 -271 -258 -271h-417c-196 0 -258 88 -258 271zM396 786v112
h86v-112h-86zM606 786v112h86v-112h-86z" />
    <glyph glyph-name="Ograve" unicode="&#xd2;" horiz-adv-x="1087" 
d="M912 226v272c0 126 -76 154 -170 154h-397c-94 0 -170 -28 -170 -154v-272c0 -126 76 -154 170 -154h397c94 0 170 28 170 154zM77 263v198c0 183 62 271 258 271h417c196 0 258 -88 258 -271v-198c0 -183 -62 -271 -258 -271h-417c-196 0 -258 88 -258 271zM561 772
l-184 185h103l148 -185h-67z" />
    <glyph glyph-name="Otilde" unicode="&#xd5;" horiz-adv-x="1087" 
d="M912 226v272c0 126 -76 154 -170 154h-397c-94 0 -170 -28 -170 -154v-272c0 -126 76 -154 170 -154h397c94 0 170 28 170 154zM77 263v198c0 183 62 271 258 271h417c196 0 258 -88 258 -271v-198c0 -183 -62 -271 -258 -271h-417c-196 0 -258 88 -258 271zM702 921h50
c-3 -63 -55 -130 -117 -130c-33 0 -68 15 -100 31s-64 30 -91 30c-36 0 -51 -35 -58 -66h-50c3 63 55 130 117 130c34 0 68 -15 100 -30c33 -16 64 -31 91 -31c36 0 51 35 58 66z" />
    <glyph glyph-name="Scaron" unicode="&#x160;" horiz-adv-x="987" 
d="M78 175v53h92v-51c0 -71 38 -105 160 -105h304c142 0 184 30 184 134c0 91 -36 114 -158 114h-186c-299 0 -397 18 -397 210c0 165 98 202 300 202h211c243 0 304 -62 304 -191v-25h-92c-2 115 -14 136 -271 136h-104c-189 0 -256 -10 -256 -129c0 -86 27 -115 180 -115
h290c191 0 271 -55 271 -178v-47c0 -178 -146 -191 -291 -191h-272c-143 0 -269 25 -269 183zM449 772l-147 185h81l110 -139l112 139h81l-149 -185h-88z" />
    <glyph glyph-name="Uacute" unicode="&#xda;" horiz-adv-x="1042" 
d="M96 182v542h98v-541c0 -70 24 -111 157 -111h340c133 0 157 41 157 111v541h98v-542c0 -147 -74 -190 -258 -190h-334c-184 0 -258 43 -258 190zM437 772l148 185h103l-184 -185h-67z" />
    <glyph glyph-name="Ucircumflex" unicode="&#xdb;" horiz-adv-x="1042" 
d="M96 182v542h98v-541c0 -70 24 -111 157 -111h340c133 0 157 41 157 111v541h98v-542c0 -147 -74 -190 -258 -190h-334c-184 0 -258 43 -258 190zM329 772l151 185h82l151 -185h-80l-113 139l-113 -139h-78z" />
    <glyph glyph-name="Udieresis" unicode="&#xdc;" horiz-adv-x="1042" 
d="M96 182v542h98v-541c0 -70 24 -111 157 -111h340c133 0 157 41 157 111v541h98v-542c0 -147 -74 -190 -258 -190h-334c-184 0 -258 43 -258 190zM373 786v112h86v-112h-86zM583 786v112h86v-112h-86z" />
    <glyph glyph-name="Ugrave" unicode="&#xd9;" horiz-adv-x="1042" 
d="M96 182v542h98v-541c0 -70 24 -111 157 -111h340c133 0 157 41 157 111v541h98v-542c0 -147 -74 -190 -258 -190h-334c-184 0 -258 43 -258 190zM538 772l-184 185h103l148 -185h-67z" />
    <glyph glyph-name="Yacute" unicode="&#xdd;" horiz-adv-x="964" 
d="M433 0v306l-415 418h132l332 -336l332 336h132l-415 -418v-306h-98zM398 772l148 185h103l-184 -185h-67z" />
    <glyph glyph-name="Ydieresis" unicode="&#x178;" horiz-adv-x="964" 
d="M433 0v306l-415 418h132l332 -336l332 336h132l-415 -418v-306h-98zM334 786v112h86v-112h-86zM544 786v112h86v-112h-86z" />
    <glyph glyph-name="Zcaron" unicode="&#x17d;" horiz-adv-x="913" 
d="M42 0v76l661 568h-640v80h794v-70l-664 -574h678v-80h-829zM412 772l-147 185h81l110 -139l112 139h81l-149 -185h-88z" />
    <glyph glyph-name="aacute" unicode="&#xe1;" horiz-adv-x="765" 
d="M608 0v51h-2c-23 -46 -50 -59 -182 -59h-206c-130 0 -164 57 -164 153v34c0 116 82 130 232 130h138c112 0 152 -12 182 -61h2v96c0 92 -58 104 -190 104h-126c-108 0 -129 -26 -129 -68v-18h-86v25c0 93 59 131 213 131h136c160 0 268 -24 268 -176v-342h-86zM608 137
v23c0 70 -62 79 -194 79h-132c-111 0 -142 -16 -142 -80v-16c0 -57 20 -81 138 -81h114c156 0 216 11 216 75zM299 588l148 185h103l-184 -185h-67z" />
    <glyph glyph-name="acircumflex" unicode="&#xe2;" horiz-adv-x="765" 
d="M608 0v51h-2c-23 -46 -50 -59 -182 -59h-206c-130 0 -164 57 -164 153v34c0 116 82 130 232 130h138c112 0 152 -12 182 -61h2v96c0 92 -58 104 -190 104h-126c-108 0 -129 -26 -129 -68v-18h-86v25c0 93 59 131 213 131h136c160 0 268 -24 268 -176v-342h-86zM608 137
v23c0 70 -62 79 -194 79h-132c-111 0 -142 -16 -142 -80v-16c0 -57 20 -81 138 -81h114c156 0 216 11 216 75zM191 588l151 185h82l151 -185h-80l-113 139l-113 -139h-78z" />
    <glyph glyph-name="adieresis" unicode="&#xe4;" horiz-adv-x="765" 
d="M608 0v51h-2c-23 -46 -50 -59 -182 -59h-206c-130 0 -164 57 -164 153v34c0 116 82 130 232 130h138c112 0 152 -12 182 -61h2v96c0 92 -58 104 -190 104h-126c-108 0 -129 -26 -129 -68v-18h-86v25c0 93 59 131 213 131h136c160 0 268 -24 268 -176v-342h-86zM608 137
v23c0 70 -62 79 -194 79h-132c-111 0 -142 -16 -142 -80v-16c0 -57 20 -81 138 -81h114c156 0 216 11 216 75zM235 602v112h86v-112h-86zM445 602v112h86v-112h-86z" />
    <glyph glyph-name="agrave" unicode="&#xe0;" horiz-adv-x="765" 
d="M608 0v51h-2c-23 -46 -50 -59 -182 -59h-206c-130 0 -164 57 -164 153v34c0 116 82 130 232 130h138c112 0 152 -12 182 -61h2v96c0 92 -58 104 -190 104h-126c-108 0 -129 -26 -129 -68v-18h-86v25c0 93 59 131 213 131h136c160 0 268 -24 268 -176v-342h-86zM608 137
v23c0 70 -62 79 -194 79h-132c-111 0 -142 -16 -142 -80v-16c0 -57 20 -81 138 -81h114c156 0 216 11 216 75zM400 588l-184 185h103l148 -185h-67z" />
    <glyph glyph-name="aring" unicode="&#xe5;" horiz-adv-x="765" 
d="M608 0v51h-2c-23 -46 -50 -59 -182 -59h-206c-130 0 -164 57 -164 153v34c0 116 82 130 232 130h138c112 0 152 -12 182 -61h2v96c0 92 -58 104 -190 104h-126c-108 0 -129 -26 -129 -68v-18h-86v25c0 93 59 131 213 131h136c160 0 268 -24 268 -176v-342h-86zM608 137
v23c0 70 -62 79 -194 79h-132c-111 0 -142 -16 -142 -80v-16c0 -57 20 -81 138 -81h114c156 0 216 11 216 75zM306 723c0 -43 34 -77 77 -77s77 34 77 77s-34 77 -77 77s-77 -34 -77 -77zM248 723c0 75 60 135 135 135s135 -60 135 -135s-60 -135 -135 -135
s-135 60 -135 135z" />
    <glyph glyph-name="atilde" unicode="&#xe3;" horiz-adv-x="765" 
d="M608 0v51h-2c-23 -46 -50 -59 -182 -59h-206c-130 0 -164 57 -164 153v34c0 116 82 130 232 130h138c112 0 152 -12 182 -61h2v96c0 92 -58 104 -190 104h-126c-108 0 -129 -26 -129 -68v-18h-86v25c0 93 59 131 213 131h136c160 0 268 -24 268 -176v-342h-86zM608 137
v23c0 70 -62 79 -194 79h-132c-111 0 -142 -16 -142 -80v-16c0 -57 20 -81 138 -81h114c156 0 216 11 216 75zM541 737h50c-3 -63 -55 -130 -117 -130c-33 0 -68 15 -100 31s-64 30 -91 30c-36 0 -51 -35 -58 -66h-50c3 63 55 130 117 130c34 0 68 -15 100 -30
c33 -16 64 -31 91 -31c36 0 51 35 58 66z" />
    <glyph glyph-name="ccedilla" unicode="&#xe7;" horiz-adv-x="741" 
d="M58 198v114c0 185 130 206 256 206h144c160 0 223 -65 223 -173v-14h-80v12c0 85 -56 105 -142 105h-158c-81 0 -157 -12 -157 -139v-107c0 -114 70 -140 174 -140h145c80 0 147 24 147 107v17h80v-15c0 -129 -64 -179 -224 -179h-55l-59 -72l2 -2c12 4 28 8 43 8
c60 0 108 -32 108 -96c0 -81 -81 -109 -148 -109c-42 0 -83 11 -121 27l19 38c26 -12 57 -19 84 -19c37 0 86 13 86 59c0 38 -34 54 -66 54c-18 0 -35 -6 -55 -10l-21 18l77 104h-88c-77 0 -214 21 -214 206z" />
    <glyph glyph-name="eacute" unicode="&#xe9;" horiz-adv-x="765" 
d="M625 310v34c0 52 -39 104 -179 104h-126c-136 0 -168 -22 -176 -138h481zM58 201v111c0 185 128 206 250 206h138c154 0 265 -39 265 -221v-57h-567v-32c0 -116 56 -146 206 -146h118c108 0 152 14 157 92h86v-10c0 -117 -97 -152 -257 -152h-156
c-112 0 -240 21 -240 209zM299 588l148 185h103l-184 -185h-67z" />
    <glyph glyph-name="ecircumflex" unicode="&#xea;" horiz-adv-x="765" 
d="M625 310v34c0 52 -39 104 -179 104h-126c-136 0 -168 -22 -176 -138h481zM58 201v111c0 185 128 206 250 206h138c154 0 265 -39 265 -221v-57h-567v-32c0 -116 56 -146 206 -146h118c108 0 152 14 157 92h86v-10c0 -117 -97 -152 -257 -152h-156
c-112 0 -240 21 -240 209zM191 588l151 185h82l151 -185h-80l-113 139l-113 -139h-78z" />
    <glyph glyph-name="edieresis" unicode="&#xeb;" horiz-adv-x="765" 
d="M625 310v34c0 52 -39 104 -179 104h-126c-136 0 -168 -22 -176 -138h481zM58 201v111c0 185 128 206 250 206h138c154 0 265 -39 265 -221v-57h-567v-32c0 -116 56 -146 206 -146h118c108 0 152 14 157 92h86v-10c0 -117 -97 -152 -257 -152h-156
c-112 0 -240 21 -240 209zM235 602v112h86v-112h-86zM445 602v112h86v-112h-86z" />
    <glyph glyph-name="egrave" unicode="&#xe8;" horiz-adv-x="765" 
d="M625 310v34c0 52 -39 104 -179 104h-126c-136 0 -168 -22 -176 -138h481zM58 201v111c0 185 128 206 250 206h138c154 0 265 -39 265 -221v-57h-567v-32c0 -116 56 -146 206 -146h118c108 0 152 14 157 92h86v-10c0 -117 -97 -152 -257 -152h-156
c-112 0 -240 21 -240 209zM400 588l-184 185h103l148 -185h-67z" />
    <glyph glyph-name="iacute" unicode="&#xed;" 
d="M93 0v510h86v-510h-86zM52 588l148 185h103l-184 -185h-67z" />
    <glyph glyph-name="icircumflex" unicode="&#xee;" 
d="M93 0v510h86v-510h-86zM-56 588l151 185h82l151 -185h-80l-113 139l-113 -139h-78z" />
    <glyph glyph-name="idieresis" unicode="&#xef;" 
d="M93 0v510h86v-510h-86zM-12 602v112h86v-112h-86zM198 602v112h86v-112h-86z" />
    <glyph glyph-name="igrave" unicode="&#xec;" 
d="M93 0v510h86v-510h-86zM153 588l-184 185h103l148 -185h-67z" />
    <glyph glyph-name="ntilde" unicode="&#xf1;" horiz-adv-x="791" 
d="M81 0v510h80v-88h2c32 79 99 96 206 96h129c161 0 212 -81 212 -173v-345h-86v324c0 75 -21 124 -188 124h-22c-201 0 -247 -38 -247 -158v-290h-86zM554 737h50c-3 -63 -55 -130 -117 -130c-33 0 -68 15 -100 31s-64 30 -91 30c-36 0 -51 -35 -58 -66h-50
c3 63 55 130 117 130c34 0 68 -15 100 -30c33 -16 64 -31 91 -31c36 0 51 35 58 66z" />
    <glyph glyph-name="oacute" unicode="&#xf3;" horiz-adv-x="815" 
d="M64 199v112c0 168 119 207 282 207h123c163 0 282 -39 282 -207v-112c0 -168 -119 -207 -282 -207h-123c-163 0 -282 39 -282 207zM665 204v102c0 119 -70 142 -170 142h-175c-100 0 -170 -23 -170 -142v-102c0 -119 70 -142 170 -142h175c100 0 170 23 170 142zM324 588
l148 185h103l-184 -185h-67z" />
    <glyph glyph-name="ocircumflex" unicode="&#xf4;" horiz-adv-x="815" 
d="M64 199v112c0 168 119 207 282 207h123c163 0 282 -39 282 -207v-112c0 -168 -119 -207 -282 -207h-123c-163 0 -282 39 -282 207zM665 204v102c0 119 -70 142 -170 142h-175c-100 0 -170 -23 -170 -142v-102c0 -119 70 -142 170 -142h175c100 0 170 23 170 142zM216 588
l151 185h82l151 -185h-80l-113 139l-113 -139h-78z" />
    <glyph glyph-name="odieresis" unicode="&#xf6;" horiz-adv-x="815" 
d="M64 199v112c0 168 119 207 282 207h123c163 0 282 -39 282 -207v-112c0 -168 -119 -207 -282 -207h-123c-163 0 -282 39 -282 207zM665 204v102c0 119 -70 142 -170 142h-175c-100 0 -170 -23 -170 -142v-102c0 -119 70 -142 170 -142h175c100 0 170 23 170 142zM260 602
v112h86v-112h-86zM470 602v112h86v-112h-86z" />
    <glyph glyph-name="ograve" unicode="&#xf2;" horiz-adv-x="815" 
d="M64 199v112c0 168 119 207 282 207h123c163 0 282 -39 282 -207v-112c0 -168 -119 -207 -282 -207h-123c-163 0 -282 39 -282 207zM665 204v102c0 119 -70 142 -170 142h-175c-100 0 -170 -23 -170 -142v-102c0 -119 70 -142 170 -142h175c100 0 170 23 170 142zM425 588
l-184 185h103l148 -185h-67z" />
    <glyph glyph-name="otilde" unicode="&#xf5;" horiz-adv-x="815" 
d="M64 199v112c0 168 119 207 282 207h123c163 0 282 -39 282 -207v-112c0 -168 -119 -207 -282 -207h-123c-163 0 -282 39 -282 207zM665 204v102c0 119 -70 142 -170 142h-175c-100 0 -170 -23 -170 -142v-102c0 -119 70 -142 170 -142h175c100 0 170 23 170 142zM566 737
h50c-3 -63 -55 -130 -117 -130c-33 0 -68 15 -100 31s-64 30 -91 30c-36 0 -51 -35 -58 -66h-50c3 63 55 130 117 130c34 0 68 -15 100 -30c33 -16 64 -31 91 -31c36 0 51 35 58 66z" />
    <glyph glyph-name="scaron" unicode="&#x161;" horiz-adv-x="765" 
d="M62 145v31h80v-25c0 -63 33 -89 121 -89h184c129 0 170 5 170 81v4c0 49 -14 76 -117 76h-265c-121 0 -166 39 -166 136v30c0 83 47 129 259 129h132c194 0 221 -56 221 -128v-27h-80v5c0 78 -52 80 -146 80h-150c-123 0 -150 -12 -150 -70v-19c0 -42 14 -66 104 -66h227
c129 0 217 -13 217 -151v-2c0 -143 -132 -148 -237 -148h-158c-127 0 -246 0 -246 153zM338 588l-147 185h81l110 -139l112 139h81l-149 -185h-88z" />
    <glyph glyph-name="uacute" unicode="&#xfa;" horiz-adv-x="791" 
d="M630 0v88h-2c-32 -79 -99 -96 -206 -96h-129c-161 0 -212 81 -212 173v345h86v-324c0 -75 21 -124 188 -124h22c201 0 247 38 247 158v290h86v-510h-80zM312 588l148 185h103l-184 -185h-67z" />
    <glyph glyph-name="ucircumflex" unicode="&#xfb;" horiz-adv-x="791" 
d="M630 0v88h-2c-32 -79 -99 -96 -206 -96h-129c-161 0 -212 81 -212 173v345h86v-324c0 -75 21 -124 188 -124h22c201 0 247 38 247 158v290h86v-510h-80zM204 588l151 185h82l151 -185h-80l-113 139l-113 -139h-78z" />
    <glyph glyph-name="udieresis" unicode="&#xfc;" horiz-adv-x="791" 
d="M630 0v88h-2c-32 -79 -99 -96 -206 -96h-129c-161 0 -212 81 -212 173v345h86v-324c0 -75 21 -124 188 -124h22c201 0 247 38 247 158v290h86v-510h-80zM248 602v112h86v-112h-86zM458 602v112h86v-112h-86z" />
    <glyph glyph-name="ugrave" unicode="&#xf9;" horiz-adv-x="791" 
d="M630 0v88h-2c-32 -79 -99 -96 -206 -96h-129c-161 0 -212 81 -212 173v345h86v-324c0 -75 21 -124 188 -124h22c201 0 247 38 247 158v290h86v-510h-80zM413 588l-184 185h103l148 -185h-67z" />
    <glyph glyph-name="yacute" unicode="&#xfd;" horiz-adv-x="667" 
d="M109 -190v70c132 0 160 9 205 112h-21l-289 518h97l247 -451l222 451h93l-288 -573c-53 -105 -89 -125 -266 -127zM250 588l148 185h103l-184 -185h-67z" />
    <glyph glyph-name="ydieresis" unicode="&#xff;" horiz-adv-x="667" 
d="M109 -190v70c132 0 160 9 205 112h-21l-289 518h97l247 -451l222 451h93l-288 -573c-53 -105 -89 -125 -266 -127zM186 602v112h86v-112h-86zM396 602v112h86v-112h-86z" />
    <glyph glyph-name="zcaron" unicode="&#x17e;" horiz-adv-x="667" 
d="M45 0v70l453 368v2h-438v70h556v-70l-453 -368v-2h459v-70h-577zM289 588l-147 185h81l110 -139l112 139h81l-149 -185h-88z" />
    <glyph glyph-name="Delta" unicode="&#x2206;" horiz-adv-x="855" 
d="M38 0v55l340 679h101l338 -679v-55h-779zM126 62h595l-203 413c-23 51 -74 152 -91 196h-6c-12 -29 -57 -124 -80 -174z" />
    <glyph glyph-name="Omega" unicode="&#x2126;" horiz-adv-x="979" 
d="M271 61v3c-95 56 -185 162 -185 312c0 199 178 348 405 348c240 0 401 -168 401 -347c0 -155 -94 -261 -188 -313v-3h206v-61h-321v46c110 49 218 151 218 323c0 138 -113 295 -314 295c-193 0 -321 -139 -321 -299s107 -271 217 -319v-46h-321v61h203z" />
    <glyph glyph-name="uni03BC" unicode="&#x3bc;" horiz-adv-x="791" 
d="M630 0v88h-2c-32 -79 -99 -96 -206 -96h-129c-57 0 -100 10 -126 25v-195h-86v688h86v-324c0 -75 21 -124 188 -124h22c201 0 247 38 247 158v290h86v-510h-80z" />
    <glyph glyph-name="pi" unicode="&#x3c0;" horiz-adv-x="742" 
d="M710 466h-110v-299c0 -97 9 -138 18 -167h-83c-12 15 -21 59 -21 155v311h-252c-8 -139 -51 -384 -97 -466h-84c48 101 89 325 96 466c-85 0 -125 -6 -155 -17l-13 50c33 18 84 29 183 29h527z" />
    <glyph glyph-name="Euro" unicode="&#x20ac;" horiz-adv-x="964" 
d="M943 645l-42 -81c-54 81 -146 88 -219 88h-279c-94 0 -170 -28 -170 -154v-16h626l-38 -75h-588v-71h552l-40 -75h-512v-35c0 -126 76 -154 170 -154h298c87 0 169 33 212 88v-103c-57 -48 -136 -65 -211 -65h-303c-195 0 -258 87 -258 269h-130l40 75h90v71h-130l40 75
h90c5 169 70 250 258 250h299c106 0 175 -13 245 -87z" />
    <glyph glyph-name="afii61289" unicode="&#x2113;" horiz-adv-x="628" 
d="M553 179l43 -35c-60 -101 -147 -147 -247 -147c-133 0 -198 90 -209 183v10c-23 -15 -49 -35 -75 -52l-27 47c35 25 70 46 101 70v280c0 198 100 256 192 256c114 0 164 -85 164 -172c0 -136 -111 -257 -278 -390l1 -18c2 -103 77 -150 149 -150c85 0 154 63 186 118z
M217 556v-256c118 106 212 207 212 312c0 68 -26 124 -98 124c-48 0 -114 -43 -114 -180z" />
    <glyph glyph-name="estimated" unicode="&#x212e;" horiz-adv-x="892" 
d="M857 352h-666c-3 0 -5 -1 -5 -5v-201c0 -9 3 -17 8 -23c65 -67 154 -110 252 -110c106 0 200 49 265 123h59c-73 -86 -193 -143 -325 -143c-227 0 -410 165 -410 369s183 370 410 370c228 0 412 -166 412 -370v-10zM706 378v202c0 9 -4 18 -10 25
c-65 63 -152 105 -250 105c-97 0 -186 -43 -251 -109c-6 -6 -9 -15 -9 -25v-198c0 -2 2 -7 5 -7h510c3 0 5 5 5 7z" />
    <glyph glyph-name="partialdiff" unicode="&#x2202;" horiz-adv-x="705" 
d="M128 688l-32 50c40 28 110 62 218 62c173 0 326 -147 326 -392c0 -198 -113 -413 -337 -413c-177 0 -252 142 -252 241c0 152 124 253 271 253c133 0 214 -96 233 -129h1c2 16 2 40 2 55c0 203 -118 324 -252 324c-85 0 -144 -29 -178 -51zM309 55h2
c129 0 213 118 232 237c-18 48 -95 138 -206 138c-109 0 -202 -83 -202 -190c0 -99 70 -185 174 -185z" />
    <glyph glyph-name="product" unicode="&#x220f;" horiz-adv-x="909" 
d="M878 644h-152v-742h-81v742h-383v-742h-81v742h-152v67h849v-67z" />
    <glyph glyph-name="summation" unicode="&#x2211;" horiz-adv-x="722" 
d="M693 -98h-668v46l355 356l-337 356v51h632v-68h-510v-3l314 -330l-335 -336v-3h549v-69z" />
    <glyph glyph-name="uni2219" unicode="&#x2219;" horiz-adv-x="482" 
d="M241 375c40 0 74 -34 74 -74s-34 -74 -74 -74s-74 34 -74 74c0 39 34 74 74 74z" />
    <glyph glyph-name="radical" unicode="&#x221a;" horiz-adv-x="720" 
d="M731 840l-290 -996h-76l-210 476l-95 -36l-19 45l163 65l177 -420c7 -18 14 -38 21 -60h1c5 20 12 42 17 62l246 864h65z" />
    <glyph glyph-name="infinity" unicode="&#x221e;" horiz-adv-x="937" 
d="M874 295v-1c0 -113 -88 -186 -182 -186c-76 0 -137 53 -223 146c-64 -73 -130 -146 -228 -146c-96 0 -178 80 -178 182c0 107 81 186 187 186c91 0 161 -73 225 -146c65 72 127 146 226 146c105 0 173 -75 173 -181zM248 159h2c78 0 142 80 191 130
c-54 64 -112 139 -200 139c-77 0 -123 -66 -123 -139c0 -71 51 -130 130 -130zM695 428h-1c-83 0 -149 -92 -193 -134c83 -88 132 -135 196 -135c78 0 123 67 123 132c0 86 -55 137 -125 137z" />
    <glyph glyph-name="integral" unicode="&#x222b;" horiz-adv-x="420" 
d="M411 850l-14 -50c-10 7 -33 13 -49 13c-20 0 -48 -5 -65 -23c-33 -32 -45 -90 -45 -184c0 -158 19 -350 19 -513c0 -111 -28 -171 -54 -203c-26 -35 -70 -53 -114 -53c-32 0 -69 11 -84 20l15 53c11 -6 35 -16 61 -16c21 0 45 8 59 22c27 29 48 71 48 180
c0 164 -19 360 -19 519c0 109 18 174 66 215c32 29 71 38 108 38c26 0 56 -10 68 -18z" />
    <glyph glyph-name="approxequal" unicode="&#x2248;" horiz-adv-x="726" 
d="M630 460l33 -33c-38 -60 -86 -106 -162 -106c-55 0 -90 21 -153 52c-37 19 -76 39 -121 39c-61 0 -98 -42 -132 -87l-34 32c40 66 103 106 174 106c60 0 105 -30 142 -49c47 -24 75 -41 125 -41c53 0 89 27 128 87zM630 257l33 -33c-38 -59 -85 -105 -162 -105
c-55 0 -91 21 -153 52c-38 19 -77 39 -121 39c-61 0 -98 -42 -132 -88l-34 33c40 66 104 106 174 106c61 0 105 -30 142 -48c42 -22 73 -43 126 -43s87 27 127 87z" />
    <glyph glyph-name="notequal" unicode="&#x2260;" horiz-adv-x="726" 
d="M511 555l-60 -124h210v-51h-234l-88 -180h322v-51h-346l-72 -149l-43 21l62 128h-197v51h222l87 180h-309v51h333l70 145z" />
    <glyph glyph-name="lessequal" unicode="&#x2264;" horiz-adv-x="726" 
d="M658 81l-586 262v54l585 262v-59l-525 -228v-2l526 -230v-59zM660 -17h-596v51h596v-51z" />
    <glyph glyph-name="greaterequal" unicode="&#x2265;" horiz-adv-x="726" 
d="M72 659l586 -262v-54l-586 -262v59l525 229v2l-525 229v59zM658 -17h-593v51h593v-51z" />
    <glyph glyph-name="lozenge" unicode="&#x25ca;" horiz-adv-x="722" 
d="M653 355l-261 -413h-64l-260 413l260 414h64zM579 353l-196 314c-8 13 -18 32 -23 43h-3c-6 -13 -14 -28 -24 -43l-192 -310l197 -315c10 -18 19 -32 22 -42h3c5 11 15 29 23 42z" />
    <glyph glyph-name="uni00A0" unicode="&#xa0;" horiz-adv-x="482" 
 />
    <glyph glyph-name="uni00AD" unicode="&#xad;" horiz-adv-x="444" 
d="M82 225v80h280v-80h-280z" />
    <glyph glyph-name="uni02C9" unicode="&#x2c9;" 
d="M-61 637v64h394v-64h-394z" />
    <glyph glyph-name="uni03A9" unicode="&#x3a9;" horiz-adv-x="979" 
d="M271 61v3c-95 56 -185 162 -185 312c0 199 178 348 405 348c240 0 401 -168 401 -347c0 -155 -94 -261 -188 -313v-3h206v-61h-321v46c110 49 218 151 218 323c0 138 -113 295 -314 295c-193 0 -321 -139 -321 -299s107 -271 217 -319v-46h-321v61h203z" />
    <glyph glyph-name="uni2215" unicode="&#x2215;" horiz-adv-x="222" 
d="M-221 -8l581 740h83l-581 -740h-83z" />
    </font>
</defs>
</svg>
