<?xml version="1.0" standalone="no"?>
<!DOCTYPE svg PUBLIC "-//W3C//DTD SVG 1.1//EN" "http://www.w3.org/Graphics/SVG/1.1/DTD/svg11.dtd" >
<!--
2019-7-9: Created with FontForge (http://fontforge.org)
-->
<svg xmlns="http://www.w3.org/2000/svg" xmlns:xlink="http://www.w3.org/1999/xlink" version="1.1">
<metadata>
Created by FontForge 20170924 at Tue Jul 23 19:09:15 2019
 By Léonard,,,
Copyright (c) 2019, Leonard Mabille, leomabille@gmail.com, luuse.io, typotheque.luuse.io
</metadata>
<defs>
<font id="ParaRubber-Medium" horiz-adv-x="651" >
  <font-face 
    font-family="ParaRubber"
    font-weight="500"
    font-stretch="normal"
    units-per-em="1000"
    panose-1="2 0 6 3 0 0 0 0 0 0"
    ascent="800"
    descent="-200"
    x-height="504"
    cap-height="768"
    bbox="-127.166 -214.7 1670.86 1045"
    underline-thickness="50"
    underline-position="-100"
    unicode-range="U+0020-261E"
  />
    <missing-glyph />
    <glyph glyph-name="A" unicode="A" horiz-adv-x="840" 
d="M99 78v-78h-83v37c71 0 83 41 83 41zM177 78c0 0 -15 -41 83 -41v-37h-114zM637 78l33 -78h-116v37c104 0 83 41 83 41zM739 78c0 0 15 -41 83 -41v-37h-83v78zM251 385l169 -32l169 32l19 -63l-188 -37l-196 37zM489 783l278 -783h-102l-245.133 689.606
l-228.593 -575.606l-45.2734 -114h-78l305 769s53.333 -12.2803 116 14z" />
    <glyph glyph-name="C" unicode="C" horiz-adv-x="686" 
d="M374 57c-144 0 -259 141 -259 337s120 323 266 323c134 0 179 -77 179 -158l16 -8c12 45 90 206 90 205l-18 12c-89 -79 -66 14 -270 14c-194 0 -372 -175 -372 -390s165.994 -406.03 368 -406c204 0.0303629 186 139.29 286 14c3.79455 -4.75419 8 13 8 13
c0 -1 -55 183 -67 228c0 0 -15.7998 -1.60059 -16 -8c-2 -64 -46 -176 -211 -176z" />
    <glyph glyph-name="B" unicode="B" horiz-adv-x="673" 
d="M390 0h-206l1 74h206c148 0 163 87 163 135c0 104 -88 160 -158 160h-210l18 66h232c0 0 214 -30 214 -230c0 -108 -93 -205 -260 -205zM374 768c70 0 240 -8 240 -179c0 -190 -172 -197 -172 -197h-238c-4 0 0 45 0 45h186c100 0 128 100 128 152c0 72 -46 117 -164 117
h-176v62h196zM121 690c0 0 -1.92871 41 -83 41v37h83v-78zM121 78v-78h-83v37c81.0713 0 83 41 83 41zM213 768v-768h-92v768h92z" />
    <glyph glyph-name="n" unicode="n" horiz-adv-x="681" 
d="M568 78c0 0 1.92871 -41 83 -41v-37h-83v78zM476 78v-78h-83v37c81.0713 0 83 41 83 41zM217 78c0 0 1.92871 -41 83 -41v-37h-83v78zM196 353c0 0 42 163 196 163c131 0 176 -69 176 -202h-92c0 90 -13 133 -99 133c-89 0 -161 -51 -161 -197c0 -90 -20 103 -20 103z
M126 427c0 0 -1.92871 41 -83 41v37h83v-78zM125 78v-78h-83v37c81.0713 0 83 41 83 41zM476 314h92v-314h-92v314zM125 505h92v-505h-92v505z" />
    <glyph glyph-name="h" unicode="h" horiz-adv-x="745" 
d="M592 78c0 0 1.92871 -41 83 -41v-37h-83v78zM500 78v-78h-83v37c81.0713 0 83 41 83 41zM241 78c0 0 1.92871 -41 83 -41v-37h-83v78zM220 353c0 0 42 163 196 163c131 0 176 -69 176 -202h-92c0 90 -13 133 -99 133c-89 0 -161 -51 -161 -197c0 -90 -20 103 -20 103z
M150 722c0 0 -1.92871 41 -83 41v37h83v-78zM149 78v-78h-83v37c81.0713 0 83 41 83 41zM500 314h92v-314h-92v314zM149 800h92v-800h-92v800z" />
    <glyph glyph-name="m" unicode="m" horiz-adv-x="1016" 
d="M921 78c0 0 1.92871 -41 83 -41v-37h-83v78zM829 78v-78h-83v37c81.0713 0 83 41 83 41zM549 353c0 0 42 163 196 163c131 0 176 -69 176 -202h-92c0 90 -13 133 -99 133c-89 0 -161 -51 -161 -197c0 -90 -20 103 -20 103zM829 314h92v-314h-92v314zM571 78
c0 0 1.92871 -41 83 -41v-37h-83v78zM479 78v-78h-83v37c81.0713 0 83 41 83 41zM220 78c0 0 1.92871 -41 83 -41v-37h-83v78zM199 353c0 0 42 163 196 163c131 0 176 -69 176 -202h-92c0 90 -13 133 -99 133c-89 0 -161 -51 -161 -197c0 -90 -20 103 -20 103zM129 427
c0 0 -1.92871 41 -83 41v37h83v-78zM128 78v-78h-83v37c81.0713 0 83 41 83 41zM479 314h92v-314h-92v314zM128 505h92v-505h-92v505z" />
    <glyph glyph-name="l" unicode="l" horiz-adv-x="346" 
d="M217 78c0 0 1.92871 -41 83 -41v-37h-83v78zM126 722c0 0 -1.92871 41 -83 41v37h83v-78zM125 78v-78h-83v37c81.0713 0 83 41 83 41zM125 800h92v-800h-92v800z" />
    <glyph glyph-name="b" unicode="b" horiz-adv-x="842" 
d="M550 251c-1 139 -81 195 -167 195c-104 0 -160.191 -67 -160 -181l-21 88s42 163 196 163c161 0 244 -100 244 -262c0 -174 -141 -267 -248 -267c-147 0 -191 151 -191 151l20 119c0.250977 -111 55 -207 150 -207c117 0 177.842 83.999 177 201zM132 722
c0 0 -1.92871 41 -83 41v37h83v-78zM131 78v-78h-83v37c81.0713 0 83 41 83 41zM131 800h92v-800h-92v800z" />
    <glyph glyph-name="h" unicode="h" horiz-adv-x="703" 
d="M592 78c0 0 1.92871 -41 83 -41v-37h-83v78zM500 78v-78h-83v37c81.0713 0 83 41 83 41zM241 78c0 0 1.92871 -41 83 -41v-37h-83v78zM220 353c0 0 42 163 196 163c131 0 176 -69 176 -202h-92c0 90 -13 133 -99 133c-89 0 -161 -51 -161 -197c0 -90 -20 103 -20 103z
M150 722c0 0 -1.92871 41 -83 41v37h83v-78zM149 78v-78h-83v37c81.0713 0 83 41 83 41zM500 314h92v-314h-92v314zM149 800h92v-800h-92v800z" />
    <glyph glyph-name="l" unicode="l" horiz-adv-x="310" 
d="M203 78c0 0 1.92871 -41 83 -41v-37h-83v78zM111 722c0 0 -1.92871 41 -83 41v37h83v-78zM111 78v-78h-83v37c81.0713 0 83 41 83 41zM111 800h92v-800h-92v800z" />
    <glyph glyph-name="b" unicode="b" 
d="M515 251c-1 139 -81 195 -167 195c-104 0 -160.191 -66 -160 -201l-21 108s42 163 196 163c161 0 244 -100 244 -262c0 -174 -141 -267 -248 -267c-147 0 -191 151 -191 151l20 119c0.250977 -111 55 -207 150 -207c117 0 177.842 83.999 177 201zM97 722
c0 0 -1.92871 41 -83 41v37h83v-78zM96 78v-78h-83v37c81.0713 0 83 41 83 41zM96 800h92v-800h-92v800z" />
    <glyph glyph-name="o" unicode="o" horiz-adv-x="549" 
d="M281 -13c-107 0 -238 94 -238 268c0 182 147 261 238 261c150 0 249 -89 249 -261c0 -174 -121 -268 -249 -268zM281 454c-84 0 -148.227 -79.9971 -148 -199c0.18457 -97.001 35 -212 148 -212c121 0 156.314 91.0039 157 212c0.503906 89.0049 -22 199 -157 199z" />
    <glyph glyph-name="N" unicode="N" horiz-adv-x="793" 
d="M144 768h92l420 -768h-92zM697 690v78h83v-37c-81 0 -83 -41 -83 -41zM605 690c0 0 -2 41 -83 41v37h83v-78zM605 768h92v-768h-92v768zM205 78c0 0 2 -41 83 -41v-37h-83v78zM113 690c0 0 -2 41 -83 41v37h83v-78zM113 78v-78h-83v37c81 0 83 41 83 41zM113 768h92v-768
h-92v768z" />
    <glyph glyph-name="a" unicode="a" horiz-adv-x="588" 
d="M44.7793 134.098c0 57.6445 37.2207 113.902 113.221 135.902c125.452 36.3154 249.273 23.835 250 62c0.19043 10 0 -64 0 -64s-170 -20 -218 -46c-32.7119 -17.7188 -52 -51 -52 -86c0 -59 48.7285 -83 112 -83c105 0 142.314 81.0039 143 202
c0.503906 89.0049 14 198.549 -117 199c-41.6172 0.143555 -86.7549 -21 -87 -50c-0.157215 -18.6002 34 -34 34 -34l-9 -20c-40.0557 19.5029 -114.159 -13.749 -114 -48l-16 -8.10254s-21.7686 31.1025 -21 75.1025c1.53711 88.0137 107 152 198 152
c149 0 224 -39 224 -207c0 -174 -113 -327 -255 -327c-109.963 0 -185.221 56.2969 -185.221 147.098zM393 90v224h92v-225s1.92871 -52 83 -52v-37c-140 0.756836 -174.196 40.4502 -175 90z" />
    <glyph glyph-name="space" unicode=" " horiz-adv-x="370" 
 />
    <glyph glyph-name="r" unicode="r" horiz-adv-x="511" 
d="M173 353c0 0 51 163 179 163c181 0 111 -194 111 -194l-140 -58c66.8889 86 77 181 -9 171c-45.6921 -5.31304 -121 -39 -121 -185c0 -90 -20 103 -20 103zM194 78c0 0 1.92871 -41 83 -41v-37h-83v78zM103 427c0 0 -1.92871 41 -83 41v37h83v-78zM102 78v-78h-83v37
c81.0713 0 83 41 83 41zM102 505h92v-505h-92v505z" />
    <glyph glyph-name="c" unicode="c" horiz-adv-x="556" 
d="M471 304zM286 -13c138.003 -0.665039 203.695 81 232.695 184.834l-96.6953 -21.834c-3.38965 -51.6416 -59 -109 -135 -109c-106.167 0 -147 109 -147 214c0 85.043 27.6175 199.171 167 198c35.6158 -0.299153 90.8975 -20.001 91 -58
c0.124135 -46.0019 -65 -92 -65 -92l16 -24c17.5957 22.0391 62.4199 48.4297 110 38.0605l12 -13.0605s42.9414 7.93457 42 60c-1.67969 92.9023 -110 152 -198 152c-179 0 -267 -114 -267 -261c0 -156.411 86.4932 -267.27 238 -268z" />
    <glyph glyph-name="e" unicode="e" horiz-adv-x="528" 
d="M425.932 306.895l-327.932 -0.894531l-2 -61h415c20 229 -126 271 -240 271c-98 0 -237 -79 -237 -261c0 -174 101.003 -268.836 238 -268c128.002 0.781051 203.695 81 232.695 184.834l-96.6953 -21.834c-3.38965 -51.6416 -54.7178 -108 -136 -108
c-83 0 -147.778 72.9991 -148 213c-0.157227 99.0029 48 199 156 199c85.5215 0 167.016 -65.6064 145.932 -147.105z" />
    <glyph glyph-name="d" unicode="d" horiz-adv-x="663" 
d="M129 251c1 139 81 201 167 201c104 0 160.191 -73 160 -227l21 128s-12 163 -196 163c-161 0 -244 -100 -244 -262c0 -174 141 -267 248 -267c147 0 191 151 191 151l-20 119c-0.250977 -111 -55 -207 -150 -207c-117 0 -177.842 83.999 -177 201zM456 722v78h-83v-37
c81.0713 0 83 -41 83 -41zM548 78v-78h83v37c-81.0713 0 -83 41 -83 41zM548 800h-92v-800h92v800z" />
    <glyph glyph-name="u" unicode="u" horiz-adv-x="634" 
d="M532 78c0 0 1.92871 -41 83 -41v-37h-83v78zM532 0zM461 151c0 0 -42 -163 -196 -163c-78.3623 0 -125.952 24.6904 -151.544 73c-17.1904 32.4502 -24.4561 75.5586 -24.4561 129h92c0 -90 13 -133 99 -133c89 0 161 51 161 197c0 90 20 -103 20 -103zM181 190h-92v314
h92v-314zM532 0h-92v20v485h92v-505zM440 427c0 0 -1.92871 41 -83 41v37h83v-78zM89 427c0 0 -1.92871 41 -83 41v37h83v-78z" />
    <glyph glyph-name="i" unicode="i" horiz-adv-x="310" 
d="M94 746c0 32 26 58 58 58s58 -26 58 -58s-26 -58 -58 -58s-58 26 -58 58zM198 78c0 0 1.92871 -41 83 -41v-37h-83v78zM106 426c0 0 -1.92871 41 -83 41v37h83v-78zM106 78v-78h-83v37c81.0713 0 83 41 83 41zM106 504h92v-504h-92v504z" />
    <glyph glyph-name="g" unicode="g" horiz-adv-x="647" 
d="M422 20c0 0 19 -183 -152 -183c-62.4102 0 -82.1494 15.5732 -99 37.6426c-4.81055 5.46387 -7 11.916 -7 19.3574c0 37 82 56 82 56l-8 22c-119.308 -36.9053 -134.102 4.30078 -157 60l-25 5s-22.3916 -65.4424 -2 -120c30.1416 -80.6416 114 -131 216 -131
c244 0 244 214 244 214zM514 427c0 -0.514405 1.92871 36.6226 83 41v37h-83v-78zM135 271c1 129 81 181 137 181c104 0 150.191 -53 150 -207l21 98s-7 173 -171 173c-141 0 -229 -90 -229 -242c0 -174 101 -247 218 -247c147 0 181 151 181 151l-20 119
c-0.250977 -111 -55 -207 -140 -207c-97 0 -147.907 63.999 -147 181zM514 506h-92v-486l92 -20v506z" />
    <glyph glyph-name="p" unicode="p" horiz-adv-x="677" 
d="M204 -122c0 0 1.92871 -41 83 -41v-37h-83v78zM531 251c-1 139 -81 195 -167 195c-104 0 -160.191 -66 -160 -201l-21 108s42 163 196 163c161 0 244 -100 244 -262c0 -174 -141 -267 -248 -267c-147 0 -191 151 -191 151l20 119c0.250977 -111 55 -207 150 -207
c117 0 177.842 83.999 177 201zM113 427c0 0 -1.92871 41 -83 41v37h83v-78zM112 -122v-78h-83v37c81.0713 0 83 41 83 41zM112 505h92v-705h-92v705z" />
    <glyph glyph-name="q" unicode="q" horiz-adv-x="663" 
d="M134 271c-0.907227 -155.001 76 -234 153 -234c105 0 153.749 109 154 260l30 -119s-16 -191 -193 -191c-117 0 -236 113 -236 287c0 152 106 242 217 242c149 0 199 -61 199 -173c0 -38.2754 -17 -98 -17 -98c0.191406 194 -67 207 -161 207
c-54 0 -145.245 -51.9983 -146 -181zM533 427v78h83v-37c-81.0713 -4.37695 -83 -41.5146 -83 -41zM533 -122c0 0 1.92871 -41 83 -41v-37h-83v78zM441 -122v-78h-83v37c81.0713 0 83 41 83 41zM441 505h92v-705h-92c0.285657 235 -3.23817 470 0 705z" />
    <glyph glyph-name="f" unicode="f" horiz-adv-x="419" 
d="M231.744 812c80 0 130.179 -40.9385 141 -94c8.86621 -43.4766 -10.6064 -83 -38 -104l-25 -8c9.58496 26 -43.4043 50.0391 -61 29l-16 24s45.2617 16.999 45 52c-0.134766 17.999 -10 39 -56 39c-34.1357 0 -80 -22 -80 -70c0 -76 101.931 -77 102 -163v-77h-92
s2 27 2 77s-87 58 -87 163c0 91 67 132 165 132zM243.744 78c0 0 1.92871 -41 83 -41v-37h-83v78zM381.744 468h-362v48h362v-48zM151.744 78v-78h-83v37c81.0713 0 83 41 83 41zM151.744 505h92v-505h-92v505z" />
    <glyph glyph-name="s" unicode="s" horiz-adv-x="472" 
d="M234.593 53.8975c64.8301 -0.897461 119.295 27.9014 118.559 82.1025c-1.7793 131 -310.325 36 -310.779 247c-0.160156 74.2812 55 133 172.779 133c94.1182 0 114.357 -60.6777 193.221 -11.874l8 -13.126c0.393555 1.43555 -27.5762 -119.813 -40 -165.103
l-16 8.10254c0 6.57812 -0.78125 120 -145.221 120c-50.0166 0 -87.7793 -25 -87.7793 -71c3.82715 -120 319 -55 319 -248.902c0 -92.0977 -78.6992 -146.015 -207.221 -146.098c-116.118 -0.0751953 -119.357 73.6777 -198.221 9.87402l-8 13.126
c-0.393555 -1.43555 46.0176 120.711 58.4414 166l16 -8.10254c0 -6.57812 -17.2187 -115 127.221 -115z" />
    <glyph glyph-name="j" unicode="j" horiz-adv-x="246" 
d="M94 746c0 32 26 58 58 58s58 -26 58 -58s-26 -58 -58 -58s-58 26 -58 58zM106 427c0 0 -1.92871 41 -83 41v37h83v-78zM198 -49.5c0 -128 -67 -162 -165 -162c-80 0 -147.179 40.9385 -158 94c-8.86621 43.4766 10.6064 83 38 104l25 8
c-9.58496 -26 43.4043 -50.0391 61 -29l16 -24s-45.2617 -16.999 -45 -52c0.134766 -17.999 10.0039 -38.3652 56 -39c34.1357 -0.470703 80 21.4453 80 70v79.5v505h92v-505v-49.5z" />
    <glyph glyph-name="t" unicode="t" horiz-adv-x="381" 
d="M363 130c-1 -62 -50 -142 -133 -142c-72.0039 0 -128 37 -129 120v537h92v-537c0 0 -7 -72 63 -72c53 0 63 70 63 70zM101 645c0 0 56 3 56 84h36v-84h-92zM345 468h-342v48h342v-48z" />
    <glyph glyph-name="k" unicode="k" horiz-adv-x="643" 
d="M527 68c0 0 14.9287 -31 80 -31v-37h-135zM252 310l60 58l215 -300l-55 -68zM150 251c92 3 207 267 442 267l-13 -31c-59.5654 -5.30566 -84.2148 -70.249 -34 -131l-22 -14s-22.4682 68.3194 -96 44c-78.1184 -25.8363 -203 -201 -285 -201zM204 78
c0 0 1.92871 -41 83 -41v-37h-83v78zM112 722c0 0 -1.92871 41 -83 41v37h83v-78zM112 78v-78h-83v37c81.0713 0 83 41 83 41zM112 800h92v-800h-92v800z" />
    <glyph glyph-name="v" unicode="v" horiz-adv-x="656" 
d="M535 427v77h83v-37c-81.0713 0 -83 -40 -83 -40zM481 426c0 0 -1.92871 41 -83 41v37h113zM313.096 0l197.809 504h53l-197.809 -504h-53zM104 427c0 0 -1.92871 40 -83 40v37h83v-77zM196 426l-30 78h113v-37c-81.0713 0 -83 -41 -83 -41zM365.904 0h-92l-197.809 504
h92z" />
    <glyph glyph-name="y" unicode="y" horiz-adv-x="698" 
d="M435 0c-59 -163 -125 -212 -223 -212c-100 0 -167 41 -178 94c-9 43 11 83 38 104l25 8c-10 -26 43 -49 61 -28l16 -24s-45 -17 -45 -52c0 -32 34.9893 -52 66 -52c75 0 111 28.5 167 162h73zM604 427v77h83v-37c-81 0 -83 -40 -83 -40zM530 426c0 0 -2 41 -83 41v37h113
zM362 0l198 504h73l-198 -504h-73zM180 427c0 0 -2 40 -83 40v37h83v-77zM258 426l-30 78h113v-37c-81 0 -83 -41 -83 -41zM374 0l-228 504h84l197.687 -425z" />
    <glyph glyph-name="z" unicode="z" horiz-adv-x="532" 
d="M117 2h-95l397 502h99zM439 72c0 0 41 2 41 83h37v-83h-78zM102 2v70h415v-70h-415zM130 434c0 0 -41 -2 -41 -83h-37v83h78zM52 434v70h465l-110 -70h-355z" />
    <glyph glyph-name="x" unicode="x" horiz-adv-x="572" 
d="M118 77l-6 -77h-83v37c57 0 89 40 89 40zM171 77c0 0 -32 -40 83 -40v-37h-144zM131 425c0 0 -30 42 -89 42v37h83zM222 426l-54 78h113v-37c-93 0 -59 -41 -59 -41zM460 79c0 0 30 -42 89 -42v-37h-83zM370 78l53 -78h-113v37c91 0 60 41 60 41zM449 427l6 77h83v-37
c-57 0 -89 -40 -89 -40zM395 427c0 0 34 40 -83 40v37h144zM57 0l399 504h54l-400 -504h-53zM515 0h-92l-347 504h92z" />
    <glyph glyph-name="w" unicode="w" horiz-adv-x="1040" 
d="M939 427v77h83v-37c-81.0713 0 -83 -40 -83 -40zM885 426c0 0 -1.92871 41 -83 41v37h113zM717.096 0l197.809 504h53l-197.809 -504h-53zM602 426l-30 78h113v-37c-81.0713 0 -83 -41 -83 -41zM769.904 0h-92l-197.809 504h92zM563 427v77h83v-37
c-81.0713 0 -83 -40 -83 -40zM509 426c0 0 -1.92871 41 -83 41v37h113zM341.096 0l197.809 504h53l-197.809 -504h-53zM132 427c0 0 -1.92871 40 -83 40v37h83v-77zM226 426l-30 78h113v-37c-81.0713 0 -83 -41 -83 -41zM393.904 0h-92l-197.809 504h92z" />
    <glyph glyph-name="D" unicode="D" horiz-adv-x="673" 
d="M306 0h-122l1 74h122c206 0 261 182 261 340c0 114 -62 288 -242 288h-140l18 66h102c260 0 344 -218 344 -358c0 -148 -67 -410 -344 -410zM121 690c0 0 -1.92871 41 -83 41v37h83v-78zM121 78v-78h-83v37c81.0713 0 83 41 83 41zM213 768v-768h-92v768h92z" />
    <glyph glyph-name="E" unicode="E" 
d="M463 358h78v-83h-37c0 81 -41 83 -41 83zM463 427c0 0 41 2 41 83h37v-83h-78zM541 427v-69h-378v69h378zM533 690h78v-82h-36c0 68 -42 82 -42 82zM611 690h-468h-32v78h500v-78zM533 78c5 0 42 14 42 82h36v-82h-78zM611 78v-78h-500v78h500zM111 690c0 0 -2 41 -83 41
v37h83v-78zM111 78v-78h-83v37c81 0 83 41 83 41zM111 768h92v-768h-92v768z" />
    <glyph glyph-name="F" unicode="F" 
d="M610 767l20 -156h-37c-10 81 -61 83 -61 83h-372v74zM203 78c0 0 2 -41 83 -41v-37h-83v78zM463 358h78v-83h-37c0 81 -41 83 -41 83zM463 427c0 0 41 2 41 83h37v-83h-78zM541 427v-69h-378v69h378zM111 690c0 0 -2 41 -83 41v37h83v-78zM111 78v-78h-83v37
c81 0 83 41 83 41zM111 768h92v-768h-56h-23h-13v768z" />
    <glyph glyph-name="G" unicode="G" horiz-adv-x="752" 
d="M635 280c0 0 2 41 83 41v37h-87zM543 280l-3 78h-80v-37c81 0 83 -41 83 -41zM343 57c-134 0 -209 141 -209 337s90 323 236 323c134 0 179 -77 179 -158l16 -8c12 45 90 206 90 205l-18 12c-89 -79 -66 14 -270 14c-194 0 -342 -175 -342 -390s115.994 -406.03 318 -406
c204 0.0302734 228.879 201 267 14h23c50 93 -7 146.379 -7 240c0 85 92 118 92 118h-248s81 1 81 -149c0 -64.0312 -73 -152 -208 -152z" />
    <glyph glyph-name="H" unicode="H" horiz-adv-x="720" 
d="M197 445l169 -32l169 32l19 -63l-188 -37l-196 37zM627 690v78h83v-37c-81 0 -83 -41 -83 -41zM627 78c0 0 2 -41 83 -41v-37h-83v78zM535 690c0 0 -2 41 -83 41v37h83v-78zM535 78v-78h-83v37c81 0 83 41 83 41zM535 768h92v-768h-92v768zM197 690v78h83v-37
c-81 0 -83 -41 -83 -41zM197 78c0 0 2 -41 83 -41v-37h-83v78zM105 690c0 0 -2 41 -83 41v37h83v-78zM105 78v-78h-83v37c81 0 83 41 83 41zM105 768h92v-768h-92v768z" />
    <glyph glyph-name="I" unicode="I" horiz-adv-x="333" 
d="M215 690v78h83v-37c-81 0 -83 -41 -83 -41zM215 78c0 0 2 -41 83 -41v-37h-83v78zM123 690c0 0 -2 41 -83 41v37h83v-78zM123 78v-78h-83v37c81 0 83 41 83 41zM123 768h92v-768h-92v768z" />
    <glyph glyph-name="L" unicode="L" 
d="M203 690v78h83v-37c-81 0 -83 -41 -83 -41zM532 78c-9 0 42 14 42 82h36v-82h-78zM610 78v-78h-500v78h500zM111 690c0 0 -2 41 -83 41v37h83v-78zM111 78v-78h-83v37c81 0 83 41 83 41zM111 768h92v-768h-92v768z" />
    <glyph glyph-name="O" unicode="O" horiz-adv-x="722" 
d="M127 392c0 -196 86 -335 230 -335s230 139 230 335s-86 325 -230 325s-230 -129 -230 -325zM25 392c0 215 138 390 332 390s332 -175 332 -390s-138 -406 -332 -406s-332 191 -332 406z" />
    <glyph glyph-name="P" unicode="P" horiz-adv-x="601" 
d="M213 78c0 0 1.92871 -41 83 -41v-37h-83v78zM304 768c160 0 270 -46 270 -179c0 -170 -138 -212 -282 -212h-88c-4 0 0 60 0 60h74c188 0 212 93 212 145c0 72 -38 124 -212 124c-78 0 -65 0 -65 0v62h91zM121 690c0 0 -1.92871 41 -83 41v37h83v-78zM121 78v-78h-83v37
c81.0713 0 83 41 83 41zM213 768v-768h-92v768h92z" />
    <glyph glyph-name="Q" unicode="Q" horiz-adv-x="730" 
d="M347 -91l-24 -24s-103 91 -103 173c0 33 15 112 116 112c136 0 124 -228 220 -228c77 0 80 33 134 33l5 -22s-81.376 -9.17578 -75 -125l-8 -8c-197 0 -196 303 -276 303c-75 0 -63.8037 -63.0322 -56 -92c11.583 -43 67 -122 67 -122zM131 392c0 -196 86 -335 230 -335
s230 139 230 335s-86 325 -230 325s-230 -129 -230 -325zM29 392c0 215 138 390 332 390s332 -175 332 -390s-138 -406 -332 -406s-332 191 -332 406z" />
    <glyph glyph-name="R" unicode="R" horiz-adv-x="648" 
d="M539 0c-131.076 0 -150.16 377 -229 377l77 24c83.5693 0 85.6406 -364 220 -364v-37h-68zM213 78c0 0 1.92871 -41 83 -41v-37h-83v78zM304 768c160 0 270 -46 270 -179c0 -170 -138 -212 -282 -212h-88c-4 0 0 60 0 60h74c188 0 212 93 212 145c0 72 -38 124 -212 124
c-78 0 -65 0 -65 0v62h91zM121 690c0 0 -1.92871 41 -83 41v37h83v-78zM121 78v-78h-83v37c81.0713 0 83 41 83 41zM213 768v-768h-92v768h92z" />
    <glyph glyph-name="T" unicode="T" horiz-adv-x="713" 
d="M305 768h92v-768h-92v768zM305 78v-78h-83v37c81 0 83 41 83 41zM397 78c0 0 2 -41 83 -41v-37h-83v78zM665 613h-37c-10 81 -61 83 -61 83h-432s-51 -2 -61 -83h-37l20 156h588z" />
    <glyph glyph-name="V" unicode="V" horiz-adv-x="810" 
d="M712 691l-1 77h83v-37c-69 0 -82 -40 -82 -40zM638 690c0 0 13 41 -84 41l1 37h109zM227 690l-24 78h111v-37c-100 0 -87 -41 -87 -41zM126 690c0 0 -13 41 -83 41v37h83v-78zM740 768l-280 -768h-111l-248 768h102l215 -700l246 700h76z" />
    <glyph glyph-name="W" unicode="W" horiz-adv-x="1196" 
d="M1090 691l-1 77h83v-37c-69 0 -82 -40 -82 -40zM1015 690c0 0 13 41 -86 41l1 37h109zM658 692l-20 76h111v-37c-100 0 -91 -39 -91 -39zM1115 768l-250 -768h-111l-218 768h102l185 -700l216 700h76zM552 690c0 0 13 41 -86 41l1 37h109zM195 692l-20 76h111v-37
c-100 0 -91 -39 -91 -39zM95 690c0 0 -13 41 -83 41v37h83v-78zM652 768l-250 -768h-111l-218 768h102l185 -700l216 700h76z" />
    <glyph glyph-name="M" unicode="M" horiz-adv-x="1019" 
d="M889 690v78h83v-37c-81 0 -83 -41 -83 -41zM889 78c0 0 2 -41 83 -41v-37h-83v78zM797 78v-78h-83v37c81 0 83 41 83 41zM797 768h92v-768h-92v768zM208 78c0 0 2 -41 83 -41v-37h-83v78zM116 690c0 0 -2 41 -83 41v37h83v-78zM116 78v-78h-83v37c81 0 83 41 83 41z
M116 768h92v-768h-92v768zM824 768l-280 -768h-111l-248 768h85l224 -691l245 691h85z" />
    <glyph glyph-name="S" unicode="S" horiz-adv-x="728" 
d="M364 -14c-202 0 -252 102.535 -328 14l-18 12c0 -1 78 170 90 215l16 -8c0 -151 148 -164 240 -164c129 0 204 61 204 148c0 164 -504 115 -504 389c0 111 100 190 270 190c204 0 208 -139 308 -14c4 5 8 -13 8 -13c0 1 -55 -183 -67 -228c0 0 -16 2 -16 8
c-2 64 -79 176 -243 176c-72 0 -178 -39 -178 -116c0 -188 508 -110 508 -392c0 -146 -102 -217 -290 -217z" />
    <glyph glyph-name="J" unicode="J" horiz-adv-x="460" 
d="M94 122c0 -45 24 -76 72 -76c38 0 97 10.9706 97 114h92c0 -138 -103 -172 -191 -172c-89 0 -134 64 -134 134c0 82 68 112 102 112c94 0 76 -90 76 -90c-65.5744 66 -114 21 -114 -22zM355 690v78h83v-37c-81 0 -83 -41 -83 -41zM263 690c0 0 -2 41 -83 41v37h83v-78z
M263 768h92v-608h-92v608z" />
    <glyph glyph-name="K" unicode="K" horiz-adv-x="790" 
d="M308 471l90 20l282 -491h-102zM579 768h92l-460 -508h-92zM636 78c0 0 24 -41 127 -41v-37h-83zM534 78l44 -78h-113v37c92 0 69 41 69 41zM600 690l8 78h102v-37c-80 0 -110 -41 -110 -41zM508 690c0 0 47 41 -83 41v37h154zM213 690v78h83v-37c-81 0 -83 -41 -83 -41z
M213 78c0 0 2 -41 83 -41v-37h-83v78zM121 690c0 0 -2 41 -83 41v37h83v-78zM121 78v-78h-83v37c81 0 83 41 83 41zM121 768h92v-768h-92v768z" />
    <glyph glyph-name="quotesingle" unicode="'" horiz-adv-x="274" 
d="M58 503c0 0 204 103 204 259l-15 6s-16 -20 -53 -20c-29 0 -57 20 -57 20l-17 -10s30 -20 30 -57c0 -117.282 -101.087 -171 -101.087 -171z" />
    <glyph glyph-name="U" unicode="U" horiz-adv-x="774" 
d="M133 271l92 40c0 -179 38 -247 165 -247c171 0 193 71.1982 193 247l92 -51c0 -129 -52 -272 -287 -272c-217 0 -255 167 -255 283zM675 690v78h83v-37c-81 0 -83 -41 -83 -41zM583 690c0 0 -2 41 -83 41v37h83v-78zM583 768h92v-508h-92v508zM225 690v78h83v-37
c-81 0 -83 -41 -83 -41zM133 690c0 0 -2 41 -83 41v37h83v-78zM133 768h92v-508h-92v508z" />
    <glyph glyph-name="X" unicode="X" horiz-adv-x="892" 
d="M600 686c0 0 36 45 -80 45v37h138zM170 78l-55 -78h-83v37c121 0 138 41 138 41zM690 684l60 84h83v-37c-117 0 -143 -47 -143 -47zM262 78c0 0 -38 -41 83 -41v-37h-138zM750 768l-543 -768h-92l543 768h92zM310 694l-50 74h135v-37c-118 0 -85 -37 -85 -37zM723 84
c0 0 23 -47 140 -47v-37h-83zM221 690c0 0 -18 41 -136 41v37h83zM634 80l54 -80h-136v37c120 0 82 43 82 43zM168 768h92l520 -768h-92z" />
    <glyph glyph-name="Y" unicode="Y" horiz-adv-x="795" 
d="M437 78c0 0 2 -41 83 -41v-37h-83v78zM345 78v-78h-83v37c81 0 83 41 83 41zM345 418h92v-418h-92v418zM545 686c0 0 31 45 -85 45v37h138zM635 684l55 84h83v-37c-117 0 -138 -47 -138 -47zM690 768l-252 -390h-92l252 390h92zM245 694l-45 74h135v-37
c-118 0 -90 -37 -90 -37zM155 691c0 0 -22 40 -132 40l2 37h83zM108 768h92l238 -390h-92z" />
    <glyph glyph-name="Z" unicode="Z" horiz-adv-x="711" 
d="M640 768l-613 -694l42 -74l611 694zM667 0l20 157h-37c-10 -81 -61 -83 -61 -83h-562v-74h640zM680 694l-40 74h-570l-20 -157h37c10 81 61 83 61 83h532z" />
    <glyph glyph-name="acute" unicode="&#xb4;" horiz-adv-x="630" 
d="M248 583c0 0 144 63 164 179l-15 6s-16 -20 -53 -20c-29 0 -57 20 -57 20l-17 -10s30 -25 30 -57c0 -48.2822 -61.0869 -101 -61.0869 -101z" />
    <glyph glyph-name="slash" unicode="/" horiz-adv-x="406" 
d="M304 800h72l-280 -870h-72z" />
    <glyph glyph-name="grave" unicode="`" horiz-adv-x="630" 
d="M502.913 583c0 0 -144 63 -164 179l15 6s16 -20 53 -20c29 0 57 20 57 20l17 -10s-30 -25 -30 -57c0 -48.2822 61.0869 -101 61.0869 -101z" />
    <glyph glyph-name="asciicircum" unicode="^" horiz-adv-x="630" 
d="M234 583l-9.08691 17s74.0869 52.7178 74.0869 101c0 32 -12 61 -12 61h21s13 -14 42 -14c17 0 19 -10 19 -10l19 14c0 -102 -154 -169 -154 -169zM472.913 583c0 0 -164 63 -184 179l15 6s9 -20 46 -20c30 0 40 20 40 20l17 -10s-19 -25 -19 -57
c0 -48.2822 94.0869 -101 94.0869 -101z" />
    <glyph glyph-name="quotedbl" unicode="&#x22;" horiz-adv-x="506" 
d="M258 503c0 0 204 103 204 259l-15 6s-16 -20 -53 -20c-29 0 -57 20 -57 20l-17 -10s30 -20 30 -57c0 -117.282 -101.087 -171 -101.087 -171zM38 503c0 0 204 103 204 259l-15 6s-16 -20 -53 -20c-29 0 -57 20 -57 20l-17 -10s30 -20 30 -57
c0 -117.282 -101.087 -171 -101.087 -171z" />
    <glyph glyph-name="comma" unicode="," horiz-adv-x="244" 
d="M28 -183c0 0 204 103 204 259l-15 6s-16 -20 -53 -20c-29 0 -57 20 -57 20l-17 -10s30 -20 30 -57c0 -117.282 -101.087 -171 -101.087 -171z" />
    <glyph glyph-name="period" unicode="." horiz-adv-x="210" 
d="M56.2998 58c0 31.752 24.9482 56.7002 56.7002 56.7002s56.7002 -24.9482 56.7002 -56.7002s-24.9482 -56.7002 -56.7002 -56.7002s-56.7002 24.9482 -56.7002 56.7002z" />
    <glyph glyph-name="colon" unicode=":" horiz-adv-x="210" 
d="M56.2998 297c0 31.752 24.9482 56.7002 56.7002 56.7002s56.7002 -24.9482 56.7002 -56.7002s-24.9482 -56.7002 -56.7002 -56.7002s-56.7002 24.9482 -56.7002 56.7002zM56.2998 57c0 31.752 24.9482 56.7002 56.7002 56.7002s56.7002 -24.9482 56.7002 -56.7002
s-24.9482 -56.7002 -56.7002 -56.7002s-56.7002 24.9482 -56.7002 56.7002z" />
    <glyph glyph-name="semicolon" unicode=";" horiz-adv-x="210" 
d="M-29 -183c0 0 204 103 204 259l-15 6s-16 -20 -53 -20c-29 0 -57 20 -57 20l-17 -10s30 -20 30 -57c0 -117.282 -101.087 -171 -101.087 -171zM56.2998 277c0 31.752 24.9482 56.7002 56.7002 56.7002s56.7002 -24.9482 56.7002 -56.7002
s-24.9482 -56.7002 -56.7002 -56.7002s-56.7002 24.9482 -56.7002 56.7002z" />
    <glyph glyph-name="cedilla" unicode="&#xb8;" horiz-adv-x="556" 
d="M242 0v-76c60 0 98 -7.9375 98 -40c0 -17 -4 -38.5 -52 -38.5c-58 0 -76 42.5 -76 42.5h-30c-2.56836 -53.9385 70 -81 106 -81s122 0 122 75s-102 76 -102 76v42h-66z" />
    <glyph glyph-name="ccedilla" unicode="&#xe7;" horiz-adv-x="556" 
d="M253 -6.57031v-76c60 0 98 -7.9375 98 -40c0 -17 -4 -38.5 -52 -38.5c-58 0 -76 42.5 -76 42.5h-30c-2.56836 -53.9385 70 -81 106 -81s122 0 122 75s-102 76 -102 76v42h-66zM471 304zM286 -13c138.003 -0.665039 203.695 81 232.695 184.834l-96.6953 -21.834
c-3.38965 -51.6416 -59 -109 -135 -109c-106.167 0 -147 109 -147 214c0 85.043 27.6172 199.171 167 198c35.6162 -0.298828 90.8975 -20.001 91 -58c0.124023 -46.002 -65 -92 -65 -92l16 -24c17.5957 22.0391 62.4199 48.4297 110 38.0605l12 -13.0605
s42.9414 7.93457 42 60c-1.67969 92.9023 -110 152 -198 152c-179 0 -267 -114 -267 -261c0 -156.411 86.4932 -267.27 238 -268z" />
    <glyph glyph-name="question" unicode="?" horiz-adv-x="438" 
d="M402 538h-86c3.2998 -125.992 -138.879 -134 -140 -258c-0.541992 -59.9971 0 -96 0 -96h43h44s1.00684 50.0107 0 96c-2.14453 98 139 112 139 258zM91 576c0 45 51 85 99 85c98 0 126 -39.9707 126 -123h86c0 148 -86 181 -214 181c-89 0 -161 -73 -161 -143
c0 -82 68 -112 102 -112c94 0 76 90 76 90c-65.5742 -66 -114 -21 -114 22zM160.3 57c0 31.752 24.9482 56.7002 56.7002 56.7002s56.7002 -24.9482 56.7002 -56.7002s-24.9482 -56.7002 -56.7002 -56.7002s-56.7002 24.9482 -56.7002 56.7002z" />
    <glyph glyph-name="exclam" unicode="!" horiz-adv-x="206" 
d="M66 185l-10 537h99l-10 -537h-79zM48.2998 58c0 31.752 24.9482 56.7002 56.7002 56.7002s56.7002 -24.9482 56.7002 -56.7002s-24.9482 -56.7002 -56.7002 -56.7002s-56.7002 24.9482 -56.7002 56.7002z" />
    <glyph glyph-name="dieresis" unicode="&#xa8;" horiz-adv-x="516" 
d="M338.3 683c0 31.752 24.9482 56.7002 56.7002 56.7002s56.7002 -24.9482 56.7002 -56.7002s-24.9482 -56.7002 -56.7002 -56.7002s-56.7002 24.9482 -56.7002 56.7002zM157.3 683c0 31.752 24.9482 56.7002 56.7002 56.7002s56.7002 -24.9482 56.7002 -56.7002
s-24.9482 -56.7002 -56.7002 -56.7002s-56.7002 24.9482 -56.7002 56.7002z" />
    <glyph glyph-name="degree" unicode="&#xb0;" horiz-adv-x="378" 
d="M237.449 673c0 -27.1289 20.4219 -47.5508 47.5508 -47.5508s47.5508 20.4219 47.5508 47.5508s-20.4219 47.5508 -47.5508 47.5508s-47.5508 -20.4219 -47.5508 -47.5508zM203.3 673c0 45.418 36.2822 81.7002 81.7002 81.7002s81.7002 -36.2822 81.7002 -81.7002
s-36.2822 -81.7002 -81.7002 -81.7002s-81.7002 36.2822 -81.7002 81.7002z" />
    <glyph glyph-name="asciitilde" unicode="~" horiz-adv-x="580" 
d="M128 653l-17 16s45 96 121 96s99 -64 167 -64s107 64 107 64l18 -14s-60 -114 -122 -114s-95 65 -169 65c-72 0 -105 -49 -105 -49z" />
    <glyph glyph-name="macron" unicode="&#xaf;" horiz-adv-x="514" 
d="M92 768h324v-56h-324v56z" />
    <glyph glyph-name="Ocircumflex" unicode="&#xd4;" horiz-adv-x="722" 
d="M237.544 842l-9.08691 17s74.0869 52.7178 74.0869 101c0 32 -12 61 -12 61h21s13 -14 42 -14c17 0 19 -10 19 -10l19 14c0 -102 -154 -169 -154 -169zM476.457 842c0 0 -164 63 -184 179l15 6s9 -20 46 -20c30 0 40 20 40 20l17 -10s-19 -25 -19 -57
c0 -48.2822 94.0869 -101 94.0869 -101zM127 392c0 -196 86 -335 230 -335s230 139 230 335s-86 325 -230 325s-230 -129 -230 -325zM25 392c0 215 138 390 332 390s332 -175 332 -390s-138 -406 -332 -406s-332 191 -332 406z" />
    <glyph glyph-name="Agrave" unicode="&#xc0;" horiz-adv-x="840" 
d="M499 843c0 0 -144 63 -164 179l15 6s16 -20 53 -20c29 0 57 20 57 20l17 -10s-30 -25 -30 -57c0 -48.2822 61.0869 -101 61.0869 -101zM99 78v-78h-83v37c71 0 83 41 83 41zM177 78c0 0 -15 -41 83 -41v-37h-114zM637 78l33 -78h-116v37c104 0 83 41 83 41zM739 78
c0 0 15 -41 83 -41v-37h-83v78zM251 385l169 -32l169 32l19 -63l-188 -37l-196 37zM489 783l278 -783h-102l-245.133 689.605l-228.594 -575.605l-45.2734 -114h-78l305 769s53.333 -12.2803 116 14z" />
    <glyph glyph-name="Aacute" unicode="&#xc1;" horiz-adv-x="840" 
d="M439 843c0 0 144 63 164 179l-15 6s-16 -20 -53 -20c-29 0 -57 20 -57 20l-17 -10s30 -25 30 -57c0 -48.2822 -61.0869 -101 -61.0869 -101zM99 78v-78h-83v37c71 0 83 41 83 41zM177 78c0 0 -15 -41 83 -41v-37h-114zM637 78l33 -78h-116v37c104 0 83 41 83 41zM739 78
c0 0 15 -41 83 -41v-37h-83v78zM251 385l169 -32l169 32l19 -63l-188 -37l-196 37zM489 783l278 -783h-102l-245.133 689.605l-228.594 -575.605l-45.2734 -114h-78l305 769s53.333 -12.2803 116 14z" />
    <glyph glyph-name="Acircumflex" unicode="&#xc2;" horiz-adv-x="840" 
d="M319.544 843l-9.08691 17s74.0869 52.7178 74.0869 101c0 32 -12 61 -12 61h21s13 -14 42 -14c17 0 19 -10 19 -10l19 14c0 -102 -154 -169 -154 -169zM558.457 843c0 0 -164 63 -184 179l15 6s9 -20 46 -20c30 0 40 20 40 20l17 -10s-19 -25 -19 -57
c0 -48.2822 94.0869 -101 94.0869 -101zM99 78v-78h-83v37c71 0 83 41 83 41zM177 78c0 0 -15 -41 83 -41v-37h-114zM637 78l33 -78h-116v37c104 0 83 41 83 41zM739 78c0 0 15 -41 83 -41v-37h-83v78zM251 385l169 -32l169 32l19 -63l-188 -37l-196 37zM489 783l278 -783
h-102l-245.133 689.605l-228.594 -575.605l-45.2734 -114h-78l305 769s53.333 -12.2803 116 14z" />
    <glyph glyph-name="Atilde" unicode="&#xc3;" horiz-adv-x="840" 
d="M264.5 859l-17 16s45 96 121 96s99 -64 167 -64s107 64 107 64l18 -14s-60 -114 -122 -114s-95 65 -169 65c-72 0 -105 -49 -105 -49zM99 78v-78h-83v37c71 0 83 41 83 41zM177 78c0 0 -15 -41 83 -41v-37h-114zM637 78l33 -78h-116v37c104 0 83 41 83 41zM739 78
c0 0 15 -41 83 -41v-37h-83v78zM251 385l169 -32l169 32l19 -63l-188 -37l-196 37zM489 783l278 -783h-102l-245.133 689.605l-228.594 -575.605l-45.2734 -114h-78l305 769s53.333 -12.2803 116 14z" />
    <glyph glyph-name="Adieresis" unicode="&#xc4;" horiz-adv-x="840" 
d="M466.8 909.7c0 31.752 24.9482 56.7002 56.7002 56.7002s56.7002 -24.9482 56.7002 -56.7002s-24.9482 -56.7002 -56.7002 -56.7002s-56.7002 24.9482 -56.7002 56.7002zM285.8 909.7c0 31.752 24.9482 56.7002 56.7002 56.7002s56.7002 -24.9482 56.7002 -56.7002
s-24.9482 -56.7002 -56.7002 -56.7002s-56.7002 24.9482 -56.7002 56.7002zM99 78v-78h-83v37c71 0 83 41 83 41zM177 78c0 0 -15 -41 83 -41v-37h-114zM637 78l33 -78h-116v37c104 0 83 41 83 41zM739 78c0 0 15 -41 83 -41v-37h-83v78zM251 385l169 -32l169 32l19 -63
l-188 -37l-196 37zM489 783l278 -783h-102l-245.133 689.605l-228.594 -575.605l-45.2734 -114h-78l305 769s53.333 -12.2803 116 14z" />
    <glyph glyph-name="Aring" unicode="&#xc5;" horiz-adv-x="840" 
d="M380.449 859.254c0 -27.1289 20.4219 -47.5508 47.5508 -47.5508s47.5508 20.4219 47.5508 47.5508s-20.4219 47.5508 -47.5508 47.5508s-47.5508 -20.4219 -47.5508 -47.5508zM346.3 859.254c0 45.418 36.2822 81.7002 81.7002 81.7002
s81.7002 -36.2822 81.7002 -81.7002s-36.2822 -81.7002 -81.7002 -81.7002s-81.7002 36.2822 -81.7002 81.7002zM99 78v-78h-83v37c71 0 83 41 83 41zM177 78c0 0 -15 -41 83 -41v-37h-114zM637 78l33 -78h-116v37c104 0 83 41 83 41zM739 78c0 0 15 -41 83 -41v-37h-83v78z
M251 385l169 -32l169 32l19 -63l-188 -37l-196 37zM489 783l278 -783h-102l-245.133 689.605l-228.594 -575.605l-45.2734 -114h-78l305 769s53.333 -12.2803 116 14z" />
    <glyph glyph-name="Ccedilla" unicode="&#xc7;" horiz-adv-x="686" 
d="M341 -7.56641v-76c60 0 98 -7.9375 98 -40c0 -17 -4 -38.5 -52 -38.5c-58 0 -76 42.5 -76 42.5h-30c-2.56836 -53.9385 70 -81 106 -81s122 0 122 75s-102 76 -102 76v42h-66zM374 57c-144 0 -259 141 -259 337s120 323 266 323c134 0 179 -77 179 -158l16 -8
c12 45 90 206 90 205l-18 12c-89 -79 -66 14 -270 14c-194 0 -372 -175 -372 -390s165.994 -406.03 368 -406c204 0.0302734 186 139.29 286 14c3.79492 -4.75391 8 13 8 13c0 -1 -55 183 -67 228c0 0 -15.7998 -1.60059 -16 -8c-2 -64 -46 -176 -211 -176z" />
    <glyph glyph-name="Egrave" unicode="&#xc8;" 
d="M369.5 842c0 0 -144 63 -164 179l15 6s16 -20 53 -20c29 0 57 20 57 20l17 -10s-30 -25 -30 -57c0 -48.2822 61.0869 -101 61.0869 -101zM463 358h78v-83h-37c0 81 -41 83 -41 83zM463 427c0 0 41 2 41 83h37v-83h-78zM541 427v0v-69h-378v69h378zM533 690h78v-82h-36
c0 68 -42 82 -42 82c2 0 0 0 0 0zM611 690h-468h-32v78h500v-78zM533 78v0c5 0 42 14 42 82h36v-82h-78zM611 78v-78h-500v78h500zM111 690c0 0 -2 41 -83 41v37h83v-78zM111 78v-78h-83v37c81 0 83 41 83 41zM111 768v0h92v-768h-92v768z" />
    <glyph glyph-name="Eacute" unicode="&#xc9;" 
d="M269.5 842c0 0 144 63 164 179l-15 6s-16 -20 -53 -20c-29 0 -57 20 -57 20l-17 -10s30 -25 30 -57c0 -48.2822 -61.0869 -101 -61.0869 -101zM463 358h78v-83h-37c0 81 -41 83 -41 83zM463 427c0 0 41 2 41 83h37v-83h-78zM541 427v0v-69h-378v69h378zM533 690h78v-82
h-36c0 68 -42 82 -42 82c2 0 0 0 0 0zM611 690h-468h-32v78h500v-78zM533 78v0c5 0 42 14 42 82h36v-82h-78zM611 78v-78h-500v78h500zM111 690c0 0 -2 41 -83 41v37h83v-78zM111 78v-78h-83v37c81 0 83 41 83 41zM111 768v0h92v-768h-92v768z" />
    <glyph glyph-name="Ecircumflex" unicode="&#xca;" 
d="M200.044 842l-9.08691 17s74.0869 52.7178 74.0869 101c0 32 -12 61 -12 61h21s13 -14 42 -14c17 0 19 -10 19 -10l19 14c0 -102 -154 -169 -154 -169zM438.957 842c0 0 -164 63 -184 179l15 6s9 -20 46 -20c30 0 40 20 40 20l17 -10s-19 -25 -19 -57
c0 -48.2822 94.0869 -101 94.0869 -101zM463 358h78v-83h-37c0 81 -41 83 -41 83zM463 427c0 0 41 2 41 83h37v-83h-78zM541 427v0v-69h-378v69h378zM533 690h78v-82h-36c0 68 -42 82 -42 82c2 0 0 0 0 0zM611 690h-468h-32v78h500v-78zM533 78v0c5 0 42 14 42 82h36v-82
h-78zM611 78v-78h-500v78h500zM111 690c0 0 -2 41 -83 41v37h83v-78zM111 78v-78h-83v37c81 0 83 41 83 41zM111 768v0h92v-768h-92v768z" />
    <glyph glyph-name="Edieresis" unicode="&#xcb;" 
d="M368.3 908.7c0 31.752 24.9482 56.7002 56.7002 56.7002s56.7002 -24.9482 56.7002 -56.7002s-24.9482 -56.7002 -56.7002 -56.7002s-56.7002 24.9482 -56.7002 56.7002zM187.3 908.7c0 31.752 24.9482 56.7002 56.7002 56.7002s56.7002 -24.9482 56.7002 -56.7002
s-24.9482 -56.7002 -56.7002 -56.7002s-56.7002 24.9482 -56.7002 56.7002zM463 358h78v-83h-37c0 81 -41 83 -41 83zM463 427c0 0 41 2 41 83h37v-83h-78zM541 427v0v-69h-378v69h378zM533 690h78v-82h-36c0 68 -42 82 -42 82c2 0 0 0 0 0zM611 690h-468h-32v78h500v-78z
M533 78v0c5 0 42 14 42 82h36v-82h-78zM611 78v-78h-500v78h500zM111 690c0 0 -2 41 -83 41v37h83v-78zM111 78v-78h-83v37c81 0 83 41 83 41zM111 768v0h92v-768h-92v768z" />
    <glyph glyph-name="Igrave" unicode="&#xcc;" horiz-adv-x="333" 
d="M219 842c0 0 -144 63 -164 179l15 6s16 -20 53 -20c29 0 57 20 57 20l17 -10s-30 -25 -30 -57c0 -48.2822 61.0869 -101 61.0869 -101zM215 690v78h83v-37c-81 0 -83 -41 -83 -41zM215 78c0 0 2 -41 83 -41v-37h-83v78zM123 690c0 0 -2 41 -83 41v37h83v-78zM123 78v-78
h-83v37c81 0 83 41 83 41zM123 768h92v-768h-92v768z" />
    <glyph glyph-name="Iacute" unicode="&#xcd;" horiz-adv-x="333" 
d="M119 842c0 0 144 63 164 179l-15 6s-16 -20 -53 -20c-29 0 -57 20 -57 20l-17 -10s30 -25 30 -57c0 -48.2822 -61.0869 -101 -61.0869 -101zM215 690v78h83v-37c-81 0 -83 -41 -83 -41zM215 78c0 0 2 -41 83 -41v-37h-83v78zM123 690c0 0 -2 41 -83 41v37h83v-78zM123 78
v-78h-83v37c81 0 83 41 83 41zM123 768h92v-768h-92v768z" />
    <glyph glyph-name="Icircumflex" unicode="&#xce;" horiz-adv-x="333" 
d="M49.543 842l-9.08691 17s74.0869 52.7178 74.0869 101c0 32 -12 61 -12 61h21s13 -14 42 -14c17 0 19 -10 19 -10l19 14c0 -102 -154 -169 -154 -169zM288.456 842c0 0 -164 63 -184 179l15 6s9 -20 46 -20c30 0 40 20 40 20l17 -10s-19 -25 -19 -57
c0 -48.2822 94.0869 -101 94.0869 -101zM215 690v78h83v-37c-81 0 -83 -41 -83 -41zM215 78c0 0 2 -41 83 -41v-37h-83v78zM123 690c0 0 -2 41 -83 41v37h83v-78zM123 78v-78h-83v37c81 0 83 41 83 41zM123 768h92v-768h-92v768z" />
    <glyph glyph-name="Idieresis" unicode="&#xcf;" horiz-adv-x="333" 
d="M217.8 908.7c0 31.752 24.9482 56.7002 56.7002 56.7002s56.7002 -24.9482 56.7002 -56.7002s-24.9482 -56.7002 -56.7002 -56.7002s-56.7002 24.9482 -56.7002 56.7002zM36.7998 908.7c0 31.752 24.9482 56.7002 56.7002 56.7002s56.7002 -24.9482 56.7002 -56.7002
s-24.9482 -56.7002 -56.7002 -56.7002s-56.7002 24.9482 -56.7002 56.7002zM215 690v78h83v-37c-81 0 -83 -41 -83 -41zM215 78c0 0 2 -41 83 -41v-37h-83v78zM123 690c0 0 -2 41 -83 41v37h83v-78zM123 78v-78h-83v37c81 0 83 41 83 41zM123 768h92v-768h-92v768z" />
    <glyph glyph-name="Ograve" unicode="&#xd2;" horiz-adv-x="722" 
d="M407 842c0 0 -144 63 -164 179l15 6s16 -20 53 -20c29 0 57 20 57 20l17 -10s-30 -25 -30 -57c0 -48.2822 61.0869 -101 61.0869 -101zM127 392c0 -196 86 -335 230 -335s230 139 230 335s-86 325 -230 325s-230 -129 -230 -325zM25 392c0 215 138 390 332 390
s332 -175 332 -390s-138 -406 -332 -406s-332 191 -332 406z" />
    <glyph glyph-name="Oacute" unicode="&#xd3;" horiz-adv-x="722" 
d="M307 842c0 0 144 63 164 179l-15 6s-16 -20 -53 -20c-29 0 -57 20 -57 20l-17 -10s30 -25 30 -57c0 -48.2822 -61.0869 -101 -61.0869 -101zM127 392c0 -196 86 -335 230 -335s230 139 230 335s-86 325 -230 325s-230 -129 -230 -325zM25 392c0 215 138 390 332 390
s332 -175 332 -390s-138 -406 -332 -406s-332 191 -332 406z" />
    <glyph glyph-name="Otilde" unicode="&#xd5;" horiz-adv-x="722" 
d="M167.5 858l-17 16s45 96 121 96s99 -64 167 -64s107 64 107 64l18 -14s-60 -114 -122 -114s-95 65 -169 65c-72 0 -105 -49 -105 -49zM127 392c0 -196 86 -335 230 -335s230 139 230 335s-86 325 -230 325s-230 -129 -230 -325zM25 392c0 215 138 390 332 390
s332 -175 332 -390s-138 -406 -332 -406s-332 191 -332 406z" />
    <glyph glyph-name="Odieresis" unicode="&#xd6;" horiz-adv-x="722" 
d="M405.8 908.7c0 31.752 24.9482 56.7002 56.7002 56.7002s56.7002 -24.9482 56.7002 -56.7002s-24.9482 -56.7002 -56.7002 -56.7002s-56.7002 24.9482 -56.7002 56.7002zM224.8 908.7c0 31.752 24.9482 56.7002 56.7002 56.7002s56.7002 -24.9482 56.7002 -56.7002
s-24.9482 -56.7002 -56.7002 -56.7002s-56.7002 24.9482 -56.7002 56.7002zM127 392c0 -196 86 -335 230 -335s230 139 230 335s-86 325 -230 325s-230 -129 -230 -325zM25 392c0 215 138 390 332 390s332 -175 332 -390s-138 -406 -332 -406s-332 191 -332 406z" />
    <glyph glyph-name="Ugrave" unicode="&#xd9;" horiz-adv-x="774" 
d="M454 842c0 0 -144 63 -164 179l15 6s16 -20 53 -20c29 0 57 20 57 20l17 -10s-30 -25 -30 -57c0 -48.2822 61.0869 -101 61.0869 -101zM133 271l92 40c0 -179 38 -247 165 -247c171 0 193 71.1982 193 247l92 -51c0 -129 -52 -272 -287 -272c-217 0 -255 167 -255 283z
M675 690v78h83v-37c-81 0 -83 -41 -83 -41zM583 690c0 0 -2 41 -83 41v37h83v-78zM583 768v0h92v-508h-92v508zM225 690v78h83v-37c-81 0 -83 -41 -83 -41zM133 690c0 0 -2 41 -83 41v37h83v-78zM133 768v0h92v-508h-92v508z" />
    <glyph glyph-name="Uacute" unicode="&#xda;" horiz-adv-x="774" 
d="M354 842c0 0 144 63 164 179l-15 6s-16 -20 -53 -20c-29 0 -57 20 -57 20l-17 -10s30 -25 30 -57c0 -48.2822 -61.0869 -101 -61.0869 -101zM133 271l92 40c0 -179 38 -247 165 -247c171 0 193 71.1982 193 247l92 -51c0 -129 -52 -272 -287 -272
c-217 0 -255 167 -255 283zM675 690v78h83v-37c-81 0 -83 -41 -83 -41zM583 690c0 0 -2 41 -83 41v37h83v-78zM583 768v0h92v-508h-92v508zM225 690v78h83v-37c-81 0 -83 -41 -83 -41zM133 690c0 0 -2 41 -83 41v37h83v-78zM133 768v0h92v-508h-92v508z" />
    <glyph glyph-name="Ucircumflex" unicode="&#xdb;" horiz-adv-x="774" 
d="M284.544 842l-9.08691 17s74.0869 52.7178 74.0869 101c0 32 -12 61 -12 61h21s13 -14 42 -14c17 0 19 -10 19 -10l19 14c0 -102 -154 -169 -154 -169zM523.457 842c0 0 -164 63 -184 179l15 6s9 -20 46 -20c30 0 40 20 40 20l17 -10s-19 -25 -19 -57
c0 -48.2822 94.0869 -101 94.0869 -101zM133 271l92 40c0 -179 38 -247 165 -247c171 0 193 71.1982 193 247l92 -51c0 -129 -52 -272 -287 -272c-217 0 -255 167 -255 283zM675 690v78h83v-37c-81 0 -83 -41 -83 -41zM583 690c0 0 -2 41 -83 41v37h83v-78zM583 768v0h92
v-508h-92v508zM225 690v78h83v-37c-81 0 -83 -41 -83 -41zM133 690c0 0 -2 41 -83 41v37h83v-78zM133 768v0h92v-508h-92v508z" />
    <glyph glyph-name="Udieresis" unicode="&#xdc;" horiz-adv-x="774" 
d="M452.8 908.7c0 31.752 24.9482 56.7002 56.7002 56.7002s56.7002 -24.9482 56.7002 -56.7002s-24.9482 -56.7002 -56.7002 -56.7002s-56.7002 24.9482 -56.7002 56.7002zM271.8 908.7c0 31.752 24.9482 56.7002 56.7002 56.7002s56.7002 -24.9482 56.7002 -56.7002
s-24.9482 -56.7002 -56.7002 -56.7002s-56.7002 24.9482 -56.7002 56.7002zM133 271l92 40c0 -179 38 -247 165 -247c171 0 193 71.1982 193 247l92 -51c0 -129 -52 -272 -287 -272c-217 0 -255 167 -255 283zM675 690v78h83v-37c-81 0 -83 -41 -83 -41zM583 690
c0 0 -2 41 -83 41v37h83v-78zM583 768v0h92v-508h-92v508zM225 690v78h83v-37c-81 0 -83 -41 -83 -41zM133 690c0 0 -2 41 -83 41v37h83v-78zM133 768v0h92v-508h-92v508z" />
    <glyph glyph-name="Yacute" unicode="&#xdd;" horiz-adv-x="795" 
d="M349 842c0 0 144 63 164 179l-15 6s-16 -20 -53 -20c-29 0 -57 20 -57 20l-17 -10s30 -25 30 -57c0 -48.2822 -61.0869 -101 -61.0869 -101zM437 78c0 0 2 -41 83 -41v-37h-83v78zM345 78v-78h-83v37c81 0 83 41 83 41zM345 418h92v-418h-92v418zM545 686
c0 0 31 45 -85 45v37h138zM635 684l55 84h83v-37c-117 0 -138 -47 -138 -47zM690 768l-252 -390h-92l252 390h92zM245 694l-45 74h135v-37c-118 0 -90 -37 -90 -37zM155 691c0 0 -22 40 -132 40l2 37h83zM108 768h92l238 -390h-92z" />
    <glyph glyph-name="agrave" unicode="&#xe0;" horiz-adv-x="588" 
d="M311 581c0 0 -144 63 -164 179l15 6s16 -20 53 -20c29 0 57 20 57 20l17 -10s-30 -25 -30 -57c0 -48.2822 61.0869 -101 61.0869 -101zM44.7793 134.098c0 57.6445 37.2207 113.902 113.221 135.902c125.452 36.3154 249.273 23.835 250 62c0.19043 10 0 -64 0 -64
s-170 -20 -218 -46c-32.7119 -17.7188 -52 -51 -52 -86c0 -59 48.7285 -83 112 -83c105 0 142.314 81.0039 143 202c0.503906 89.0049 14 198.549 -117 199c-41.6172 0.143555 -86.7549 -21 -87 -50c-0.157227 -18.6006 34 -34 34 -34l-9 -20
c-40.0557 19.5029 -114.159 -13.749 -114 -48l-16 -8.10254s-21.7686 31.1025 -21 75.1025c1.53711 88.0137 107 152 198 152c149 0 224 -39 224 -207c0 -174 -113 -327 -255 -327c-109.963 0 -185.221 56.2969 -185.221 147.098zM393 90v224h92v-225s1.92871 -52 83 -52
v-37c-140 0.756836 -174.196 40.4502 -175 90z" />
    <glyph glyph-name="aacute" unicode="&#xe1;" horiz-adv-x="588" 
d="M211 581c0 0 144 63 164 179l-15 6s-16 -20 -53 -20c-29 0 -57 20 -57 20l-17 -10s30 -25 30 -57c0 -48.2822 -61.0869 -101 -61.0869 -101zM44.7793 134.098c0 57.6445 37.2207 113.902 113.221 135.902c125.452 36.3154 249.273 23.835 250 62c0.19043 10 0 -64 0 -64
s-170 -20 -218 -46c-32.7119 -17.7188 -52 -51 -52 -86c0 -59 48.7285 -83 112 -83c105 0 142.314 81.0039 143 202c0.503906 89.0049 14 198.549 -117 199c-41.6172 0.143555 -86.7549 -21 -87 -50c-0.157227 -18.6006 34 -34 34 -34l-9 -20
c-40.0557 19.5029 -114.159 -13.749 -114 -48l-16 -8.10254s-21.7686 31.1025 -21 75.1025c1.53711 88.0137 107 152 198 152c149 0 224 -39 224 -207c0 -174 -113 -327 -255 -327c-109.963 0 -185.221 56.2969 -185.221 147.098zM393 90v224h92v-225s1.92871 -52 83 -52
v-37c-140 0.756836 -174.196 40.4502 -175 90z" />
    <glyph glyph-name="acircumflex" unicode="&#xe2;" horiz-adv-x="588" 
d="M141.544 581l-9.08691 17s74.0869 52.7178 74.0869 101c0 32 -12 61 -12 61h21s13 -14 42 -14c17 0 19 -10 19 -10l19 14c0 -102 -154 -169 -154 -169zM380.457 581c0 0 -164 63 -184 179l15 6s9 -20 46 -20c30 0 40 20 40 20l17 -10s-19 -25 -19 -57
c0 -48.2822 94.0869 -101 94.0869 -101zM44.7793 134.098c0 57.6445 37.2207 113.902 113.221 135.902c125.452 36.3154 249.273 23.835 250 62c0.19043 10 0 -64 0 -64s-170 -20 -218 -46c-32.7119 -17.7188 -52 -51 -52 -86c0 -59 48.7285 -83 112 -83
c105 0 142.314 81.0039 143 202c0.503906 89.0049 14 198.549 -117 199c-41.6172 0.143555 -86.7549 -21 -87 -50c-0.157227 -18.6006 34 -34 34 -34l-9 -20c-40.0557 19.5029 -114.159 -13.749 -114 -48l-16 -8.10254s-21.7686 31.1025 -21 75.1025
c1.53711 88.0137 107 152 198 152c149 0 224 -39 224 -207c0 -174 -113 -327 -255 -327c-109.963 0 -185.221 56.2969 -185.221 147.098zM393 90v224h92v-225s1.92871 -52 83 -52v-37c-140 0.756836 -174.196 40.4502 -175 90z" />
    <glyph glyph-name="atilde" unicode="&#xe3;" horiz-adv-x="588" 
d="M71.5 597l-17 16s45 96 121 96s99 -64 167 -64s107 64 107 64l18 -14s-60 -114 -122 -114s-95 65 -169 65c-72 0 -105 -49 -105 -49zM44.7793 134.098c0 57.6445 37.2207 113.902 113.221 135.902c125.452 36.3154 249.273 23.835 250 62c0.19043 10 0 -64 0 -64
s-170 -20 -218 -46c-32.7119 -17.7188 -52 -51 -52 -86c0 -59 48.7285 -83 112 -83c105 0 142.314 81.0039 143 202c0.503906 89.0049 14 198.549 -117 199c-41.6172 0.143555 -86.7549 -21 -87 -50c-0.157227 -18.6006 34 -34 34 -34l-9 -20
c-40.0557 19.5029 -114.159 -13.749 -114 -48l-16 -8.10254s-21.7686 31.1025 -21 75.1025c1.53711 88.0137 107 152 198 152c149 0 224 -39 224 -207c0 -174 -113 -327 -255 -327c-109.963 0 -185.221 56.2969 -185.221 147.098zM393 90v224h92v-225s1.92871 -52 83 -52
v-37c-140 0.756836 -174.196 40.4502 -175 90z" />
    <glyph glyph-name="adieresis" unicode="&#xe4;" horiz-adv-x="588" 
d="M309.8 647.7c0 31.752 24.9482 56.7002 56.7002 56.7002s56.7002 -24.9482 56.7002 -56.7002s-24.9482 -56.7002 -56.7002 -56.7002s-56.7002 24.9482 -56.7002 56.7002zM128.8 647.7c0 31.752 24.9482 56.7002 56.7002 56.7002s56.7002 -24.9482 56.7002 -56.7002
s-24.9482 -56.7002 -56.7002 -56.7002s-56.7002 24.9482 -56.7002 56.7002zM44.7793 134.098c0 57.6445 37.2207 113.902 113.221 135.902c125.452 36.3154 249.273 23.835 250 62c0.19043 10 0 -64 0 -64s-170 -20 -218 -46c-32.7119 -17.7188 -52 -51 -52 -86
c0 -59 48.7285 -83 112 -83c105 0 142.314 81.0039 143 202c0.503906 89.0049 14 198.549 -117 199c-41.6172 0.143555 -86.7549 -21 -87 -50c-0.157227 -18.6006 34 -34 34 -34l-9 -20c-40.0557 19.5029 -114.159 -13.749 -114 -48l-16 -8.10254
s-21.7686 31.1025 -21 75.1025c1.53711 88.0137 107 152 198 152c149 0 224 -39 224 -207c0 -174 -113 -327 -255 -327c-109.963 0 -185.221 56.2969 -185.221 147.098zM393 90v224h92v-225s1.92871 -52 83 -52v-37c-140 0.756836 -174.196 40.4502 -175 90z" />
    <glyph glyph-name="aring" unicode="&#xe5;" horiz-adv-x="588" 
d="M239.449 662.7c0 -27.1289 20.4219 -47.5508 47.5508 -47.5508s47.5508 20.4219 47.5508 47.5508s-20.4219 47.5508 -47.5508 47.5508s-47.5508 -20.4219 -47.5508 -47.5508zM205.3 662.7c0 45.418 36.2822 81.7002 81.7002 81.7002s81.7002 -36.2822 81.7002 -81.7002
s-36.2822 -81.7002 -81.7002 -81.7002s-81.7002 36.2822 -81.7002 81.7002zM44.7793 134.098c0 57.6445 37.2207 113.902 113.221 135.902c125.452 36.3154 249.273 23.835 250 62c0.19043 10 0 -64 0 -64s-170 -20 -218 -46c-32.7119 -17.7188 -52 -51 -52 -86
c0 -59 48.7285 -83 112 -83c105 0 142.314 81.0039 143 202c0.503906 89.0049 14 198.549 -117 199c-41.6172 0.143555 -86.7549 -21 -87 -50c-0.157227 -18.6006 34 -34 34 -34l-9 -20c-40.0557 19.5029 -114.159 -13.749 -114 -48l-16 -8.10254
s-21.7686 31.1025 -21 75.1025c1.53711 88.0137 107 152 198 152c149 0 224 -39 224 -207c0 -174 -113 -327 -255 -327c-109.963 0 -185.221 56.2969 -185.221 147.098zM393 90v224h92v-225s1.92871 -52 83 -52v-37c-140 0.756836 -174.196 40.4502 -175 90z" />
    <glyph glyph-name="egrave" unicode="&#xe8;" horiz-adv-x="528" 
d="M321 576c0 0 -144 63 -164 179l15 6s16 -20 53 -20c29 0 57 20 57 20l17 -10s-30 -25 -30 -57c0 -48.2822 61.0869 -101 61.0869 -101zM425.932 306.895l-327.932 -0.894531l-2 -61h415c20 229 -126 271 -240 271c-98 0 -237 -79 -237 -261
c0 -174 101.003 -268.836 238 -268c128.002 0.78125 203.695 81 232.695 184.834l-96.6953 -21.834c-3.38965 -51.6416 -54.7178 -108 -136 -108c-83 0 -147.777 72.999 -148 213c-0.157227 99.0029 48 199 156 199c85.5215 0 167.016 -65.6064 145.932 -147.105z" />
    <glyph glyph-name="eacute" unicode="&#xe9;" horiz-adv-x="528" 
d="M221 576c0 0 144 63 164 179l-15 6s-16 -20 -53 -20c-29 0 -57 20 -57 20l-17 -10s30 -25 30 -57c0 -48.2822 -61.0869 -101 -61.0869 -101zM425.932 306.895l-327.932 -0.894531l-2 -61h415c20 229 -126 271 -240 271c-98 0 -237 -79 -237 -261
c0 -174 101.003 -268.836 238 -268c128.002 0.78125 203.695 81 232.695 184.834l-96.6953 -21.834c-3.38965 -51.6416 -54.7178 -108 -136 -108c-83 0 -147.777 72.999 -148 213c-0.157227 99.0029 48 199 156 199c85.5215 0 167.016 -65.6064 145.932 -147.105z" />
    <glyph glyph-name="ecircumflex" unicode="&#xea;" horiz-adv-x="528" 
d="M151.544 576l-9.08691 17s74.0869 52.7178 74.0869 101c0 32 -12 61 -12 61h21s13 -14 42 -14c17 0 19 -10 19 -10l19 14c0 -102 -154 -169 -154 -169zM390.457 576c0 0 -164 63 -184 179l15 6s9 -20 46 -20c30 0 40 20 40 20l17 -10s-19 -25 -19 -57
c0 -48.2822 94.0869 -101 94.0869 -101zM425.932 306.895l-327.932 -0.894531l-2 -61h415c20 229 -126 271 -240 271c-98 0 -237 -79 -237 -261c0 -174 101.003 -268.836 238 -268c128.002 0.78125 203.695 81 232.695 184.834l-96.6953 -21.834
c-3.38965 -51.6416 -54.7178 -108 -136 -108c-83 0 -147.777 72.999 -148 213c-0.157227 99.0029 48 199 156 199c85.5215 0 167.016 -65.6064 145.932 -147.105z" />
    <glyph glyph-name="edieresis" unicode="&#xeb;" horiz-adv-x="528" 
d="M319.8 642.7c0 31.752 24.9482 56.7002 56.7002 56.7002s56.7002 -24.9482 56.7002 -56.7002s-24.9482 -56.7002 -56.7002 -56.7002s-56.7002 24.9482 -56.7002 56.7002zM138.8 642.7c0 31.752 24.9482 56.7002 56.7002 56.7002s56.7002 -24.9482 56.7002 -56.7002
s-24.9482 -56.7002 -56.7002 -56.7002s-56.7002 24.9482 -56.7002 56.7002zM425.932 306.895l-327.932 -0.894531l-2 -61h415c20 229 -126 271 -240 271c-98 0 -237 -79 -237 -261c0 -174 101.003 -268.836 238 -268c128.002 0.78125 203.695 81 232.695 184.834
l-96.6953 -21.834c-3.38965 -51.6416 -54.7178 -108 -136 -108c-83 0 -147.777 72.999 -148 213c-0.157227 99.0029 48 199 156 199c85.5215 0 167.016 -65.6064 145.932 -147.105z" />
    <glyph glyph-name="igrave" unicode="&#xec;" horiz-adv-x="310" 
d="M202 576c0 0 -144 63 -164 179l15 6s16 -20 53 -20c29 0 57 20 57 20l17 -10s-30 -25 -30 -57c0 -48.2822 61.0869 -101 61.0869 -101zM198 78c0 0 1.92871 -41 83 -41v-37h-83v78zM106 426c0 0 -1.92871 41 -83 41v37h83v-78zM106 78v-78h-83v37c81.0713 0 83 41 83 41z
M106 504h92v-504h-92v504z" />
    <glyph glyph-name="iacute" unicode="&#xed;" horiz-adv-x="310" 
d="M102 576c0 0 144 63 164 179l-15 6s-16 -20 -53 -20c-29 0 -57 20 -57 20l-17 -10s30 -25 30 -57c0 -48.2822 -61.0869 -101 -61.0869 -101zM198 78c0 0 1.92871 -41 83 -41v-37h-83v78zM106 426c0 0 -1.92871 41 -83 41v37h83v-78zM106 78v-78h-83v37
c81.0713 0 83 41 83 41zM106 504h92v-504h-92v504z" />
    <glyph glyph-name="icircumflex" unicode="&#xee;" horiz-adv-x="310" 
d="M32.543 576l-9.08691 17s74.0869 52.7178 74.0869 101c0 32 -12 61 -12 61h21s13 -14 42 -14c17 0 19 -10 19 -10l19 14c0 -102 -154 -169 -154 -169zM271.456 576c0 0 -164 63 -184 179l15 6s9 -20 46 -20c30 0 40 20 40 20l17 -10s-19 -25 -19 -57
c0 -48.2822 94.0869 -101 94.0869 -101zM198 78c0 0 1.92871 -41 83 -41v-37h-83v78zM106 426c0 0 -1.92871 41 -83 41v37h83v-78zM106 78v-78h-83v37c81.0713 0 83 41 83 41zM106 504h92v-504h-92v504z" />
    <glyph glyph-name="idieresis" unicode="&#xef;" horiz-adv-x="310" 
d="M200.8 642.7c0 31.752 24.9482 56.7002 56.7002 56.7002s56.7002 -24.9482 56.7002 -56.7002s-24.9482 -56.7002 -56.7002 -56.7002s-56.7002 24.9482 -56.7002 56.7002zM19.7998 642.7c0 31.752 24.9482 56.7002 56.7002 56.7002s56.7002 -24.9482 56.7002 -56.7002
s-24.9482 -56.7002 -56.7002 -56.7002s-56.7002 24.9482 -56.7002 56.7002zM198 78c0 0 1.92871 -41 83 -41v-37h-83v78zM106 426c0 0 -1.92871 41 -83 41v37h83v-78zM106 78v-78h-83v37c81.0713 0 83 41 83 41zM106 504h92v-504h-92v504z" />
    <glyph glyph-name="ntilde" unicode="&#xf1;" horiz-adv-x="681" 
d="M157 592l-17 16s45 96 121 96s99 -64 167 -64s107 64 107 64l18 -14s-60 -114 -122 -114s-95 65 -169 65c-72 0 -105 -49 -105 -49zM568 78c0 0 1.92871 -41 83 -41v-37h-83v78zM476 78v-78h-83v37c81.0713 0 83 41 83 41zM217 78c0 0 1.92871 -41 83 -41v-37h-83v78z
M196 353c0 0 42 163 196 163c131 0 176 -69 176 -202h-92c0 90 -13 133 -99 133c-89 0 -161 -51 -161 -197c0 -90 -20 103 -20 103zM126 427c0 0 -1.92871 41 -83 41v37h83v-78zM125 78v-78h-83v37c81.0713 0 83 41 83 41zM476 314h92v-314h-92v314zM125 505h92v-505h-92
v505z" />
    <glyph glyph-name="ograve" unicode="&#xf2;" horiz-adv-x="549" 
d="M331 576c0 0 -144 63 -164 179l15 6s16 -20 53 -20c29 0 57 20 57 20l17 -10s-30 -25 -30 -57c0 -48.2822 61.0869 -101 61.0869 -101zM281 -13c-107 0 -238 94 -238 268c0 182 147 261 238 261c150 0 249 -89 249 -261c0 -174 -121 -268 -249 -268zM281 454
c-84 0 -148.227 -79.9971 -148 -199c0.18457 -97.001 35 -212 148 -212c121 0 156.314 91.0039 157 212c0.503906 89.0049 -22 199 -157 199z" />
    <glyph glyph-name="oacute" unicode="&#xf3;" horiz-adv-x="549" 
d="M231 576c0 0 144 63 164 179l-15 6s-16 -20 -53 -20c-29 0 -57 20 -57 20l-17 -10s30 -25 30 -57c0 -48.2822 -61.0869 -101 -61.0869 -101zM281 -13c-107 0 -238 94 -238 268c0 182 147 261 238 261c150 0 249 -89 249 -261c0 -174 -121 -268 -249 -268zM281 454
c-84 0 -148.227 -79.9971 -148 -199c0.18457 -97.001 35 -212 148 -212c121 0 156.314 91.0039 157 212c0.503906 89.0049 -22 199 -157 199z" />
    <glyph glyph-name="ocircumflex" unicode="&#xf4;" horiz-adv-x="549" 
d="M161.544 576l-9.08691 17s74.0869 52.7178 74.0869 101c0 32 -12 61 -12 61h21s13 -14 42 -14c17 0 19 -10 19 -10l19 14c0 -102 -154 -169 -154 -169zM400.457 576c0 0 -164 63 -184 179l15 6s9 -20 46 -20c30 0 40 20 40 20l17 -10s-19 -25 -19 -57
c0 -48.2822 94.0869 -101 94.0869 -101zM281 -13c-107 0 -238 94 -238 268c0 182 147 261 238 261c150 0 249 -89 249 -261c0 -174 -121 -268 -249 -268zM281 454c-84 0 -148.227 -79.9971 -148 -199c0.18457 -97.001 35 -212 148 -212c121 0 156.314 91.0039 157 212
c0.503906 89.0049 -22 199 -157 199z" />
    <glyph glyph-name="otilde" unicode="&#xf5;" horiz-adv-x="549" 
d="M91.5 592l-17 16s45 96 121 96s99 -64 167 -64s107 64 107 64l18 -14s-60 -114 -122 -114s-95 65 -169 65c-72 0 -105 -49 -105 -49zM281 -13c-107 0 -238 94 -238 268c0 182 147 261 238 261c150 0 249 -89 249 -261c0 -174 -121 -268 -249 -268zM281 454
c-84 0 -148.227 -79.9971 -148 -199c0.18457 -97.001 35 -212 148 -212c121 0 156.314 91.0039 157 212c0.503906 89.0049 -22 199 -157 199z" />
    <glyph glyph-name="odieresis" unicode="&#xf6;" horiz-adv-x="549" 
d="M329.8 642.7c0 31.752 24.9482 56.7002 56.7002 56.7002s56.7002 -24.9482 56.7002 -56.7002s-24.9482 -56.7002 -56.7002 -56.7002s-56.7002 24.9482 -56.7002 56.7002zM148.8 642.7c0 31.752 24.9482 56.7002 56.7002 56.7002s56.7002 -24.9482 56.7002 -56.7002
s-24.9482 -56.7002 -56.7002 -56.7002s-56.7002 24.9482 -56.7002 56.7002zM281 -13c-107 0 -238 94 -238 268c0 182 147 261 238 261c150 0 249 -89 249 -261c0 -174 -121 -268 -249 -268zM281 454c-84 0 -148.227 -79.9971 -148 -199c0.18457 -97.001 35 -212 148 -212
c121 0 156.314 91.0039 157 212c0.503906 89.0049 -22 199 -157 199z" />
    <glyph glyph-name="ugrave" unicode="&#xf9;" horiz-adv-x="634" 
d="M319 576c0 0 -144 63 -164 179l15 6s16 -20 53 -20c29 0 57 20 57 20l17 -10s-30 -25 -30 -57c0 -48.2822 61.0869 -101 61.0869 -101zM532 78c0 0 1.92871 -41 83 -41v-37h-83v78zM532 0zM461 151c0 0 -42 -163 -196 -163c-78.3623 0 -125.952 24.6904 -151.544 73
c-17.1904 32.4502 -24.4561 75.5586 -24.4561 129h92c0 -90 13 -133 99 -133c89 0 161 51 161 197c0 90 20 -103 20 -103zM181 190h-92v314h92v-314zM532 0h-92v20v485h92v-505zM440 427c0 0 -1.92871 41 -83 41v37h83v-78zM89 427c0 0 -1.92871 41 -83 41v37h83v-78z" />
    <glyph glyph-name="uacute" unicode="&#xfa;" horiz-adv-x="634" 
d="M219 576c0 0 144 63 164 179l-15 6s-16 -20 -53 -20c-29 0 -57 20 -57 20l-17 -10s30 -25 30 -57c0 -48.2822 -61.0869 -101 -61.0869 -101zM532 78c0 0 1.92871 -41 83 -41v-37h-83v78zM532 0zM461 151c0 0 -42 -163 -196 -163c-78.3623 0 -125.952 24.6904 -151.544 73
c-17.1904 32.4502 -24.4561 75.5586 -24.4561 129h92c0 -90 13 -133 99 -133c89 0 161 51 161 197c0 90 20 -103 20 -103zM181 190h-92v314h92v-314zM532 0h-92v20v485h92v-505zM440 427c0 0 -1.92871 41 -83 41v37h83v-78zM89 427c0 0 -1.92871 41 -83 41v37h83v-78z" />
    <glyph glyph-name="ucircumflex" unicode="&#xfb;" horiz-adv-x="634" 
d="M149.544 576l-9.08691 17s74.0869 52.7178 74.0869 101c0 32 -12 61 -12 61h21s13 -14 42 -14c17 0 19 -10 19 -10l19 14c0 -102 -154 -169 -154 -169zM388.457 576c0 0 -164 63 -184 179l15 6s9 -20 46 -20c30 0 40 20 40 20l17 -10s-19 -25 -19 -57
c0 -48.2822 94.0869 -101 94.0869 -101zM532 78c0 0 1.92871 -41 83 -41v-37h-83v78zM532 0zM461 151c0 0 -42 -163 -196 -163c-78.3623 0 -125.952 24.6904 -151.544 73c-17.1904 32.4502 -24.4561 75.5586 -24.4561 129h92c0 -90 13 -133 99 -133c89 0 161 51 161 197
c0 90 20 -103 20 -103zM181 190h-92v314h92v-314zM532 0h-92v20v485h92v-505zM440 427c0 0 -1.92871 41 -83 41v37h83v-78zM89 427c0 0 -1.92871 41 -83 41v37h83v-78z" />
    <glyph glyph-name="udieresis" unicode="&#xfc;" horiz-adv-x="634" 
d="M317.8 642.7c0 31.752 24.9482 56.7002 56.7002 56.7002s56.7002 -24.9482 56.7002 -56.7002s-24.9482 -56.7002 -56.7002 -56.7002s-56.7002 24.9482 -56.7002 56.7002zM136.8 642.7c0 31.752 24.9482 56.7002 56.7002 56.7002s56.7002 -24.9482 56.7002 -56.7002
s-24.9482 -56.7002 -56.7002 -56.7002s-56.7002 24.9482 -56.7002 56.7002zM532 78c0 0 1.92871 -41 83 -41v-37h-83v78zM532 0zM461 151c0 0 -42 -163 -196 -163c-78.3623 0 -125.952 24.6904 -151.544 73c-17.1904 32.4502 -24.4561 75.5586 -24.4561 129h92
c0 -90 13 -133 99 -133c89 0 161 51 161 197c0 90 20 -103 20 -103zM181 190h-92v314h92v-314zM532 0h-92v20v485h92v-505zM440 427c0 0 -1.92871 41 -83 41v37h83v-78zM89 427c0 0 -1.92871 41 -83 41v37h83v-78z" />
    <glyph glyph-name="yacute" unicode="&#xfd;" horiz-adv-x="698" 
d="M342 576c0 0 144 63 164 179l-15 6s-16 -20 -53 -20c-29 0 -57 20 -57 20l-17 -10s30 -25 30 -57c0 -48.2822 -61.0869 -101 -61.0869 -101zM435 0c-59 -163 -125 -212 -223 -212c-100 0 -167 41 -178 94c-9 43 11 83 38 104l25 8c-10 -26 43 -49 61 -28l16 -24
s-45 -17 -45 -52c0 -32 34.9893 -52 66 -52c75 0 111 28.5 167 162h73zM604 427v77h83v-37c-81 0 -83 -40 -83 -40zM530 426c0 0 -2 41 -83 41v37h113zM362 0l198 504h73l-198 -504h-73zM180 427c0 0 -2 40 -83 40v37h83v-77zM258 426l-30 78h113v-37c-81 0 -83 -41 -83 -41
zM374 0l-228 504h84l197.687 -425z" />
    <glyph glyph-name="ydieresis" unicode="&#xff;" horiz-adv-x="698" 
d="M440.8 642.7c0 31.752 24.9482 56.7002 56.7002 56.7002s56.7002 -24.9482 56.7002 -56.7002s-24.9482 -56.7002 -56.7002 -56.7002s-56.7002 24.9482 -56.7002 56.7002zM259.8 642.7c0 31.752 24.9482 56.7002 56.7002 56.7002s56.7002 -24.9482 56.7002 -56.7002
s-24.9482 -56.7002 -56.7002 -56.7002s-56.7002 24.9482 -56.7002 56.7002zM435 0c-59 -163 -125 -212 -223 -212c-100 0 -167 41 -178 94c-9 43 11 83 38 104l25 8c-10 -26 43 -49 61 -28l16 -24s-45 -17 -45 -52c0 -32 34.9893 -52 66 -52c75 0 111 28.5 167 162h73z
M604 427v77h83v-37c-81 0 -83 -40 -83 -40zM530 426c0 0 -2 41 -83 41v37h113zM362 0l198 504h73l-198 -504h-73zM180 427c0 0 -2 40 -83 40v37h83v-77zM258 426l-30 78h113v-37c-81 0 -83 -41 -83 -41zM374 0l-228 504h84l197.687 -425z" />
    <glyph glyph-name="amacron" unicode="&#x101;" horiz-adv-x="588" 
d="M99 637h324v-56h-324v56zM44.7793 134.098c0 57.6445 37.2207 113.902 113.221 135.902c125.452 36.3154 249.273 23.835 250 62c0.19043 10 0 -64 0 -64s-170 -20 -218 -46c-32.7119 -17.7188 -52 -51 -52 -86c0 -59 48.7285 -83 112 -83c105 0 142.314 81.0039 143 202
c0.503906 89.0049 14 198.549 -117 199c-41.6172 0.143555 -86.7549 -21 -87 -50c-0.157227 -18.6006 34 -34 34 -34l-9 -20c-40.0557 19.5029 -114.159 -13.749 -114 -48l-16 -8.10254s-21.7686 31.1025 -21 75.1025c1.53711 88.0137 107 152 198 152
c149 0 224 -39 224 -207c0 -174 -113 -327 -255 -327c-109.963 0 -185.221 56.2969 -185.221 147.098zM393 90v224h92v-225s1.92871 -52 83 -52v-37c-140 0.756836 -174.196 40.4502 -175 90z" />
    <glyph glyph-name="Cacute" unicode="&#x106;" horiz-adv-x="686" 
d="M328 842c0 0 144 63 164 179l-15 6s-16 -20 -53 -20c-29 0 -57 20 -57 20l-17 -10s30 -25 30 -57c0 -48.2822 -61.0869 -101 -61.0869 -101zM374 57c-144 0 -259 141 -259 337s120 323 266 323c134 0 179 -77 179 -158l16 -8c12 45 90 206 90 205l-18 12
c-89 -79 -66 14 -270 14c-194 0 -372 -175 -372 -390s165.994 -406.03 368 -406c204 0.0302734 186 139.29 286 14c3.79492 -4.75391 8 13 8 13c0 -1 -55 183 -67 228c0 0 -15.7998 -1.60059 -16 -8c-2 -64 -46 -176 -211 -176z" />
    <glyph glyph-name="cacute" unicode="&#x107;" horiz-adv-x="556" 
d="M265 576c0 0 144 63 164 179l-15 6s-16 -20 -53 -20c-29 0 -57 20 -57 20l-17 -10s30 -25 30 -57c0 -48.2822 -61.0869 -101 -61.0869 -101zM471 304zM286 -13c138.003 -0.665039 203.695 81 232.695 184.834l-96.6953 -21.834c-3.38965 -51.6416 -59 -109 -135 -109
c-106.167 0 -147 109 -147 214c0 85.043 27.6172 199.171 167 198c35.6162 -0.298828 90.8975 -20.001 91 -58c0.124023 -46.002 -65 -92 -65 -92l16 -24c17.5957 22.0391 62.4199 48.4297 110 38.0605l12 -13.0605s42.9414 7.93457 42 60
c-1.67969 92.9023 -110 152 -198 152c-179 0 -267 -114 -267 -261c0 -156.411 86.4932 -267.27 238 -268z" />
    <glyph glyph-name="Ccircumflex" unicode="&#x108;" horiz-adv-x="686" 
d="M258.544 842l-9.08691 17s74.0869 52.7178 74.0869 101c0 32 -12 61 -12 61h21s13 -14 42 -14c17 0 19 -10 19 -10l19 14c0 -102 -154 -169 -154 -169zM497.457 842c0 0 -164 63 -184 179l15 6s9 -20 46 -20c30 0 40 20 40 20l17 -10s-19 -25 -19 -57
c0 -48.2822 94.0869 -101 94.0869 -101zM374 57c-144 0 -259 141 -259 337s120 323 266 323c134 0 179 -77 179 -158l16 -8c12 45 90 206 90 205l-18 12c-89 -79 -66 14 -270 14c-194 0 -372 -175 -372 -390s165.994 -406.03 368 -406c204 0.0302734 186 139.29 286 14
c3.79492 -4.75391 8 13 8 13c0 -1 -55 183 -67 228c0 0 -15.7998 -1.60059 -16 -8c-2 -64 -46 -176 -211 -176z" />
    <glyph glyph-name="ccircumflex" unicode="&#x109;" horiz-adv-x="556" 
d="M195.544 576l-9.08691 17s74.0869 52.7178 74.0869 101c0 32 -12 61 -12 61h21s13 -14 42 -14c17 0 19 -10 19 -10l19 14c0 -102 -154 -169 -154 -169zM434.457 576c0 0 -164 63 -184 179l15 6s9 -20 46 -20c30 0 40 20 40 20l17 -10s-19 -25 -19 -57
c0 -48.2822 94.0869 -101 94.0869 -101zM471 304zM286 -13c138.003 -0.665039 203.695 81 232.695 184.834l-96.6953 -21.834c-3.38965 -51.6416 -59 -109 -135 -109c-106.167 0 -147 109 -147 214c0 85.043 27.6172 199.171 167 198
c35.6162 -0.298828 90.8975 -20.001 91 -58c0.124023 -46.002 -65 -92 -65 -92l16 -24c17.5957 22.0391 62.4199 48.4297 110 38.0605l12 -13.0605s42.9414 7.93457 42 60c-1.67969 92.9023 -110 152 -198 152c-179 0 -267 -114 -267 -261
c0 -156.411 86.4932 -267.27 238 -268z" />
    <glyph glyph-name="Emacron" unicode="&#x112;" 
d="M157.5 898h324v-56h-324v56zM463 358h78v-83h-37c0 81 -41 83 -41 83zM463 427c0 0 41 2 41 83h37v-83h-78zM541 427v0v-69h-378v69h378zM533 690h78v-82h-36c0 68 -42 82 -42 82c2 0 0 0 0 0zM611 690h-468h-32v78h500v-78zM533 78v0c5 0 42 14 42 82h36v-82h-78z
M611 78v-78h-500v78h500zM111 690c0 0 -2 41 -83 41v37h83v-78zM111 78v-78h-83v37c81 0 83 41 83 41zM111 768v0h92v-768h-92v768z" />
    <glyph glyph-name="emacron" unicode="&#x113;" horiz-adv-x="528" 
d="M109 632h324v-56h-324v56zM425.932 306.895l-327.932 -0.894531l-2 -61h415c20 229 -126 271 -240 271c-98 0 -237 -79 -237 -261c0 -174 101.003 -268.836 238 -268c128.002 0.78125 203.695 81 232.695 184.834l-96.6953 -21.834
c-3.38965 -51.6416 -54.7178 -108 -136 -108c-83 0 -147.777 72.999 -148 213c-0.157227 99.0029 48 199 156 199c85.5215 0 167.016 -65.6064 145.932 -147.105z" />
    <glyph glyph-name="gcircumflex" unicode="&#x11d;" horiz-adv-x="647" 
d="M152.544 576l-9.08691 17s74.0869 52.7178 74.0869 101c0 32 -12 61 -12 61h21s13 -14 42 -14c17 0 19 -10 19 -10l19 14c0 -102 -154 -169 -154 -169zM391.457 576c0 0 -164 63 -184 179l15 6s9 -20 46 -20c30 0 40 20 40 20l17 -10s-19 -25 -19 -57
c0 -48.2822 94.0869 -101 94.0869 -101zM422 20c0 0 19 -183 -152 -183c-62.4102 0 -82.1494 15.5732 -99 37.6426c-4.81055 5.46387 -7 11.916 -7 19.3574c0 37 82 56 82 56l-8 22c-119.308 -36.9053 -134.102 4.30078 -157 60l-25 5s-22.3916 -65.4424 -2 -120
c30.1416 -80.6416 114 -131 216 -131c244 0 244 214 244 214zM514 427c0 -0.514648 1.92871 36.623 83 41v37h-83v-78zM135 271c1 129 81 181 137 181c104 0 150.191 -53 150 -207l21 98s-7 173 -171 173c-141 0 -229 -90 -229 -242c0 -174 101 -247 218 -247
c147 0 181 151 181 151l-20 119c-0.250977 -111 -55 -207 -140 -207c-97 0 -147.907 63.999 -147 181zM514 506h-92v-486l92 -20v506z" />
    <glyph glyph-name="Nacute" unicode="&#x143;" horiz-adv-x="793" 
d="M355 842c0 0 144 63 164 179l-15 6s-16 -20 -53 -20c-29 0 -57 20 -57 20l-17 -10s30 -25 30 -57c0 -48.2822 -61.0869 -101 -61.0869 -101zM144 768h92l420 -768h-92zM697 690v78h83v-37c-81 0 -83 -41 -83 -41zM605 690c0 0 -2 41 -83 41v37h83v-78zM605 768h92v-768
h-92v768zM205 78c0 0 2 -41 83 -41v-37h-83v78zM113 690c0 0 -2 41 -83 41v37h83v-78zM113 78v-78h-83v37c81 0 83 41 83 41zM113 768h92v-768h-92v768z" />
    <glyph glyph-name="nacute" unicode="&#x144;" horiz-adv-x="681" 
d="M296.5 576c0 0 144 63 164 179l-15 6s-16 -20 -53 -20c-29 0 -57 20 -57 20l-17 -10s30 -25 30 -57c0 -48.2822 -61.0869 -101 -61.0869 -101zM568 78c0 0 1.92871 -41 83 -41v-37h-83v78zM476 78v-78h-83v37c81.0713 0 83 41 83 41zM217 78c0 0 1.92871 -41 83 -41v-37
h-83v78zM196 353c0 0 42 163 196 163c131 0 176 -69 176 -202h-92c0 90 -13 133 -99 133c-89 0 -161 -51 -161 -197c0 -90 -20 103 -20 103zM126 427c0 0 -1.92871 41 -83 41v37h83v-78zM125 78v-78h-83v37c81.0713 0 83 41 83 41zM476 314h92v-314h-92v314zM125 505h92
v-505h-92v505z" />
    <glyph glyph-name="omacron" unicode="&#x14d;" horiz-adv-x="549" 
d="M119 632h324v-56h-324v56zM281 -13c-107 0 -238 94 -238 268c0 182 147 261 238 261c150 0 249 -89 249 -261c0 -174 -121 -268 -249 -268zM281 454c-84 0 -148.227 -79.9971 -148 -199c0.18457 -97.001 35 -212 148 -212c121 0 156.314 91.0039 157 212
c0.503906 89.0049 -22 199 -157 199z" />
    <glyph glyph-name="Scircumflex" unicode="&#x15c;" horiz-adv-x="728" 
d="M214.544 842l-9.08691 17s74.0869 52.7178 74.0869 101c0 32 -12 61 -12 61h21s13 -14 42 -14c17 0 19 -10 19 -10l19 14c0 -102 -154 -169 -154 -169zM453.457 842c0 0 -164 63 -184 179l15 6s9 -20 46 -20c30 0 40 20 40 20l17 -10s-19 -25 -19 -57
c0 -48.2822 94.0869 -101 94.0869 -101zM364 -14c-202 0 -252 102.535 -328 14l-18 12c0 -1 78 170 90 215l16 -8c0 -151 148 -164 240 -164c129 0 204 61 204 148c0 164 -504 115 -504 389c0 111 100 190 270 190c204 0 208 -139 308 -14c4 5 8 -13 8 -13
c0 1 -55 -183 -67 -228c0 0 -16 2 -16 8c-2 64 -79 176 -243 176c-72 0 -178 -39 -178 -116c0 -188 508 -110 508 -392c0 -146 -102 -217 -290 -217z" />
    <glyph glyph-name="scircumflex" unicode="&#x15d;" horiz-adv-x="472" 
d="M95.6953 576l-9.08691 17s74.0869 52.7178 74.0869 101c0 32 -12 61 -12 61h21s13 -14 42 -14c17 0 19 -10 19 -10l19 14c0 -102 -154 -169 -154 -169zM334.608 576c0 0 -164 63 -184 179l15 6s9 -20 46 -20c30 0 40 20 40 20l17 -10s-19 -25 -19 -57
c0 -48.2822 94.0869 -101 94.0869 -101zM234.593 53.8975c64.8301 -0.897461 119.295 27.9014 118.559 82.1025c-1.7793 131 -310.325 36 -310.779 247c-0.160156 74.2812 55 133 172.779 133c94.1182 0 114.357 -60.6777 193.221 -11.874l8 -13.126
c0.393555 1.43555 -27.5762 -119.813 -40 -165.103l-16 8.10254c0 6.57812 -0.78125 120 -145.221 120c-50.0166 0 -87.7793 -25 -87.7793 -71c3.82715 -120 319 -55 319 -248.902c0 -92.0977 -78.6992 -146.015 -207.221 -146.098
c-116.118 -0.0751953 -119.357 73.6777 -198.221 9.87402l-8 13.126c-0.393555 -1.43555 46.0176 120.711 58.4414 166l16 -8.10254c0 -6.57812 -17.2188 -115 127.221 -115z" />
    <glyph glyph-name="Utilde" unicode="&#x168;" horiz-adv-x="774" 
d="M214.5 858l-17 16s45 96 121 96s99 -64 167 -64s107 64 107 64l18 -14s-60 -114 -122 -114s-95 65 -169 65c-72 0 -105 -49 -105 -49zM133 271l92 40c0 -179 38 -247 165 -247c171 0 193 71.1982 193 247l92 -51c0 -129 -52 -272 -287 -272c-217 0 -255 167 -255 283z
M675 690v78h83v-37c-81 0 -83 -41 -83 -41zM583 690c0 0 -2 41 -83 41v37h83v-78zM583 768v0h92v-508h-92v508zM225 690v78h83v-37c-81 0 -83 -41 -83 -41zM133 690c0 0 -2 41 -83 41v37h83v-78zM133 768v0h92v-508h-92v508z" />
    <glyph glyph-name="utilde" unicode="&#x169;" horiz-adv-x="634" 
d="M79.5 592l-17 16s45 96 121 96s99 -64 167 -64s107 64 107 64l18 -14s-60 -114 -122 -114s-95 65 -169 65c-72 0 -105 -49 -105 -49zM532 78c0 0 1.92871 -41 83 -41v-37h-83v78zM532 0zM461 151c0 0 -42 -163 -196 -163c-78.3623 0 -125.952 24.6904 -151.544 73
c-17.1904 32.4502 -24.4561 75.5586 -24.4561 129h92c0 -90 13 -133 99 -133c89 0 161 51 161 197c0 90 20 -103 20 -103zM181 190h-92v314h92v-314zM532 0h-92v20v485h92v-505zM440 427c0 0 -1.92871 41 -83 41v37h83v-78zM89 427c0 0 -1.92871 41 -83 41v37h83v-78z" />
    <glyph glyph-name="Umacron" unicode="&#x16a;" horiz-adv-x="774" 
d="M242 898h324v-56h-324v56zM133 271l92 40c0 -179 38 -247 165 -247c171 0 193 71.1982 193 247l92 -51c0 -129 -52 -272 -287 -272c-217 0 -255 167 -255 283zM675 690v78h83v-37c-81 0 -83 -41 -83 -41zM583 690c0 0 -2 41 -83 41v37h83v-78zM583 768v0h92v-508h-92v508
zM225 690v78h83v-37c-81 0 -83 -41 -83 -41zM133 690c0 0 -2 41 -83 41v37h83v-78zM133 768v0h92v-508h-92v508z" />
    <glyph glyph-name="umacron" unicode="&#x16b;" horiz-adv-x="634" 
d="M107 632h324v-56h-324v56zM532 78c0 0 1.92871 -41 83 -41v-37h-83v78zM532 0zM461 151c0 0 -42 -163 -196 -163c-78.3623 0 -125.952 24.6904 -151.544 73c-17.1904 32.4502 -24.4561 75.5586 -24.4561 129h92c0 -90 13 -133 99 -133c89 0 161 51 161 197
c0 90 20 -103 20 -103zM181 190h-92v314h92v-314zM532 0h-92v20v485h92v-505zM440 427c0 0 -1.92871 41 -83 41v37h83v-78zM89 427c0 0 -1.92871 41 -83 41v37h83v-78z" />
    <glyph glyph-name="dotlessi" unicode="&#x131;" horiz-adv-x="310" 
d="M198 78c0 0 1.92871 -41 83 -41v-37h-83v78zM106 426c0 0 -1.92871 41 -83 41v37h83v-78zM106 78v-78h-83v37c81.0713 0 83 41 83 41zM106 504h92v-504h-92v504z" />
    <glyph glyph-name="uni0237" unicode="&#x237;" horiz-adv-x="246" 
d="M106 427c0 0 -1.92871 41 -83 41v37h83v-78zM198 -49.5c0 -128 -67 -162 -165 -162c-80 0 -147.179 40.9385 -158 94c-8.86621 43.4766 10.6064 83 38 104l25 8c-9.58496 -26 43.4043 -50.0391 61 -29l16 -24s-45.2617 -16.999 -45 -52
c0.134766 -17.999 10.0039 -38.3652 56 -39c34.1357 -0.470703 80 21.4453 80 70v79.5v505h92v-505v-49.5z" />
    <glyph glyph-name="Amacron" unicode="&#x100;" horiz-adv-x="840" 
d="M327 899h324v-56h-324v56zM99 78v-78h-83v37c71 0 83 41 83 41zM177 78c0 0 -15 -41 83 -41v-37h-114zM637 78l33 -78h-116v37c104 0 83 41 83 41zM739 78c0 0 15 -41 83 -41v-37h-83v78zM251 385l169 -32l169 32l19 -63l-188 -37l-196 37zM489 783l278 -783h-102
l-245.133 689.605l-228.594 -575.605l-45.2734 -114h-78l305 769s53.333 -12.2803 116 14z" />
    <glyph glyph-name="Itilde" unicode="&#x128;" horiz-adv-x="333" 
d="M-20.5 858l-17 16s45 96 121 96s99 -64 167 -64s107 64 107 64l18 -14s-60 -114 -122 -114s-95 65 -169 65c-72 0 -105 -49 -105 -49zM215 690v78h83v-37c-81 0 -83 -41 -83 -41zM215 78c0 0 2 -41 83 -41v-37h-83v78zM123 690c0 0 -2 41 -83 41v37h83v-78zM123 78v-78
h-83v37c81 0 83 41 83 41zM123 768h92v-768h-92v768z" />
    <glyph glyph-name="itilde" unicode="&#x129;" horiz-adv-x="310" 
d="M-37.5 592l-17 16s45 96 121 96s99 -64 167 -64s107 64 107 64l18 -14s-60 -114 -122 -114s-95 65 -169 65c-72 0 -105 -49 -105 -49zM198 78c0 0 1.92871 -41 83 -41v-37h-83v78zM106 426c0 0 -1.92871 41 -83 41v37h83v-78zM106 78v-78h-83v37c81.0713 0 83 41 83 41z
M106 504h92v-504h-92v504z" />
    <glyph glyph-name="Imacron" unicode="&#x12a;" horiz-adv-x="333" 
d="M7 898h324v-56h-324v56zM215 690v78h83v-37c-81 0 -83 -41 -83 -41zM215 78c0 0 2 -41 83 -41v-37h-83v78zM123 690c0 0 -2 41 -83 41v37h83v-78zM123 78v-78h-83v37c81 0 83 41 83 41zM123 768h92v-768h-92v768z" />
    <glyph glyph-name="imacron" unicode="&#x12b;" horiz-adv-x="310" 
d="M-10 632h324v-56h-324v56zM198 78c0 0 1.92871 -41 83 -41v-37h-83v78zM106 426c0 0 -1.92871 41 -83 41v37h83v-78zM106 78v-78h-83v37c81.0713 0 83 41 83 41zM106 504h92v-504h-92v504z" />
    <glyph glyph-name="Jcircumflex" unicode="&#x134;" horiz-adv-x="460" 
d="M189.544 842l-9.08691 17s74.0869 52.7178 74.0869 101c0 32 -12 61 -12 61h21s13 -14 42 -14c17 0 19 -10 19 -10l19 14c0 -102 -154 -169 -154 -169zM428.457 842c0 0 -164 63 -184 179l15 6s9 -20 46 -20c30 0 40 20 40 20l17 -10s-19 -25 -19 -57
c0 -48.2822 94.0869 -101 94.0869 -101zM94 122c0 -45 24 -76 72 -76c38 0 97 10.9707 97 114h92c0 -138 -103 -172 -191 -172c-89 0 -134 64 -134 134c0 82 68 112 102 112c94 0 76 -90 76 -90c-65.5742 66 -114 21 -114 -22zM355 690v78h83v-37c-81 0 -83 -41 -83 -41z
M263 690c0 0 -2 41 -83 41v37h83v-78zM263 768h92v-608h-92v608z" />
    <glyph glyph-name="jcircumflex" unicode="&#x135;" horiz-adv-x="246" 
d="M32.543 576l-9.08691 17s74.0869 52.7178 74.0869 101c0 32 -12 61 -12 61h21s13 -14 42 -14c17 0 19 -10 19 -10l19 14c0 -102 -154 -169 -154 -169zM271.456 576c0 0 -164 63 -184 179l15 6s9 -20 46 -20c30 0 40 20 40 20l17 -10s-19 -25 -19 -57
c0 -48.2822 94.0869 -101 94.0869 -101zM106 427c0 0 -1.92871 41 -83 41v37h83v-78zM198 -49.5c0 -128 -67 -162 -165 -162c-80 0 -147.179 40.9385 -158 94c-8.86621 43.4766 10.6064 83 38 104l25 8c-9.58496 -26 43.4043 -50.0391 61 -29l16 -24
s-45.2617 -16.999 -45 -52c0.134766 -17.999 10.0039 -38.3652 56 -39c34.1357 -0.470703 80 21.4453 80 70v79.5v505h92v-505v-49.5z" />
    <glyph glyph-name="Lacute" unicode="&#x139;" 
d="M107 842c0 0 144 63 164 179l-15 6s-16 -20 -53 -20c-29 0 -57 20 -57 20l-17 -10s30 -25 30 -57c0 -48.2822 -61.0869 -101 -61.0869 -101zM203 690v78h83v-37c-81 0 -83 -41 -83 -41zM532 78c-9 0 42 14 42 82h36v-82h-78zM610 78v-78h-500v78h500zM111 690
c0 0 -2 41 -83 41v37h83v-78zM111 78v-78h-83v37c81 0 83 41 83 41zM111 768h92v-768h-92v768z" />
    <glyph glyph-name="Omacron" unicode="&#x14c;" horiz-adv-x="722" 
d="M195 898h324v-56h-324v56zM127 392c0 -196 86 -335 230 -335s230 139 230 335s-86 325 -230 325s-230 -129 -230 -325zM25 392c0 215 138 390 332 390s332 -175 332 -390s-138 -406 -332 -406s-332 191 -332 406z" />
    <glyph glyph-name="racute" unicode="&#x155;" horiz-adv-x="511" 
d="M197.657 576c0 0 144 63 164 179l-15 6s-16 -20 -53 -20c-29 0 -57 20 -57 20l-17 -10s30 -25 30 -57c0 -48.2822 -61.0869 -101 -61.0869 -101zM173 353c0 0 51 163 179 163c181 0 111 -194 111 -194l-140 -58c66.8887 86 77 181 -9 171
c-45.6924 -5.31348 -121 -39 -121 -185c0 -90 -20 103 -20 103zM194 78c0 0 1.92871 -41 83 -41v-37h-83v78zM103 427c0 0 -1.92871 41 -83 41v37h83v-78zM102 78v-78h-83v37c81.0713 0 83 41 83 41zM102 505h92v-505h-92v505z" />
    <glyph glyph-name="Sacute" unicode="&#x15a;" horiz-adv-x="728" 
d="M284 842c0 0 144 63 164 179l-15 6s-16 -20 -53 -20c-29 0 -57 20 -57 20l-17 -10s30 -25 30 -57c0 -48.2822 -61.0869 -101 -61.0869 -101zM364 -14c-202 0 -252 102.535 -328 14l-18 12c0 -1 78 170 90 215l16 -8c0 -151 148 -164 240 -164c129 0 204 61 204 148
c0 164 -504 115 -504 389c0 111 100 190 270 190c204 0 208 -139 308 -14c4 5 8 -13 8 -13c0 1 -55 -183 -67 -228c0 0 -16 2 -16 8c-2 64 -79 176 -243 176c-72 0 -178 -39 -178 -116c0 -188 508 -110 508 -392c0 -146 -102 -217 -290 -217z" />
    <glyph glyph-name="sacute" unicode="&#x15b;" horiz-adv-x="472" 
d="M165.151 576c0 0 144 63 164 179l-15 6s-16 -20 -53 -20c-29 0 -57 20 -57 20l-17 -10s30 -25 30 -57c0 -48.2822 -61.0869 -101 -61.0869 -101zM234.593 53.8975c64.8301 -0.897461 119.295 27.9014 118.559 82.1025c-1.7793 131 -310.325 36 -310.779 247
c-0.160156 74.2812 55 133 172.779 133c94.1182 0 114.357 -60.6777 193.221 -11.874l8 -13.126c0.393555 1.43555 -27.5762 -119.813 -40 -165.103l-16 8.10254c0 6.57812 -0.78125 120 -145.221 120c-50.0166 0 -87.7793 -25 -87.7793 -71
c3.82715 -120 319 -55 319 -248.902c0 -92.0977 -78.6992 -146.015 -207.221 -146.098c-116.118 -0.0751953 -119.357 73.6777 -198.221 9.87402l-8 13.126c-0.393555 -1.43555 46.0176 120.711 58.4414 166l16 -8.10254c0 -6.57812 -17.2188 -115 127.221 -115z" />
    <glyph glyph-name="Wcircumflex" unicode="&#x174;" horiz-adv-x="1196" 
d="M472.543 842l-9.08691 17s74.0869 52.7178 74.0869 101c0 32 -12 61 -12 61h21s13 -14 42 -14c17 0 19 -10 19 -10l19 14c0 -102 -154 -169 -154 -169zM711.456 842c0 0 -164 63 -184 179l15 6s9 -20 46 -20c30 0 40 20 40 20l17 -10s-19 -25 -19 -57
c0 -48.2822 94.0869 -101 94.0869 -101zM1090 691l-1 77h83v-37c-69 0 -82 -40 -82 -40zM1015 690c0 0 13 41 -86 41l1 37h109zM658 692l-20 76h111v-37c-100 0 -91 -39 -91 -39zM1115 768l-250 -768h-111l-218 768h102l185 -700l216 700h76zM552 690c0 0 13 41 -86 41l1 37
h109zM195 692l-20 76h111v-37c-100 0 -91 -39 -91 -39zM95 690c0 0 -13 41 -83 41v37h83v-78zM652 768l-250 -768h-111l-218 768h102l185 -700l216 700h76z" />
    <glyph glyph-name="wcircumflex" unicode="&#x175;" horiz-adv-x="1040" 
d="M416.043 576l-9.08691 17s74.0869 52.7178 74.0869 101c0 32 -12 61 -12 61h21s13 -14 42 -14c17 0 19 -10 19 -10l19 14c0 -102 -154 -169 -154 -169zM654.956 576c0 0 -164 63 -184 179l15 6s9 -20 46 -20c30 0 40 20 40 20l17 -10s-19 -25 -19 -57
c0 -48.2822 94.0869 -101 94.0869 -101zM939 427v77h83v-37c-81.0713 0 -83 -40 -83 -40zM885 426c0 0 -1.92871 41 -83 41v37h113zM717.096 0l197.809 504h53l-197.809 -504h-53zM602 426l-30 78h113v-37c-81.0713 0 -83 -41 -83 -41zM769.904 0h-92l-197.809 504h92z
M563 427v77h83v-37c-81.0713 0 -83 -40 -83 -40zM509 426c0 0 -1.92871 41 -83 41v37h113zM341.096 0l197.809 504h53l-197.809 -504h-53zM132 427c0 0 -1.92871 40 -83 40v37h83v-77zM226 426l-30 78h113v-37c-81.0713 0 -83 -41 -83 -41zM393.904 0h-92l-197.809 504h92z
" />
    <glyph glyph-name="Ycircumflex" unicode="&#x176;" horiz-adv-x="795" 
d="M279.544 842l-9.08691 17s74.0869 52.7178 74.0869 101c0 32 -12 61 -12 61h21s13 -14 42 -14c17 0 19 -10 19 -10l19 14c0 -102 -154 -169 -154 -169zM518.457 842c0 0 -164 63 -184 179l15 6s9 -20 46 -20c30 0 40 20 40 20l17 -10s-19 -25 -19 -57
c0 -48.2822 94.0869 -101 94.0869 -101zM437 78c0 0 2 -41 83 -41v-37h-83v78zM345 78v-78h-83v37c81 0 83 41 83 41zM345 418h92v-418h-92v418zM545 686c0 0 31 45 -85 45v37h138zM635 684l55 84h83v-37c-117 0 -138 -47 -138 -47zM690 768l-252 -390h-92l252 390h92z
M245 694l-45 74h135v-37c-118 0 -90 -37 -90 -37zM155 691c0 0 -22 40 -132 40l2 37h83zM108 768h92l238 -390h-92z" />
    <glyph glyph-name="ycircumflex" unicode="&#x177;" horiz-adv-x="698" 
d="M272.544 576l-9.08691 17s74.0869 52.7178 74.0869 101c0 32 -12 61 -12 61h21s13 -14 42 -14c17 0 19 -10 19 -10l19 14c0 -102 -154 -169 -154 -169zM511.457 576c0 0 -164 63 -184 179l15 6s9 -20 46 -20c30 0 40 20 40 20l17 -10s-19 -25 -19 -57
c0 -48.2822 94.0869 -101 94.0869 -101zM435 0c-59 -163 -125 -212 -223 -212c-100 0 -167 41 -178 94c-9 43 11 83 38 104l25 8c-10 -26 43 -49 61 -28l16 -24s-45 -17 -45 -52c0 -32 34.9893 -52 66 -52c75 0 111 28.5 167 162h73zM604 427v77h83v-37
c-81 0 -83 -40 -83 -40zM530 426c0 0 -2 41 -83 41v37h113zM362 0l198 504h73l-198 -504h-73zM180 427c0 0 -2 40 -83 40v37h83v-77zM258 426l-30 78h113v-37c-81 0 -83 -41 -83 -41zM374 0l-228 504h84l197.687 -425z" />
    <glyph glyph-name="Ydieresis" unicode="&#x178;" horiz-adv-x="795" 
d="M447.8 908.7c0 31.752 24.9482 56.7002 56.7002 56.7002s56.7002 -24.9482 56.7002 -56.7002s-24.9482 -56.7002 -56.7002 -56.7002s-56.7002 24.9482 -56.7002 56.7002zM266.8 908.7c0 31.752 24.9482 56.7002 56.7002 56.7002s56.7002 -24.9482 56.7002 -56.7002
s-24.9482 -56.7002 -56.7002 -56.7002s-56.7002 24.9482 -56.7002 56.7002zM437 78c0 0 2 -41 83 -41v-37h-83v78zM345 78v-78h-83v37c81 0 83 41 83 41zM345 418h92v-418h-92v418zM545 686c0 0 31 45 -85 45v37h138zM635 684l55 84h83v-37c-117 0 -138 -47 -138 -47z
M690 768l-252 -390h-92l252 390h92zM245 694l-45 74h135v-37c-118 0 -90 -37 -90 -37zM155 691c0 0 -22 40 -132 40l2 37h83zM108 768h92l238 -390h-92z" />
    <glyph glyph-name="Zacute" unicode="&#x179;" horiz-adv-x="711" 
d="M305 842c0 0 144 63 164 179l-15 6s-16 -20 -53 -20c-29 0 -57 20 -57 20l-17 -10s30 -25 30 -57c0 -48.2822 -61.0869 -101 -61.0869 -101zM640 768l-613 -694l42 -74l611 694zM667 0l20 157h-37c-10 -81 -61 -83 -61 -83h-562v-74h640zM680 694l-40 74h-570l-20 -157
h37c10 81 61 83 61 83h532z" />
    <glyph glyph-name="zacute" unicode="&#x17a;" horiz-adv-x="532" 
d="M235 576c0 0 144 63 164 179l-15 6s-16 -20 -53 -20c-29 0 -57 20 -57 20l-17 -10s30 -25 30 -57c0 -48.2822 -61.0869 -101 -61.0869 -101zM117 2h-95l397 502h99zM439 72c0 0 41 2 41 83h37v-83h-78zM102 2v70h415v-70h-415zM130 434c0 0 -41 -2 -41 -83h-37v83h78z
M52 434v70h465l-110 -70h-355z" />
    <glyph glyph-name="OE" unicode="&#x152;" horiz-adv-x="1142" 
d="M947 358h78v-83h-37c0 81 -41 83 -41 83zM947 427c0 0 41 2 41 83h37v-83h-78zM1025 427v-69h-378v69h378zM1017 690h78v-82h-36c0 68 -42 82 -42 82zM1095 690h-468h-32v78h500v-78zM1017 78c5 0 42 14 42 82h36v-82h-78zM1095 78v-78h-500v78h500zM595 768h92v-768h-92
v768zM127 392c0 -196 86 -335 230 -335s230 139 230 335s-86 325 -230 325s-230 -129 -230 -325zM25 392c0 215 138 390 332 390s332 -175 332 -390s-138 -406 -332 -406s-332 191 -332 406z" />
    <glyph glyph-name="oe" unicode="&#x153;" horiz-adv-x="949" 
d="M836.932 306.895c21.084 81.499 -60.4102 147.105 -145.932 147.105c-108 0 -156.157 -99.9971 -156 -199c0.222656 -140.001 65 -213 148 -213c81.2822 0 132.61 56.3584 136 108l96.6953 21.834c-29 -103.834 -104.693 -184.053 -232.695 -184.834
c-136.997 -0.835938 -238 94 -238 268c0 182 139 261 237 261c114 0 260 -42 240 -271h-415l2 61zM281 -13c-107 0 -238 94 -238 268c0 182 147 261 238 261c150 0 249 -89 249 -261c0 -174 -121 -268 -249 -268zM281 454c-84 0 -148.227 -79.9971 -148 -199
c0.18457 -97.001 35 -212 148 -212c121 0 156.314 91.0039 157 212c0.503906 89.0049 -22 199 -157 199z" />
    <glyph glyph-name="ae" unicode="&#xe6;" horiz-adv-x="588" 
d="M785.932 306.895c21.084 81.499 -60.4102 147.105 -145.932 147.105c-108 0 -156.157 -99.9971 -156 -199c0.222656 -140.001 65 -213 148 -213c81.2822 0 132.61 56.3584 136 108l96.6953 21.834c-29 -103.834 -104.693 -184.053 -232.695 -184.834
c-136.997 -0.835938 -238 94 -238 268c0 182 139 261 237 261c114 0 260 -42 240 -271h-415l2 61zM44.7793 134.098c0 57.6445 37.2207 113.902 113.221 135.902c125.452 36.3154 249.273 23.835 250 62c0.19043 10 0 -64 0 -64s-170 -20 -218 -46
c-32.7119 -17.7188 -52 -51 -52 -86c0 -59 48.7285 -83 112 -83c105 0 142.314 81.0039 143 202c0.503906 89.0049 14 198.549 -117 199c-41.6172 0.143555 -86.7549 -21 -87 -50c-0.157215 -18.6002 34 -34 34 -34l-9 -20c-40.0557 19.5029 -114.159 -13.749 -114 -48
l-16 -8.10254s-21.7686 31.1025 -21 75.1025c1.53711 88.0137 107 152 198 152c149 0 224 -39 224 -207c0 -174 -113 -327 -255 -327c-109.963 0 -185.221 56.2969 -185.221 147.098z" />
    <glyph glyph-name="AE" unicode="&#xc6;" horiz-adv-x="840" 
d="M772 358h78v-83h-37c0 81 -41 83 -41 83zM772 427c0 0 41 2 41 83h37v-83h-78zM850 427v-69h-378v69h378zM842 690h78v-82h-36c0 68 -42 82 -42 82zM920 690h-468h-32v78h500v-78zM842 78c5 0 42 14 42 82h36v-82h-78zM920 78v-78h-500v78h500zM420 78v-78h-83v37
c81 0 83 41 83 41zM420 768h92v-768h-92v768zM99 78v-78h-83v37c71 0 83 41 83 41zM177 78c0 0 -15 -41 83 -41v-37h-114zM420 285l-196 37l27 63l169 -32v-68zM419.867 689.605l-228.594 -575.605l-45.2734 -114h-78l305 768h116z" />
    <glyph glyph-name="Hcircumflex" unicode="&#x124;" horiz-adv-x="720" 
d="M246.544 842l-9.08691 17s74.0869 52.7178 74.0869 101c0 32 -12 61 -12 61h21s13 -14 42 -14c17 0 19 -10 19 -10l19 14c0 -102 -154 -169 -154 -169zM485.457 842c0 0 -164 63 -184 179l15 6s9 -20 46 -20c30 0 40 20 40 20l17 -10s-19 -25 -19 -57
c0 -48.2822 94.0869 -101 94.0869 -101zM197 445l169 -32l169 32l19 -63l-188 -37l-196 37zM627 690v78h83v-37c-81 0 -83 -41 -83 -41zM627 78c0 0 2 -41 83 -41v-37h-83v78zM535 690c0 0 -2 41 -83 41v37h83v-78zM535 78v-78h-83v37c81 0 83 41 83 41zM535 768h92v-768
h-92v768zM197 690v78h83v-37c-81 0 -83 -41 -83 -41zM197 78c0 0 2 -41 83 -41v-37h-83v78zM105 690c0 0 -2 41 -83 41v37h83v-78zM105 78v-78h-83v37c81 0 83 41 83 41zM105 768h92v-768h-92v768z" />
    <glyph glyph-name="hcircumflex" unicode="&#x125;" horiz-adv-x="745" 
d="M61.043 860l-9.08691 17s74.0869 52.7178 74.0869 101c0 32 -12 61 -12 61h21s13 -14 42 -14c17 0 19 -10 19 -10l19 14c0 -102 -154 -169 -154 -169zM299.956 860c0 0 -164 63 -184 179l15 6s9 -20 46 -20c30 0 40 20 40 20l17 -10s-19 -25 -19 -57
c0 -48.2822 94.0869 -101 94.0869 -101zM592 78c0 0 1.92871 -41 83 -41v-37h-83v78zM500 78v-78h-83v37c81.0713 0 83 41 83 41zM241 78c0 0 1.92871 -41 83 -41v-37h-83v78zM220 353c0 0 42 163 196 163c131 0 176 -69 176 -202h-92c0 90 -13 133 -99 133
c-89 0 -161 -51 -161 -197c0 -90 -20 103 -20 103zM150 722c0 0 -1.92871 41 -83 41v37h83v-78zM149 78v-78h-83v37c81.0713 0 83 41 83 41zM500 314h92v-314h-92v314zM149 800h92v-800h-92v800z" />
    <glyph glyph-name="periodcentered" unicode="&#xb7;" horiz-adv-x="210" 
d="M56.2998 263c0 31.752 24.9482 56.7002 56.7002 56.7002s56.7002 -24.9482 56.7002 -56.7002s-24.9482 -56.7002 -56.7002 -56.7002s-56.7002 24.9482 -56.7002 56.7002z" />
    <glyph glyph-name="bracketleft" unicode="[" horiz-adv-x="263" 
d="M135 722v78h83v-37c-81 0 -83 -41 -83 -41zM135 8c0 0 2 -41 83 -41v-37h-83v78zM43 800h92v-870h-92v870z" />
    <glyph glyph-name="bracketright" unicode="]" horiz-adv-x="263" 
d="M126 722v78h-83v-37c81 0 83 -41 83 -41zM126 8c0 0 -2 -41 -83 -41v-37h83v78zM218 800h-92v-870h92v870z" />
    <glyph glyph-name="parenright" unicode=")" horiz-adv-x="263" 
d="M65 803h-21c125.514 -256 106.139 -617 0 -873h21c179.319 238.648 232.329 592 0 873z" />
    <glyph glyph-name="parenleft" unicode="(" horiz-adv-x="263" 
d="M194 803h21c-125.514 -256 -106.139 -617 0 -873h-21c-179.319 238.648 -232.329 592 0 873z" />
    <glyph glyph-name="backslash" unicode="\" horiz-adv-x="450" 
d="M128 800h-72l280 -870h72z" />
    <glyph glyph-name="one" unicode="1" horiz-adv-x="327" 
d="M117 78v542l-83 -42v40s47.5585 34.6085 88 74c27.9998 27.2728 54 76 54 76h33v-690s2 -41 83 -41v-37h-83h-92h-83v37c81 0 83 41 83 41z" />
    <glyph glyph-name="two" unicode="2" horiz-adv-x="586" 
d="M398 500c21 118 -24 201 -129.39 201c-50.6104 0 -116.61 -31.9911 -116.61 -88c0 -88.8358 82 -96 82 -96l-8 -27c-80 24.7461 -151 -38.2021 -106 -83l-16 -17s-62 43.9963 -62 180c0 96.1244 76 211 234 211c194 0 248 -143 227 -283c-31 -208 -332 -424 -332 -424
h-120s309.542 215.522 347 426zM511 0h-460v74h382s51 2 61 83h37z" />
    <glyph glyph-name="three" unicode="3" horiz-adv-x="620" 
d="M210 405c99.165 0.162109 219 7.77832 219 151c0 119.854 -75 145 -148.39 145c-50.6104 0 -116.61 -7.99121 -116.61 -64c0 -67.8359 82 -70 82 -70l-8 -27c-80 24.7461 -151 -38.2021 -106 -83l-16 -17s-61.2656 53 -62 158c-0.719727 103 76 183 234 183
c120 0 245 -53 245 -227c0 -85.2246 -63.0469 -134.549 -126.146 -163.073c97.1572 -19.8174 159.146 -65.7119 159.146 -167.927c0 -121 -97 -235 -303 -235c-144 0 -246 90 -246 206c0 58.2441 26 93 26 93l20 -5c-12.4648 -72 67 -87.8398 157 -60l8 -22s-92 -16 -92 -73
c0 -55 68.4932 -75 126 -75c171 0 212 116 212 168c0 112.136 -159.12 131.097 -264 131.968v53.0322z" />
    <glyph glyph-name="four" unicode="4" horiz-adv-x="709" 
d="M651 218h-617v74h14h596zM322 686c0 0 37 45 -79 45v37h138zM413 684l60 84h83v-37c-117 0 -143 -47 -143 -47zM473 768l-395 -550l-43 74l346 476h92zM492 78c0 0 1.92871 -41 83 -41v-37h-83v78zM400 78v-78h-83v37c81.0713 0 83 41 83 41zM492 504v-504h-92v504
s56 3 56 84h36v-84z" />
    <glyph glyph-name="five" unicode="5" horiz-adv-x="636" 
d="M302 524c-96 0 -173 -73 -173 -73v240s50 -53 180 -53s248 49 248 49l-12 17c-48 -22.583 -83.8926 26 -67 66l-13 16s-38 -69 -158 -69s-185 51 -185 51h-76v-410l76 -20.0322s68.0003 115.238 179 114.489c144 -0.971262 185 -108.221 185 -187.457
c0 -52 -40 -213 -202 -213c-57.5068 0 -126 20 -126 75c0 57 92 73 92 73l-8 22c-90 -27.8398 -169.465 -12 -157 60l-20 5s-26 -34.7559 -26 -93c0 -116 102 -206 246 -206c197 0 293 159 293 280c0 102.215 -39 256 -276 256z" />
    <glyph glyph-name="six" unicode="6" horiz-adv-x="636" 
d="M216 230c11 -105 57 -192 167 -192s165 121 145 226c-15.2381 80 -55 170 -165 170c-83 0 -162.733 -53.8219 -147 -204zM99 252c-7.2627 92 100 234 264 234c184 0 241.582 -112 258 -222c20 -134 -74 -278 -238 -278s-273.454 132.416 -284 266zM216 230l-117 22
c-32.6418 328 77.3818 530 294 530c144 0 225 -86 225 -202c0 -58.2441 -26 -93 -26 -93l-20 5c12.4648 72 -67 87.8398 -157 60l-8 22s92 16 92 73c0 55 -48.4932 75 -106 75c-211 0 -196.631 -328 -177 -492z" />
    <glyph glyph-name="seven" unicode="7" horiz-adv-x="630" 
d="M247 79l-31 -79h-83v37c96 0 114 42 114 42zM337 74c0 0 -17 -37 109 -37v-37h-138zM580 694l-272 -694h-92l272 694h92zM580 694h-442s-51 -2 -61 -83h-37l20 157h520v-74z" />
    <glyph glyph-name="eight" unicode="8" horiz-adv-x="586" 
d="M298 722c90 0 140 -69.9658 140 -125c0 -193.13 -401 -96.998 -401 -397c0 -122.011 119 -212 261 -214s261 92 261 214c0 304 -401 202 -401 397c0 55.3916 60 125 140 125zM298 781c-152 0 -227 -79.6113 -227 -184c0 -259 401 -163 401 -397
c0 -92.5078 -78 -157 -174 -157c-86 0 -174 67 -174 157c0 225.031 401 168 401 397c0 104.043 -90 184 -227 184z" />
    <glyph glyph-name="nine" unicode="9" horiz-adv-x="639" 
d="M453 538c-11 105 -57 192 -167 192s-165 -121 -145 -226c13.333 -70 55 -170 165 -170c83 0 162.733 53.8223 147 204zM570 516c7.2627 -92 -100 -234 -264 -234c-184 0 -244.269 130 -258 222c-20 134 74 278 238 278s273.454 -132.416 284 -266zM453 538l117 -22
c32.6416 -328 -77.3818 -530 -294 -530c-144 0 -225 86 -225 202c0 58.2441 26 93 26 93l20 -5c-12.4648 -72 67 -87.8398 157 -60l8 -22s-92 -16 -92 -73c0 -55 48.4932 -75 106 -75c211 0 196.631 328 177 492z" />
    <glyph glyph-name="zero" unicode="0" horiz-adv-x="626" 
d="M261 392c0 29 29 58 58 58s58 -29 58 -58s-29 -58 -58 -58s-58 29 -58 58zM135 392c0 -196 66 -335 180 -335s180 139 180 335s-66 325 -180 325s-180 -129 -180 -325zM33 392c0 215 118 390 282 390s282 -175 282 -390s-118 -406 -282 -406s-282 191 -282 406z" />
    <glyph glyph-name="uni261C" unicode="&#x261c;" horiz-adv-x="1712" 
d="M1523.5 75c0 19.7867 15.7133 35.5 35.5 35.5s35.5 -15.7133 35.5 -35.5s-15.7133 -35.5 -35.5 -35.5s-35.5 15.7133 -35.5 35.5zM1548.5 75c0 -6.2133 4.2867 -10.5 10.5 -10.5s10.5 4.2867 10.5 10.5s-4.2867 10.5 -10.5 10.5s-10.5 -4.2867 -10.5 -10.5zM1433.5 75
c0 19.7867 15.7133 35.5 35.5 35.5s35.5 -15.7133 35.5 -35.5s-15.7133 -35.5 -35.5 -35.5s-35.5 15.7133 -35.5 35.5zM1458.5 75c0 -6.2133 4.2867 -10.5 10.5 -10.5s10.5 4.2867 10.5 10.5s-4.2867 10.5 -10.5 10.5s-10.5 -4.2867 -10.5 -10.5zM1333.5 95
c0 19.7867 15.7133 35.5 35.5 35.5s35.5 -15.7133 35.5 -35.5c0 -19.7867 -15.7133 -35.5 -35.5 -35.5s-35.5 15.7133 -35.5 35.5zM1358.5 95c0 -6.2133 4.2867 -10.5 10.5 -10.5s10.5 4.2867 10.5 10.5c0 6.2133 -4.2867 10.5 -10.5 10.5s-10.5 -4.2867 -10.5 -10.5z
M1343.5 195c0 19.7867 15.7133 35.5 35.5 35.5s35.5 -15.7133 35.5 -35.5s-15.7133 -35.5 -35.5 -35.5s-35.5 15.7133 -35.5 35.5zM1368.5 195c0 -6.2133 4.2867 -10.5 10.5 -10.5s10.5 4.2867 10.5 10.5s-4.2867 10.5 -10.5 10.5s-10.5 -4.2867 -10.5 -10.5zM1413.5 165
c0 19.7867 15.7133 35.5 35.5 35.5s35.5 -15.7133 35.5 -35.5s-15.7133 -35.5 -35.5 -35.5s-35.5 15.7133 -35.5 35.5zM1438.5 165c0 -6.2133 4.2867 -10.5 10.5 -10.5s10.5 4.2867 10.5 10.5s-4.2867 10.5 -10.5 10.5s-10.5 -4.2867 -10.5 -10.5zM1517.5 165
c0 19.7867 15.7133 35.5 35.5 35.5s35.5 -15.7133 35.5 -35.5s-15.7133 -35.5 -35.5 -35.5s-35.5 15.7133 -35.5 35.5zM1542.5 165c0 -6.2133 4.2867 -10.5 10.5 -10.5s10.5 4.2867 10.5 10.5s-4.2867 10.5 -10.5 10.5s-10.5 -4.2867 -10.5 -10.5zM1517.5 255
c0 19.7867 15.7133 35.5 35.5 35.5s35.5 -15.7133 35.5 -35.5c0 -19.7867 -15.7133 -35.5 -35.5 -35.5s-35.5 15.7133 -35.5 35.5zM1542.5 255c0 -6.2133 4.2867 -10.5 10.5 -10.5s10.5 4.2867 10.5 10.5c0 6.2133 -4.2867 10.5 -10.5 10.5s-10.5 -4.2867 -10.5 -10.5z
M1427.5 255c0 19.7867 15.7133 35.5 35.5 35.5s35.5 -15.7133 35.5 -35.5c0 -19.7867 -15.7133 -35.5 -35.5 -35.5s-35.5 15.7133 -35.5 35.5zM1452.5 255c0 -6.2133 4.2867 -10.5 10.5 -10.5s10.5 4.2867 10.5 10.5c0 6.2133 -4.2867 10.5 -10.5 10.5
s-10.5 -4.2867 -10.5 -10.5zM1337.5 285c0 19.7867 15.7133 35.5 35.5 35.5s35.5 -15.7133 35.5 -35.5s-15.7133 -35.5 -35.5 -35.5s-35.5 15.7133 -35.5 35.5zM1362.5 285c0 -6.2133 4.2867 -10.5 10.5 -10.5s10.5 4.2867 10.5 10.5s-4.2867 10.5 -10.5 10.5
s-10.5 -4.2867 -10.5 -10.5zM1337.5 395c0 19.7867 15.7133 35.5 35.5 35.5s35.5 -15.7133 35.5 -35.5s-15.7133 -35.5 -35.5 -35.5s-35.5 15.7133 -35.5 35.5zM1362.5 395c0 -6.2133 4.2867 -10.5 10.5 -10.5s10.5 4.2867 10.5 10.5s-4.2867 10.5 -10.5 10.5
s-10.5 -4.2867 -10.5 -10.5zM1415.5 356c0 19.7867 15.7133 35.5 35.5 35.5s35.5 -15.7133 35.5 -35.5s-15.7133 -35.5 -35.5 -35.5s-35.5 15.7133 -35.5 35.5zM1440.5 356c0 -6.2133 4.2867 -10.5 10.5 -10.5s10.5 4.2867 10.5 10.5s-4.2867 10.5 -10.5 10.5
s-10.5 -4.2867 -10.5 -10.5zM1497.5 445c0 19.7867 15.7133 35.5 35.5 35.5s35.5 -15.7133 35.5 -35.5s-15.7133 -35.5 -35.5 -35.5s-35.5 15.7133 -35.5 35.5zM1522.5 445c0 -6.2133 4.2867 -10.5 10.5 -10.5s10.5 4.2867 10.5 10.5s-4.2867 10.5 -10.5 10.5
s-10.5 -4.2867 -10.5 -10.5zM1505.5 355c0 19.7867 15.7133 35.5 35.5 35.5s35.5 -15.7133 35.5 -35.5s-15.7133 -35.5 -35.5 -35.5s-35.5 15.7133 -35.5 35.5zM1530.5 355c0 -6.2133 4.2867 -10.5 10.5 -10.5s10.5 4.2867 10.5 10.5s-4.2867 10.5 -10.5 10.5
s-10.5 -4.2867 -10.5 -10.5zM1395.5 448c0 19.7867 15.7133 35.5 35.5 35.5s35.5 -15.7133 35.5 -35.5s-15.7133 -35.5 -35.5 -35.5s-35.5 15.7133 -35.5 35.5zM1420.5 448c0 -6.2133 4.2867 -10.5 10.5 -10.5s10.5 4.2867 10.5 10.5s-4.2867 10.5 -10.5 10.5
s-10.5 -4.2867 -10.5 -10.5zM1295.8 221.399c-1.98458 -40.831 -7.97647 -81.4802 -15.539 -121.618l1.8632 -2.71011c7.09862 41.9771 11.9731 82.9528 13.6758 124.328zM1296.21 270.633c-1.75891 63.2376 -13.1789 121.52 -37.7111 167.703l-6.08127 -2.43251
c30.0728 -52.2835 41.6774 -106.97 43.7924 -165.27zM1223.52 435.18c-3.04233 4.67282 -2.58916 15.0573 5.83304 18.4262l30 12c5.32366 2.12946 12.1884 0.148669 15.38 -5.20651c35.3791 -59.3626 47.4084 -135.294 46.6912 -214.636
c-0.547919 -60.6137 -8.61202 -123.487 -20.1565 -183.138c-0.502406 -2.59595 -2.10823 -5.47814 -4.40435 -7.33806c-5.58329 -4.52261 -14.0978 -3.28935 -18.1685 2.63156l-22 32c-1.59371 2.31813 -2.61843 6.1032 -1.97336 9.44843
c9.4927 49.2274 16.4033 99.0982 16.8168 147.243c0.588081 68.4788 -11.9017 133.097 -48.0183 188.57zM1575 532.5c-113.44 0 -177.441 -29 -296 -29c-15.3816 0 -4.22469 -41 -78 -41c-69.5969 0 -482.001 81 -648 81c-159.299 0 -450.607 -121.007 -473.617 -139.775
c-1.66667 -2.18691 -5.0766 -9.5926 13.3171 -23.5844c12.4052 -9.43648 33.4654 -19.7012 64.549 -28.0699c69.9567 -18.8345 273.359 78.4298 341.75 78.4298c62.8899 0 106.02 -18.2003 107.968 -19.0296c3.98949 -1.759 7.12559 -5.82142 7.49298 -10.4897
c0.56373 -7.16305 -5.27627 -13.4807 -12.4615 -13.4807c-53.176 0 -172.837 -133.793 -182.453 -160.187c1.46872 -9.31601 28.5926 -34.8301 67.7394 -38.8798c12.6902 -1.31277 28.018 65.3394 171.807 99.7236c6.05804 1.44866 13.7129 -2.44815 15.1644 -9.70578l2 -10
c1.20877 -6.04385 -2.48963 -12.6081 -8.73018 -14.4435c-114.008 -33.5319 -148.27 -126.569 -148.03 -137.739c0.19959 -9.28818 4.66734 -25.7685 52.5029 -25.7685c36.355 0 87.334 68.1374 143.94 72.955c29.8852 2.54342 46.5219 -0.777295 48.8924 -1.27732
c5.08929 -1.29592 9.66762 -6.13203 9.66762 -12.1777v-13c0 -5.59624 -5.10039 -12.5746 -12.625 -12.4994c-85.522 0.85522 -139.184 -85.5349 -141.61 -104.858c4.76383 -13.6869 44.069 -34.1607 116.462 -44.2621c33.6405 -4.69402 58.1102 26.4282 81.919 61.6238
c5.25609 7.76987 0.711883 13.7785 0.711883 13.7785c-26.1692 5.6582 -43.3732 -21.0426 -44.5228 -23.0146c-2.88778 -5.02079 -10.8455 -8.33917 -17.2668 -4.48643l-5 3c-4.3165 2.5899 -7.24678 8.65012 -5.53754 14.3241
c1.24852 4.14459 18.5765 49.8945 103.969 49.8945c171.57 0 226.551 47 320 47c63.0586 0 79.3295 -125 124 -125h320c12.5975 0 23.5 11.8631 23.5 27.5c0 183.799 -40 287.803 -40 476c0 8.12935 -9.20504 16.5 -23.5 16.5zM1575 557.5
c21.705 0 48.5 -13.6293 48.5 -41.5c0 -183.803 40 -287.799 40 -476c0 -26.3631 -19.0975 -52.5 -48.5 -52.5h-320c-73.7862 0 -95.0586 125 -124 125c-82.5506 0 -143.57 -47 -320 -47c-3.81943 0 -7.99175 -0.144194 -11.0374 -0.284186
c9.53166 -14.336 7.48575 -30.2535 -0.609016 -42.2197c-22.1912 -32.8044 -53.7215 -79.6822 -106.081 -72.3762c-70.8701 9.88885 -127.256 27.105 -137.31 63.0096c-5.26166 18.7912 14.0852 50.4637 40.9762 78.9457
c-20.5466 -14.1589 -41.4224 -27.0753 -64.9392 -27.0753c-54.1645 0 -76.9233 23.5279 -77.4971 50.2315c-0.32953 15.3351 11.1729 45.3491 37.2874 78.0879c-14.6 -14.8228 -25.7259 -32.4617 -47.0765 -30.253c-44.6254 4.61642 -90.2138 32.3909 -90.2138 64.4336
c0 28.6828 94.1214 134.947 163.744 171.593c-16.6769 3.34991 -36.1906 5.90747 -59.2444 5.90747c-53.6087 0 -262.206 -100.736 -348.25 -77.5702c-35.3803 9.52547 -60.1893 21.5133 -76.2611 34.7457c-19.9145 16.3962 -28.8989 39.5586 -14.092 57.3268
c20.9513 25.1416 320.441 148.498 492.603 148.498c170.001 0 585.597 -81 648 -81c58.2247 0 25.3816 41 78 41c113.441 0 177.44 29 296 29z" />
    <glyph glyph-name="uni261E" unicode="&#x261e;" horiz-adv-x="1712" 
d="M200.397 75c0 19.7871 -15.7139 35.5 -35.5 35.5c-19.7871 0 -35.5 -15.7129 -35.5 -35.5s15.7129 -35.5 35.5 -35.5c19.7861 0 35.5 15.7129 35.5 35.5zM175.397 75c0 -6.21289 -4.28711 -10.5 -10.5 -10.5c-6.21387 0 -10.5 4.28711 -10.5 10.5s4.28613 10.5 10.5 10.5
c6.21289 0 10.5 -4.28711 10.5 -10.5zM290.397 75c0 19.7871 -15.7139 35.5 -35.5 35.5c-19.7871 0 -35.5 -15.7129 -35.5 -35.5s15.7129 -35.5 35.5 -35.5c19.7861 0 35.5 15.7129 35.5 35.5zM265.397 75c0 -6.21289 -4.28711 -10.5 -10.5 -10.5
c-6.21387 0 -10.5 4.28711 -10.5 10.5s4.28613 10.5 10.5 10.5c6.21289 0 10.5 -4.28711 10.5 -10.5zM390.397 95c0 19.7871 -15.7139 35.5 -35.5 35.5c-19.7871 0 -35.5 -15.7129 -35.5 -35.5s15.7129 -35.5 35.5 -35.5c19.7861 0 35.5 15.7129 35.5 35.5zM365.397 95
c0 -6.21289 -4.28711 -10.5 -10.5 -10.5c-6.21387 0 -10.5 4.28711 -10.5 10.5s4.28613 10.5 10.5 10.5c6.21289 0 10.5 -4.28711 10.5 -10.5zM380.397 195c0 19.7871 -15.7139 35.5 -35.5 35.5c-19.7871 0 -35.5 -15.7129 -35.5 -35.5s15.7129 -35.5 35.5 -35.5
c19.7861 0 35.5 15.7129 35.5 35.5zM355.397 195c0 -6.21289 -4.28711 -10.5 -10.5 -10.5c-6.21387 0 -10.5 4.28711 -10.5 10.5s4.28613 10.5 10.5 10.5c6.21289 0 10.5 -4.28711 10.5 -10.5zM310.397 165c0 19.7871 -15.7139 35.5 -35.5 35.5
c-19.7871 0 -35.5 -15.7129 -35.5 -35.5s15.7129 -35.5 35.5 -35.5c19.7861 0 35.5 15.7129 35.5 35.5zM285.397 165c0 -6.21289 -4.28711 -10.5 -10.5 -10.5c-6.21387 0 -10.5 4.28711 -10.5 10.5s4.28613 10.5 10.5 10.5c6.21289 0 10.5 -4.28711 10.5 -10.5zM206.397 165
c0 19.7871 -15.7139 35.5 -35.5 35.5c-19.7871 0 -35.5 -15.7129 -35.5 -35.5s15.7129 -35.5 35.5 -35.5c19.7861 0 35.5 15.7129 35.5 35.5zM181.397 165c0 -6.21289 -4.28711 -10.5 -10.5 -10.5c-6.21387 0 -10.5 4.28711 -10.5 10.5s4.28613 10.5 10.5 10.5
c6.21289 0 10.5 -4.28711 10.5 -10.5zM206.397 255c0 19.7871 -15.7139 35.5 -35.5 35.5c-19.7871 0 -35.5 -15.7129 -35.5 -35.5s15.7129 -35.5 35.5 -35.5c19.7861 0 35.5 15.7129 35.5 35.5zM181.397 255c0 -6.21289 -4.28711 -10.5 -10.5 -10.5
c-6.21387 0 -10.5 4.28711 -10.5 10.5s4.28613 10.5 10.5 10.5c6.21289 0 10.5 -4.28711 10.5 -10.5zM296.397 255c0 19.7871 -15.7139 35.5 -35.5 35.5c-19.7871 0 -35.5 -15.7129 -35.5 -35.5s15.7129 -35.5 35.5 -35.5c19.7861 0 35.5 15.7129 35.5 35.5zM271.397 255
c0 -6.21289 -4.28711 -10.5 -10.5 -10.5c-6.21387 0 -10.5 4.28711 -10.5 10.5s4.28613 10.5 10.5 10.5c6.21289 0 10.5 -4.28711 10.5 -10.5zM386.397 285c0 19.7871 -15.7139 35.5 -35.5 35.5c-19.7871 0 -35.5 -15.7129 -35.5 -35.5s15.7129 -35.5 35.5 -35.5
c19.7861 0 35.5 15.7129 35.5 35.5zM361.397 285c0 -6.21289 -4.28711 -10.5 -10.5 -10.5c-6.21387 0 -10.5 4.28711 -10.5 10.5s4.28613 10.5 10.5 10.5c6.21289 0 10.5 -4.28711 10.5 -10.5zM386.397 395c0 19.7871 -15.7139 35.5 -35.5 35.5
c-19.7871 0 -35.5 -15.7129 -35.5 -35.5s15.7129 -35.5 35.5 -35.5c19.7861 0 35.5 15.7129 35.5 35.5zM361.397 395c0 -6.21289 -4.28711 -10.5 -10.5 -10.5c-6.21387 0 -10.5 4.28711 -10.5 10.5s4.28613 10.5 10.5 10.5c6.21289 0 10.5 -4.28711 10.5 -10.5zM308.397 356
c0 19.7871 -15.7139 35.5 -35.5 35.5c-19.7871 0 -35.5 -15.7129 -35.5 -35.5s15.7129 -35.5 35.5 -35.5c19.7861 0 35.5 15.7129 35.5 35.5zM283.397 356c0 -6.21289 -4.28711 -10.5 -10.5 -10.5c-6.21387 0 -10.5 4.28711 -10.5 10.5s4.28613 10.5 10.5 10.5
c6.21289 0 10.5 -4.28711 10.5 -10.5zM226.397 445c0 19.7871 -15.7139 35.5 -35.5 35.5c-19.7871 0 -35.5 -15.7129 -35.5 -35.5s15.7129 -35.5 35.5 -35.5c19.7861 0 35.5 15.7129 35.5 35.5zM201.397 445c0 -6.21289 -4.28711 -10.5 -10.5 -10.5
c-6.21387 0 -10.5 4.28711 -10.5 10.5s4.28613 10.5 10.5 10.5c6.21289 0 10.5 -4.28711 10.5 -10.5zM218.397 355c0 19.7871 -15.7139 35.5 -35.5 35.5c-19.7871 0 -35.5 -15.7129 -35.5 -35.5s15.7129 -35.5 35.5 -35.5c19.7861 0 35.5 15.7129 35.5 35.5zM193.397 355
c0 -6.21289 -4.28711 -10.5 -10.5 -10.5c-6.21387 0 -10.5 4.28711 -10.5 10.5s4.28613 10.5 10.5 10.5c6.21289 0 10.5 -4.28711 10.5 -10.5zM328.397 448c0 19.7871 -15.7139 35.5 -35.5 35.5c-19.7871 0 -35.5 -15.7129 -35.5 -35.5s15.7129 -35.5 35.5 -35.5
c19.7861 0 35.5 15.7129 35.5 35.5zM303.397 448c0 -6.21289 -4.28711 -10.5 -10.5 -10.5c-6.21387 0 -10.5 4.28711 -10.5 10.5s4.28613 10.5 10.5 10.5c6.21289 0 10.5 -4.28711 10.5 -10.5zM428.102 221.398c1.98438 -40.8311 7.97656 -81.4795 15.5391 -121.617
l-1.86328 -2.70996c-7.09863 41.9766 -11.9736 82.9521 -13.6758 124.327zM427.69 270.633c1.75879 63.2373 13.1787 121.52 37.7109 167.702l6.08105 -2.43164c-30.0723 -52.2842 -41.6768 -106.97 -43.792 -165.271zM500.373 435.18
c3.04199 4.67285 2.58887 15.0576 -5.83301 18.4268l-30 12c-5.32422 2.12891 -12.1885 0.148438 -15.3809 -5.20703c-35.3789 -59.3623 -47.4082 -135.294 -46.6904 -214.637c0.547852 -60.6133 8.61133 -123.487 20.1562 -183.138
c0.501953 -2.5957 2.1084 -5.47852 4.4043 -7.33789c5.58301 -4.52246 14.0977 -3.29004 18.1689 2.63086l22 32c1.59277 2.31836 2.61816 6.10352 1.97266 9.44922c-9.49219 49.2266 -16.4033 99.0977 -16.8164 147.242c-0.587891 68.4795 11.9014 133.098 48.0186 188.57z
M148.897 532.5c113.439 0 177.44 -29 296 -29c15.3818 0 4.22461 -41 78 -41c69.5967 0 482.001 81 648 81c159.299 0 450.606 -121.007 473.616 -139.775c1.66699 -2.18652 5.07715 -9.59277 -13.3174 -23.585c-12.4053 -9.43652 -33.4648 -19.7012 -64.5488 -28.0693
c-69.957 -18.835 -273.359 78.4297 -341.75 78.4297c-62.8906 0 -106.021 -18.2002 -107.969 -19.0293c-3.98926 -1.75879 -7.12598 -5.82129 -7.49316 -10.4902c-0.563477 -7.16309 5.27637 -13.4805 12.4619 -13.4805c53.1758 0 172.837 -133.793 182.453 -160.187
c-1.46875 -9.31641 -28.5928 -34.8301 -67.7393 -38.8799c-12.6904 -1.3125 -28.0186 65.3398 -171.807 99.7236c-6.05859 1.44824 -13.7129 -2.44824 -15.165 -9.70605l-2 -10c-1.20801 -6.04395 2.49023 -12.6074 8.73047 -14.4434
c114.009 -33.5322 148.271 -126.569 148.03 -137.739c-0.200195 -9.28809 -4.66797 -25.7686 -52.5029 -25.7686c-36.3555 0 -87.334 68.1377 -143.94 72.9551c-29.8848 2.54297 -46.5215 -0.777344 -48.8926 -1.27734
c-5.08887 -1.2959 -9.66699 -6.13184 -9.66699 -12.1777v-13c0 -5.59668 5.10059 -12.5742 12.625 -12.499c85.5215 0.854492 139.184 -85.5352 141.609 -104.858c-4.76367 -13.6875 -44.0684 -34.1611 -116.462 -44.2627
c-33.6406 -4.69336 -58.1104 26.4287 -81.9189 61.624c-5.25586 7.76953 -0.711914 13.7783 -0.711914 13.7783c26.1689 5.6582 43.373 -21.043 44.5225 -23.0146c2.8877 -5.02051 10.8457 -8.33887 17.2666 -4.48633l5 3c4.31641 2.58984 7.24707 8.65039 5.53809 14.3242
c-1.24902 4.14453 -18.5771 49.8945 -103.969 49.8945c-171.57 0 -226.551 47 -320 47c-63.0586 0 -79.3301 -125 -124 -125h-320c-12.5977 0 -23.5 11.8633 -23.5 27.5c0 183.799 40 287.804 40 476c0 8.12891 9.20508 16.5 23.5 16.5zM148.897 557.5
c-21.7051 0 -48.5 -13.6289 -48.5 -41.5c0 -183.804 -40 -287.799 -40 -476c0 -26.3633 19.0977 -52.5 48.5 -52.5h320c73.7861 0 95.0586 125 124 125c82.5508 0 143.569 -47 320 -47c3.81934 0 7.99121 -0.144531 11.0371 -0.28418
c-9.53125 -14.3359 -7.48535 -30.2539 0.609375 -42.2197c22.1914 -32.8047 53.7217 -79.6826 106.081 -72.376c70.8701 9.88867 127.256 27.1045 137.31 63.0098c5.26172 18.791 -14.0859 50.4629 -40.9766 78.9453c20.5469 -14.1592 41.4229 -27.0752 64.9395 -27.0752
c54.1641 0 76.9229 23.5283 77.4971 50.2314c0.329102 15.335 -11.1729 45.3486 -37.2871 78.0879c14.5996 -14.8232 25.7256 -32.4619 47.0762 -30.2529c44.625 4.61621 90.2139 32.3906 90.2139 64.4336c0 28.6826 -94.1221 134.946 -163.745 171.593
c16.6777 3.34961 36.1914 5.90723 59.2451 5.90723c53.6084 0 262.206 -100.735 348.249 -77.5703c35.3809 9.52539 60.1895 21.5137 76.2617 34.7461c19.9141 16.3955 28.8984 39.5586 14.0918 57.3262c-20.9512 25.1416 -320.441 148.498 -492.603 148.498
c-170.002 0 -585.597 -81 -648 -81c-58.2246 0 -25.3818 41 -78 41c-113.441 0 -177.44 29 -296 29z" />
    <glyph glyph-name="uni261A" unicode="&#x261a;" horiz-adv-x="1712" 
d="M1536 75c0 -13 10 -23 23 -23s23 10 23 23s-10 23 -23 23s-23 -10 -23 -23zM1446 75c0 -13 10 -23 23 -23s23 10 23 23s-10 23 -23 23s-23 -10 -23 -23zM1346 95c0 -13 10 -23 23 -23s23 10 23 23s-10 23 -23 23s-23 -10 -23 -23zM1356 195c0 -13 10 -23 23 -23
s23 10 23 23s-10 23 -23 23s-23 -10 -23 -23zM1426 165c0 -13 10 -23 23 -23s23 10 23 23s-10 23 -23 23s-23 -10 -23 -23zM1530 165c0 -13 10 -23 23 -23s23 10 23 23s-10 23 -23 23s-23 -10 -23 -23zM1530 255c0 -13 10 -23 23 -23s23 10 23 23s-10 23 -23 23
s-23 -10 -23 -23zM1440 255c0 -13 10 -23 23 -23s23 10 23 23s-10 23 -23 23s-23 -10 -23 -23zM1350 285c0 -13 10 -23 23 -23s23 10 23 23s-10 23 -23 23s-23 -10 -23 -23zM1350 395c0 -13 10 -23 23 -23s23 10 23 23s-10 23 -23 23s-23 -10 -23 -23zM1428 356
c0 -13 10 -23 23 -23s23 10 23 23s-10 23 -23 23s-23 -10 -23 -23zM1510 445c0 -13 10 -23 23 -23s23 10 23 23s-10 23 -23 23s-23 -10 -23 -23zM1518 355c0 -13 10 -23 23 -23s23 10 23 23s-10 23 -23 23s-23 -10 -23 -23zM1408 448c0 -13 10 -23 23 -23s23 10 23 23
s-10 23 -23 23s-23 -10 -23 -23zM1234 442c64.527 -99.1093 56.1826 -224.779 33 -345l22 -32c26.4326 136.578 34.2443 289.594 -25 389zM1575 545c18 0 36 -11 36 -29c0 -186 40 -290 40 -476c0 -21 -15 -40 -36 -40h-320c-59.2284 0 -78 125 -124 125
c-88 0 -146 -47 -320 -47c-80 0 -92 -41 -92 -41l5 -3s21 37 58 29c12.7439 -2.75544 14.5382 -21.8566 7 -33c-23 -34 -51 -73 -94 -67c-72.1366 10.0656 -120 29 -127 54c-4.70898 16.8174 54 121 154 120v13s-15.9845 3.46941 -45 1c-47 -4 -99 -73 -145 -73
c-51 0 -64.6133 20.0042 -65 38c-0.406621 18.9227 38 115 157 150l-2 10c-138 -33 -147 -103 -176 -100c-42.8757 4.43542 -79 32 -79 52s128 172 195 172c0 0 -42 18 -103 18s-267 -99 -345 -78s-99 54 -84 72s315 144 483 144s582 -81 648 -81s44 41 78 41
c116 0 180 29 296 29z" />
    <glyph glyph-name="uni261B" unicode="&#x261b;" horiz-adv-x="1712" 
d="M185 75c0 -13 -10 -23 -23 -23s-23 10 -23 23s10 23 23 23s23 -10 23 -23zM275 75c0 -13 -10 -23 -23 -23s-23 10 -23 23s10 23 23 23s23 -10 23 -23zM375 95c0 -13 -10 -23 -23 -23s-23 10 -23 23s10 23 23 23s23 -10 23 -23zM365 195c0 -13 -10 -23 -23 -23
s-23 10 -23 23s10 23 23 23s23 -10 23 -23zM295 165c0 -13 -10 -23 -23 -23s-23 10 -23 23s10 23 23 23s23 -10 23 -23zM191 165c0 -13 -10 -23 -23 -23s-23 10 -23 23s10 23 23 23s23 -10 23 -23zM191 255c0 -13 -10 -23 -23 -23s-23 10 -23 23s10 23 23 23s23 -10 23 -23z
M281 255c0 -13 -10 -23 -23 -23s-23 10 -23 23s10 23 23 23s23 -10 23 -23zM371 285c0 -13 -10 -23 -23 -23s-23 10 -23 23s10 23 23 23s23 -10 23 -23zM371 395c0 -13 -10 -23 -23 -23s-23 10 -23 23s10 23 23 23s23 -10 23 -23zM293 356c0 -13 -10 -23 -23 -23
s-23 10 -23 23s10 23 23 23s23 -10 23 -23zM211 445c0 -13 -10 -23 -23 -23s-23 10 -23 23s10 23 23 23s23 -10 23 -23zM203 355c0 -13 -10 -23 -23 -23s-23 10 -23 23s10 23 23 23s23 -10 23 -23zM313 448c0 -13 -10 -23 -23 -23s-23 10 -23 23s10 23 23 23s23 -10 23 -23z
M487 442c-64.5273 -99.1094 -56.1826 -224.779 -33 -345l-22 -32c-26.4326 136.578 -34.2441 289.594 25 389zM146 545c-18 0 -36 -11 -36 -29c0 -186 -40 -290 -40 -476c0 -21 15 -40 36 -40h320c59.2285 0 78 125 124 125c88 0 146 -47 320 -47c80 0 92 -41 92 -41l-5 -3
s-21 37 -58 29c-12.7441 -2.75586 -14.5381 -21.8564 -7 -33c23 -34 51 -73 94 -67c72.1367 10.0654 120 29 127 54c4.70898 16.8174 -54 121 -154 120v13s15.9844 3.46973 45 1c47 -4 99 -73 145 -73c51 0 64.6133 20.0039 65 38c0.40625 18.9229 -38 115 -157 150l2 10
c138 -33 147 -103 176 -100c42.876 4.43555 79 32 79 52s-128 172 -195 172c0 0 42 18 103 18s267 -99 345 -78s99 54 84 72s-315 144 -483 144s-582 -81 -648 -81s-44 41 -78 41c-116 0 -180 29 -296 29z" />
    <glyph glyph-name="ampersand" unicode="&#x26;" horiz-adv-x="1000" 
d="M932 305h-10l-21 77h120v-37c-57 0 -89 -40 -89 -40zM840 305c0 0 34 40 -83 40v37h144l21 -77h-82zM552 781c81 0 151 -18 151 -135c0 -224 -391 -238 -391 -478c0 -102.044 73 -120 128 -120c176 0 265.001 118.999 400 257c25.2139 25.7744 116.551 26.4248 92 0
c-131 -141 -267 -317 -489 -317c-92 0 -223 21 -223 192c0 274 391 284.93 391 463c0 41 -14 75 -68 75c-70 0 -111 -33 -111 -75c0 -186 295 -591 412 -591c71 0 109 47.3408 109 47l18 -21s-29 -90 -132 -90c-170 0 -499 446 -499 655c0 98 90 138 212 138z" />
    <glyph glyph-name="ampersand" unicode="&#x26;" horiz-adv-x="898" 
d="M762 305h-10l-21 77h120v-37c-57 0 -89 -40 -89 -40zM670 305c0 0 34 40 -83 40v37h144l21 -77h-82zM352 781c91 0 175 -56.4375 175 -175c0 -262 -385 -180 -385 -426c0 -58 36.3965 -132 137 -132c140 0 259 125 391 257c25.4961 25.4961 117.353 25.6562 92 0
c-174 -176.088 -295.479 -317 -489 -317c-92 0 -223 51 -223 192c0 274 406 234 406 423c0 66 -39 122 -103 122c-66.2383 0 -102 -79.9922 -102 -145c0 -190.021 306 -528 453 -528c71 0 109 47.3408 109 47l18 -21s-29 -90 -132 -90c-200 0 -524 397 -524 594
c0 89.1406 35 199 177 199z" />
    <glyph glyph-name="at" unicode="@" horiz-adv-x="1027" 
d="M802 0c-93.0631 -36.544 -156.847 22.0908 -171.694 70.493c-25.039 -43.4295 -73.3332 -83.493 -166.306 -83.493c-153 0 -240 108 -240 282c0 120.003 104 247 250 247c89.2947 0 132.618 -21.9083 153 -63.5725v33.5725l92 20v-192v-225s3.90453 -59.6796 83 -24
c69.7676 31.4718 128 144 118 329c-10.6068 196.225 -175 323 -380 323c-239 0 -435 -184 -435 -453c0 -283 154 -427 402 -427c98 0 161 8 258 77l26 -16c-82.6279 -90.1689 -184.524 -109 -290 -109c-329.44 0 -467 204.696 -467 477c0 238 160 516 526 516
c236.808 0 409.156 -165.494 424 -388c10.4229 -156.237 -56.2858 -344.635 -182 -394zM304 261c0 -155.004 63 -224 169 -224c105.129 0 153.479 95.9411 153.479 232.7c0 171.455 -97.3916 192.3 -160.479 192.3c-74 0 -162 -71.9958 -162 -201z" />
    <glyph glyph-name="uni00AD" unicode="&#xad;" horiz-adv-x="620" 
d="M80 346h460v-84h-460v84z" />
    <glyph glyph-name="hyphen" unicode="-" horiz-adv-x="505" 
d="M72 348h342v-84h-342v84z" />
    <glyph glyph-name="underscore" unicode="_" horiz-adv-x="785" 
d="M42 0h697v-70h-697v70z" />
    <glyph glyph-name="guillemotleft" unicode="&#xab;" horiz-adv-x="526" 
d="M443 455c0 0 -129 -180 -190 -180v-16c4 -10 4 -10 0 -20v-14c61 0 190 -190 190 -190l20 17l-94 191v12l94 187zM233 455c0 0 -129 -180 -190 -180v-16c4 -10 4 -10 0 -20v-14c61 0 190 -190 190 -190l20 17l-94 191v12l94 187z" />
    <glyph glyph-name="guillemotright" unicode="&#xbb;" horiz-adv-x="526" 
d="M63 455c0 0 129 -180 190 -180v-16c-4 -10 -4 -10 0 -20v-14c-61 0 -190 -190 -190 -190l-20 17l94 191v12l-94 187zM273 455c0 0 129 -180 190 -180v-16c-4 -10 -4 -10 0 -20v-14c-61 0 -190 -190 -190 -190l-20 17l94 191v12l-94 187z" />
    <glyph glyph-name="Euro" unicode="&#x20ac;" horiz-adv-x="809" 
d="M65 364l-30 -60h540l30 60h-540zM65 474l-30 -60h600l30 60h-600zM458 57c-144 0 -259 141 -259 337s120 323 266 323c134 0 179 -77 179 -158l16 -8c12 45 90 206 90 205l-18 12c-89 -79 -66 14 -270 14c-194 0 -372 -175 -372 -390s165.994 -406.03 368 -406
c204 0.0302734 186 139.29 286 14c3.79492 -4.75391 8 13 8 13c0 -1 -55 183 -67 228c0 0 -15.7998 -1.60059 -16 -8c-2 -64 -46 -176 -211 -176z" />
    <glyph glyph-name="numbersign" unicode="#" horiz-adv-x="814" 
d="M780 553l-20 -69h-638l20 69h638zM746 295l-20 -69h-638l20 69h638zM627 800h72l-280 -870h-72zM387 800h72l-280 -870h-72z" />
    <glyph glyph-name="dollar" unicode="$" horiz-adv-x="728" 
d="M448 800v-870h-62v870h62zM328 800v-870h-62v870h62zM361.2 -11.2002c-181.8 0 -226.8 92.2822 -295.2 12.6006l-16.2002 10.7998c0 -0.900391 70.2002 153 81 193.5l14.4004 -7.2002c0 -135.9 133.2 -147.6 216 -147.6c116.1 0 183.6 54.8994 183.6 133.199
c0 147.601 -453.6 103.5 -453.6 350.101c0 99.8994 90 171 243 171c183.6 0 187.2 -125.101 277.2 -12.6006c3.59961 4.5 7.19922 -11.6992 7.19922 -11.6992c0 0.899414 -49.5 -164.7 -60.2998 -205.2c0 0 -14.3994 1.7998 -14.3994 7.2002
c-1.80078 57.5996 -71.1006 158.399 -218.7 158.399c-64.7998 0 -160.2 -35.0996 -160.2 -104.399c0 -169.2 457.2 -99 457.2 -352.801c0 -131.399 -91.7998 -195.3 -261 -195.3z" />
    <glyph glyph-name="bar" unicode="|" horiz-adv-x="205" 
d="M128 800h-72v-870h72v870z" />
    <glyph glyph-name="paragraph" unicode="&#xb6;" horiz-adv-x="601" 
d="M491 768v-768h-62v768h62zM371 768h-62v-768h62v768zM308 768c-160 0 -270 -46 -270 -179c0 -170 138 -212 282 -212h38c4 0 0 60 0 60s36 0 -24 0c-18 0 -8 103 -8 155c0 72 4 114 8 114c78 0 36 0 36 0v62s14 0 -62 0zM491 690c0 0 1.92871 41 83 41v37h-83v-78z
M491 78v-78h83v37c-81.0713 0 -83 41 -83 41z" />
    <glyph glyph-name="less" unicode="&#x3c;" horiz-adv-x="537" 
d="M493.5 438.5l-451 -220v72l451 220v-72zM493.5 70.5v-72l-451 220v72z" />
    <glyph glyph-name="greater" unicode="&#x3e;" horiz-adv-x="537" 
d="M42.5 438.5l451 -220v72l-451 220v-72zM42.5 70.5v-72l451 220v72z" />
    <glyph glyph-name="section" unicode="&#xa7;" horiz-adv-x="456" 
d="M218.593 53.8975c64.8301 -0.897461 119.295 27.9014 118.559 82.1025c-1.7793 131 -310.325 36 -310.779 247c-0.160156 74.2812 55 133 172.779 133c94.1182 0 114.357 -90.6777 193.221 -41.874l8 -13.126c0.393555 1.43555 -27.5762 -89.8135 -40 -135.103
l-16 8.10254c52.9072 67 -33.3721 152 -145.221 152c-50.0166 0 -87.7793 -57 -87.7793 -103c4.97949 -170 319 8 319 -248.902c0 -92.0977 -78.6992 -146.015 -207.221 -146.098c-116.118 -0.0751953 -119.357 73.6777 -198.221 9.87402l-8 13.126
c-0.393555 -1.43555 46.0176 120.711 58.4414 166l16 -8.10254c0 -6.57812 -17.2188 -115 127.221 -115zM217.593 299.897c64.8301 -0.897461 120.295 47.9014 119.559 102.103c-1.7793 131 -310.325 36 -310.779 247c-0.160156 74.2812 55 133 172.779 133
c94.1182 0 114.357 -60.6777 193.221 -11.874l8 -13.126c0.393555 1.43555 -27.5762 -119.813 -40 -165.103l-16 8.10254c0 6.57812 -0.78125 120 -145.221 120c-50.0166 0 -87.7793 -25 -87.7793 -71c3.82715 -120 319 -55 319 -248.902
c0 -92.0977 -78.6992 -146.015 -207.221 -146.098c-116.118 -0.0751953 -79.3574 113.678 -158.221 49.874l-8 13.126c-0.393555 -1.43555 6.01758 80.7109 18.4414 126l16 -8.10254c0 -6.57812 -18.2188 -135 126.221 -135z" />
    <glyph glyph-name="quotedblright" unicode="&#x201d;" horiz-adv-x="506" 
d="M258 503c0 0 204 103 204 259l-15 6s-16 -20 -53 -20c-29 0 -57 20 -57 20l-17 -10s30 -20 30 -57c0 -117.282 -101.087 -171 -101.087 -171zM38 503c0 0 204 103 204 259l-15 6s-16 -20 -53 -20c-29 0 -57 20 -57 20l-17 -10s30 -20 30 -57
c0 -117.282 -101.087 -171 -101.087 -171z" />
    <glyph glyph-name="uni201F" unicode="&#x201f;" horiz-adv-x="506" 
d="M232.913 503c0 0 -204 103 -204 259l15 6s16 -20 53 -20c29 0 57 20 57 20l17 -10s-30 -20 -30 -57c0 -117.282 101.087 -171 101.087 -171zM452.913 503c0 0 -204 103 -204 259l15 6s16 -20 53 -20c29 0 57 20 57 20l17 -10s-30 -20 -30 -57
c0 -117.282 101.087 -171 101.087 -171z" />
    <glyph glyph-name="quotedblleft" unicode="&#x201c;" horiz-adv-x="506" 
d="M232.913 768c0 0 -204 -103 -204 -259l15 -6s16 20 53 20c29 0 57 -20 57 -20l17 10s-30 20 -30 57c0 117.282 101.087 171 101.087 171zM452.913 768c0 0 -204 -103 -204 -259l15 -6s16 20 53 20c29 0 57 -20 57 -20l17 10s-30 20 -30 57
c0 117.282 101.087 171 101.087 171z" />
    <glyph glyph-name="quoteright" unicode="&#x2019;" horiz-adv-x="304" 
d="M57 503c0 0 204 103 204 259l-15 6s-16 -20 -53 -20c-29 0 -57 20 -57 20l-17 -10s30 -20 30 -57c0 -117.282 -101.087 -171 -101.087 -171z" />
    <glyph glyph-name="quoteleft" unicode="&#x2018;" horiz-adv-x="296" 
d="M242.913 768c0 0 -204 -103 -204 -259l15 -6s16 20 53 20c29 0 57 -20 57 -20l17 10s-30 20 -30 57c0 117.282 101.087 171 101.087 171z" />
    <glyph glyph-name="quotesinglbase" unicode="&#x201a;" horiz-adv-x="506" 
d="M258 503c0 0 204 103 204 259l-15 6s-16 -20 -53 -20c-29 0 -57 20 -57 20l-17 -10s30 -20 30 -57c0 -117.282 -101.087 -171 -101.087 -171zM38 503c0 0 204 103 204 259l-15 6s-16 -20 -53 -20c-29 0 -57 20 -57 20l-17 -10s30 -20 30 -57
c0 -117.282 -101.087 -171 -101.087 -171z" />
    <glyph glyph-name="quotereversed" unicode="&#x201b;" horiz-adv-x="309" 
d="M257.913 503c0 0 -204 103 -204 259l15 6s16 -20 53 -20c29 0 57 20 57 20l17 -10s-30 -20 -30 -57c0 -117.282 101.087 -171 101.087 -171z" />
    <glyph glyph-name="quotedblbase" unicode="&#x201e;" horiz-adv-x="506" 
d="M258 -187c0 0 204 103 204 259l-15 6s-16 -20 -53 -20c-29 0 -57 20 -57 20l-17 -10s30 -20 30 -57c0 -117.282 -101.087 -171 -101.087 -171zM38 -187c0 0 204 103 204 259l-15 6s-16 -20 -53 -20c-29 0 -57 20 -57 20l-17 -10s30 -20 30 -57
c0 -117.282 -101.087 -171 -101.087 -171z" />
    <glyph glyph-name="onedotenleader" unicode="&#x2024;" horiz-adv-x="210" 
d="M56.2998 58c0 31.752 24.9482 56.7002 56.7002 56.7002s56.7002 -24.9482 56.7002 -56.7002s-24.9482 -56.7002 -56.7002 -56.7002s-56.7002 24.9482 -56.7002 56.7002z" />
    <glyph glyph-name="twodotenleader" unicode="&#x2025;" horiz-adv-x="425" 
d="M256.3 58c0 31.752 24.9482 56.7002 56.7002 56.7002s56.7002 -24.9482 56.7002 -56.7002s-24.9482 -56.7002 -56.7002 -56.7002s-56.7002 24.9482 -56.7002 56.7002zM56.2998 58c0 31.752 24.9482 56.7002 56.7002 56.7002s56.7002 -24.9482 56.7002 -56.7002
s-24.9482 -56.7002 -56.7002 -56.7002s-56.7002 24.9482 -56.7002 56.7002z" />
    <glyph glyph-name="ellipsis" unicode="&#x2026;" horiz-adv-x="633" 
d="M456.3 58c0 31.752 24.9482 56.7002 56.7002 56.7002s56.7002 -24.9482 56.7002 -56.7002s-24.9482 -56.7002 -56.7002 -56.7002s-56.7002 24.9482 -56.7002 56.7002zM256.3 58c0 31.752 24.9482 56.7002 56.7002 56.7002s56.7002 -24.9482 56.7002 -56.7002
s-24.9482 -56.7002 -56.7002 -56.7002s-56.7002 24.9482 -56.7002 56.7002zM56.2998 58c0 31.752 24.9482 56.7002 56.7002 56.7002s56.7002 -24.9482 56.7002 -56.7002s-24.9482 -56.7002 -56.7002 -56.7002s-56.7002 24.9482 -56.7002 56.7002z" />
    <glyph glyph-name="bullet" unicode="&#x2022;" horiz-adv-x="271" 
d="M44.2793 296c0 50.8027 39.918 90.7207 90.7207 90.7207s90.7207 -39.918 90.7207 -90.7207s-39.918 -90.7207 -90.7207 -90.7207s-90.7207 39.918 -90.7207 90.7207z" />
    <glyph glyph-name="emdash" unicode="&#x2014;" horiz-adv-x="999" 
d="M70 348h860v-84h-860v84z" />
    <glyph glyph-name="figuredash" unicode="&#x2012;" horiz-adv-x="519" 
d="M46 348h430v-84h-430v84z" />
    <glyph glyph-name="endash" unicode="&#x2013;" horiz-adv-x="635" 
d="M70 348h510v-84h-510v84z" />
    <glyph glyph-name="uni2011" unicode="&#x2011;" horiz-adv-x="505" 
d="M72 348h342v-84h-342v84z" />
    <glyph glyph-name="uni2010" unicode="&#x2010;" horiz-adv-x="505" 
d="M72 348h342v-84h-342v84z" />
    <glyph glyph-name="plus" unicode="+" horiz-adv-x="471" 
d="M446 169h-422v84h422v-84zM193 0v422h84v-422h-84z" />
    <glyph glyph-name="percent" unicode="%" horiz-adv-x="734" 
d="M445.888 176.213c0 -74.168 24.9756 -136.765 68.1123 -136.765s68.1123 52.5967 68.1123 126.765c0 74.165 -24.9756 122.979 -68.1123 122.979s-68.1123 -38.8145 -68.1123 -112.979zM389.92 166.521c0 94.5996 51.9209 171.6 124.08 171.6s124.08 -77 124.08 -171.6
c0 -94.6006 -51.9209 -178.641 -124.08 -178.641s-124.08 84.04 -124.08 178.641zM598 800h73l-556 -799h-73zM138.888 636.213c0 -74.168 24.9756 -136.765 68.1123 -136.765s68.1123 52.5967 68.1123 126.765c0 74.165 -24.9756 122.979 -68.1123 122.979
s-68.1123 -38.8145 -68.1123 -112.979zM82.9199 626.521c0 94.5996 51.9209 171.6 124.08 171.6s124.08 -77 124.08 -171.6c0 -94.6006 -51.9209 -178.641 -124.08 -178.641s-124.08 84.04 -124.08 178.641z" />
    <glyph glyph-name="equal" unicode="=" horiz-adv-x="585" 
d="M72 85h422v-84h-422v84zM72 323h422v-84h-422v84z" />
    <glyph glyph-name="multiply" unicode="&#xd7;" horiz-adv-x="471" 
d="M354.501 -0.898438l-298.399 298.399l59.3975 59.3975l298.399 -298.399zM56.1016 58.499l298.399 298.399l59.3975 -59.3975l-298.399 -298.399z" />
    <glyph glyph-name="divide" unicode="&#xf7;" horiz-adv-x="410" 
d="M30 266h349v-70h-349v70zM205.5 334.8c-31.752 0 -56.7002 24.9482 -56.7002 56.7002s24.9482 56.7002 56.7002 56.7002s56.7002 -24.9482 56.7002 -56.7002s-24.9482 -56.7002 -56.7002 -56.7002zM205.5 -0.200195c-31.752 0 -56.7002 24.9482 -56.7002 56.7002
s24.9482 56.7002 56.7002 56.7002s56.7002 -24.9482 56.7002 -56.7002s-24.9482 -56.7002 -56.7002 -56.7002z" />
    <glyph glyph-name="questiondown" unicode="&#xbf;" horiz-adv-x="438" 
d="M27 -33.7002h86c-3.2998 125.992 138.879 134 140 258c0.541992 59.9971 0 96 0 96h-43h-44s-1.00684 -50.0107 0 -96c2.14453 -98 -139 -112 -139 -258zM338 -71.7002c0 -45 -51 -85 -99 -85c-98 0 -126 39.9707 -126 123h-86c0 -148 86 -181 214 -181
c89 0 161 73 161 143c0 82 -68 112 -102 112c-94 0 -76 -90 -76 -90c65.5742 66 114 21 114 -22zM268.7 447.3c0 -31.752 -24.9482 -56.7002 -56.7002 -56.7002s-56.7002 24.9482 -56.7002 56.7002c0 31.752 24.9482 56.7002 56.7002 56.7002
s56.7002 -24.9482 56.7002 -56.7002z" />
    <glyph glyph-name="asterisk" unicode="*" horiz-adv-x="540" 
d="M241 608.783l14 24.248l28 0.248047l14 -24.248l-13.7852 -24.373h-28zM262 621l-7 -12.124c-50.2686 29.0225 -113.764 8.29297 -174.673 43.458l56.6992 98.208c60.623 -35 73.9648 -99.8896 124.974 -129.542zM80.3271 652.334l-4.32715 15.666s20.6115 13.2745 32 33
c12.5134 21.674 15 46 15 46l14.0264 3.54199c27.498 -15.876 36.6309 -49.9561 20.7549 -77.4541s-49.9561 -36.6299 -77.4541 -20.7539zM255.107 608.938l7 -12.124c-50.2695 -29.0225 -64.0645 -94.375 -124.973 -129.542l-56.7002 98.208
c60.6221 35 123.489 14.1094 174.673 43.458zM137.135 467.271l-12.1348 2.72852s-2.98505 23.4574 -16 46c-11.9407 20.6819 -32 34 -32 34l3.43457 15.4795c27.498 15.876 61.5781 6.74414 77.4541 -20.7539c15.876 -27.498 6.74414 -61.5781 -20.7539 -77.4541z
M262.107 596.813h14c0 -58.0449 49.7002 -102.668 49.7012 -172.999l-113.4 -0.000976563c-0.000976563 70 49.5244 114 49.6992 173zM325.809 423.814l-16.8086 -9.81445s-18.9301 10 -40 10c-21.1855 0 -40 -10 -40 -10l-16.5918 9.81348
c0.591797 0 24.9473 56.7002 56.6992 56.7002s59.3083 -25.0545 56.7012 -56.6992zM276 596.876l7 12.124c50.2686 -29.0234 113.764 -8.29297 174.673 -43.458l-56.7002 -98.208c-60.6221 35 -73.9639 99.8896 -124.973 129.542zM457.673 565.542
c0.327148 -0.188879 3.32715 -15.542 3.32715 -15.542s-20.0809 -13.3555 -32 -34c-13.3976 -23.2054 -17 -46 -17 -46l-11.0273 -2.66602c-27.498 15.876 -36.6299 49.9561 -20.7539 77.4541c15.876 27.498 49.9561 36.6299 77.4541 20.7539zM283 609l-7 12.124
c50.2686 29.0225 64.0635 94.376 124.972 129.542l56.7002 -98.208c-60.6211 -35 -123.489 -14.1094 -174.672 -43.458zM400.972 750.666l12.0283 -2.66602s2.9496 -24.396 16 -47c12.2724 -21.2565 30 -33 30 -33l-1.32812 -15.542
c-27.498 -15.876 -61.5771 -6.74414 -77.4531 20.7539c-15.876 27.498 -6.74512 61.5781 20.7529 77.4541zM276 621h-14c0 58.0449 -49.7002 102.669 -49.7002 173h113.4c0 -70 -49.5254 -114 -49.7002 -173zM212.3 794l6.7002 11s28.873 -11 50 -11
c21.8721 0 50 13.8339 50 13.8339l6.7002 -13.8339c-1.05712 -31.7344 -24.9482 -56.7002 -56.7002 -56.7002s-55.7487 24.9625 -56.7002 56.7002z" />
    <glyph glyph-name="exclamdown" unicode="&#xa1;" horiz-adv-x="206" 
d="M144 339.3l10 -537h-99l10 537h79zM161.7 466.3c0 -31.752 -24.9482 -56.7002 -56.7002 -56.7002s-56.7002 24.9482 -56.7002 56.7002c0 31.752 24.9482 56.7002 56.7002 56.7002s56.7002 -24.9482 56.7002 -56.7002z" />
  </font>
</defs>
</svg>
