SplineFontDB: 3.2
FontName: Hershey-ArkDes-26
FullName: Hershey-ArkDes-26
FamilyName: Hershey-Arkdes
Weight: Regular
Copyright: Copyright (c) 2024, Luuse, contact@luuse.io
Version: 001.000
ItalicAngle: 0
UnderlinePosition: -100
UnderlineWidth: 50
Ascent: 800
Descent: 200
InvalidEm: 0
LayerCount: 2
Layer: 0 0 "Arri+AOgA-re" 1
Layer: 1 0 "Avant" 0
StyleMap: 0x0000
FSType: 0
OS2Version: 0
OS2_WeightWidthSlopeOnly: 0
OS2_UseTypoMetrics: 0
CreationTime: 1706202370
ModificationTime: 1706208174
OS2TypoAscent: 0
OS2TypoAOffset: 1
OS2TypoDescent: 0
OS2TypoDOffset: 1
OS2TypoLinegap: 90
OS2WinAscent: 0
OS2WinAOffset: 1
OS2WinDescent: 0
OS2WinDOffset: 1
HheadAscent: 0
HheadAOffset: 1
HheadDescent: 0
HheadDOffset: 1
MarkAttachClasses: 1
DEI: 91125
Encoding: Custom
UnicodeInterp: none
NameList: AGL For New Fonts
DisplaySize: -48
AntiAlias: 1
FitToEm: 0
WinInfo: 0 38 14
BeginPrivate: 6
BlueValues 30 [0 0 179 179 649 649 803 803 ]
StdHW 4 [57]
StemSnapH 11 [19 38 57 ]
StdVW 4 [57]
StemSnapV 19 [19 56 57 134 173 ]
BlueShift 2 19
EndPrivate
BeginChars: 264 160

StartChar: icircumflex
Encoding: 238 238 0
Width: 385
VWidth: 807
Flags: HMW
HStem: 1 58<77 308 184 200> 386 58<77 192 192 200>
VStem: 163 58<22 415 30 415>
LayerCount: 2
Fore
SplineSet
212 602 m 2
 201 613 184 613 173 602 c 2
 158 587 l 2
 152.306236 581.306236 149.559649135 574.004920835 149.760239406 566.760239406 c 1
 116.239760594 533.239760594 l 1
 108.995079165 533.440350865 101.693764 530.693764 96 525 c 2
 81 510 l 2
 70 499 70 482 81 471 c 2
 96 456 l 2
 107 444 125 444 136 456 c 2
 150 471 l 2
 157.040822889 477.454087648 159.950546865 485.973724753 158.729171928 494.135049999 c 1
 188.219246793 524.151733343 l 2
 190.817741224 523.71156039 193.46703024 523.633105412 196.083631591 523.916368409 c 2
 226.878818662 493.121181338 l 1
 226.105673162 485.272826935 228.812733608 477.187266392 235 471 c 2
 250 456 l 2
 261 444 279 444 290 456 c 2
 304 471 l 2
 315 482 315 499 304 510 c 2
 289 525 l 2
 283.306236 530.693764 276.004920835 533.440350865 268.760239406 533.239760594 c 1
 235.956666576 566.043333424 l 1
 236.40188916 573.521332616 233.416333634 581.118360835 227 587 c 2
 212 602 l 2
328 63 m 2
 317 74 299 74 288 63 c 2
 284 59 l 1
 221 59 l 1
 221 387.571428571 l 1
 227 394 l 2
 233 399.5 236 406.5 236 413.5 c 0
 236 420.5 233 427.5 227 433 c 2
 212 448 l 2
 206.5 453.5 199.5 456.25 192.5 456.25 c 0
 185.5 456.25 178.5 453.5 173 448 c 2
 169 444 l 1
 101 444 l 1
 97 448 l 2
 86 459 68 459 57 448 c 2
 43 433 l 2
 32 422 32 405 43 394 c 2
 58 379 l 2
 69 367 86 367 97 379 c 2
 104 386 l 1
 163 386 l 1
 163 59 l 1
 101.285714286 59 l 1
 97 63 l 2
 86 74 68 74 57 63 c 2
 43 49 l 2
 32 37 32 20 43 9 c 2
 58 -6 l 2
 69 -17 86 -17 97 -6 c 2
 104 1 l 1
 166 1 l 1
 173 -6 l 2
 184 -17 202 -17 213 -6 c 2
 219.533333333 1 l 1
 282 1 l 1
 289 -6 l 2
 300 -17 317 -17 328 -6 c 2
 343 9 l 2
 354 20 354 37 343 49 c 2
 328 63 l 2
EndSplineSet
EndChar

StartChar: idieresis
Encoding: 239 239 1
Width: 385
VWidth: 807
Flags: HMW
HStem: 1 58<77 308 184 200> 386 58<77 192 192 200>
VStem: 163 58<22 415 30 415>
LayerCount: 2
Fore
SplineSet
289 602 m 2
 278 613 261 613 250 602 c 2
 235 587 l 2
 230.409534186 582.409534186 227.734738953 576.774157147 226.975614301 570.965983292 c 1
 221.119870017 570.134840334 215.47951257 567.47951257 211 563 c 2
 197 549 l 2
 195.447573094 547.306443375 194.114239761 545.513298763 193 543.651486778 c 1
 191.885760239 545.513298763 190.552426906 547.306443375 189 549 c 2
 174 563 l 2
 169.710961137 567.289038863 164.357699295 569.905727328 158.770122422 570.850065397 c 1
 157.964463137 576.699146079 155.041088996 582.379001753 150 587 c 2
 135 602 l 2
 124 613 107 613 96 602 c 2
 81 587 l 2
 76.4095341863 582.409534186 73.7347389532 576.774157147 72.9756143007 570.965983292 c 1
 67.1198700168 570.134840334 61.4795125701 567.47951257 57 563 c 2
 43 549 l 2
 32 537 32 520 43 509 c 2
 58 494 l 2
 62.3472516998 489.6527483 67.6316239288 487.023550904 73.1124078119 486.112407812 c 1
 74.0235509042 480.631623929 76.6527483002 475.3472517 81 471 c 2
 96 456 l 2
 107 444 125 444 136 456 c 2
 150 471 l 2
 154.728953918 475.334874425 157.594324073 480.601540732 158.596110465 486.065598776 c 1
 164.180840789 486.930929814 169.575730222 489.575730222 174 494 c 2
 189 509 l 2
 190.552426906 510.552426906 191.885760239 512.224359397 193 513.984876858 c 1
 194.114239761 512.224359397 195.447573094 510.552426906 197 509 c 2
 212 494 l 2
 216.3472517 489.6527483 221.631623929 487.023550904 227.112407812 486.112407812 c 1
 228.023550904 480.631623929 230.6527483 475.3472517 235 471 c 2
 250 456 l 2
 261 444 279 444 290 456 c 2
 304 471 l 2
 308.307539129 475.307539129 310.928269772 480.535155615 311.862191929 485.962255055 c 1
 317.706996189 486.702946977 323.382195292 489.382195292 328 494 c 2
 343 509 l 2
 348.5 514.5 351.25 521.5 351.25 528.625 c 0
 351.25 535.75 348.5 543 343 549 c 2
 328 563 l 2
 323.52048743 567.47951257 317.880129983 570.134840334 312.024385699 570.965983292 c 1
 311.265261047 576.774157147 308.590465814 582.409534186 304 587 c 2
 289 602 l 2
328 63 m 2
 317 74 299 74 288 63 c 2
 284 59 l 1
 221 59 l 1
 221 387.571428571 l 1
 227 394 l 2
 233 399.5 236 406.5 236 413.5 c 0
 236 420.5 233 427.5 227 433 c 2
 212 448 l 2
 206.5 453.5 199.5 456.25 192.5 456.25 c 0
 185.5 456.25 178.5 453.5 173 448 c 2
 169 444 l 1
 101 444 l 1
 97 448 l 2
 86 459 68 459 57 448 c 2
 43 433 l 2
 32 422 32 405 43 394 c 2
 58 379 l 2
 69 367 86 367 97 379 c 2
 104 386 l 1
 163 386 l 1
 163 59 l 1
 101.285714286 59 l 1
 97 63 l 2
 86 74 68 74 57 63 c 2
 43 49 l 2
 32 37 32 20 43 9 c 2
 58 -6 l 2
 69 -17 86 -17 97 -6 c 2
 104 1 l 1
 166 1 l 1
 173 -6 l 2
 184 -17 202 -17 213 -6 c 2
 219.533333333 1 l 1
 282 1 l 1
 289 -6 l 2
 300 -17 317 -17 328 -6 c 2
 343 9 l 2
 354 20 354 37 343 49 c 2
 328 63 l 2
EndSplineSet
EndChar

StartChar: iacute
Encoding: 237 237 2
Width: 385
VWidth: 807
Flags: HMW
HStem: 1 58<77 308 184 200> 386 58<77 192 192 200>
VStem: 163 58<22 415 30 415>
LayerCount: 2
Fore
SplineSet
289 602 m 2
 278 613 261 613 250 602 c 2
 235 587 l 2
 233.195000759 585.195000759 231.68618536 583.228446696 230.473553803 581.153357143 c 2
 128.559981722 529.863520213 l 1
 118.085369638 535.64496292 105.023789516 534.023789516 96 525 c 2
 81 510 l 2
 70 499 70 482 81 471 c 2
 96 456 l 2
 107 444 125 444 136 456 c 2
 150 471 l 2
 153.072784152 473.816718806 155.358734767 477.026854381 156.857851845 480.428925923 c 2
 253.729043538 528.864521769 l 1
 264.748323773 521.124338715 280.169498125 522.169498125 290 532 c 2
 304 548 l 2
 315 559 315 576 304 587 c 2
 289 602 l 2
328 63 m 2
 317 74 299 74 288 63 c 2
 284 59 l 1
 221 59 l 1
 221 387.571428571 l 1
 227 394 l 2
 233 399.5 236 406.5 236 413.5 c 0
 236 420.5 233 427.5 227 433 c 2
 212 448 l 2
 206.5 453.5 199.5 456.25 192.5 456.25 c 0
 185.5 456.25 178.5 453.5 173 448 c 2
 169 444 l 1
 101 444 l 1
 97 448 l 2
 86 459 68 459 57 448 c 2
 43 433 l 2
 32 422 32 405 43 394 c 2
 58 379 l 2
 69 367 86 367 97 379 c 2
 104 386 l 1
 163 386 l 1
 163 59 l 1
 101.285714286 59 l 1
 97 63 l 2
 86 74 68 74 57 63 c 2
 43 49 l 2
 32 37 32 20 43 9 c 2
 58 -6 l 2
 69 -17 86 -17 97 -6 c 2
 104 1 l 1
 166 1 l 1
 173 -6 l 2
 184 -17 202 -17 213 -6 c 2
 219.533333333 1 l 1
 282 1 l 1
 289 -6 l 2
 300 -17 317 -17 328 -6 c 2
 343 9 l 2
 354 20 354 37 343 49 c 2
 328 63 l 2
EndSplineSet
EndChar

StartChar: backslash
Encoding: 92 92 3
Width: 385
VWidth: 807
Flags: W
LayerCount: 2
Fore
SplineSet
96 601 m 2
 85 612 68 612 57 601 c 2
 42 587 l 2
 31 576 31 558 42 547 c 2
 57 532 l 2
 57.495547535 531.504452465 58.0053014462 531.031229235 58.5279817454 530.580330311 c 2
 272.251962869 -106.906716835 l 1
 263.034644383 -117.892343144 263.617323427 -133.673443738 274 -145 c 2
 289 -160 l 2
 301 -171 318 -171 329 -160 c 2
 344 -145 l 2
 355 -133 355 -116 344 -105 c 2
 328 -90 l 2
 327.953679963 -89.9536799625 327.907253534 -89.9075549746 327.860721611 -89.8616250364 c 2
 112.549455988 548.679510353 l 1
 121.973163792 559.761065627 121.456678462 576.543321538 111 587 c 2
 96 601 l 2
EndSplineSet
EndChar

StartChar: Y
Encoding: 89 89 4
Width: 385
VWidth: 807
Flags: HMW
VStem: 163 58<22 293 30 293>
LayerCount: 2
Fore
SplineSet
328 602 m 2
 317 613 299 613 288 602 c 2
 274 587 l 2
 263.766263852 577.619075197 262.259973999 563.874427247 269.481130443 553.208921368 c 1
 192 373 l 1
 115.156192008 551.7266096 l 1
 122.873787729 562.573101787 121.821723727 577.178276273 112 587 c 2
 97 602 l 2
 86 613 68 613 57 602 c 2
 43 587 l 2
 32 576 32 559 43 548 c 2
 58 532 l 2
 59.3174224693 530.682577531 60.7209078458 529.522937058 62.1898413646 528.521078582 c 2
 154.271633225 313.391936537 l 1
 147.185439738 302.44380421 148.428228663 287.571771337 158 278 c 2
 163 273 l 1
 163 53.6666666667 l 1
 158 49 l 2
 147 37 147 20 158 9 c 2
 173 -6 l 2
 184 -17 202 -17 213 -6 c 2
 227 9 l 2
 239 20 239 37 227 49 c 2
 221 54.6 l 1
 221 271.571428571 l 1
 227 278 l 2
 237.809595577 287.908795946 238.881911442 303.497671723 230.216947596 314.533399694 c 1
 321.11452835 526.895889241 l 2
 323.573174965 528.194940572 325.896310825 529.896310825 328 532 c 2
 343 548 l 2
 354 559 354 576 343 587 c 2
 328 602 l 2
EndSplineSet
EndChar

StartChar: quotesingle
Encoding: 39 39 5
Width: 385
VWidth: 807
Flags: HMW
VStem: 202 58<465 503 503 503>
LayerCount: 2
Fore
SplineSet
212 640 m 2
 201 651 184 651 173 640 c 2
 158 626 l 2
 153.620159756 621.221992462 150.984228655 615.65129895 150.092206695 609.982287049 c 1
 144.194772285 609.169997922 138.509235572 606.509235572 134 602 c 2
 120 587 l 2
 109 576 109 559 120 548 c 2
 135 532 l 2
 139.350030704 527.649969296 144.638380438 525.020190149 150.122918913 524.110662559 c 1
 151.043651997 518.591287131 153.669345692 513.330654308 158 509 c 2
 173 494 l 2
 180.808588055 486.191411945 192.144600341 483.925919109 202 487.203521493 c 1
 202 477 l 1
 197 472 l 2
 191.485355231 466.485355231 188.735374728 459.211378657 188.750058492 451.942086629 c 1
 153.544116091 417.246375278 l 1
 146.44683553 417.133506696 139.384714936 414.384714936 134 409 c 2
 120 395 l 2
 109 384 109 366 120 355 c 2
 135 340 l 2
 146 329 163 329 174 340 c 2
 189 355 l 2
 195.507437117 361.507437117 198.165170794 370.464685512 196.973201033 378.973201033 c 1
 227.112407812 409.112407812 l 1
 235.49983927 407.718054304 244.3472517 410.3472517 251 417 c 2
 266 432 l 2
 277 443 277 461 266 472 c 2
 260 477.6 l 1
 260 541.6 l 1
 266 548 l 2
 271.5 553.5 274.25 560.5 274.25 567.5 c 0
 274.25 574.5 271.5 581.5 266 587 c 2
 251 602 l 2
 246.679101574 606.320898426 241.27811106 608.944509288 235.645568133 609.870832585 c 1
 234.691172431 615.578258752 231.809316386 621.190683614 227 626 c 2
 212 640 l 2
EndSplineSet
EndChar

StartChar: Idieresis
Encoding: 207 207 6
Width: 385
VWidth: 807
Flags: HMW
HStem: 1 58<77 231 146 162> 540 58
VStem: 125 58<22 569 30 569>
LayerCount: 2
Fore
SplineSet
251 717 m 2
 240 728 222 728 211 717 c 2
 197 702 l 2
 192.692460871 697.692460871 190.071730228 692.464844385 189.137808071 687.037744945 c 1
 183.293003811 686.297053023 177.617804708 683.617804708 173 679 c 2
 158 664 l 2
 156.527532061 662.527532061 155.252169742 660.947551964 154.173913044 659.286444411 c 1
 152.99763301 660.947551964 151.606328663 662.527532061 150 664 c 2
 135 679 l 2
 130.6527483 683.3472517 125.368376071 685.976449096 119.887592188 686.887592188 c 1
 118.976449096 692.368376071 116.3472517 697.6527483 112 702 c 2
 97 717 l 2
 86 728 68 728 57 717 c 2
 43 702 l 2
 38.6924608705 697.692460871 36.0717302276 692.464844385 35.1378080712 687.037744945 c 1
 29.2930038115 686.297053023 23.6178047077 683.617804708 19 679 c 2
 4 664 l 2
 -7 653 -7 636 4 624 c 2
 19 609 l 2
 23.8092421491 604.59152803 29.4215679805 601.949840161 35.1289031135 601.074936393 c 1
 36.0195613584 595.779249752 38.4804206936 590.723188723 42.5114811191 586.500001697 c 1
 32.0024847406 575.490352722 32.1653243676 558.834675632 43 548 c 2
 58 532 l 2
 69 521 86 521 97 532 c 2
 104.5 540 l 1
 125 540 l 1
 125 59 l 1
 101.285714286 59 l 1
 97 63 l 2
 86 74 68 74 57 63 c 2
 43 49 l 2
 32 37 32 20 43 9 c 2
 58 -6 l 2
 69 -17 86 -17 97 -6 c 2
 104 1 l 1
 128 1 l 1
 135 -6 l 2
 146 -17 163 -17 174 -6 c 2
 181 1 l 1
 205 1 l 1
 212 -6 l 2
 223 -17 240 -17 251 -6 c 2
 266 9 l 2
 277 20 277 37 266 49 c 2
 251 63 l 2
 240 74 222 74 211 63 c 2
 207 59 l 1
 183 59 l 1
 183 540 l 1
 204.5 540 l 1
 212 532 l 2
 223 521 240 521 251 532 c 2
 266 548 l 2
 276.834675632 558.834675632 276.997515259 575.490352722 266.488518881 586.500001697 c 1
 270.503407478 590.70624612 272.960668394 595.738695294 273.86030163 601.011212214 c 1
 279.774698654 601.81573213 285.478661392 604.478661392 290 609 c 2
 304 624 l 2
 309.5 630 312.25 637.25 312.25 644.375 c 0
 312.25 651.5 309.5 658.5 304 664 c 2
 289 679 l 2
 284.6527483 683.3472517 279.368376071 685.976449096 273.887592188 686.887592188 c 1
 272.976449096 692.368376071 270.3472517 697.6527483 266 702 c 2
 251 717 l 2
174 602 m 2
 163 613 145 613 134 602 c 2
 129.333333333 597 l 1
 118.856840545 597 l 1
 119.294396446 598.314534099 119.628883475 599.654930465 119.86030163 601.011212214 c 0
 125.774698654 601.81573213 131.478661392 604.478661392 136 609 c 2
 150 624 l 2
 151.606328662 625.606328662 152.99763301 627.302250789 154.173913044 629.061381678 c 1
 155.252169741 627.302250789 156.52753206 625.606328662 158 624 c 2
 173 609 l 2
 177.521338608 604.478661392 183.225301346 601.81573213 189.13969837 601.011212214 c 0
 189.371116525 599.654930465 189.705603554 598.314534099 190.143159455 597 c 1
 179 597 l 1
 174 602 l 2
EndSplineSet
EndChar

StartChar: Ecircumflex
Encoding: 202 202 8
Width: 385
VWidth: 807
Flags: W
HStem: -19 20G<97 289>
LayerCount: 2
Fore
SplineSet
212 717 m 2
 201 728 184 728 173 717 c 2
 158 702 l 2
 152.306236 696.306236 149.559649135 689.004920835 149.760239406 681.760239406 c 1
 116.239760594 648.239760594 l 1
 108.995079165 648.440350865 101.693764 645.693764 96 640 c 2
 81 626 l 2
 76.6201597564 621.221992462 73.9842286546 615.65129895 73.0922066945 609.982287049 c 1
 67.1947722853 609.169997922 61.509235572 606.509235572 57 602 c 2
 43 587 l 2
 37.5 581.5 34.75 574.5 34.75 567.5 c 0
 34.75 560.5 37.5 553.5 43 548 c 2
 48 542.666666667 l 1
 48 323 l 1
 43 318 l 2
 32 307 32 289 43 278 c 2
 48 273 l 1
 48 54 l 1
 43 49 l 2
 37.5 43 34.75 35.75 34.75 28.625 c 0
 34.75 21.5 37.5 14.5 43 9 c 2
 58 -6 l 2
 63.5 -11.5 70.5 -14.25 77.5 -14.25 c 0
 84.5 -14.25 91.5 -11.5 97 -6 c 2
 104 1 l 1
 282 1 l 1
 289 -6 l 2
 300 -17 317 -17 328 -6 c 2
 343 9 l 2
 354 20 354 37 343 49 c 2
 328 63 l 2
 317 74 299 74 288 63 c 2
 284 59 l 1
 106 59 l 1
 106 270 l 1
 205 270 l 1
 212 263 l 2
 223 252 240 252 251 263 c 2
 266 278 l 2
 277 289 277 307 266 318 c 2
 251 332 l 2
 240 344 222 344 211 332 c 2
 207 328 l 1
 106 328 l 1
 106 540 l 1
 281.5 540 l 1
 289 532 l 2
 300 521 317 521 328 532 c 2
 343 548 l 2
 354 559 354 576 343 587 c 2
 328 602 l 2
 323.490764428 606.509235572 317.805227715 609.169997922 311.907793305 609.982287049 c 1
 311.015771345 615.65129895 308.379840244 621.221992462 304 626 c 2
 289 640 l 2
 283.306236 645.693764 276.004920835 648.440350865 268.760239406 648.239760594 c 1
 235.956666576 681.043333424 l 1
 236.40188916 688.521332616 233.416333634 696.118360835 227 702 c 2
 212 717 l 2
158.677201911 609.677201911 m 2
 189.026798967 640.026798967 l 2
 191.078777586 639.739334431 193.156855331 639.675775697 195.220375044 639.836122764 c 2
 226.919564035 608.693059895 l 2
 226.482498205 604.739476193 226.890363345 600.763732132 228.143159455 597 c 1
 157.480189686 597 l 1
 158.960344984 601.076214542 159.359349059 605.401106847 158.677201911 609.677201911 c 2
EndSplineSet
EndChar

StartChar: g
Encoding: 103 103 9
Width: 385
VWidth: 807
Flags: HMW
HStem: 1 58<166 219 166 231 166 235 300 316>
VStem: 279 58<-35 30 -35 -35 22 30 30 415>
LayerCount: 2
Fore
SplineSet
328 448 m 2
 317 459 299 459 288 448 c 2
 274 433 l 2
 272.393671338 431.52753206 271.00236699 429.947551963 269.826086957 428.288843018 c 1
 268.747830259 429.947551963 267.47246794 431.52753206 266 433 c 2
 251 448 l 2
 240 459 222 459 211 448 c 2
 207.266666667 444 l 1
 178 444 l 1
 174 448 l 2
 163 459 145 459 134 448 c 2
 120 433 l 2
 115.423131039 428.423131039 112.750601123 422.807531691 111.98241025 417.01758975 c 1
 106.192468309 416.249398877 100.576868961 413.576868961 96 409 c 2
 81 395 l 2
 71.9902462617 385.990246262 70.3600981984 372.284379821 76.10955581 361.575276856 c 1
 63.9376410814 337.543547776 l 2
 61.4361787156 336.129541997 59.0915516764 334.281692738 57 332 c 2
 43 318 l 2
 32 307 32 289 43 278 c 2
 48 273 l 1
 48 169.357142857 l 1
 43 164 l 2
 32 153 32 136 43 124 c 2
 58 109 l 2
 60.4275917272 106.572408273 63.1474083267 104.680562145 66.0304674928 103.324461617 c 2
 76.9014234006 81.8612922604 l 1
 70.232284277 71.185955041 71.5984764768 57.4015235232 81 48 c 2
 96 32 l 2
 100.521338608 27.4786613918 106.225301346 24.8157321299 112.13969837 24.0112122145 c 1
 113.07526301 18.528110659 115.695363553 13.3046364467 120 9 c 2
 135 -6 l 2
 146 -17 163 -17 174 -6 c 2
 181 1 l 1
 205 1 l 1
 212 -6 l 2
 223 -17 240 -17 251 -6 c 2
 266 9 l 2
 267.472467939 10.4724679395 268.747830258 12.052448036 269.826086956 13.7135555895 c 1
 271.002366989 12.0524480364 272.393671337 10.4724679397 274 9 c 2
 279 4 l 1
 279 -23 l 1
 274 -28 l 2
 267.729152714 -33.7482766788 264.735265902 -41.4081136339 265.018339563 -48.9816604369 c 1
 231.248919407 -82.7510805929 l 1
 223.916177237 -82.6874143968 216.562945801 -85.4370541992 211 -91 c 2
 207 -95 l 1
 178.285714286 -95 l 1
 174 -91 l 2
 169.710961137 -86.7109611374 164.357699295 -84.0942726716 158.770122422 -83.1499346026 c 1
 157.964463137 -77.3008539215 155.041088996 -71.6209982468 150 -67 c 2
 135 -52 l 2
 124 -41 107 -41 96 -52 c 2
 81 -67 l 2
 70 -78 70 -95 81 -106 c 2
 96 -121 l 2
 100.521595349 -125.932649472 106.225949141 -128.837713043 112.140705907 -129.715190713 c 1
 113.077143121 -135.322607239 115.696907819 -140.696907819 120 -145 c 2
 135 -160 l 2
 146 -171 163 -171 174 -160 c 2
 181 -153 l 1
 205 -153 l 1
 212 -160 l 2
 223 -171 240 -171 251 -160 c 2
 266 -145 l 2
 272.507437117 -138.492562883 275.165170794 -129.535314488 273.973201033 -121.026798967 c 1
 304.112407812 -90.8875921881 l 1
 312.49983927 -92.2819456963 321.3472517 -89.6527483002 328 -83 c 2
 343 -68 l 2
 354 -57 354 -39 343 -28 c 2
 337 -22.4 l 1
 337 3 l 1
 343 9 l 2
 348.5 14.5 351.25 21.5 351.25 28.625 c 0
 351.25 35.75 348.5 43 343 49 c 2
 337 54.6 l 1
 337 80 l 1
 343 86 l 2
 354 97 354 114 343 126 c 2
 337 131.6 l 1
 337 311 l 1
 343 317 l 2
 354 328 354 345 343 356 c 2
 337 362 l 1
 337 388 l 1
 343 394 l 2
 354 405 354 422 343 433 c 2
 328 448 l 2
279 312 m 1
 279 131 l 1
 274 126 l 2
 267.826574759 119.826574759 264.829081119 112.329844685 265.007519079 105.007519079 c 1
 231.248919407 71.2489194071 l 1
 223.916177237 71.3125856032 216.562945801 68.5629458008 211 63 c 2
 207 59 l 1
 178.285714286 59 l 1
 174 63 l 2
 169.710961137 67.2890388626 164.357699295 69.9057273284 158.770122422 70.8500653974 c 1
 157.964463137 76.6991460785 155.041088996 82.3790017532 150 87 c 2
 135 102 l 2
 133.027065866 103.972934134 130.861116735 105.592007441 128.571390039 106.857219921 c 2
 116.705109564 130.589780872 l 1
 122.673634283 141.678437739 121.105264428 154.894735572 112 164 c 2
 106 170 l 1
 106 272 l 1
 112 278 l 2
 121.362837566 287.362837566 122.756336288 301.797072578 116.180496165 312.669492214 c 1
 126.578903865 333.781410878 l 2
 130.014245698 335.15633218 133.229195221 337.229195221 136 340 c 2
 150 355 l 2
 154.710316249 359.317789895 157.571709234 364.71411836 158.584178956 370.34227577 c 1
 164.173156534 371.284178707 169.572579552 374.170086784 174 379 c 2
 181 386 l 1
 205 386 l 1
 212 379 l 2
 218.307147317 372.119475654 226.586861938 369.184085914 234.577094303 370.193830781 c 1
 265.146373423 339.175003438 l 1
 264.283615545 331.309805295 267.234824404 323.201410963 274 317 c 2
 279 312 l 1
269.826086957 13.7135555911 m 1
 269.826086956 13.7135555895 l 1
 269.826086957 13.7135555911 l 1
EndSplineSet
EndChar

StartChar: d
Encoding: 100 100 10
Width: 385
VWidth: 807
Flags: HMW
VStem: 279 58<22 569 30 569>
LayerCount: 2
Fore
SplineSet
328 602 m 2
 317 613 299 613 288 602 c 2
 274 587 l 2
 262 576 262 559 274 548 c 2
 279 542.666666667 l 1
 279 407 l 1
 274.19613095 411.80386905 l 1
 274.676475705 419.358924033 271.944432055 427.055567945 266 433 c 2
 251 448 l 2
 240 459 222 459 211 448 c 2
 207.266666667 444 l 1
 178 444 l 1
 174 448 l 2
 163 459 145 459 134 448 c 2
 120 433 l 2
 115.423131039 428.423131039 112.750601123 422.807531691 111.98241025 417.01758975 c 1
 106.192468309 416.249398877 100.576868961 413.576868961 96 409 c 2
 81 395 l 2
 71.9902462617 385.990246262 70.3600981984 372.284379821 76.10955581 361.575276856 c 1
 63.9376410814 337.543547776 l 2
 61.4361787156 336.129541997 59.0915516764 334.281692738 57 332 c 2
 43 318 l 2
 32 307 32 289 43 278 c 2
 48 273 l 1
 48 169.357142857 l 1
 43 164 l 2
 32 153 32 136 43 124 c 2
 58 109 l 2
 60.4275917272 106.572408273 63.1474083267 104.680562145 66.0304674928 103.324461617 c 2
 76.9014234006 81.8612922604 l 1
 70.232284277 71.185955041 71.5984764768 57.4015235232 81 48 c 2
 96 32 l 2
 100.521338608 27.4786613918 106.225301346 24.8157321299 112.13969837 24.0112122145 c 1
 113.07526301 18.528110659 115.695363553 13.3046364467 120 9 c 2
 135 -6 l 2
 146 -17 163 -17 174 -6 c 2
 181 1 l 1
 205 1 l 1
 212 -6 l 2
 223 -17 240 -17 251 -6 c 2
 266 9 l 2
 267.472467939 10.4724679395 268.747830258 12.052448036 269.826086956 13.7135555895 c 1
 271.00236699 12.0524480362 272.393671337 10.4724679392 274 9 c 2
 289 -6 l 2
 300 -17 317 -17 328 -6 c 2
 343 9 l 2
 354 20 354 37 343 49 c 2
 337 54.6 l 1
 337 80 l 1
 343 86 l 2
 354 97 354 114 343 126 c 2
 337 131.6 l 1
 337 311 l 1
 343 317 l 2
 354 328 354 345 343 356 c 2
 337 362 l 1
 337 541.6 l 1
 343 548 l 2
 354 559 354 576 343 587 c 2
 328 602 l 2
265.007519079 105.007519079 m 1
 231.248919407 71.2489194071 l 1
 223.916177237 71.3125856032 216.562945801 68.5629458008 211 63 c 2
 207 59 l 1
 178.285714286 59 l 1
 174 63 l 2
 169.710961137 67.2890388626 164.357699295 69.9057273284 158.770122422 70.8500653974 c 1
 157.964463137 76.6991460785 155.041088996 82.3790017532 150 87 c 2
 135 102 l 2
 133.027065866 103.972934134 130.861116735 105.592007441 128.571390039 106.857219921 c 2
 116.705109564 130.589780872 l 1
 122.673634283 141.678437739 121.105264428 154.894735572 112 164 c 2
 106 170 l 1
 106 272 l 1
 112 278 l 2
 121.362837566 287.362837566 122.756336288 301.797072578 116.180496165 312.669492214 c 1
 126.578903865 333.781410878 l 2
 130.014245698 335.15633218 133.229195221 337.229195221 136 340 c 2
 150 355 l 2
 154.710316249 359.317789895 157.571709234 364.71411836 158.584178956 370.34227577 c 1
 164.173156534 371.284178707 169.572579552 374.170086784 174 379 c 2
 181 386 l 1
 205 386 l 1
 212 379 l 2
 218.307147317 372.119475654 226.586861938 369.184085914 234.577094303 370.193830781 c 1
 265.146373423 339.175003438 l 1
 264.283615545 331.309805295 267.234824404 323.201410963 274 317 c 2
 279 312 l 1
 279 131 l 1
 274 126 l 2
 267.826574759 119.826574759 264.829081119 112.329844685 265.007519079 105.007519079 c 1
EndSplineSet
EndChar

StartChar: z
Encoding: 122 122 11
Width: 385
VWidth: 807
Flags: HMW
HStem: 1 58<69 77 77 82 77 308> 386 58<77 308 308 316>
LayerCount: 2
Fore
SplineSet
328 63 m 2
 317 74 299 74 288 63 c 2
 284 59 l 1
 128.285714286 59 l 1
 314.52595287 370.749964587 l 2
 319.416362373 371.981998112 324.087675756 374.732009916 328 379 c 2
 343 394 l 2
 348.5 399.5 351.25 406.5 351.25 413.5 c 0
 351.25 420.5 348.5 427.5 343 433 c 2
 328 448 l 2
 322.5 453.5 315.25 456.25 308 456.25 c 0
 300.75 456.25 293.5 453.5 288 448 c 2
 284.266666667 444 l 1
 101 444 l 1
 97 448 l 2
 86 459 68 459 57 448 c 2
 43 433 l 2
 32 422 32 405 43 394 c 2
 58 379 l 2
 69 367 86 367 97 379 c 2
 104 386 l 1
 256.6 386 l 1
 66.5655694239 69.2759490398 l 2
 63.0758973523 67.9015951501 59.8096121368 65.8096121368 57 63 c 2
 43 49 l 2
 37.5 43 34.75 35.75 34.75 28.625 c 0
 34.75 21.5 37.5 14.5 43 9 c 2
 58 -6 l 2
 63.5 -11.5 70.5 -14.25 77.5 -14.25 c 0
 84.5 -14.25 91.5 -11.5 97 -6 c 2
 104 1 l 1
 282 1 l 1
 289 -6 l 2
 300 -17 317 -17 328 -6 c 2
 343 9 l 2
 354 20 354 37 343 49 c 2
 328 63 l 2
EndSplineSet
EndChar

StartChar: uacute
Encoding: 250 250 12
Width: 385
VWidth: 807
Flags: HMW
VStem: 48 58<143 415 152 415 152 415> 279 58<22 415 30 415>
LayerCount: 2
Fore
SplineSet
289 602 m 2
 278 613 261 613 250 602 c 2
 235 587 l 2
 233.195000759 585.195000759 231.68618536 583.228446696 230.473553803 581.153357143 c 2
 128.559981722 529.863520213 l 1
 118.085369638 535.64496292 105.023789516 534.023789516 96 525 c 2
 81 510 l 2
 70 499 70 482 81 471 c 2
 96 456 l 2
 107 444 125 444 136 456 c 2
 150 471 l 2
 153.072784152 473.816718806 155.358734767 477.026854381 156.857851845 480.428925923 c 2
 253.729043538 528.864521769 l 1
 264.748323773 521.124338715 280.169498125 522.169498125 290 532 c 2
 304 548 l 2
 315 559 315 576 304 587 c 2
 289 602 l 2
97 448 m 2
 86 459 68 459 57 448 c 2
 43 433 l 2
 32 422 32 405 43 394 c 2
 48 389 l 1
 48 169.357142857 l 1
 43 164 l 2
 32 153 32 136 43 124 c 2
 58 109 l 2
 60.4275917272 106.572408273 63.1474083267 104.680562145 66.0304674928 103.324461617 c 2
 76.9014234006 81.8612922604 l 1
 70.232284277 71.185955041 71.5984764768 57.4015235232 81 48 c 2
 96 32 l 2
 100.521338608 27.4786613918 106.225301346 24.8157321299 112.13969837 24.0112122145 c 1
 113.07526301 18.528110659 115.695363553 13.3046364467 120 9 c 2
 135 -6 l 2
 146 -17 163 -17 174 -6 c 2
 181 1 l 1
 205 1 l 1
 212 -6 l 2
 223 -17 240 -17 251 -6 c 2
 266 9 l 2
 267.472467939 10.4724679395 268.747830258 12.052448036 269.826086956 13.7135555895 c 1
 271.00236699 12.0524480362 272.393671337 10.4724679392 274 9 c 2
 289 -6 l 2
 300 -17 317 -17 328 -6 c 2
 343 9 l 2
 354 20 354 37 343 49 c 2
 337 54.6 l 1
 337 118 l 1
 343 124 l 2
 354 136 354 153 343 164 c 2
 337 170 l 1
 337 388 l 1
 343 394 l 2
 354 405 354 422 343 433 c 2
 328 448 l 2
 317 459 299 459 288 448 c 2
 274 433 l 2
 262 422 262 405 274 394 c 2
 279 389 l 1
 279 169.357142857 l 1
 274 164 l 2
 264.225663791 155.040191808 262.412798276 142.099648269 268.561403456 131.122806911 c 1
 256.428609961 106.857219921 l 2
 254.138883265 105.592007441 251.972934134 103.972934134 250 102 c 2
 235 87 l 2
 230.409534186 82.4095341863 227.734738953 76.7741571468 226.975614301 70.9659832924 c 1
 221.119870017 70.1348403343 215.47951257 67.4795125701 211 63 c 2
 207 59 l 1
 178.285714286 59 l 1
 174 63 l 2
 169.710961137 67.2890388626 164.357699295 69.9057273284 158.770122422 70.8500653974 c 1
 157.964463137 76.6991460785 155.041088996 82.3790017532 150 87 c 2
 135 102 l 2
 133.027065866 103.972934134 130.861116735 105.592007441 128.571390039 106.857219921 c 2
 116.705109564 130.589780872 l 1
 122.673634283 141.678437739 121.105264428 154.894735572 112 164 c 2
 106 170 l 1
 106 388 l 1
 112 394 l 2
 123 405 123 422 112 433 c 2
 97 448 l 2
EndSplineSet
EndChar

StartChar: glyph13
Encoding: 256 -1 13
Width: 385
VWidth: 807
Flags: HMW
HStem: 1 58<345 346 221 354> 270 58<221 221> 541 58
VStem: 10 58 163 135<292 308 292 538>
LayerCount: 2
Fore
SplineSet
221 540 m 1
 263 540 305 541 346 541 c 0
 362 541 375 553 375 569 c 0
 375 585 362 598 346 598 c 2
 216.285714286 598 l 1
 212 602 l 2
 206.5 607.5 199.5 610.25 192.5 610.25 c 0
 185.71027368 610.25 178.92054736 607.662733579 173.499665008 602.488200738 c 1
 162.460875359 612.997518545 144.834784966 612.834784966 134 602 c 2
 120 588 l 2
 114.46032529 581.956718499 111.710468389 574.645337993 111.750429295 567.470829681 c 1
 77.958216364 533.233982369 l 1
 70.3923083962 533.487006234 62.7423454443 530.742345444 57 525 c 2
 43 511 l 2
 32.8284101542 499.903720168 32.0623875803 484.532182486 40.7019322784 473.582620821 c 1
 19.2094805025 410.207442507 l 2
 19.1394155721 410.138735228 19.0695877253 410.069587725 19 410 c 2
 4 395 l 2
 -7 384 -7 367 4 356 c 2
 10 350 l 1
 10 285.6 l 1
 4 280 l 2
 -7 269 -7 251 4 240 c 2
 17.0175438596 226.98245614 l 1
 43.1986062718 126.185365854 l 1
 43 126 l 2
 32 115 32 98 43 86 c 2
 58 71 l 2
 64.690337872 64.867190284 72.9348639676 62.1535946601 80.8272701592 62.8592131282 c 1
 111.828140339 31.4504367616 l 1
 111.240776215 23.6730072966 113.964729436 15.5839315246 120 9 c 2
 135 -6 l 2
 145.834784966 -16.8347849655 162.490688869 -16.9975185448 173.500334992 -6.48820073767 c 1
 184.539124641 -16.9975185448 202.165215034 -16.8347849655 213 -6 c 2
 220.280995245 1.80106633441 l 1
 257.069896477 1.62285109905 295.306641785 1.36333427033 319.811586395 1.18841360536 c 1
 327 -6 l 2
 338 -17 356 -17 367 -6 c 2
 381 9 l 2
 392 20 392 37 381 49 c 2
 366 63 l 2
 355 74 338 74 327 63 c 2
 322.714285714 59 l 1
 221 59 l 1
 221 270 l 1
 270 271 l 2
 285 271 298 284 298 300 c 0
 298 316 285 329 269 329 c 2
 221 328 l 1
 221 540 l 1
163 272 m 1
 163 70.796478507 l 1
 159.74793953 71.878013657 156.334662298 72.3559879277 152.94010537 72.2304013188 c 2
 121.18803744 104.520639891 l 1
 121.705996685 112.275440953 118.976650871 120.023349129 113 126 c 2
 100.028248588 137.350282486 l 1
 73.5777777778 239.577777778 l 1
 74 240 l 2
 85 251 85 269 74 280 c 2
 67 286.125 l 1
 67 349 l 1
 74 356 l 2
 84.8134093855 366.813409386 84.9968349039 383.424991789 74.5502765551 394.435107478 c 1
 94.5242607588 453.786374826 l 2
 95.3778533833 454.466736973 96.204612031 455.204612031 97 456 c 2
 112 471 l 2
 118.444983147 477.444983147 121.113801952 485.949692299 120.006456414 494.301644224 c 1
 150.291579513 525.083244751 l 2
 154.529157452 524.408231152 158.87915349 524.758687626 163 526.134614174 c 1
 163 321.666666667 l 1
 158 317 l 2
 147 306 147 288 158 277 c 2
 163 272 l 1
EndSplineSet
EndChar

StartChar: glyph14
Encoding: 257 -1 14
Width: 385
VWidth: 807
Flags: HMW
VStem: 125 58<465 503 503 503> 279 58<465 503 503 503>
LayerCount: 2
Fore
SplineSet
289 640 m 2
 278 651 261 651 250 640 c 2
 235 626 l 2
 230.620159756 621.221992462 227.984228655 615.65129895 227.092206695 609.982287049 c 1
 221.194772285 609.169997922 215.509235572 606.509235572 211 602 c 2
 197 587 l 2
 195.447573094 585.447573094 194.114239761 583.775640603 193 582.017934106 c 1
 191.885760239 583.775640603 190.552426906 585.447573094 189 587 c 2
 174 602 l 2
 169.679101574 606.320898426 164.27811106 608.944509288 158.645568133 609.870832585 c 1
 157.691172431 615.578258752 154.809316386 621.190683614 150 626 c 2
 135 640 l 2
 124 651 107 651 96 640 c 2
 81 626 l 2
 76.6201597564 621.221992462 73.9842286546 615.65129895 73.0922066945 609.982287049 c 1
 67.1947722853 609.169997922 61.509235572 606.509235572 57 602 c 2
 43 587 l 2
 32 576 32 559 43 548 c 2
 58 532 l 2
 62.3500307035 527.649969296 67.6383804378 525.020190149 73.1229189132 524.110662559 c 1
 74.0436519968 518.591287131 76.6693456924 513.330654308 81 509 c 2
 96 494 l 2
 103.808588055 486.191411945 115.144600341 483.925919109 125 487.203521493 c 1
 125 477 l 1
 120 472 l 2
 114.437054199 466.437054199 111.687414397 459.083822763 111.751080593 451.751080593 c 1
 77.2489194071 417.248919407 l 1
 69.916177237 417.312585603 62.5629458008 414.562945801 57 409 c 2
 43 395 l 2
 32 384 32 366 43 355 c 2
 58 340 l 2
 69 329 86 329 97 340 c 2
 112 355 l 2
 118.507437117 361.507437117 121.165170794 370.464685512 119.973201033 378.973201033 c 1
 150.112407812 409.112407812 l 1
 158.49983927 407.718054304 167.3472517 410.3472517 174 417 c 2
 189 432 l 2
 200 443 200 461 189 472 c 2
 183 477.6 l 1
 183 541.6 l 1
 189 548 l 2
 190.552426906 549.552426906 191.885760239 551.224359397 193 552.982065894 c 1
 194.114239761 551.224359397 195.447573094 549.552426906 197 548 c 2
 212 532 l 2
 216.350030704 527.649969296 221.638380438 525.020190149 227.122918913 524.110662559 c 1
 228.043651997 518.591287131 230.669345692 513.330654308 235 509 c 2
 250 494 l 2
 257.808588055 486.191411945 269.144600341 483.925919109 279 487.203521493 c 1
 279 477 l 1
 274 472 l 2
 267.783279411 466.30133946 264.787193395 458.723975418 265.011741953 451.214470331 c 1
 230.544116091 417.246375278 l 1
 223.44683553 417.133506696 216.384714936 414.384714936 211 409 c 2
 197 395 l 2
 186 384 186 366 197 355 c 2
 212 340 l 2
 223 329 240 329 251 340 c 2
 266 355 l 2
 272.507437117 361.507437117 275.165170794 370.464685512 273.973201033 378.973201033 c 1
 304.112407812 409.112407812 l 1
 312.49983927 407.718054304 321.3472517 410.3472517 328 417 c 2
 343 432 l 2
 354 443 354 461 343 472 c 2
 337 477.6 l 1
 337 541.6 l 1
 343 548 l 2
 348.5 553.5 351.25 560.5 351.25 567.5 c 0
 351.25 574.5 348.5 581.5 343 587 c 2
 328 602 l 2
 323.490764428 606.509235572 317.805227715 609.169997922 311.907793305 609.982287049 c 1
 311.015771345 615.65129895 308.379840244 621.221992462 304 626 c 2
 289 640 l 2
EndSplineSet
EndChar

StartChar: plus
Encoding: 43 43 15
Width: 385
VWidth: 807
Flags: HMW
HStem: 194 58
VStem: 163 58<22 415 30 415>
LayerCount: 2
Fore
SplineSet
405 255 m 2
 393 267 376 267 365 255 c 2
 361 251 l 1
 221 251 l 1
 221 387.571428571 l 1
 227 394 l 2
 239 405 239 422 227 433 c 2
 212 448 l 2
 201 459 184 459 173 448 c 2
 158 433 l 2
 147 422 147 405 158 394 c 2
 163 389 l 1
 163 251 l 1
 24.2857142857 251 l 1
 20 255 l 2
 9 267 -8 267 -20 255 c 2
 -34 241 l 2
 -45 230 -45 213 -34 201 c 2
 -19 186 l 2
 -8 175 9 175 21 186 c 2
 28.4666666667 194 l 1
 163 194 l 1
 163 53.6666666667 l 1
 158 49 l 2
 147 37 147 20 158 9 c 2
 173 -6 l 2
 184 -17 202 -17 213 -6 c 2
 227 9 l 2
 239 20 239 37 227 49 c 2
 221 54.6 l 1
 221 194 l 1
 358 194 l 1
 366 186 l 2
 377 175 394 175 405 186 c 2
 420 201 l 2
 431 213 431 230 420 241 c 2
 405 255 l 2
EndSplineSet
EndChar

StartChar: parenleft
Encoding: 40 40 16
Width: 385
VWidth: 807
Flags: HMW
VStem: 87 58
LayerCount: 2
Fore
SplineSet
289 602 m 2
 278 613 261 613 250 602 c 2
 235 587 l 2
 230.409534186 582.409534186 227.734738953 576.774157147 226.975614301 570.965983292 c 1
 221.119870017 570.134840334 215.47951257 567.47951257 211 563 c 2
 197 548 l 2
 189.395282869 540.395282869 187.047995069 529.922877011 189.958136601 520.547866352 c 1
 146.176329931 455.159453794 l 2
 141.709477754 453.88681727 137.500332672 451.500332672 134 448 c 2
 120 433 l 2
 109.295635283 422.295635283 109.007945475 405.909447888 119.136930575 394.899674579 c 1
 92.7652173913 290.765217391 l 1
 81 279 l 2
 70 268 70 251 81 240 c 2
 87 234 l 1
 87 208 l 1
 81 202 l 2
 70 191 70 174 81 163 c 2
 93.7826086957 150.217391304 l 1
 119.544071635 48.4926402116 l 1
 109.002159808 36.5247579313 109.154135929 19.8458640705 120 9 c 2
 135 -6 l 2
 138.881174943 -9.88117494312 143.509301239 -12.3929390736 148.357279091 -13.5352923914 c 0
 168.189346656 -43.2811685959 181.445875005 -63.155829722 190.374230257 -76.50223289 c 1
 186.851018543 -86.4717067687 189.059608461 -98.0596084458 197 -106 c 2
 212 -121 l 2
 216.320869044 -125.320869044 221.567518714 -127.944473607 227.012644129 -128.870813688 c 1
 227.818888185 -134.781457074 230.481340142 -140.481340142 235 -145 c 2
 250 -160 l 2
 261 -171 279 -171 290 -160 c 2
 304 -145 l 2
 315 -134 315 -116 304 -105 c 2
 289 -91 l 2
 284.711038625 -86.7110386253 279.509919085 -84.0943672209 274.107952495 -83.1499857869 c 1
 273.480957787 -76.8774859902 270.778306956 -70.7783069557 266 -66 c 2
 251 -52 l 2
 247.352973991 -48.3529739906 242.936480287 -45.9151115006 238.260749561 -44.68641253 c 2
 195.746518363 19.6754097007 l 1
 199.096767478 29.3322076903 196.847928023 40.4386239745 189 49 c 2
 176.154496077 60.9891369946 l 1
 150.100522855 163.092545568 l 1
 161.99990591 174.095157794 161.966398292 191.030801566 150 202 c 2
 144 208 l 1
 144 233.571428571 l 1
 150 240 l 2
 162 251 162 268 150 279 c 2
 149.661202186 279.338797814 l 1
 175.229357798 380.229357798 l 1
 189 394 l 2
 197.329581123 402.329581123 199.35171482 414.099588116 195.066401091 424.099601636 c 1
 235.936138776 485.404208164 l 2
 241.399575783 486.406283402 246.665585068 489.271547347 251 494 c 2
 266 509 l 2
 270.320869044 513.320869044 272.944473607 518.567518714 273.870813688 524.012644129 c 1
 279.781457074 524.818888185 285.481340142 527.481340142 290 532 c 2
 304 548 l 2
 315 559 315 576 304 587 c 2
 289 602 l 2
EndSplineSet
EndChar

StartChar: ntilde
Encoding: 241 241 17
Width: 385
VWidth: 807
Flags: HMW
VStem: 48 58<22 415 30 415> 279 58<22 299 30 292>
LayerCount: 2
Fore
SplineSet
174 602 m 2
 163 613 145 613 134 602 c 2
 120 587 l 2
 114.492250585 581.492250585 111.742256045 574.48027124 111.750016378 567.470411331 c 1
 77.958216364 533.233982369 l 1
 70.3923083962 533.487006234 62.7423454443 530.742345444 57 525 c 2
 43 510 l 2
 32 499 32 482 43 471 c 2
 58 456 l 2
 59.3417203467 454.536305076 60.772707478 453.251143722 62.2711848373 452.144515936 c 1
 60.3920949678 451.001628824 58.6201235114 449.620123511 57 448 c 2
 43 433 l 2
 32 422 32 405 43 394 c 2
 48 389 l 1
 48 323 l 1
 43 318 l 2
 32 307 32 289 43 278 c 2
 48 273 l 1
 48 54 l 1
 43 49 l 2
 32 37 32 20 43 9 c 2
 58 -6 l 2
 69 -17 86 -17 97 -6 c 2
 112 9 l 2
 123 20 123 37 112 49 c 2
 106 54.6 l 1
 106 272 l 1
 112 278 l 2
 121.370264017 287.370264017 122.758541875 301.819973772 116.164833574 312.695356969 c 1
 126.559636761 333.773707876 l 2
 130.002224897 335.148585117 133.224015824 337.224015824 136 340 c 2
 150 355 l 2
 154.710316249 359.317789895 157.571709234 364.71411836 158.584178956 370.34227577 c 1
 164.173156534 371.284178707 169.572579552 374.170086784 174 379 c 2
 181 386 l 1
 205 386 l 1
 212 379 l 2
 216.349992389 374.254553758 221.63828728 371.385712518 227.122773992 370.393476283 c 1
 228.043376455 364.746851881 230.669118458 359.330881542 235 355 c 2
 250 340 l 2
 252.427076211 337.572923789 255.194936657 335.681365664 258.153197828 334.325325622 c 2
 269.088401141 312.123549198 l 1
 262.318841359 301.317867856 263.956040979 287.206962436 274 278 c 2
 279 273 l 1
 279 54 l 1
 274 49 l 2
 262 37 262 20 274 9 c 2
 289 -6 l 2
 300 -17 317 -17 328 -6 c 2
 343 9 l 2
 354 20 354 37 343 49 c 2
 337 54.6 l 1
 337 272 l 1
 343 278 l 2
 354 289 354 307 343 318 c 2
 328 332 l 2
 325.908448324 334.281692738 323.563821284 336.129541997 321.062358919 337.543547776 c 2
 308.89044419 361.575276856 l 1
 314.639901802 372.284379821 313.009753738 385.990246262 304 395 c 2
 289 409 l 2
 284.692460871 413.307539129 279.464844385 415.928269772 274.037744945 416.862191929 c 1
 273.297053023 422.706996189 270.617804708 428.382195292 266 433 c 2
 251 448 l 2
 249.535011522 449.464988478 247.945863221 450.734868661 246.265626498 451.809640549 c 1
 247.932809836 452.989392057 249.520663662 454.386178542 251 456 c 2
 266 471 l 2
 272.423131039 477.423131039 275.095660956 485.89204451 274.01758975 494.01758975 c 1
 304.112407812 524.112407812 l 1
 312.49983927 522.718054304 321.3472517 525.3472517 328 532 c 2
 343 548 l 2
 354 559 354 576 343 587 c 2
 328 602 l 2
 317 613 299 613 288 602 c 2
 274 587 l 2
 267.749431442 581.270312155 264.754663492 573.912724006 265.015696151 566.623119296 c 1
 232.203251673 533.22473831 l 2
 231.394608078 533.258709219 230.584757995 533.223864921 229.776135079 533.223864921 c 2
 197.19613095 565.80386905 l 1
 197.676475705 573.358924033 194.944432055 581.055567945 189 587 c 2
 174 602 l 2
174 448 m 2
 163 459 145 459 134 448 c 2
 120 433 l 2
 118.447573094 431.447573094 117.114239761 429.775640603 116 428.017934106 c 1
 114.885760239 429.775640603 113.552426906 431.447573094 112 433 c 2
 97 448 l 2
 95.5350115224 449.464988478 93.945863221 450.734868661 92.2656264984 451.809640549 c 1
 93.9328098363 452.989392057 95.5206636617 454.386178542 97 456 c 2
 112 471 l 2
 118.423131039 477.423131039 121.095660956 485.89204451 120.01758975 494.01758975 c 1
 150.112407812 524.112407812 l 2
 152.708832105 523.680769909 155.349335549 523.634701673 157.955168881 523.974203104 c 2
 188.828677912 492.549381411 l 1
 188.239117345 484.881490668 190.962891374 477.037108626 197 471 c 2
 212 456 l 2
 213.341720347 454.536305076 214.772707478 453.251143722 216.271184837 452.144515936 c 1
 214.392094968 451.001628824 212.620123511 449.620123511 211 448 c 2
 207.266666667 444 l 1
 178 444 l 1
 174 448 l 2
EndSplineSet
EndChar

StartChar: I
Encoding: 73 73 18
Width: 385
VWidth: 807
Flags: HMW
HStem: 1 58<77 231 146 162> 540 58
VStem: 125 58<22 569 30 569>
LayerCount: 2
Fore
SplineSet
251 602 m 2
 240 613 222 613 211 602 c 2
 206.333333333 597 l 1
 179 597 l 1
 174 602 l 2
 163 613 145 613 134 602 c 2
 129.333333333 597 l 1
 102 597 l 1
 97 602 l 2
 86 613 68 613 57 602 c 2
 43 587 l 2
 32 576 32 559 43 548 c 2
 58 532 l 2
 69 521 86 521 97 532 c 2
 104.5 540 l 1
 125 540 l 1
 125 59 l 1
 101.285714286 59 l 1
 97 63 l 2
 86 74 68 74 57 63 c 2
 43 49 l 2
 32 37 32 20 43 9 c 2
 58 -6 l 2
 69 -17 86 -17 97 -6 c 2
 104 1 l 1
 128 1 l 1
 135 -6 l 2
 146 -17 163 -17 174 -6 c 2
 181 1 l 1
 205 1 l 1
 212 -6 l 2
 223 -17 240 -17 251 -6 c 2
 266 9 l 2
 277 20 277 37 266 49 c 2
 251 63 l 2
 240 74 222 74 211 63 c 2
 207 59 l 1
 183 59 l 1
 183 540 l 1
 204.5 540 l 1
 212 532 l 2
 223 521 240 521 251 532 c 2
 266 548 l 2
 277 559 277 576 266 587 c 2
 251 602 l 2
EndSplineSet
EndChar

StartChar: m
Encoding: 109 109 19
Width: 385
VWidth: 807
Flags: HMW
VStem: 48 58<22 415 30 415> 163 58<22 295 30 295> 279 58<22 299 30 295>
LayerCount: 2
Fore
SplineSet
289 448 m 2
 278.165215034 458.834784966 261.509311131 458.997518545 250.499665008 448.488200738 c 1
 239.460875359 458.997518545 221.834784966 458.834784966 211 448 c 2
 197 433 l 2
 195.447573094 431.447573094 194.114239761 429.775640603 193 428.017934106 c 1
 191.885760239 429.775640603 190.552426906 431.447573094 189 433 c 2
 174 448 l 2
 163.165215034 458.834784966 145.539124641 458.997518545 134.500334992 448.488200738 c 1
 123.658570287 458.837266421 107.341429713 448.488200738 96.499665008 448.488200738 c 1
 85.4608753587 458.997518545 67.8347849655 458.834784966 57 448 c 2
 43 433 l 2
 32 422 32 405 43 394 c 2
 48 389 l 1
 48 323 l 1
 43 318 l 2
 32 307 32 289 43 278 c 2
 48 273 l 1
 48 54 l 1
 43 49 l 2
 32 37 32 20 43 9 c 2
 58 -6 l 2
 69 -17 86 -17 97 -6 c 2
 112 9 l 2
 123 20 123 37 112 49 c 2
 106 54.6 l 1
 106 272 l 1
 112 278 l 2
 122.609327401 288.609327401 122.986124993 305.73026468 113.130392775 316.802120728 c 1
 133.490535117 376.568990181 l 2
 134.181135253 377.161690998 134.851746965 377.794500063 135.499665008 378.467417377 c 1
 135.660487234 378.299947849 135.822514235 378.134962495 135.98571027 377.972461314 c 2
 156.168250048 315.983231995 l 1
 151.889416683 310.789375669 149.75 304.394687835 149.75 298 c 0
 149.75 290.75 152.5 283.5 158 278 c 2
 163 273 l 1
 163 53.6666666667 l 1
 158 49 l 2
 147 38 147 20 158 9 c 2
 173 -6 l 2
 184 -17 202 -17 213 -6 c 2
 227 9 l 2
 239 20 239 38 227 49 c 2
 221 54.6 l 1
 221 271.571428571 l 1
 227 278 l 2
 233 283.5 236 290.75 236 298 c 0
 236 304.69674904 233.440392996 311.39349808 228.321178989 316.71108252 c 1
 248.505882722 376.569169452 l 2
 249.188602553 377.161818599 249.85419267 377.794567907 250.500334992 378.467417377 c 1
 250.677623537 378.283288331 250.856611209 378.102162281 251.037242586 377.924039229 c 2
 271.945440652 315.920417377 l 1
 262.044306096 304.838367585 262.729159212 288.331604055 274 278 c 2
 279 273 l 1
 279 54 l 1
 274 49 l 2
 262 37 262 20 274 9 c 2
 289 -6 l 2
 300 -17 317 -17 328 -6 c 2
 343 9 l 2
 354 20 354 37 343 49 c 2
 337 54.6 l 1
 337 272 l 1
 343 278 l 2
 354 289 354 307 343 318 c 2
 328 332 l 2
 327.577524944 332.460881879 327.1447243 332.904062749 326.702391214 333.32954261 c 2
 306.073646047 396.30150154 l 1
 314.950063021 407.263596118 314.258847671 422.741152329 304 433 c 2
 289 448 l 2
194.116590688 397.349772063 m 2
 192 391 l 1
 190.472372137 395.58288359 l 2
 191.412776464 396.67091895 192.255319085 397.807336245 193 398.982065894 c 1
 193.35051552 398.429129776 193.722712416 397.884681806 194.116590688 397.349772063 c 2
EndSplineSet
EndChar

StartChar: odieresis
Encoding: 246 246 20
Width: 385
VWidth: 807
Flags: W
HStem: -19 20G<174 212>
LayerCount: 2
Fore
SplineSet
289 602 m 2
 278 613 261 613 250 602 c 2
 235 587 l 2
 230.409534186 582.409534186 227.734738953 576.774157147 226.975614301 570.965983292 c 1
 221.119870017 570.134840334 215.47951257 567.47951257 211 563 c 2
 197 549 l 2
 195.447573094 547.306443375 194.114239761 545.513298763 193 543.651486778 c 1
 191.885760239 545.513298763 190.552426906 547.306443375 189 549 c 2
 174 563 l 2
 169.710961137 567.289038863 164.357699295 569.905727328 158.770122422 570.850065397 c 1
 157.964463137 576.699146079 155.041088996 582.379001753 150 587 c 2
 135 602 l 2
 124 613 107 613 96 602 c 2
 81 587 l 2
 76.4095341863 582.409534186 73.7347389532 576.774157147 72.9756143007 570.965983292 c 1
 67.1198700168 570.134840334 61.4795125701 567.47951257 57 563 c 2
 43 549 l 2
 32 537 32 520 43 509 c 2
 58 494 l 2
 62.3472516998 489.6527483 67.6316239288 487.023550904 73.1124078119 486.112407812 c 1
 74.0235509042 480.631623929 76.6527483002 475.3472517 81 471 c 2
 96 456 l 2
 107 444 125 444 136 456 c 2
 150 471 l 2
 154.728953918 475.334874425 157.594324073 480.601540732 158.596110465 486.065598776 c 1
 164.180840789 486.930929814 169.575730222 489.575730222 174 494 c 2
 189 509 l 2
 190.552426906 510.552426906 191.885760239 512.224359397 193 513.984876858 c 1
 194.114239761 512.224359397 195.447573094 510.552426906 197 509 c 2
 212 494 l 2
 216.3472517 489.6527483 221.631623929 487.023550904 227.112407812 486.112407812 c 1
 228.023550904 480.631623929 230.6527483 475.3472517 235 471 c 2
 250 456 l 2
 261 444 279 444 290 456 c 2
 304 471 l 2
 308.307539129 475.307539129 310.928269772 480.535155615 311.862191929 485.962255055 c 1
 317.706996189 486.702946977 323.382195292 489.382195292 328 494 c 2
 343 509 l 2
 348.5 514.5 351.25 521.5 351.25 528.625 c 0
 351.25 535.75 348.5 543 343 549 c 2
 328 563 l 2
 323.52048743 567.47951257 317.880129983 570.134840334 312.024385699 570.965983292 c 1
 311.265261047 576.774157147 308.590465814 582.409534186 304 587 c 2
 289 602 l 2
174 448 m 2
 163 459 145 459 134 448 c 2
 120 433 l 2
 115.423131039 428.423131039 112.750601123 422.807531691 111.98241025 417.01758975 c 1
 106.192468309 416.249398877 100.576868961 413.576868961 96 409 c 2
 81 395 l 2
 71.9902462617 385.990246262 70.3600981984 372.284379821 76.10955581 361.575276856 c 1
 63.9376410814 337.543547776 l 2
 61.4361787156 336.129541997 59.0915516764 334.281692738 57 332 c 2
 43 318 l 2
 32 307 32 289 43 278 c 2
 48 273 l 1
 48 169.357142857 l 1
 43 164 l 2
 32 153 32 136 43 124 c 2
 58 109 l 2
 60.4275917272 106.572408273 63.1474083267 104.680562145 66.0304674928 103.324461617 c 2
 76.9014234006 81.8612922604 l 1
 70.232284277 71.185955041 71.5984764768 57.4015235232 81 48 c 2
 96 32 l 2
 100.521338608 27.4786613918 106.225301346 24.8157321299 112.13969837 24.0112122145 c 1
 113.07526301 18.528110659 115.695363553 13.3046364467 120 9 c 2
 135 -6 l 2
 146 -17 163 -17 174 -6 c 2
 181 1 l 1
 205 1 l 1
 212 -6 l 2
 223 -17 240 -17 251 -6 c 2
 266 9 l 2
 270.304636447 13.3046364467 272.92473699 18.528110659 273.86030163 24.0112122145 c 1
 279.774698654 24.8157321299 285.478661392 27.4786613918 290 32 c 2
 304 48 l 2
 309.5 53.5 312.25 60.5 312.25 67.5 c 0
 312.25 72.4655753932 310.8661922 77.4311507863 308.098576599 81.8612922604 c 1
 318.683249703 102.759236594 l 2
 322.043706661 104.134004333 325.214258802 106.214258802 328 109 c 2
 343 124 l 2
 354 136 354 153 343 164 c 2
 337 170 l 1
 337 272 l 1
 343 278 l 2
 354 289 354 307 343 318 c 2
 328 332 l 2
 325.908448324 334.281692738 323.563821284 336.129541997 321.062358919 337.543547776 c 2
 308.89044419 361.575276856 l 1
 314.639901802 372.284379821 313.009753738 385.990246262 304 395 c 2
 289 409 l 2
 284.692460871 413.307539129 279.464844385 415.928269772 274.037744945 416.862191929 c 1
 273.297053023 422.706996189 270.617804708 428.382195292 266 433 c 2
 251 448 l 2
 240 459 222 459 211 448 c 2
 207.266666667 444 l 1
 178 444 l 1
 174 448 l 2
207 59 m 1
 178.285714286 59 l 1
 174 63 l 2
 169.710961137 67.2890388626 164.357699295 69.9057273284 158.770122422 70.8500653974 c 1
 157.964463137 76.6991460785 155.041088996 82.3790017532 150 87 c 2
 135 102 l 2
 133.027065866 103.972934134 130.861116735 105.592007441 128.571390039 106.857219921 c 2
 116.705109564 130.589780872 l 1
 122.673634283 141.678437739 121.105264428 154.894735572 112 164 c 2
 106 170 l 1
 106 272 l 1
 112 278 l 2
 121.362837566 287.362837566 122.756336288 301.797072578 116.180496165 312.669492214 c 1
 126.578903865 333.781410878 l 2
 130.014245698 335.15633218 133.229195221 337.229195221 136 340 c 2
 150 355 l 2
 154.710316249 359.317789895 157.571709234 364.71411836 158.584178956 370.34227577 c 1
 164.173156534 371.284178707 169.572579552 374.170086784 174 379 c 2
 181 386 l 1
 205 386 l 1
 212 379 l 2
 216.349992389 374.254553758 221.63828728 371.385712518 227.122773992 370.393476283 c 1
 228.043376455 364.746851881 230.669118458 359.330881542 235 355 c 2
 250 340 l 2
 252.427076211 337.572923789 255.194936657 335.681365664 258.153197828 334.325325622 c 2
 269.088401141 312.123549198 l 1
 262.318841359 301.317867856 263.956040979 287.206962436 274 278 c 2
 279 273 l 1
 279 169.357142857 l 1
 274 164 l 2
 264.225663791 155.040191808 262.412798276 142.099648269 268.561403456 131.122806911 c 1
 256.428609961 106.857219921 l 2
 254.138883265 105.592007441 251.972934134 103.972934134 250 102 c 2
 235 87 l 2
 230.409534186 82.4095341863 227.734738953 76.7741571468 226.975614301 70.9659832924 c 1
 221.119870017 70.1348403343 215.47951257 67.4795125701 211 63 c 2
 207 59 l 1
EndSplineSet
EndChar

StartChar: one
Encoding: 49 49 21
Width: 385
VWidth: 807
Flags: HMW
VStem: 163 58<22 569 30 460>
LayerCount: 2
Fore
SplineSet
212 602 m 2
 201 613 184 613 173 602 c 2
 158 587 l 2
 149.090707151 578.090707151 147.397368763 565.245439141 152.919984836 554.839969671 c 1
 140.396929859 529.793859719 l 2
 138.098068113 528.53810572 135.94015248 526.94015248 134 525 c 2
 120 510 l 2
 115.423131039 505.423131039 112.750601123 499.807531691 111.98241025 494.01758975 c 1
 106.192468309 493.249398877 100.576868961 490.576868961 96 486 c 2
 81 472 l 2
 70 461 70 443 81 432 c 2
 96 417 l 2
 107 406 125 406 136 417 c 2
 150 432 l 2
 154.710316249 436.317789895 157.571709234 441.71411836 158.584178956 447.34227577 c 0
 160.074543764 447.593444964 161.551429666 447.982849104 163 448.51048819 c 1
 163 53.6666666667 l 1
 158 49 l 2
 147 37 147 20 158 9 c 2
 173 -6 l 2
 184 -17 202 -17 213 -6 c 2
 227 9 l 2
 239 20 239 37 227 49 c 2
 221 54.6 l 1
 221 541.142857143 l 1
 227 548 l 2
 239 559 239 576 227 587 c 2
 212 602 l 2
EndSplineSet
EndChar

StartChar: B
Encoding: 66 66 22
Width: 385
VWidth: 807
Flags: HMW
HStem: 309 58<69 192 69 192 77 192 77 185> 540 58
VStem: 279 58<152 216 216 216 427 480 480 480>
LayerCount: 2
Fore
SplineSet
289 563 m 2
 280.185071178 571.814928822 267.517102515 573.565951268 257.171416183 568.253067338 c 1
 232.3359664 580.509523076 l 2
 230.950322356 582.82210499 229.17166689 585.009305351 227 587 c 2
 212 602 l 2
 201 613 184 613 173 602 c 2
 168 597 l 1
 102 597 l 1
 97 602 l 2
 91.5 607.5 84.25 610.25 77 610.25 c 0
 69.75 610.25 62.5 607.5 57 602 c 2
 43 587 l 2
 37.5 581.5 34.75 574.5 34.75 567.5 c 0
 34.75 560.5 37.5 553.5 43 548 c 2
 48 542.666666667 l 1
 48 361.357142857 l 1
 43 356 l 2
 37.5 350.5 34.75 343.5 34.75 336.5 c 0
 34.75 329.5 37.5 322.5 43 317 c 2
 48 312 l 1
 48 54 l 1
 43 49 l 2
 37.5 43 34.75 35.75 34.75 28.625 c 0
 34.75 21.5 37.5 14.5 43 9 c 2
 58 -6 l 2
 63.5 -11.5 70.5 -14.25 77.5 -14.25 c 0
 84.5 -14.25 91.5 -11.5 97 -6 c 2
 104 1 l 1
 166 1 l 1
 173 -6 l 2
 184 -17 202 -17 213 -6 c 2
 227 9 l 2
 230.081845942 11.825025447 232.372210683 15.1117482612 233.871094224 18.6230217497 c 2
 254.449200159 29.045698782 l 1
 265.411952653 21.1893730078 280.381850629 22.5074734137 290 33 c 2
 304 48 l 2
 313.401523523 57.4015235232 314.767715723 71.185955041 308.098576599 81.8612922604 c 1
 318.683249703 102.759236594 l 2
 322.043706661 104.134004333 325.214258802 106.214258802 328 109 c 2
 343 124 l 2
 354 136 354 153 343 164 c 2
 337 170 l 1
 337 195 l 1
 343 201 l 2
 354 213 354 230 343 241 c 2
 328 255 l 2
 325.908448324 257.281692738 323.563821284 259.129541997 321.062358919 260.543547776 c 2
 308.89044419 284.575276856 l 1
 314.639901802 295.284379821 313.009753738 308.990246262 304 318 c 2
 289 332 l 2
 287.658279653 333.463694924 286.227292522 334.748856278 284.728815163 335.855484064 c 1
 286.607905032 336.998371176 288.379876489 338.379876489 290 340 c 2
 304 355 l 2
 308.289038863 359.289038863 310.905727328 364.642300705 311.850065397 370.229877578 c 1
 317.699146079 371.035536863 323.379001753 373.958911004 328 379 c 2
 343 394 l 2
 354 405 354 422 343 433 c 2
 337 439 l 1
 337 465 l 1
 343 471 l 2
 354 482 354 499 343 510 c 2
 328 525 l 2
 323.490764428 529.509235572 317.805227715 532.169997922 311.907793305 532.982287049 c 1
 311.015771345 538.65129895 308.379840244 544.221992462 304 549 c 2
 289 563 l 2
106 59 m 1
 106 309 l 1
 166 309 l 1
 173 302 l 2
 178.5 296.5 185.75 293.75 193 293.75 c 0
 198.100773047 293.75 203.201546094 295.111221129 207.692877631 297.833663388 c 1
 228.763688217 287.46548675 l 2
 230.138493372 284.013450074 232.217263966 280.782736034 235 278 c 2
 250 263 l 2
 252.492059952 260.507940048 255.34339709 258.580458533 258.391222273 257.217555455 c 2
 269.26692978 235.46614044 l 1
 262.291000314 224.826627368 263.868690387 211.131309613 274 201 c 2
 279 196 l 1
 279 169.357142857 l 1
 274 164 l 2
 264.225663791 155.040191808 262.412798276 142.099648269 268.561403456 131.122806911 c 1
 256.428609961 106.857219921 l 2
 254.138883265 105.592007441 251.972934134 103.972934134 250 102 c 2
 235 87 l 2
 233.286357636 85.2863576362 231.839676195 83.4271002236 230.659955677 81.4675972379 c 2
 204.321007866 68.5071626008 l 1
 194.071068321 73.5070093218 181.671288455 71.6712884548 173 63 c 2
 168.714285714 59 l 1
 106 59 l 1
106 540 m 1
 165.5 540 l 1
 173 532 l 2
 182.535823049 522.464176951 197.332170467 521.194892195 208.268418704 528.192145732 c 1
 229.049773664 517.646383514 l 2
 230.420468532 514.526452966 232.403877311 511.596122689 235 509 c 2
 250 494 l 2
 254.330881542 489.669118458 259.746851881 487.043376455 265.393476283 486.122773992 c 1
 266.385712518 480.63828728 269.254553758 475.349992389 274 471 c 2
 279 466 l 1
 279 438.357142857 l 1
 274 433 l 2
 268.975601465 428.394301343 266.054917984 422.73674516 265.237949555 416.908156686 c 1
 259.712351859 416.016487365 254.380435137 413.380435137 250 409 c 2
 235 395 l 2
 233.321446669 393.321446669 231.899033454 391.479895081 230.732760357 389.525090922 c 2
 204.311667249 376.511716705 l 2
 200.565666298 378.337238902 196.532833149 379.25 192.5 379.25 c 0
 185.5 379.25 178.5 376.5 173 371 c 2
 169 367 l 1
 106 367 l 1
 106 540 l 1
EndSplineSet
EndChar

StartChar: glyph23
Encoding: 258 -1 23
Width: 385
VWidth: 807
Flags: HMW
HStem: 270 58<115 231>
LayerCount: 2
Fore
SplineSet
251 332 m 2
 240 344 222 344 211 332 c 2
 207 328 l 1
 139.285714286 328 l 1
 135 332 l 2
 124 344 107 344 96 332 c 2
 81 318 l 2
 70 307 70 289 81 278 c 2
 96 263 l 2
 107 252 125 252 136 263 c 2
 142.533333333 270 l 1
 205 270 l 1
 212 263 l 2
 223 252 240 252 251 263 c 2
 266 278 l 2
 277 289 277 307 266 318 c 2
 251 332 l 2
EndSplineSet
EndChar

StartChar: edieresis
Encoding: 235 235 24
Width: 385
VWidth: 807
Flags: HMW
HStem: 194 58
VStem: 279 58<251 251 251 338>
LayerCount: 2
Fore
SplineSet
289 602 m 2
 278 613 261 613 250 602 c 2
 235 587 l 2
 230.409534186 582.409534186 227.734738953 576.774157147 226.975614301 570.965983292 c 1
 221.119870017 570.134840334 215.47951257 567.47951257 211 563 c 2
 197 549 l 2
 195.447573094 547.306443375 194.114239761 545.513298763 193 543.651486778 c 1
 191.885760239 545.513298763 190.552426906 547.306443375 189 549 c 2
 174 563 l 2
 169.710961137 567.289038863 164.357699295 569.905727328 158.770122422 570.850065397 c 1
 157.964463137 576.699146079 155.041088996 582.379001753 150 587 c 2
 135 602 l 2
 124 613 107 613 96 602 c 2
 81 587 l 2
 76.4095341863 582.409534186 73.7347389532 576.774157147 72.9756143007 570.965983292 c 1
 67.1198700168 570.134840334 61.4795125701 567.47951257 57 563 c 2
 43 549 l 2
 32 537 32 520 43 509 c 2
 58 494 l 2
 62.3472516998 489.6527483 67.6316239288 487.023550904 73.1124078119 486.112407812 c 1
 74.0235509042 480.631623929 76.6527483002 475.3472517 81 471 c 2
 96 456 l 2
 107 444 125 444 136 456 c 2
 150 471 l 2
 154.728953918 475.334874425 157.594324073 480.601540732 158.596110465 486.065598776 c 1
 164.180840789 486.930929814 169.575730222 489.575730222 174 494 c 2
 189 509 l 2
 190.552426906 510.552426906 191.885760239 512.224359397 193 513.984876858 c 1
 194.114239761 512.224359397 195.447573094 510.552426906 197 509 c 2
 212 494 l 2
 216.3472517 489.6527483 221.631623929 487.023550904 227.112407812 486.112407812 c 1
 228.023550904 480.631623929 230.6527483 475.3472517 235 471 c 2
 250 456 l 2
 261 444 279 444 290 456 c 2
 304 471 l 2
 308.307539129 475.307539129 310.928269772 480.535155615 311.862191929 485.962255055 c 1
 317.706996189 486.702946977 323.382195292 489.382195292 328 494 c 2
 343 509 l 2
 348.5 514.5 351.25 521.5 351.25 528.625 c 0
 351.25 535.75 348.5 543 343 549 c 2
 328 563 l 2
 323.52048743 567.47951257 317.880129983 570.134840334 312.024385699 570.965983292 c 1
 311.265261047 576.774157147 308.590465814 582.409534186 304 587 c 2
 289 602 l 2
328 140 m 2
 317 151 299 151 288 140 c 2
 274 126 l 2
 267.826574759 119.826574759 264.829081119 112.329844685 265.007519079 105.007519079 c 1
 231.248919407 71.2489194071 l 1
 223.916177237 71.3125856032 216.562945801 68.5629458008 211 63 c 2
 207 59 l 1
 178.285714286 59 l 1
 174 63 l 2
 169.710961137 67.2890388626 164.357699295 69.9057273284 158.770122422 70.8500653974 c 1
 157.964463137 76.6991460785 155.041088996 82.3790017532 150 87 c 2
 135 102 l 2
 133.027065866 103.972934134 130.861116735 105.592007441 128.571390039 106.857219921 c 2
 116.705109564 130.589780872 l 1
 122.673634283 141.678437739 121.105264428 154.894735572 112 164 c 2
 106 170 l 1
 106 194 l 1
 281 194 l 1
 289 186 l 2
 300 175 317 175 328 186 c 2
 343 201 l 2
 354 213 354 230 343 241 c 2
 337 246.6 l 1
 337 311 l 1
 343 317 l 2
 348.5 322.5 351.25 329.5 351.25 336.5 c 0
 351.25 343.5 348.5 350.5 343 356 c 2
 328 371 l 2
 322.5 376.5 315.25 379.25 308 379.25 c 0
 307.591941017 379.25 307.183882034 379.241288307 306.776135079 379.223864921 c 2
 274.19613095 411.80386905 l 1
 274.676475705 419.358924033 271.944432055 427.055567945 266 433 c 2
 251 448 l 2
 240 459 222 459 211 448 c 2
 207.266666667 444 l 1
 178 444 l 1
 174 448 l 2
 163 459 145 459 134 448 c 2
 120 433 l 2
 115.423131039 428.423131039 112.750601123 422.807531691 111.98241025 417.01758975 c 1
 106.192468309 416.249398877 100.576868961 413.576868961 96 409 c 2
 81 395 l 2
 71.9902462617 385.990246262 70.3600981984 372.284379821 76.10955581 361.575276856 c 1
 63.9376410814 337.543547776 l 2
 61.4361787156 336.129541997 59.0915516764 334.281692738 57 332 c 2
 43 318 l 2
 32 307 32 289 43 278 c 2
 48 273 l 1
 48 246 l 1
 43 241 l 2
 32 230 32 213 43 201 c 2
 48 196 l 1
 48 169.357142857 l 1
 43 164 l 2
 32 153 32 136 43 124 c 2
 58 109 l 2
 60.4275917272 106.572408273 63.1474083267 104.680562145 66.0304674928 103.324461617 c 2
 76.9014234006 81.8612922604 l 1
 70.232284277 71.185955041 71.5984764768 57.4015235232 81 48 c 2
 96 32 l 2
 100.521338608 27.4786613918 106.225301346 24.8157321299 112.13969837 24.0112122145 c 1
 113.07526301 18.528110659 115.695363553 13.3046364467 120 9 c 2
 135 -6 l 2
 146 -17 163 -17 174 -6 c 2
 181 1 l 1
 205 1 l 1
 212 -6 l 2
 223 -17 240 -17 251 -6 c 2
 266 9 l 2
 272.6035678 15.6035678001 275.242853083 24.3694715187 273.917855848 32.9178558484 c 1
 304.112407812 63.1124078119 l 1
 312.49983927 61.7180543037 321.3472517 64.3472516998 328 71 c 2
 343 86 l 2
 354 97 354 114 343 126 c 2
 328 140 l 2
106 251 m 1
 106 272 l 1
 112 278 l 2
 121.362837566 287.362837566 122.756336288 301.797072578 116.180496165 312.669492214 c 1
 126.578903865 333.781410878 l 2
 130.014245698 335.15633218 133.229195221 337.229195221 136 340 c 2
 150 355 l 2
 154.710316249 359.317789895 157.571709234 364.71411836 158.584178956 370.34227577 c 1
 164.173156534 371.284178707 169.572579552 374.170086784 174 379 c 2
 181 386 l 1
 205 386 l 1
 212 379 l 2
 218.307147317 372.119475654 226.586861938 369.184085914 234.577094303 370.193830781 c 1
 265.146373423 339.175003438 l 2
 265.048791141 338.285409725 265 337.392704862 265 336.5 c 0
 265 329.5 268 322.5 274 317 c 2
 279 312 l 1
 279 251 l 1
 106 251 l 1
EndSplineSet
EndChar

StartChar: E
Encoding: 69 69 25
Width: 385
VWidth: 807
Flags: HMW
HStem: 1 58<69 77 77 85 77 308> 270 58<77 231> 540 58
VStem: 48 58<22 569 30 38 30 569 291 307 561 569 569 576.5>
LayerCount: 2
Fore
SplineSet
328 63 m 2
 317 74 299 74 288 63 c 2
 284 59 l 1
 106 59 l 1
 106 270 l 1
 205 270 l 1
 212 263 l 2
 223 252 240 252 251 263 c 2
 266 278 l 2
 277 289 277 307 266 318 c 2
 251 332 l 2
 240 344 222 344 211 332 c 2
 207 328 l 1
 106 328 l 1
 106 540 l 1
 281.5 540 l 1
 289 532 l 2
 300 521 317 521 328 532 c 2
 343 548 l 2
 354 559 354 576 343 587 c 2
 328 602 l 2
 317 613 299 613 288 602 c 2
 283.333333333 597 l 1
 102 597 l 1
 97 602 l 2
 91.5 607.5 84.25 610.25 77 610.25 c 0
 69.75 610.25 62.5 607.5 57 602 c 2
 43 587 l 2
 37.5 581.5 34.75 574.5 34.75 567.5 c 0
 34.75 560.5 37.5 553.5 43 548 c 2
 48 542.666666667 l 1
 48 323 l 1
 43 318 l 2
 32 307 32 289 43 278 c 2
 48 273 l 1
 48 54 l 1
 43 49 l 2
 37.5 43 34.75 35.75 34.75 28.625 c 0
 34.75 21.5 37.5 14.5 43 9 c 2
 58 -6 l 2
 63.5 -11.5 70.5 -14.25 77.5 -14.25 c 0
 84.5 -14.25 91.5 -11.5 97 -6 c 2
 104 1 l 1
 282 1 l 1
 289 -6 l 2
 300 -17 317 -17 328 -6 c 2
 343 9 l 2
 354 20 354 37 343 49 c 2
 328 63 l 2
EndSplineSet
EndChar

StartChar: ocircumflex
Encoding: 244 244 26
Width: 385
VWidth: 807
Flags: W
HStem: -19 20G<174 212>
LayerCount: 2
Fore
SplineSet
212 602 m 2
 201 613 184 613 173 602 c 2
 158 587 l 2
 152.306236 581.306236 149.559649135 574.004920835 149.760239406 566.760239406 c 1
 116.239760594 533.239760594 l 1
 108.995079165 533.440350865 101.693764 530.693764 96 525 c 2
 81 510 l 2
 70 499 70 482 81 471 c 2
 96 456 l 2
 107 444 125 444 136 456 c 2
 150 471 l 2
 157.040822889 477.454087648 159.950546865 485.973724753 158.729171928 494.135049999 c 1
 188.219246793 524.151733343 l 2
 190.817741224 523.71156039 193.46703024 523.633105412 196.083631591 523.916368409 c 2
 226.878818662 493.121181338 l 1
 226.105673162 485.272826935 228.812733608 477.187266392 235 471 c 2
 250 456 l 2
 261 444 279 444 290 456 c 2
 304 471 l 2
 315 482 315 499 304 510 c 2
 289 525 l 2
 283.306236 530.693764 276.004920835 533.440350865 268.760239406 533.239760594 c 1
 235.956666576 566.043333424 l 1
 236.40188916 573.521332616 233.416333634 581.118360835 227 587 c 2
 212 602 l 2
174 448 m 2
 163 459 145 459 134 448 c 2
 120 433 l 2
 115.423131039 428.423131039 112.750601123 422.807531691 111.98241025 417.01758975 c 1
 106.192468309 416.249398877 100.576868961 413.576868961 96 409 c 2
 81 395 l 2
 71.9902462617 385.990246262 70.3600981984 372.284379821 76.10955581 361.575276856 c 1
 63.9376410814 337.543547776 l 2
 61.4361787156 336.129541997 59.0915516764 334.281692738 57 332 c 2
 43 318 l 2
 32 307 32 289 43 278 c 2
 48 273 l 1
 48 169.357142857 l 1
 43 164 l 2
 32 153 32 136 43 124 c 2
 58 109 l 2
 60.4275917272 106.572408273 63.1474083267 104.680562145 66.0304674928 103.324461617 c 2
 76.9014234006 81.8612922604 l 1
 70.232284277 71.185955041 71.5984764768 57.4015235232 81 48 c 2
 96 32 l 2
 100.521338608 27.4786613918 106.225301346 24.8157321299 112.13969837 24.0112122145 c 1
 113.07526301 18.528110659 115.695363553 13.3046364467 120 9 c 2
 135 -6 l 2
 146 -17 163 -17 174 -6 c 2
 181 1 l 1
 205 1 l 1
 212 -6 l 2
 223 -17 240 -17 251 -6 c 2
 266 9 l 2
 270.304636447 13.3046364467 272.92473699 18.528110659 273.86030163 24.0112122145 c 1
 279.774698654 24.8157321299 285.478661392 27.4786613918 290 32 c 2
 304 48 l 2
 309.5 53.5 312.25 60.5 312.25 67.5 c 0
 312.25 72.4655753932 310.8661922 77.4311507863 308.098576599 81.8612922604 c 1
 318.683249703 102.759236594 l 2
 322.043706661 104.134004333 325.214258802 106.214258802 328 109 c 2
 343 124 l 2
 354 136 354 153 343 164 c 2
 337 170 l 1
 337 272 l 1
 343 278 l 2
 354 289 354 307 343 318 c 2
 328 332 l 2
 325.908448324 334.281692738 323.563821284 336.129541997 321.062358919 337.543547776 c 2
 308.89044419 361.575276856 l 1
 314.639901802 372.284379821 313.009753738 385.990246262 304 395 c 2
 289 409 l 2
 284.692460871 413.307539129 279.464844385 415.928269772 274.037744945 416.862191929 c 1
 273.297053023 422.706996189 270.617804708 428.382195292 266 433 c 2
 251 448 l 2
 240 459 222 459 211 448 c 2
 207.266666667 444 l 1
 178 444 l 1
 174 448 l 2
207 59 m 1
 178.285714286 59 l 1
 174 63 l 2
 169.710961137 67.2890388626 164.357699295 69.9057273284 158.770122422 70.8500653974 c 1
 157.964463137 76.6991460785 155.041088996 82.3790017532 150 87 c 2
 135 102 l 2
 133.027065866 103.972934134 130.861116735 105.592007441 128.571390039 106.857219921 c 2
 116.705109564 130.589780872 l 1
 122.673634283 141.678437739 121.105264428 154.894735572 112 164 c 2
 106 170 l 1
 106 272 l 1
 112 278 l 2
 121.362837566 287.362837566 122.756336288 301.797072578 116.180496165 312.669492214 c 1
 126.578903865 333.781410878 l 2
 130.014245698 335.15633218 133.229195221 337.229195221 136 340 c 2
 150 355 l 2
 154.710316249 359.317789895 157.571709234 364.71411836 158.584178956 370.34227577 c 1
 164.173156534 371.284178707 169.572579552 374.170086784 174 379 c 2
 181 386 l 1
 205 386 l 1
 212 379 l 2
 216.349992389 374.254553758 221.63828728 371.385712518 227.122773992 370.393476283 c 1
 228.043376455 364.746851881 230.669118458 359.330881542 235 355 c 2
 250 340 l 2
 252.427076211 337.572923789 255.194936657 335.681365664 258.153197828 334.325325622 c 2
 269.088401141 312.123549198 l 1
 262.318841359 301.317867856 263.956040979 287.206962436 274 278 c 2
 279 273 l 1
 279 169.357142857 l 1
 274 164 l 2
 264.225663791 155.040191808 262.412798276 142.099648269 268.561403456 131.122806911 c 1
 256.428609961 106.857219921 l 2
 254.138883265 105.592007441 251.972934134 103.972934134 250 102 c 2
 235 87 l 2
 230.409534186 82.4095341863 227.734738953 76.7741571468 226.975614301 70.9659832924 c 1
 221.119870017 70.1348403343 215.47951257 67.4795125701 211 63 c 2
 207 59 l 1
EndSplineSet
EndChar

StartChar: f
Encoding: 102 102 27
Width: 385
VWidth: 807
Flags: HMW
HStem: 386 58<77 308 184 200> 540 58
VStem: 163 58<22 415 30 415 407 415 415 480>
LayerCount: 2
Fore
SplineSet
328 448 m 2
 317 459 299 459 288 448 c 2
 284.266666667 444 l 1
 221 444 l 1
 221 464.571428571 l 1
 227 471 l 2
 234.188198686 477.589182129 237.070547343 486.331289273 235.647045971 494.647045971 c 1
 265.161565189 524.161565189 l 1
 273.924075671 522.658745333 283.271556936 525.271556936 290 532 c 2
 297 540 l 1
 319.5 540 l 1
 327 532 l 2
 338 521 356 521 367 532 c 2
 381 548 l 2
 392 559 392 576 381 587 c 2
 366 602 l 2
 355 613 338 613 327 602 c 2
 322 597 l 1
 294 597 l 1
 289 602 l 2
 278 613 261 613 250 602 c 2
 235 587 l 2
 229.306236 581.306236 226.559649135 574.004920835 226.760239406 566.760239406 c 1
 193.239760594 533.239760594 l 1
 185.995079165 533.440350865 178.693764 530.693764 173 525 c 2
 158 510 l 2
 147 499 147 482 158 471 c 2
 163 466 l 1
 163 444 l 1
 101 444 l 1
 97 448 l 2
 86 459 68 459 57 448 c 2
 43 433 l 2
 32 422 32 405 43 394 c 2
 58 379 l 2
 69 367 86 367 97 379 c 2
 104 386 l 1
 163 386 l 1
 163 53.6666666667 l 1
 158 49 l 2
 147 37 147 20 158 9 c 2
 173 -6 l 2
 184 -17 202 -17 213 -6 c 2
 227 9 l 2
 239 20 239 37 227 49 c 2
 221 54.6 l 1
 221 386 l 1
 282 386 l 1
 289 379 l 2
 300 367 317 367 328 379 c 2
 343 394 l 2
 354 405 354 422 343 433 c 2
 328 448 l 2
EndSplineSet
EndChar

StartChar: Oacute
Encoding: 211 211 28
Width: 385
VWidth: 807
Flags: HMW
VStem: 48 58<221 373 226 373 226 376> 279 58<226 373 226 226>
LayerCount: 2
Fore
SplineSet
251 602 m 2
 240 613 222 613 211 602 c 2
 206.333333333 597 l 1
 179 597 l 1
 174 602 l 2
 173.546965901 602.453034099 173.082058419 602.887410027 172.606255563 603.303127782 c 1
 254.579844347 644.289922174 l 1
 265.53062861 637.183309682 280.420002291 638.420002291 290 648 c 2
 304 663 l 2
 315 674 315 691 304 702 c 2
 289 717 l 2
 278 728 261 728 250 717 c 2
 235 702 l 2
 233.623967682 700.623967682 232.42006854 699.15404454 231.388302575 697.613720904 c 2
 127.588777658 645.374744312 l 1
 117.287705996 650.538519101 104.746937664 648.746937664 96 640 c 2
 81 626 l 2
 70 614 70 597 81 586 c 2
 96 571 l 2
 97.5445431924 569.455456808 99.2270970933 568.127787585 101.008904702 567.016992334 c 1
 99.2413776733 565.89932384 97.5603263955 564.560326395 96 563 c 2
 81 549 l 2
 70.2469108106 537.269357248 70.005542268 520.760659656 80.2758943724 509.749677193 c 1
 54.8965517241 406.896551724 l 1
 43 395 l 2
 32 384 32 366 43 355 c 2
 48 350 l 1
 48 246 l 1
 43 241 l 2
 32 230 32 213 43 201 c 2
 55.6086956522 188.391304348 l 1
 80.8327238062 86.8314015173 l 1
 70.0002855419 75.8269279967 70.0560442731 58.9439557269 81 48 c 2
 96 32 l 2
 100.521338608 27.4786613918 106.225301346 24.8157321299 112.13969837 24.0112122145 c 1
 113.07526301 18.528110659 115.695363553 13.3046364467 120 9 c 2
 135 -6 l 2
 146 -17 163 -17 174 -6 c 2
 181 1 l 1
 205 1 l 1
 212 -6 l 2
 223 -17 240 -17 251 -6 c 2
 266 9 l 2
 270.304636447 13.3046364467 272.92473699 18.528110659 273.86030163 24.0112122145 c 1
 279.774698654 24.8157321299 285.478661392 27.4786613918 290 32 c 2
 304 48 l 2
 315 59 315 76 304 87 c 2
 303.5 87.5 l 1
 328.815789474 186.815789474 l 1
 343 201 l 2
 354 213 354 230 343 241 c 2
 337 246.6 l 1
 337 349 l 1
 343 355 l 2
 354 366 354 384 343 395 c 2
 329.853741497 407.26984127 l 1
 304.072488937 509.072735992 l 1
 314.999946688 520.074826121 314.975783709 537.026417772 304 549 c 2
 289 563 l 2
 284.692460871 567.307539129 279.464844385 569.928269772 274.037744945 570.862191929 c 1
 273.297053023 576.706996189 270.617804708 582.382195292 266 587 c 2
 251 602 l 2
135.767224657 493.769882892 m 2
 135.84515842 493.846046115 135.922751817 493.922751817 136 494 c 2
 150 509 l 2
 154.710983071 513.318401148 157.572519351 518.561525693 158.584608839 524.063819204 c 1
 164.173433403 524.927299467 169.572693066 527.572693066 174 532 c 2
 181.5 540 l 1
 204.5 540 l 1
 212 532 l 2
 216.350030704 527.649969296 221.638380438 525.020190149 227.122918913 524.110662559 c 1
 228.043651997 518.591287131 230.669345692 513.330654308 235 509 c 2
 247.754716981 496.245283019 l 1
 273.533338689 394.562941837 l 1
 262.00207045 383.528335103 262.15762422 365.855511132 274 355 c 2
 279 350 l 1
 279 246 l 1
 274 241 l 2
 262.351904592 230.322579209 262.010319737 213.991903141 272.975245435 202.068336035 c 1
 247.037383178 99.0373831776 l 1
 235 87 l 2
 230.409534186 82.4095341863 227.734738953 76.7741571468 226.975614301 70.9659832924 c 1
 221.119870017 70.1348403343 215.47951257 67.4795125701 211 63 c 2
 207 59 l 1
 178.285714286 59 l 1
 174 63 l 2
 169.710961137 67.2890388626 164.357699295 69.9057273284 158.770122422 70.8500653974 c 1
 157.964463137 76.6991460785 155.041088996 82.3790017532 150 87 c 2
 136.787037037 100.212962963 l 1
 112.093748483 201.102684769 l 1
 122.999910716 213.096816613 122.968661222 230.031338778 112 241 c 2
 106 246.6 l 1
 106 349 l 1
 112 355 l 2
 123 366 123 384 112 395 c 2
 111.530534351 395.438167939 l 1
 135.767224657 493.769882892 l 2
EndSplineSet
EndChar

StartChar: Otilde
Encoding: 213 213 29
Width: 385
VWidth: 807
Flags: HMW
VStem: 48 58<221 373 226 373 226 376> 279 58<226 373 226 226>
LayerCount: 2
Fore
SplineSet
174 717 m 2
 163 728 145 728 134 717 c 2
 120 702 l 2
 114.492250585 696.492250585 111.742256045 689.48027124 111.750016378 682.470411331 c 1
 77.958216364 648.233982369 l 1
 70.3923083962 648.487006234 62.7423454443 645.742345444 57 640 c 2
 43 626 l 2
 32 614 32 597 43 586 c 2
 58 571 l 2
 69 560 86 560 97 571 c 2
 112 586 l 2
 118.513256135 592.513256135 121.169920862 601.130107582 119.969994183 609.567011829 c 1
 150.934974616 639.988746991 l 2
 152.987671911 639.712668178 155.062586443 639.676025401 157.121181338 639.878818662 c 2
 188.863618461 608.136381539 l 2
 188.522636127 604.366825858 188.949149791 600.587122041 190.143159455 597 c 1
 179 597 l 1
 174 602 l 2
 168.5 607.5 161.25 610.25 154 610.25 c 0
 146.75 610.25 139.5 607.5 134 602 c 2
 120 587 l 2
 115.423131039 582.423131039 112.750601123 576.807531691 111.98241025 571.01758975 c 1
 106.192468309 570.249398877 100.576868961 567.576868961 96 563 c 2
 81 549 l 2
 70.2469108106 537.269357248 70.005542268 520.760659656 80.2758943724 509.749677193 c 1
 54.8965517241 406.896551724 l 1
 43 395 l 2
 32 384 32 366 43 355 c 2
 48 350 l 1
 48 246 l 1
 43 241 l 2
 32 230 32 213 43 201 c 2
 55.6086956522 188.391304348 l 1
 80.8327238062 86.8314015173 l 1
 70.0002855419 75.8269279967 70.0560442731 58.9439557269 81 48 c 2
 96 32 l 2
 100.521338608 27.4786613918 106.225301346 24.8157321299 112.13969837 24.0112122145 c 1
 113.07526301 18.528110659 115.695363553 13.3046364467 120 9 c 2
 135 -6 l 2
 146 -17 163 -17 174 -6 c 2
 181 1 l 1
 205 1 l 1
 212 -6 l 2
 223 -17 240 -17 251 -6 c 2
 266 9 l 2
 270.304636447 13.3046364467 272.92473699 18.528110659 273.86030163 24.0112122145 c 1
 279.774698654 24.8157321299 285.478661392 27.4786613918 290 32 c 2
 304 48 l 2
 315 59 315 76 304 87 c 2
 303.5 87.5 l 1
 328.815789474 186.815789474 l 1
 343 201 l 2
 354 213 354 230 343 241 c 2
 337 246.6 l 1
 337 349 l 1
 343 355 l 2
 354 366 354 384 343 395 c 2
 329.853741497 407.26984127 l 1
 304.072488937 509.072735992 l 1
 314.999946688 520.074826121 314.975783709 537.026417772 304 549 c 2
 289 563 l 2
 284.692460871 567.307539129 279.464844385 569.928269772 274.037744945 570.862191929 c 1
 273.32357091 576.497743388 270.807162222 581.97561654 266.488518881 586.500001697 c 1
 272.733235309 593.042351008 275.209680965 601.58348556 273.917855848 609.917855848 c 1
 304.112407812 640.112407812 l 1
 312.49983927 638.718054304 321.3472517 641.3472517 328 648 c 2
 343 663 l 2
 354 674 354 691 343 702 c 2
 328 717 l 2
 317 728 299 728 288 717 c 2
 274 702 l 2
 267.858566069 696.37035223 264.860233032 689.169154013 265.005000889 682.005000889 c 1
 231.248919407 648.248919407 l 2
 231.081508063 648.248919407 230.914086039 648.248880816 230.746674883 648.248880816 c 2
 197.217852612 681.189478136 l 1
 197.58261168 688.620230536 194.843327476 696.156672524 189 702 c 2
 174 717 l 2
135.767224657 493.769882892 m 2
 135.84515842 493.846046115 135.922751817 493.922751817 136 494 c 2
 150 509 l 2
 154.710983071 513.318401148 157.572519351 518.561525693 158.584608839 524.063819204 c 1
 164.173433403 524.927299467 169.572693066 527.572693066 174 532 c 2
 181.5 540 l 1
 204.5 540 l 1
 212 532 l 2
 216.350030704 527.649969296 221.638380438 525.020190149 227.122918913 524.110662559 c 1
 228.043651997 518.591287131 230.669345692 513.330654308 235 509 c 2
 247.754716981 496.245283019 l 1
 273.533338689 394.562941837 l 1
 262.00207045 383.528335103 262.15762422 365.855511132 274 355 c 2
 279 350 l 1
 279 246 l 1
 274 241 l 2
 262.351904592 230.322579209 262.010319737 213.991903141 272.975245435 202.068336035 c 1
 247.037383178 99.0373831776 l 1
 235 87 l 2
 230.409534186 82.4095341863 227.734738953 76.7741571468 226.975614301 70.9659832924 c 1
 221.119870017 70.1348403343 215.47951257 67.4795125701 211 63 c 2
 207 59 l 1
 178.285714286 59 l 1
 174 63 l 2
 169.710961137 67.2890388626 164.357699295 69.9057273284 158.770122422 70.8500653974 c 1
 157.964463137 76.6991460785 155.041088996 82.3790017532 150 87 c 2
 136.787037037 100.212962963 l 1
 112.093748483 201.102684769 l 1
 122.999910716 213.096816613 122.968661222 230.031338778 112 241 c 2
 106 246.6 l 1
 106 349 l 1
 112 355 l 2
 123 366 123 384 112 395 c 2
 111.530534351 395.438167939 l 1
 135.767224657 493.769882892 l 2
EndSplineSet
EndChar

StartChar: agrave
Encoding: 224 224 30
Width: 385
VWidth: 807
Flags: HMW
VStem: 279 58<22 415 30 415>
LayerCount: 2
Fore
SplineSet
289 524 m 2
 279.407540446 532.793087924 266.620105882 534.557230826 256.256435544 529.292428706 c 1
 156.182835907 580.964418061 l 2
 154.874066332 583.478631787 153.146454363 585.853545637 151 588 c 2
 136 603 l 2
 125 614 108 614 96 603 c 2
 82 588 l 2
 71 577 71 560 82 549 c 2
 97 534 l 2
 106.321563436 523.831021707 119.951798519 522.279386707 131.196779235 529.345095003 c 1
 228.173861563 478.942532477 l 2
 229.673424729 475.425648383 231.948804207 472.051195793 235 469 c 2
 250 454 l 2
 261 443 278 443 289 454 c 2
 304 469 l 2
 315 481 315 498 304 509 c 2
 289 524 l 2
328 448 m 2
 317 459 299 459 288 448 c 2
 274 433 l 2
 272.393671338 431.52753206 271.00236699 429.947551963 269.826086957 428.288843018 c 1
 268.747830259 429.947551963 267.47246794 431.52753206 266 433 c 2
 251 448 l 2
 240 459 222 459 211 448 c 2
 207.266666667 444 l 1
 178 444 l 1
 174 448 l 2
 163 459 145 459 134 448 c 2
 120 433 l 2
 115.423131039 428.423131039 112.750601123 422.807531691 111.98241025 417.01758975 c 1
 106.192468309 416.249398877 100.576868961 413.576868961 96 409 c 2
 81 395 l 2
 71.9902462617 385.990246262 70.3600981984 372.284379821 76.10955581 361.575276856 c 1
 63.9376410814 337.543547776 l 2
 61.4361787156 336.129541997 59.0915516764 334.281692738 57 332 c 2
 43 318 l 2
 32 307 32 289 43 278 c 2
 48 273 l 1
 48 169.357142857 l 1
 43 164 l 2
 32 153 32 136 43 124 c 2
 58 109 l 2
 60.4275917272 106.572408273 63.1474083267 104.680562145 66.0304674928 103.324461617 c 2
 76.9014234006 81.8612922604 l 1
 70.232284277 71.185955041 71.5984764768 57.4015235232 81 48 c 2
 96 32 l 2
 100.521338608 27.4786613918 106.225301346 24.8157321299 112.13969837 24.0112122145 c 1
 113.07526301 18.528110659 115.695363553 13.3046364467 120 9 c 2
 135 -6 l 2
 146 -17 163 -17 174 -6 c 2
 181 1 l 1
 205 1 l 1
 212 -6 l 2
 223 -17 240 -17 251 -6 c 2
 266 9 l 2
 267.472467939 10.4724679395 268.747830258 12.052448036 269.826086956 13.7135555895 c 1
 271.00236699 12.0524480362 272.393671337 10.4724679392 274 9 c 2
 289 -6 l 2
 300 -17 317 -17 328 -6 c 2
 343 9 l 2
 354 20 354 37 343 49 c 2
 337 54.6 l 1
 337 80 l 1
 343 86 l 2
 354 97 354 114 343 126 c 2
 337 131.6 l 1
 337 311 l 1
 343 317 l 2
 354 328 354 345 343 356 c 2
 337 362 l 1
 337 388 l 1
 343 394 l 2
 354 405 354 422 343 433 c 2
 328 448 l 2
279 312 m 1
 279 131 l 1
 274 126 l 2
 267.826574759 119.826574759 264.829081119 112.329844685 265.007519079 105.007519079 c 1
 231.248919407 71.2489194071 l 1
 223.916177237 71.3125856032 216.562945801 68.5629458008 211 63 c 2
 207 59 l 1
 178.285714286 59 l 1
 174 63 l 2
 169.710961137 67.2890388626 164.357699295 69.9057273284 158.770122422 70.8500653974 c 1
 157.964463137 76.6991460785 155.041088996 82.3790017532 150 87 c 2
 135 102 l 2
 133.027065866 103.972934134 130.861116735 105.592007441 128.571390039 106.857219921 c 2
 116.705109564 130.589780872 l 1
 122.673634283 141.678437739 121.105264428 154.894735572 112 164 c 2
 106 170 l 1
 106 272 l 1
 112 278 l 2
 121.362837566 287.362837566 122.756336288 301.797072578 116.180496165 312.669492214 c 1
 126.578903865 333.781410878 l 2
 130.014245698 335.15633218 133.229195221 337.229195221 136 340 c 2
 150 355 l 2
 154.710316249 359.317789895 157.571709234 364.71411836 158.584178956 370.34227577 c 1
 164.173156534 371.284178707 169.572579552 374.170086784 174 379 c 2
 181 386 l 1
 205 386 l 1
 212 379 l 2
 218.307147317 372.119475654 226.586861938 369.184085914 234.577094303 370.193830781 c 1
 265.146373423 339.175003438 l 1
 264.283615545 331.309805295 267.234824404 323.201410963 274 317 c 2
 279 312 l 1
EndSplineSet
EndChar

StartChar: x
Encoding: 120 120 31
Width: 385
VWidth: 807
Flags: W
LayerCount: 2
Fore
SplineSet
97 448 m 2
 86 459 68 459 57 448 c 2
 43 433 l 2
 31 422 31 405 43 394 c 2
 58 378 l 2
 61.354373746 374.645626254 65.2666891396 372.314145529 69.3966653055 371.005557824 c 2
 158.5 222.5 l 1
 66.5655694239 69.2759490398 l 2
 63.0758973523 67.9015951501 59.8096121368 65.8096121368 57 63 c 2
 43 49 l 2
 32 37 32 20 43 9 c 2
 58 -6 l 2
 69 -17 86 -17 97 -6 c 2
 112 9 l 2
 120.693460206 17.6934602062 122.516352198 30.1345030746 117.468675976 40.8932184814 c 1
 192.303687636 166.160520607 l 1
 267.972892259 40.0451795684 l 1
 263.636037651 29.7481468383 265.645073565 17.3549264351 274 9 c 2
 289 -6 l 2
 300 -17 317 -17 328 -6 c 2
 343 9 l 2
 354 20 354 38 343 49 c 2
 328 63 l 2
 325.154876656 65.8451233444 321.841463328 67.9543624302 318.302004157 69.3277172573 c 2
 225.861292502 222.333033101 l 1
 314.52595287 370.749964587 l 2
 319.416362373 371.981998112 324.087675756 374.732009916 328 379 c 2
 343 394 l 2
 354 405 354 422 343 433 c 2
 328 448 l 2
 317 459 299 459 288 448 c 2
 274 433 l 2
 265.097352782 424.83924005 262.799466188 413.376099788 267.106340218 403.51056703 c 1
 192.01384083 278.356401384 l 1
 117.506840806 401.67833246 l 1
 122.507088082 411.928399651 120.67147448 424.32852552 112 433 c 2
 97 448 l 2
EndSplineSet
EndChar

StartChar: K
Encoding: 75 75 32
Width: 385
VWidth: 807
Flags: HMW
VStem: 48 58<22 569 30 569>
LayerCount: 2
Fore
SplineSet
328 602 m 2
 317 613 299 613 288 602 c 2
 274 587 l 2
 265.490001306 579.199167864 263.015009093 568.380832487 266.575023361 558.824818642 c 1
 146.334703883 378.204078993 l 2
 141.809000577 376.943032906 137.541673241 374.541673241 134 371 c 2
 120 356 l 2
 112.307111162 348.307111162 109.994271294 337.679650159 113.061480397 328.2222238 c 1
 106 317.614718615 l 1
 106 541.6 l 1
 112 548 l 2
 123 559 123 576 112 587 c 2
 97 602 l 2
 86 613 68 613 57 602 c 2
 43 587 l 2
 32 576 32 559 43 548 c 2
 48 542.666666667 l 1
 48 54 l 1
 43 49 l 2
 32 37 32 20 43 9 c 2
 58 -6 l 2
 69 -17 86 -17 97 -6 c 2
 112 9 l 2
 123 20 123 37 112 49 c 2
 106 54.6 l 1
 106 213.551020408 l 1
 150 280 l 1
 269.073144695 42.7557798889 l 1
 262.321308232 31.5971396712 263.963593333 18.2000394444 274 9 c 2
 289 -6 l 2
 300 -17 317 -17 328 -6 c 2
 343 9 l 2
 354 20 354 37 343 49 c 2
 328 63 l 2
 326.043477074 64.9565229257 323.865500647 66.5650474914 321.544848691 67.8255736974 c 2
 193.565493706 322.91367581 l 1
 198.021716346 330.588198647 198.435758304 339.736176781 194.807619582 347.684506547 c 1
 312.674107124 524.077801696 l 1
 318.231057969 524.95559727 323.596330038 527.596330038 328 532 c 2
 343 548 l 2
 354 559 354 576 343 587 c 2
 328 602 l 2
EndSplineSet
EndChar

StartChar: V
Encoding: 86 86 33
Width: 385
VWidth: 807
Flags: W
LayerCount: 2
Fore
SplineSet
366 602 m 2
 355 613 338 613 327 602 c 2
 312 587 l 2
 301.535753512 576.535753512 301.026093802 560.641732416 310.471020872 549.648573053 c 1
 192 135 l 1
 74 548 l 1
 85 559 85 576 74 587 c 2
 58 602 l 2
 47 613 30 613 19 602 c 2
 4 587 l 2
 -7 576 -7 559 4 548 c 2
 19 532 l 2
 19.1277872014 531.882861732 19.2561414017 531.766970862 19.3850493174 531.652327389 c 2
 157.458527643 48.3951532504 l 1
 147.003062905 36.4343229035 147.183553691 19.816446309 158 9 c 2
 173 -6 l 2
 184 -17 202 -17 213 -6 c 2
 227 9 l 2
 238.812810997 19.8284100806 238.997080023 36.4710911468 227.552807078 48.4348247733 c 1
 365.255950589 530.395827061 l 2
 365.854421251 530.901674431 366.436398744 531.436398744 367 532 c 2
 381 548 l 2
 392 559 392 576 381 587 c 2
 366 602 l 2
EndSplineSet
EndChar

StartChar: bracketright
Encoding: 93 93 34
Width: 385
VWidth: 807
Flags: HMW
HStem: -153 58<115 269 261 269> 540 58
VStem: 240 58<-132 -124 -124 -116 -116 569>
LayerCount: 2
Fore
SplineSet
135 602 m 2
 124 613 107 613 96 602 c 2
 81 587 l 2
 70 576 70 559 81 548 c 2
 96 532 l 2
 107 521 125 521 136 532 c 2
 143 540 l 1
 240 540 l 1
 240 -95 l 1
 139.285714286 -95 l 1
 135 -91 l 2
 124 -80 107 -80 96 -91 c 2
 81 -105 l 2
 70 -116 70 -134 81 -145 c 2
 96 -160 l 2
 107 -171 125 -171 136 -160 c 2
 142.533333333 -153 l 1
 243 -153 l 1
 250 -160 l 2
 255.5 -165.5 262.75 -168.25 270 -168.25 c 0
 277.25 -168.25 284.5 -165.5 290 -160 c 2
 304 -145 l 2
 309.5 -139.5 312.25 -132.25 312.25 -125 c 0
 312.25 -117.75 309.5 -110.5 304 -105 c 2
 298 -99.4 l 1
 298 541.142857143 l 1
 304 548 l 2
 309.5 553.5 312.25 560.5 312.25 567.5 c 0
 312.25 574.5 309.5 581.5 304 587 c 2
 289 602 l 2
 283.5 607.5 276.5 610.25 269.5 610.25 c 0
 262.5 610.25 255.5 607.5 250 602 c 2
 245 597 l 1
 140 597 l 1
 135 602 l 2
EndSplineSet
EndChar

StartChar: y
Encoding: 121 121 35
Width: 385
VWidth: 807
Flags: HMW
HStem: -153 58<77 103 69 115 69 119>
LayerCount: 2
Fore
SplineSet
328 448 m 2
 317 459 299 459 288 448 c 2
 274 433 l 2
 262.73882847 422.677259431 262.045488959 407.070602852 271.919981467 396.09721102 c 1
 192 130 l 1
 113.224859368 395.300186265 l 1
 122.98360408 406.303711388 122.575317624 422.424682376 112 433 c 2
 97 448 l 2
 86 459 68 459 57 448 c 2
 43 433 l 2
 32 422 32 405 43 394 c 2
 56.7910447761 380.208955224 l 1
 157.138629713 48.0238464687 l 1
 152.212876571 42.2225354989 149.75 35.3677932819 149.75 28.625 c 0
 149.75 22.4865268188 151.791191175 16.4408350547 155.873573525 11.3672087276 c 1
 135.367868943 -50.7195079227 l 2
 134.901083165 -51.1283510435 134.444818264 -51.5551817359 134 -52 c 2
 120 -67 l 2
 115.423131039 -71.5768689605 112.750601123 -77.1924683086 111.98241025 -82.9824102498 c 1
 106.401472644 -83.7228710997 100.982518032 -86.2326674372 96.499665008 -90.5117992623 c 1
 85.4608753587 -80.0024814552 67.8347849655 -80.1652150345 57 -91 c 2
 43 -105 l 2
 32 -116 32 -134 43 -145 c 2
 58 -160 l 2
 68.8347849655 -170.834784966 85.4906888691 -170.997518545 96.500334992 -160.488200738 c 1
 107.539124641 -170.997518545 125.165215034 -170.834784966 136 -160 c 2
 150 -145 l 2
 154.710316249 -140.682210105 157.571709234 -135.28588164 158.584178956 -129.65772423 c 1
 164.173156534 -128.715821293 169.572579552 -125.829913216 174 -121 c 2
 189 -106 l 2
 199.707363997 -95.2926360026 199.992214925 -78.9002648759 189.854552781 -67.8904212856 c 1
 209.946121695 -8.64605141217 l 2
 211.011839297 -7.84904774761 212.03296939 -6.96703061022 213 -6 c 2
 227 9 l 2
 233 14.5 236 21.5 236 28.625 c 0
 236 35.4138598744 233.276388202 42.3162035736 227.829164606 48.1426018152 c 1
 326.439303148 377.414716599 l 2
 326.971536607 377.917567645 327.492162492 378.445995446 328 379 c 2
 343 394 l 2
 354 405 354 422 343 433 c 2
 328 448 l 2
EndSplineSet
EndChar

StartChar: guillemotleft
Encoding: 171 171 36
Width: 385
VWidth: 807
Flags: W
LayerCount: 2
Fore
SplineSet
212 448 m 2
 201 459 184 459 173 448 c 2
 158 433 l 2
 151.123836094 426.123836094 148.546002194 416.903128548 150.266498299 408.269053063 c 1
 34.943426109 263.740787267 l 2
 29.1672649794 262.89533698 23.5665961224 259.981741224 19 255 c 2
 4 241 l 2
 -7 230 -7 213 4 201 c 2
 19 186 l 2
 24.3260285075 181.117807201 30.6370076978 178.402505905 36.9711937448 177.85409611 c 1
 150.739010963 36.0137006181 l 1
 148.175366372 26.5271393174 150.595696051 16.4043039488 158 9 c 2
 173 -6 l 2
 184 -17 202 -17 213 -6 c 2
 227 9 l 2
 239 20 239 37 227 49 c 2
 212 63 l 2
 207.560941095 67.4390589052 202.144762654 70.0867319955 196.540099437 70.9430192709 c 2
 81.3075249882 214.160647515 l 1
 82.6557006436 219.275274408 82.5574897304 224.568590862 81.0128922485 229.516115311 c 1
 193.402465444 370.003081805 l 1
 200.517718449 370.112055277 207.601775675 373.111028009 213 379 c 2
 227 394 l 2
 239 405 239 422 227 433 c 2
 212 448 l 2
365 448 m 2
 354 459 337 459 326 448 c 2
 311 433 l 2
 303.86202372 425.86202372 301.355929747 416.197566181 303.48171808 407.285529802 c 1
 188.943426109 263.740787267 l 2
 183.167264979 262.89533698 177.566596122 259.981741224 173 255 c 2
 158 241 l 2
 147 230 147 213 158 201 c 2
 173 186 l 2
 177.993548165 181.006451835 184.429647263 178.279769422 190.998579555 177.819952762 c 1
 304.739010963 36.0137006181 l 1
 302.175366372 26.5271393174 304.595696051 16.4043039488 312 9 c 2
 327 -6 l 2
 338 -17 356 -17 367 -6 c 2
 381 9 l 2
 392 20 392 37 381 49 c 2
 366 63 l 2
 361.560941095 67.4390589052 356.144762654 70.0867319955 350.540099437 70.9430192709 c 2
 235.058768167 214.469816706 l 1
 236.407348558 219.378095507 236.306762277 224.440788679 234.757009324 229.196261655 c 1
 347.431197213 370.038996517 l 1
 354.196881572 370.407949554 360.862038156 373.394950715 366 379 c 2
 380 394 l 2
 392 405 392 422 380 433 c 2
 365 448 l 2
EndSplineSet
EndChar

StartChar: Icircumflex
Encoding: 206 206 37
Width: 385
VWidth: 807
Flags: W
HStem: -19 20G<97 135 174 212>
LayerCount: 2
Fore
SplineSet
174 717 m 2
 163 728 145 728 134 717 c 2
 120 702 l 2
 114.492250585 696.492250585 111.742256045 689.48027124 111.750016378 682.470411331 c 1
 77.958216364 648.233982369 l 1
 70.3923083962 648.487006234 62.7423454443 645.742345444 57 640 c 2
 43 626 l 2
 32.1653243676 614.180353856 32.0024847406 597.509873163 42.5114811191 586.500001697 c 1
 32.0024847406 575.490352722 32.1653243676 558.834675632 43 548 c 2
 58 532 l 2
 69 521 86 521 97 532 c 2
 104.5 540 l 1
 125 540 l 1
 125 59 l 1
 101.285714286 59 l 1
 97 63 l 2
 86 74 68 74 57 63 c 2
 43 49 l 2
 32 37 32 20 43 9 c 2
 58 -6 l 2
 69 -17 86 -17 97 -6 c 2
 104 1 l 1
 128 1 l 1
 135 -6 l 2
 146 -17 163 -17 174 -6 c 2
 181 1 l 1
 205 1 l 1
 212 -6 l 2
 223 -17 240 -17 251 -6 c 2
 266 9 l 2
 277 20 277 37 266 49 c 2
 251 63 l 2
 240 74 222 74 211 63 c 2
 207 59 l 1
 183 59 l 1
 183 540 l 1
 204.5 540 l 1
 212 532 l 2
 223 521 240 521 251 532 c 2
 266 548 l 2
 276.834675632 558.834675632 276.997515259 575.490352722 266.488518881 586.500001697 c 1
 276.997515259 597.509873163 276.834675632 614.180353856 266 626 c 2
 251 640 l 2
 245.190438013 645.809561987 237.42833823 648.550850294 229.776135079 648.223864921 c 1
 197.19613095 680.80386905 l 1
 197.676475705 688.358924033 194.944432055 696.055567945 189 702 c 2
 174 717 l 2
174 602 m 2
 163 613 145 613 134 602 c 2
 129.333333333 597 l 1
 118.856840545 597 l 1
 120.201996219 601.041204784 120.573047431 605.326833992 119.969994183 609.567011829 c 2
 150.934974616 639.988746991 l 2
 152.987671911 639.712668178 155.062586443 639.676025401 157.121181338 639.878818662 c 2
 188.863618461 608.136381539 l 2
 188.522636127 604.366825858 188.949149791 600.587122041 190.143159455 597 c 1
 179 597 l 1
 174 602 l 2
EndSplineSet
EndChar

StartChar: N
Encoding: 78 78 38
Width: 385
VWidth: 807
Flags: HMW
VStem: 48 58<22 569 30 569> 279 58<22 569 30 569>
LayerCount: 2
Fore
SplineSet
328 602 m 2
 317 613 299 613 288 602 c 2
 274 587 l 2
 262 576 262 559 274 548 c 2
 279 542.666666667 l 1
 279 169.333333333 l 1
 115.131822691 551.692413721 l 1
 118.543940897 556.472965713 120.25 561.986482857 120.25 567.5 c 0
 120.25 574.5 117.5 581.5 112 587 c 2
 97 602 l 2
 91.5 607.5 84.25 610.25 77 610.25 c 0
 69.75 610.25 62.5 607.5 57 602 c 2
 43 587 l 2
 37.5 581.5 34.75 574.5 34.75 567.5 c 0
 34.75 560.5 37.5 553.5 43 548 c 2
 48 542.666666667 l 1
 48 54 l 1
 43 49 l 2
 32 37 32 20 43 9 c 2
 58 -6 l 2
 69 -17 86 -17 97 -6 c 2
 112 9 l 2
 123 20 123 37 112 49 c 2
 106 54.6 l 1
 106 426.575757576 l 1
 270.111833446 44.3585870399 l 1
 266.703944482 39.4354456297 265 33.9947239715 265 28.625 c 0
 265 21.5 268 14.5 274 9 c 2
 289 -6 l 2
 294.5 -11.5 301.5 -14.25 308.5 -14.25 c 0
 315.5 -14.25 322.5 -11.5 328 -6 c 2
 343 9 l 2
 348.5 14.5 351.25 21.5 351.25 28.625 c 0
 351.25 35.75 348.5 43 343 49 c 2
 337 54.6 l 1
 337 541.6 l 1
 343 548 l 2
 354 559 354 576 343 587 c 2
 328 602 l 2
EndSplineSet
EndChar

StartChar: Acircumflex
Encoding: 194 194 39
Width: 385
VWidth: 807
Flags: HMW
HStem: 155 58<77 308>
LayerCount: 2
Fore
SplineSet
212 717 m 2
 201 728 184 728 173 717 c 2
 158 702 l 2
 152.306236 696.306236 149.559649135 689.004920835 149.760239406 681.760239406 c 1
 116.239760594 648.239760594 l 1
 108.995079165 648.440350865 101.693764 645.693764 96 640 c 2
 81 626 l 2
 70 614 70 597 81 586 c 2
 96 571 l 2
 107 560 125 560 136 571 c 2
 150 586 l 2
 157.136306454 592.54161425 160.028707091 601.205181408 158.677201911 609.677201911 c 1
 189.026798967 640.026798967 l 2
 191.078777586 639.739334431 193.156855331 639.675775697 195.220375044 639.836122764 c 2
 226.919564035 608.693059895 l 1
 226.018019731 600.537924842 228.711498386 592.288501614 235 586 c 2
 250 571 l 2
 261 560 279 560 290 571 c 2
 304 586 l 2
 315 597 315 614 304 626 c 2
 289 640 l 2
 283.306236 645.693764 276.004920835 648.440350865 268.760239406 648.239760594 c 1
 235.956666576 681.043333424 l 1
 236.40188916 688.521332616 233.416333634 696.118360835 227 702 c 2
 212 717 l 2
212 602 m 2
 201 613 184 613 173 602 c 2
 158 587 l 2
 147.267279317 576.267279317 147.006494385 559.82259368 157.217645203 548.81229298 c 1
 63.6490875602 221.929929269 l 2
 61.2558064958 220.654242161 59.0109324051 219.010932405 57 217 c 2
 43 202 l 2
 32 191 32 174 43 163 c 2
 45.9393063584 160.060693642 l 1
 17.8484950964 61.92526209 l 1
 4 49 l 2
 -7 37 -7 20 4 9 c 2
 19 -6 l 2
 31 -17 48 -17 59 -6 c 2
 74 9 l 2
 85 20 85 37 74 49 c 2
 73.7573562698 49.2123132639 l 1
 103.879746835 154.879746835 l 1
 104 155 l 1
 280.085972851 155 l 1
 310.723538068 47.525366461 l 1
 301.017869575 35.6393712114 301.443356886 19.5566431139 312 9 c 2
 327 -6 l 2
 338 -17 356 -17 367 -6 c 2
 381 9 l 2
 392 20 392 37 381 49 c 2
 367.151504904 61.92526209 l 1
 339.283236994 159.283236994 l 1
 343 163 l 2
 354 174 354 191 343 202 c 2
 328 217 l 2
 325.989067595 219.010932405 323.744193504 220.654242161 321.35091244 221.929929269 c 2
 227.798009009 548.75760489 l 1
 238.99382667 559.768079611 238.727823667 576.249494972 227 587 c 2
 212 602 l 2
263.552036199 213 m 1
 120.447963801 213 l 1
 192 464 l 1
 263.552036199 213 l 1
EndSplineSet
EndChar

StartChar: hyphen
Encoding: 45 45 40
Width: 385
VWidth: 807
Flags: HMW
HStem: 270 58<38 308>
LayerCount: 2
Fore
SplineSet
328 332 m 2
 317 344 299 344 288 332 c 2
 284 328 l 1
 62.5714285714 328 l 1
 58 332 l 2
 47 344 30 344 19 332 c 2
 4 318 l 2
 -7 307 -7 289 4 278 c 2
 19 263 l 2
 31 252 48 252 59 263 c 2
 66 270 l 1
 282 270 l 1
 289 263 l 2
 300 252 317 252 328 263 c 2
 343 278 l 2
 354 289 354 307 343 318 c 2
 328 332 l 2
EndSplineSet
EndChar

StartChar: quotedbl
Encoding: 34 34 41
Width: 385
VWidth: 807
Flags: HMW
VStem: 48 58<291 569 299 569> 279 58<291 569 299 569>
LayerCount: 2
Fore
SplineSet
97 602 m 2
 86 613 68 613 57 602 c 2
 43 587 l 2
 32 576 32 559 43 548 c 2
 48 542.666666667 l 1
 48 323 l 1
 43 318 l 2
 32 307 32 289 43 278 c 2
 58 263 l 2
 69 252 86 252 97 263 c 2
 112 278 l 2
 123 289 123 307 112 318 c 2
 106 323.6 l 1
 106 541.6 l 1
 112 548 l 2
 123 559 123 576 112 587 c 2
 97 602 l 2
328 602 m 2
 317 613 299 613 288 602 c 2
 274 587 l 2
 262 576 262 559 274 548 c 2
 279 542.666666667 l 1
 279 323.357142857 l 1
 274 318 l 2
 262 307 262 290 274 279 c 2
 289 263 l 2
 300 252 317 252 328 263 c 2
 343 279 l 2
 354 290 354 307 343 318 c 2
 337 324 l 1
 337 541.6 l 1
 343 548 l 2
 354 559 354 576 343 587 c 2
 328 602 l 2
EndSplineSet
EndChar

StartChar: dieresis
Encoding: 168 168 42
Width: 385
VWidth: 807
Flags: W
LayerCount: 2
Fore
SplineSet
289 602 m 2
 278 613 261 613 250 602 c 2
 235 587 l 2
 230.409534186 582.409534186 227.734738953 576.774157147 226.975614301 570.965983292 c 1
 221.119870017 570.134840334 215.47951257 567.47951257 211 563 c 2
 197 549 l 2
 195.447573094 547.306443375 194.114239761 545.513298763 193 543.651486778 c 1
 191.885760239 545.513298763 190.552426906 547.306443375 189 549 c 2
 174 563 l 2
 169.710961137 567.289038863 164.357699295 569.905727328 158.770122422 570.850065397 c 1
 157.964463137 576.699146079 155.041088996 582.379001753 150 587 c 2
 135 602 l 2
 124 613 107 613 96 602 c 2
 81 587 l 2
 76.4095341863 582.409534186 73.7347389532 576.774157147 72.9756143007 570.965983292 c 1
 67.1198700168 570.134840334 61.4795125701 567.47951257 57 563 c 2
 43 549 l 2
 32 537 32 520 43 509 c 2
 58 494 l 2
 62.3472516998 489.6527483 67.6316239288 487.023550904 73.1124078119 486.112407812 c 1
 74.0235509042 480.631623929 76.6527483002 475.3472517 81 471 c 2
 96 456 l 2
 107 444 125 444 136 456 c 2
 150 471 l 2
 154.728953918 475.334874425 157.594324073 480.601540732 158.596110465 486.065598776 c 1
 164.180840789 486.930929814 169.575730222 489.575730222 174 494 c 2
 189 509 l 2
 190.552426906 510.552426906 191.885760239 512.224359397 193 513.984876858 c 1
 194.114239761 512.224359397 195.447573094 510.552426906 197 509 c 2
 212 494 l 2
 216.3472517 489.6527483 221.631623929 487.023550904 227.112407812 486.112407812 c 1
 228.023550904 480.631623929 230.6527483 475.3472517 235 471 c 2
 250 456 l 2
 261 444 279 444 290 456 c 2
 304 471 l 2
 308.307539129 475.307539129 310.928269772 480.535155615 311.862191929 485.962255055 c 1
 317.706996189 486.702946977 323.382195292 489.382195292 328 494 c 2
 343 509 l 2
 348.5 514.5 351.25 521.5 351.25 528.625 c 0
 351.25 535.75 348.5 543 343 549 c 2
 328 563 l 2
 323.52048743 567.47951257 317.880129983 570.134840334 312.024385699 570.965983292 c 1
 311.265261047 576.774157147 308.590465814 582.409534186 304 587 c 2
 289 602 l 2
EndSplineSet
EndChar

StartChar: U
Encoding: 85 85 43
Width: 385
VWidth: 807
Flags: HMW
VStem: 48 58<182.5 569 189 569 189 569> 279 58<189 569 189 189>
LayerCount: 2
Fore
SplineSet
328 602 m 2
 317 613 299 613 288 602 c 2
 274 587 l 2
 262 576 262 559 274 548 c 2
 279 542.666666667 l 1
 279 207.357142857 l 1
 274 202 l 2
 262.988742071 191.906346899 262.081467574 176.760702082 271.278176507 165.834529522 c 1
 250 102 l 1
 235 87 l 2
 230.409534186 82.4095341863 227.734738953 76.7741571468 226.975614301 70.9659832924 c 1
 221.119870017 70.1348403343 215.47951257 67.4795125701 211 63 c 2
 207 59 l 1
 178.285714286 59 l 1
 174 63 l 2
 169.710961137 67.2890388626 164.357699295 69.9057273284 158.770122422 70.8500653974 c 1
 157.964463137 76.6991460785 155.041088996 82.3790017532 150 87 c 2
 135 102 l 1
 113.950035708 165.149892877 l 1
 122.956244218 176.120506053 122.306232316 191.693767684 112 202 c 2
 106 208 l 1
 106 541.6 l 1
 112 548 l 2
 123 559 123 576 112 587 c 2
 97 602 l 2
 86 613 68 613 57 602 c 2
 43 587 l 2
 32 576 32 559 43 548 c 2
 48 542.666666667 l 1
 48 207.357142857 l 1
 43 202 l 2
 32 191 32 174 43 163 c 2
 58 148 l 2
 58.4001868537 147.599813146 58.8083150058 147.21418534 59.2238066375 146.84311658 c 2
 79.3962560658 85.2640604306 l 1
 70.028860619 74.274194371 70.5634419304 58.4365580696 81 48 c 2
 96 32 l 2
 100.521338608 27.4786613918 106.225301346 24.8157321299 112.13969837 24.0112122145 c 1
 113.07526301 18.528110659 115.695363553 13.3046364467 120 9 c 2
 135 -6 l 2
 146 -17 163 -17 174 -6 c 2
 181 1 l 1
 205 1 l 1
 212 -6 l 2
 223 -17 240 -17 251 -6 c 2
 266 9 l 2
 270.304636447 13.3046364467 272.92473699 18.528110659 273.86030163 24.0112122145 c 1
 279.774698654 24.8157321299 285.478661392 27.4786613918 290 32 c 2
 304 48 l 2
 314.43655807 58.4365580696 314.971139381 74.274194371 305.603743934 85.2640604306 c 1
 325.39697532 145.685503607 l 2
 326.295714436 146.393639274 327.165138072 147.165138072 328 148 c 2
 343 163 l 2
 354 174 354 191 343 202 c 2
 337 208 l 1
 337 541.6 l 1
 343 548 l 2
 354 559 354 576 343 587 c 2
 328 602 l 2
EndSplineSet
EndChar

StartChar: seven
Encoding: 55 55 44
Width: 385
VWidth: 807
Flags: HMW
HStem: 540 58
LayerCount: 2
Fore
SplineSet
328 602 m 2
 317 613 299 613 288 602 c 2
 283.333333333 597 l 1
 102 597 l 1
 97 602 l 2
 86 613 68 613 57 602 c 2
 43 587 l 2
 32 576 32 559 43 548 c 2
 58 532 l 2
 69 521 86 521 97 532 c 2
 104.5 540 l 1
 269 540 l 1
 132.771587744 61.7715877437 l 1
 120 49 l 2
 109 37 109 20 120 9 c 2
 135 -6 l 2
 146 -17 163 -17 174 -6 c 2
 189 9 l 2
 199.829183825 19.8291838252 199.997347439 36.4734695837 189.504490843 48.4373893091 c 1
 326.328485381 530.451330852 l 2
 326.899316711 530.940746434 327.456969483 531.456969483 328 532 c 2
 343 548 l 2
 354 559 354 576 343 587 c 2
 328 602 l 2
EndSplineSet
EndChar

StartChar: asciicircum
Encoding: 94 94 45
Width: 385
VWidth: 807
Flags: W
LayerCount: 2
Fore
SplineSet
289 602 m 2
 278 613 261 613 250 602 c 2
 235 587 l 2
 230.409534186 582.409534186 227.734738953 576.774157147 226.975614301 570.965983292 c 1
 221.119870017 570.134840334 215.47951257 567.47951257 211 563 c 2
 197 549 l 2
 195.447573094 547.306443375 194.114239761 545.513298763 193 543.651486778 c 1
 191.885760239 545.513298763 190.552426906 547.306443375 189 549 c 2
 174 563 l 2
 169.710961137 567.289038863 164.357699295 569.905727328 158.770122422 570.850065397 c 1
 157.964463137 576.699146079 155.041088996 582.379001753 150 587 c 2
 135 602 l 2
 124 613 107 613 96 602 c 2
 81 587 l 2
 76.4095341863 582.409534186 73.7347389532 576.774157147 72.9756143007 570.965983292 c 1
 67.1198700168 570.134840334 61.4795125701 567.47951257 57 563 c 2
 43 549 l 2
 32 537 32 520 43 509 c 2
 58 494 l 2
 62.3472516998 489.6527483 67.6316239288 487.023550904 73.1124078119 486.112407812 c 1
 74.0235509042 480.631623929 76.6527483002 475.3472517 81 471 c 2
 96 456 l 2
 107 444 125 444 136 456 c 2
 150 471 l 2
 154.728953918 475.334874425 157.594324073 480.601540732 158.596110465 486.065598776 c 1
 164.180840789 486.930929814 169.575730222 489.575730222 174 494 c 2
 189 509 l 2
 190.552426906 510.552426906 191.885760239 512.224359397 193 513.984876858 c 1
 194.114239761 512.224359397 195.447573094 510.552426906 197 509 c 2
 212 494 l 2
 216.3472517 489.6527483 221.631623929 487.023550904 227.112407812 486.112407812 c 1
 228.023550904 480.631623929 230.6527483 475.3472517 235 471 c 2
 250 456 l 2
 261 444 279 444 290 456 c 2
 304 471 l 2
 308.307539129 475.307539129 310.928269772 480.535155615 311.862191929 485.962255055 c 1
 317.706996189 486.702946977 323.382195292 489.382195292 328 494 c 2
 343 509 l 2
 348.5 514.5 351.25 521.5 351.25 528.625 c 0
 351.25 535.75 348.5 543 343 549 c 2
 328 563 l 2
 323.52048743 567.47951257 317.880129983 570.134840334 312.024385699 570.965983292 c 1
 311.265261047 576.774157147 308.590465814 582.409534186 304 587 c 2
 289 602 l 2
EndSplineSet
EndChar

StartChar: glyph46
Encoding: 259 -1 46
Width: 385
VWidth: 807
Flags: HMW
HStem: 270 58<0 385>
LayerCount: 2
Fore
SplineSet
405 332 m 2
 393 344 376 344 365 332 c 2
 361 328 l 1
 24.2857142857 328 l 1
 20 332 l 2
 9 344 -8 344 -20 332 c 2
 -34 318 l 2
 -45 307 -45 289 -34 278 c 2
 -19 263 l 2
 -8 252 9 252 21 263 c 2
 27.5333333333 270 l 1
 359 270 l 1
 366 263 l 2
 377 252 394 252 405 263 c 2
 420 278 l 2
 431 289 431 307 420 318 c 2
 405 332 l 2
EndSplineSet
EndChar

StartChar: semicolon
Encoding: 59 59 47
Width: 385
VWidth: 807
Flags: HMW
VStem: 202 58<-35 3 3 3>
LayerCount: 2
Fore
SplineSet
212 140 m 2
 201 151 184 151 173 140 c 2
 158 126 l 2
 153.620159756 121.221992462 150.984228655 115.65129895 150.092206695 109.982287049 c 1
 144.194772285 109.169997922 138.509235572 106.509235572 134 102 c 2
 120 87 l 2
 109 76 109 59 120 48 c 2
 135 32 l 2
 139.350030704 27.6499692965 144.638380438 25.0201901495 150.122918913 24.110662559 c 1
 151.043651997 18.5912871309 153.669345692 13.3306543076 158 9 c 2
 173 -6 l 2
 180.808588055 -13.808588055 192.144600341 -16.0740808907 202 -12.796478507 c 1
 202 -23 l 1
 197 -28 l 2
 191.485355231 -33.5146447687 188.735374728 -40.7886213431 188.750058492 -48.0579133706 c 1
 153.544116091 -82.7536247216 l 1
 146.44683553 -82.8664933044 139.384714936 -85.6152850638 134 -91 c 2
 120 -105 l 2
 109 -116 109 -134 120 -145 c 2
 135 -160 l 2
 146 -171 163 -171 174 -160 c 2
 189 -145 l 2
 195.507437117 -138.492562883 198.165170794 -129.535314488 196.973201033 -121.026798967 c 1
 227.112407812 -90.8875921881 l 1
 235.49983927 -92.2819456963 244.3472517 -89.6527483002 251 -83 c 2
 266 -68 l 2
 277 -57 277 -39 266 -28 c 2
 260 -22.4 l 1
 260 41.6 l 1
 266 48 l 2
 271.5 53.5 274.25 60.5 274.25 67.5 c 0
 274.25 74.5 271.5 81.5 266 87 c 2
 251 102 l 2
 246.679101574 106.320898426 241.27811106 108.944509288 235.645568133 109.870832585 c 1
 234.691172431 115.578258752 231.809316386 121.190683614 227 126 c 2
 212 140 l 2
212 448 m 2
 201 459 184 459 173 448 c 2
 158 433 l 2
 153.142212193 428.142212193 150.42970642 422.114270548 149.862482682 415.949694893 c 1
 144.047253874 415.100556253 138.450657955 412.450657955 134 408 c 2
 120 394 l 2
 114.5 388.5 111.75 381.25 111.75 374 c 0
 111.75 366.75 114.5 359.5 120 354 c 2
 135 339 l 2
 139.398054518 334.601945482 144.755260287 331.962334922 150.304635581 331.081168321 c 1
 151.360944372 325.970857045 153.926065845 321.073934155 158 317 c 2
 173 302 l 2
 184 291 202 291 213 302 c 2
 227 317 l 2
 231.728953918 321.334874425 234.594324073 326.601540732 235.596110465 332.065598776 c 1
 241.180840789 332.930929814 246.575730222 335.575730222 251 340 c 2
 266 355 l 2
 277 366 277 384 266 395 c 2
 251 409 l 2
 246.710961137 413.289038863 241.357699295 415.905727328 235.770122422 416.850065397 c 1
 234.964463137 422.699146079 232.041088996 428.379001753 227 433 c 2
 212 448 l 2
EndSplineSet
EndChar

StartChar: G
Encoding: 71 71 48
Width: 385
VWidth: 807
Flags: W
HStem: -19 20G<174 211>
LayerCount: 2
Fore
SplineSet
251 255 m 2
 240 267 222 267 211 255 c 2
 197 241 l 2
 186 230 186 213 197 201 c 2
 212 186 l 2
 223 175 240 175 251 186 c 2
 259 194 l 1
 267.824162236 194 l 1
 265.941387412 190.342447168 265 186.421223584 265 182.5 c 0
 265 176.737594203 267.03297881 170.975188406 271.098936431 166.049557529 c 1
 249.917808219 101.917808219 l 1
 235 87 l 2
 230.44267578 82.4426757799 227.773461019 76.8554736731 226.992355716 71.0917550317 c 1
 220.775371646 70.4355223615 214.738270684 67.7382706843 210 63 c 2
 206 59 l 1
 178.285714286 59 l 1
 174 63 l 2
 169.710961137 67.2890388626 164.357699295 69.9057273284 158.770122422 70.8500653974 c 1
 157.964463137 76.6991460785 155.041088996 82.3790017532 150 87 c 2
 136.787037037 100.212962963 l 1
 112.093748483 201.102684769 l 1
 122.999910716 213.096816613 122.968661222 230.031338778 112 241 c 2
 106 246.6 l 1
 106 349 l 1
 112 355 l 2
 123 366 123 384 112 395 c 2
 111.530534351 395.438167939 l 1
 135.767224657 493.769882892 l 2
 135.84515842 493.846046115 135.922751817 493.922751817 136 494 c 2
 150 509 l 2
 154.710983071 513.318401148 157.572519351 518.561525693 158.584608839 524.063819204 c 1
 164.173433403 524.927299467 169.572693066 527.572693066 174 532 c 2
 181.5 540 l 1
 204.5 540 l 1
 212 532 l 2
 216.350030704 527.649969296 221.638380438 525.020190149 227.122918913 524.110662559 c 1
 228.043651997 518.591287131 230.669345692 513.330654308 235 509 c 2
 250 494 l 2
 250.44071607 493.55928393 250.892668625 493.136225192 251.354957282 492.730823786 c 2
 271.81424306 430.784652957 l 1
 262.050593322 419.817622916 262.779178969 404.285752612 274 394 c 2
 289 379 l 2
 300 367 317 367 328 379 c 2
 343 394 l 2
 354 405 354 422 343 433 c 2
 328 448 l 2
 327.561585456 448.438414544 327.112051481 448.859355696 326.652284423 449.262823456 c 2
 306.129551715 511.371093493 l 1
 314.947111775 522.333516178 314.237261204 537.832078687 304 549 c 2
 289 563 l 2
 284.692460871 567.307539129 279.464844385 569.928269772 274.037744945 570.862191929 c 1
 273.297053023 576.706996189 270.617804708 582.382195292 266 587 c 2
 251 602 l 2
 240 613 222 613 211 602 c 2
 206.333333333 597 l 1
 179 597 l 1
 174 602 l 2
 163 613 145 613 134 602 c 2
 120 587 l 2
 115.423131039 582.423131039 112.750601123 576.807531691 111.98241025 571.01758975 c 1
 106.192468309 570.249398877 100.576868961 567.576868961 96 563 c 2
 81 549 l 2
 70.2469108106 537.269357248 70.005542268 520.760659656 80.2758943724 509.749677193 c 1
 54.8965517241 406.896551724 l 1
 43 395 l 2
 32 384 32 366 43 355 c 2
 48 350 l 1
 48 246 l 1
 43 241 l 2
 32 230 32 213 43 201 c 2
 55.6086956522 188.391304348 l 1
 80.8327238062 86.8314015173 l 1
 70.0002855419 75.8269279967 70.0560442731 58.9439557269 81 48 c 2
 96 32 l 2
 100.521338608 27.4786613918 106.225301346 24.8157321299 112.13969837 24.0112122145 c 1
 113.07526301 18.528110659 115.695363553 13.3046364467 120 9 c 2
 135 -6 l 2
 146 -17 163 -17 174 -6 c 2
 181 1 l 1
 204 1 l 1
 211 -6 l 2
 222 -17 239 -17 250 -6 c 2
 265 9 l 2
 269.273166957 13.2731669571 271.886337928 18.45178627 272.839512914 23.8909997574 c 1
 279.115706284 24.5160264212 285.219026502 27.219026502 290 32 c 2
 304 48 l 2
 314.43655807 58.4365580696 314.971139381 74.274194371 305.603743934 85.2640604306 c 1
 325.39697532 145.685503607 l 2
 326.295714436 146.393639274 327.165138072 147.165138072 328 148 c 2
 343 163 l 2
 348.5 168.5 351.25 175.5 351.25 182.5 c 0
 351.25 189.298474909 348.656061878 196.096949818 343.468185633 201.521282657 c 1
 353.997720734 213.488174843 353.841658857 230.158341143 343 241 c 2
 328 255 l 2
 317 267 299 267 288 255 c 2
 284 251 l 1
 255.285714286 251 l 1
 251 255 l 2
EndSplineSet
EndChar

StartChar: Ugrave
Encoding: 217 217 49
Width: 385
VWidth: 807
Flags: HMW
VStem: 48 58<182.5 569 189 569 189 569> 279 58<189 569 189 189>
LayerCount: 2
Fore
SplineSet
289 677 m 2
 279.558456349 686.441543651 267.021678443 688.454525093 256.747360993 683.038944324 c 1
 156.182835907 734.964418061 l 2
 154.874066332 737.478631787 153.146454363 739.853545637 151 742 c 2
 136 757 l 2
 125 768 108 768 96 757 c 2
 82 742 l 2
 71 731 71 714 82 703 c 2
 97 687 l 2
 106.474566856 677.525433144 120.400410592 676.211540571 131.748544476 683.058322279 c 1
 227.946671205 633.060611677 l 2
 229.439353592 629.384900024 231.790463191 625.942075409 235 623 c 2
 250 608 l 2
 261 597 278 597 289 608 c 2
 304 623 l 2
 315 634 315 652 304 663 c 2
 289 677 l 2
328 602 m 2
 317 613 299 613 288 602 c 2
 274 587 l 2
 262 576 262 559 274 548 c 2
 279 542.666666667 l 1
 279 207.357142857 l 1
 274 202 l 2
 262.988742071 191.906346899 262.081467574 176.760702082 271.278176507 165.834529522 c 1
 250 102 l 1
 235 87 l 2
 230.409534186 82.4095341863 227.734738953 76.7741571468 226.975614301 70.9659832924 c 1
 221.119870017 70.1348403343 215.47951257 67.4795125701 211 63 c 2
 207 59 l 1
 178.285714286 59 l 1
 174 63 l 2
 169.710961137 67.2890388626 164.357699295 69.9057273284 158.770122422 70.8500653974 c 1
 157.964463137 76.6991460785 155.041088996 82.3790017532 150 87 c 2
 135 102 l 1
 113.950035708 165.149892877 l 1
 122.956244218 176.120506053 122.306232316 191.693767684 112 202 c 2
 106 208 l 1
 106 541.6 l 1
 112 548 l 2
 123 559 123 576 112 587 c 2
 97 602 l 2
 86 613 68 613 57 602 c 2
 43 587 l 2
 32 576 32 559 43 548 c 2
 48 542.666666667 l 1
 48 207.357142857 l 1
 43 202 l 2
 32 191 32 174 43 163 c 2
 58 148 l 2
 58.4001868537 147.599813146 58.8083150058 147.21418534 59.2238066375 146.84311658 c 2
 79.3962560658 85.2640604306 l 1
 70.028860619 74.274194371 70.5634419304 58.4365580696 81 48 c 2
 96 32 l 2
 100.521338608 27.4786613918 106.225301346 24.8157321299 112.13969837 24.0112122145 c 1
 113.07526301 18.528110659 115.695363553 13.3046364467 120 9 c 2
 135 -6 l 2
 146 -17 163 -17 174 -6 c 2
 181 1 l 1
 205 1 l 1
 212 -6 l 2
 223 -17 240 -17 251 -6 c 2
 266 9 l 2
 270.304636447 13.3046364467 272.92473699 18.528110659 273.86030163 24.0112122145 c 1
 279.774698654 24.8157321299 285.478661392 27.4786613918 290 32 c 2
 304 48 l 2
 314.43655807 58.4365580696 314.971139381 74.274194371 305.603743934 85.2640604306 c 1
 325.39697532 145.685503607 l 2
 326.295714436 146.393639274 327.165138072 147.165138072 328 148 c 2
 343 163 l 2
 354 174 354 191 343 202 c 2
 337 208 l 1
 337 541.6 l 1
 343 548 l 2
 354 559 354 576 343 587 c 2
 328 602 l 2
EndSplineSet
EndChar

StartChar: copyright
Encoding: 169 169 50
Width: 385
VWidth: 807
Flags: HMW
HStem: 117 58 270 58<204 231 204 204>
VStem: 125 58<196 249 196 261 196 265>
LayerCount: 2
Fore
SplineSet
251 179 m 2
 240.165215034 189.834784966 222.539124641 189.997518545 211.500334992 179.488200738 c 1
 207.250804992 183.544612797 202.160081737 186.011076614 196.887592188 186.887592188 c 1
 195.976449096 192.368376071 193.3472517 197.6527483 189 202 c 2
 183 208 l 1
 183 234 l 1
 189 240 l 2
 193.320869044 244.320869044 195.944473607 249.567518714 196.870813688 255.012644129 c 1
 202.56534717 255.789409613 208.064250571 258.289127991 212.499665008 262.511799262 c 1
 223.509311131 252.002481455 240.165215034 252.165215034 251 263 c 2
 266 278 l 2
 267.548779879 279.548779879 268.879494384 281.236328633 269.992143516 283.023569453 c 1
 272.002107148 276.993678557 l 1
 262.041736727 266.015715499 262.707701011 250.351274073 274 240 c 2
 279 235 l 1
 279 207.357142857 l 1
 274 202 l 2
 262.988742071 191.906346899 262.081467574 176.760702082 271.278176507 165.834529522 c 1
 269.337855597 160.013566792 l 1
 268.368658572 161.409690007 267.25604004 162.74395996 266 164 c 2
 251 179 l 2
251 332 m 2
 240.165215034 343.819765417 222.539124641 343.997292958 211.500334992 332.532582623 c 1
 200.490688869 343.997292958 183.834784966 343.819765417 173 332 c 2
 158 318 l 2
 153.507437117 313.507437117 150.849703439 307.847255648 150.026798967 301.973201033 c 1
 144.152744352 301.150296561 138.492562883 298.492562883 134 294 c 2
 120 279 l 2
 118.447573094 277.447573094 117.114239761 275.775640603 116 274.017934106 c 1
 115.192157353 275.292301006 114.269148281 276.521580842 113.230972784 277.692918351 c 2
 133.175872111 337.527616332 l 2
 134.158763164 338.27854451 135.102672399 339.102672399 136 340 c 2
 150 355 l 2
 154.710316249 359.317789895 157.571709234 364.71411836 158.584178956 370.34227577 c 1
 164.173156534 371.284178707 169.572579552 374.170086784 174 379 c 2
 181 386 l 1
 205 386 l 1
 212 379 l 2
 216.349992389 374.254553758 221.63828728 371.385712518 227.122773992 370.393476283 c 1
 228.043376455 364.746851881 230.669118458 359.330881542 235 355 c 2
 250 340 l 2
 250.471191932 339.528808068 250.955228102 339.07779994 251.451008128 338.646975615 c 2
 254.870967742 328.387096774 l 1
 251 332 l 2
174 448 m 2
 163 459 145 459 134 448 c 2
 120 433 l 2
 115.423131039 428.423131039 112.750601123 422.807531691 111.98241025 417.01758975 c 1
 106.192468309 416.249398877 100.576868961 413.576868961 96 409 c 2
 81 395 l 2
 70.7615258405 384.761525841 70.052720146 368.458717203 78.8735829163 357.380579878 c 1
 58.3477155767 295.262823456 l 2
 57.8879485193 294.859355696 57.438414544 294.438414544 57 294 c 2
 43 279 l 2
 32 268 32 251 43 240 c 2
 48 235 l 1
 48 207.357142857 l 1
 43 202 l 2
 32 191 32 174 43 163 c 2
 58 148 l 2
 58.4001868537 147.599813146 58.8083150058 147.21418534 59.2238066375 146.84311658 c 2
 79.3962560658 85.2640604306 l 1
 70.028860619 74.274194371 70.5634419304 58.4365580696 81 48 c 2
 96 32 l 2
 100.521338608 27.4786613918 106.225301346 24.8157321299 112.13969837 24.0112122145 c 1
 113.07526301 18.528110659 115.695363553 13.3046364467 120 9 c 2
 135 -6 l 2
 146 -17 163 -17 174 -6 c 2
 181 1 l 1
 205 1 l 1
 212 -6 l 2
 223 -17 240 -17 251 -6 c 2
 266 9 l 2
 270.304636447 13.3046364467 272.92473699 18.528110659 273.86030163 24.0112122145 c 1
 279.774698654 24.8157321299 285.478661392 27.4786613918 290 32 c 2
 304 48 l 2
 314.43655807 58.4365580696 314.971139381 74.274194371 305.603743934 85.2640604306 c 1
 325.39697532 145.685503607 l 2
 326.295714436 146.393639274 327.165138072 147.165138072 328 148 c 2
 343 163 l 2
 354 174 354 191 343 202 c 2
 337 208 l 1
 337 234 l 1
 343 240 l 2
 354 251 354 268 343 279 c 2
 328 294 l 2
 327.561585456 294.438414544 327.112051481 294.859355696 326.652284423 295.262823456 c 2
 306.126417084 357.380579878 l 1
 314.947279854 368.458717203 314.238474159 384.761525841 304 395 c 2
 289 409 l 2
 284.692460871 413.307539129 279.464844385 415.928269772 274.037744945 416.862191929 c 1
 273.297053023 422.706996189 270.617804708 428.382195292 266 433 c 2
 251 448 l 2
 240 459 222 459 211 448 c 2
 207.266666667 444 l 1
 178 444 l 1
 174 448 l 2
253 111 m 1
 250 102 l 1
 235 87 l 2
 230.409534186 82.4095341863 227.734738953 76.7741571468 226.975614301 70.9659832924 c 1
 221.119870017 70.1348403343 215.47951257 67.4795125701 211 63 c 2
 207 59 l 1
 178.285714286 59 l 1
 174 63 l 2
 169.710961137 67.2890388626 164.357699295 69.9057273284 158.770122422 70.8500653974 c 1
 157.964463137 76.6991460785 155.041088996 82.3790017532 150 87 c 2
 135 102 l 1
 113.950035708 165.149892877 l 2
 114.700384017 166.063904698 115.383705447 167.009864957 116 167.982065894 c 1
 117.114239761 166.224359397 118.447573094 164.552426906 120 163 c 2
 135 148 l 2
 139.337770222 143.662229778 144.60857766 141.035027783 150.076549394 140.118394015 c 1
 150.953083676 134.414678776 153.594233878 128.806290315 158 124 c 2
 173 109 l 2
 183.834784966 98.1652150345 201.460875359 98.0024814552 212.499665008 108.511799262 c 1
 223.509311131 98.0024814552 240.165215034 98.1652150345 251 109 c 2
 253 111 l 1
125 207.357142857 m 1
 120 202 l 2
 118.447573094 200.447573094 117.114239761 198.775640603 116 197.017934106 c 1
 114.885760239 198.775640603 113.552426906 200.447573094 112 202 c 2
 106 208 l 1
 106 234 l 1
 112 240 l 2
 113.552426906 241.552426906 114.885760239 243.224359397 116 244.982065894 c 1
 117.114239761 243.224359397 118.447573094 241.552426906 120 240 c 2
 125 235 l 1
 125 207.357142857 l 1
EndSplineSet
EndChar

StartChar: Odieresis
Encoding: 214 214 51
Width: 385
VWidth: 807
Flags: HMW
VStem: 48 58<221 373 226 373 226 376> 279 58<226 373 226 226>
LayerCount: 2
Fore
SplineSet
289 717 m 2
 278 728 261 728 250 717 c 2
 235 702 l 2
 230.679130956 697.679130956 228.055526393 692.432481286 227.129186312 686.987355871 c 1
 221.218542926 686.181111815 215.518659858 683.518659858 211 679 c 2
 197 664 l 2
 195.447573094 662.447573094 194.114239761 660.775640603 193 659.015123142 c 1
 191.885760239 660.775640603 190.552426906 662.447573094 189 664 c 2
 174 679 l 2
 169.669118458 683.330881542 164.253148119 685.956623545 158.606523717 686.877226008 c 1
 157.614287482 692.36171272 154.745446242 697.650007611 150 702 c 2
 135 717 l 2
 124 728 107 728 96 717 c 2
 81 702 l 2
 76.6791309559 697.679130956 74.0555263933 692.432481286 73.1291863121 686.987355871 c 1
 67.2185429257 686.181111815 61.518659858 683.518659858 57 679 c 2
 43 664 l 2
 32 653 32 636 43 624 c 2
 58 609 l 2
 62.3500307035 604.649969296 67.6383804378 602.020190149 73.1229189132 601.110662559 c 1
 74.0436519968 595.591287131 76.6693456924 590.330654308 81 586 c 2
 96 571 l 2
 97.5445431924 569.455456808 99.2270970933 568.127787585 101.008904702 567.016992334 c 1
 99.2413776733 565.89932384 97.5603263955 564.560326395 96 563 c 2
 81 549 l 2
 70.2469108106 537.269357248 70.005542268 520.760659656 80.2758943724 509.749677193 c 1
 54.8965517241 406.896551724 l 1
 43 395 l 2
 32 384 32 366 43 355 c 2
 48 350 l 1
 48 246 l 1
 43 241 l 2
 32 230 32 213 43 201 c 2
 55.6086956522 188.391304348 l 1
 80.8327238062 86.8314015173 l 1
 70.0002855419 75.8269279967 70.0560442731 58.9439557269 81 48 c 2
 96 32 l 2
 100.521338608 27.4786613918 106.225301346 24.8157321299 112.13969837 24.0112122145 c 1
 113.07526301 18.528110659 115.695363553 13.3046364467 120 9 c 2
 135 -6 l 2
 146 -17 163 -17 174 -6 c 2
 181 1 l 1
 205 1 l 1
 212 -6 l 2
 223 -17 240 -17 251 -6 c 2
 266 9 l 2
 270.304636447 13.3046364467 272.92473699 18.528110659 273.86030163 24.0112122145 c 1
 279.774698654 24.8157321299 285.478661392 27.4786613918 290 32 c 2
 304 48 l 2
 315 59 315 76 304 87 c 2
 303.5 87.5 l 1
 328.815789474 186.815789474 l 1
 343 201 l 2
 354 213 354 230 343 241 c 2
 337 246.6 l 1
 337 349 l 1
 343 355 l 2
 354 366 354 384 343 395 c 2
 329.853741497 407.26984127 l 1
 304.072488937 509.072735992 l 1
 314.999946688 520.074826121 314.975783709 537.026417772 304 549 c 2
 289 563 l 2
 287.582971497 564.417028503 286.066374245 565.651514299 284.475861291 566.703457384 c 1
 286.448980284 567.875181787 288.307362655 569.30736266 290 571 c 2
 304 586 l 2
 308.291474584 590.291474584 310.908698795 595.496176644 311.851672632 600.960924097 c 1
 317.700186562 601.699733046 323.379425013 604.379425013 328 609 c 2
 343 624 l 2
 348.5 630 351.25 637.25 351.25 644.375 c 0
 351.25 651.5 348.5 658.5 343 664 c 2
 328 679 l 2
 323.481340142 683.518659858 317.781457074 686.181111815 311.870813688 686.987355871 c 1
 310.944473607 692.432481286 308.320869044 697.679130956 304 702 c 2
 289 717 l 2
193 629.348513222 m 1
 194.114239761 627.486701237 195.447573094 625.693556625 197 624 c 2
 212 609 l 2
 213.187024714 607.812975286 214.443918568 606.754043997 215.755602219 605.823206132 c 1
 214.067521176 604.745558846 212.471156801 603.471156802 211 602 c 2
 206.333333333 597 l 1
 179 597 l 1
 174 602 l 2
 172.679267144 603.320732856 171.25762233 604.482889777 169.759297874 605.486470758 c 1
 171.246700877 606.496203995 172.667380393 607.667380412 174 609 c 2
 189 624 l 2
 190.552426906 625.693556625 191.885760239 627.486701237 193 629.348513222 c 1
135.767224657 493.769882892 m 2
 135.84515842 493.846046115 135.922751817 493.922751817 136 494 c 2
 150 509 l 2
 154.710983071 513.318401148 157.572519351 518.561525693 158.584608839 524.063819204 c 1
 164.173433403 524.927299467 169.572693066 527.572693066 174 532 c 2
 181.5 540 l 1
 204.5 540 l 1
 212 532 l 2
 216.350030704 527.649969296 221.638380438 525.020190149 227.122918913 524.110662559 c 1
 228.043651997 518.591287131 230.669345692 513.330654308 235 509 c 2
 247.754716981 496.245283019 l 1
 273.533338689 394.562941837 l 1
 262.00207045 383.528335103 262.15762422 365.855511132 274 355 c 2
 279 350 l 1
 279 246 l 1
 274 241 l 2
 262.351904592 230.322579209 262.010319737 213.991903141 272.975245435 202.068336035 c 1
 247.037383178 99.0373831776 l 1
 235 87 l 2
 230.409534186 82.4095341863 227.734738953 76.7741571468 226.975614301 70.9659832924 c 1
 221.119870017 70.1348403343 215.47951257 67.4795125701 211 63 c 2
 207 59 l 1
 178.285714286 59 l 1
 174 63 l 2
 169.710961137 67.2890388626 164.357699295 69.9057273284 158.770122422 70.8500653974 c 1
 157.964463137 76.6991460785 155.041088996 82.3790017532 150 87 c 2
 136.787037037 100.212962963 l 1
 112.093748483 201.102684769 l 1
 122.999910716 213.096816613 122.968661222 230.031338778 112 241 c 2
 106 246.6 l 1
 106 349 l 1
 112 355 l 2
 123 366 123 384 112 395 c 2
 111.530534351 395.438167939 l 1
 135.767224657 493.769882892 l 2
EndSplineSet
EndChar

StartChar: acute
Encoding: 180 180 52
Width: 385
VWidth: 807
Flags: W
LayerCount: 2
Fore
SplineSet
289 602 m 2
 278 613 261 613 250 602 c 2
 235 587 l 2
 233.195000759 585.195000759 231.68618536 583.228446696 230.473553803 581.153357143 c 2
 128.559981722 529.863520213 l 1
 118.085369638 535.64496292 105.023789516 534.023789516 96 525 c 2
 81 510 l 2
 70 499 70 482 81 471 c 2
 96 456 l 2
 107 444 125 444 136 456 c 2
 150 471 l 2
 153.072784152 473.816718806 155.358734767 477.026854381 156.857851845 480.428925923 c 2
 253.729043538 528.864521769 l 1
 264.748323773 521.124338715 280.169498125 522.169498125 290 532 c 2
 304 548 l 2
 315 559 315 576 304 587 c 2
 289 602 l 2
EndSplineSet
EndChar

StartChar: t
Encoding: 116 116 53
Width: 385
VWidth: 807
Flags: HMW
HStem: 1 58<243 308 243 308 243 316> 386 58<77 308>
VStem: 125 58<143 569 152 569 152 569>
LayerCount: 2
Fore
SplineSet
328 448 m 2
 317 459 299 459 288 448 c 2
 284.266666667 444 l 1
 183 444 l 1
 183 541.6 l 1
 189 548 l 2
 200 559 200 576 189 587 c 2
 174 602 l 2
 163 613 145 613 134 602 c 2
 120 587 l 2
 109 576 109 559 120 548 c 2
 125 542.666666667 l 1
 125 444 l 1
 101 444 l 1
 97 448 l 2
 86 459 68 459 57 448 c 2
 43 433 l 2
 32 422 32 405 43 394 c 2
 58 379 l 2
 69 367 86 367 97 379 c 2
 104 386 l 1
 125 386 l 1
 125 169.357142857 l 1
 120 164 l 2
 109 153 109 136 120 124 c 2
 135 109 l 2
 137.285095676 106.714904324 139.829116752 104.904505216 142.524486991 103.568802676 c 2
 153.535011646 81.2580027169 l 1
 147.2863013 70.6709420222 148.774630752 57.2253692483 158 48 c 2
 173 32 l 2
 177.521338608 27.4786613918 183.225301346 24.8157321299 189.13969837 24.0112122145 c 1
 190.07526301 18.528110659 192.695363553 13.3046364467 197 9 c 2
 212 -6 l 2
 223 -17 240 -17 251 -6 c 2
 258 1 l 1
 282 1 l 1
 289 -6 l 2
 300 -17 317 -17 328 -6 c 2
 343 9 l 2
 354 20 354 37 343 49 c 2
 328 63 l 2
 317 74 299 74 288 63 c 2
 284 59 l 1
 255.285714286 59 l 1
 251 63 l 2
 246.710961137 67.2890388626 241.357699295 69.9057273284 235.770122422 70.8500653974 c 1
 234.964463137 76.6991460785 232.041088996 82.3790017532 227 87 c 2
 212 102 l 2
 210.027065866 103.972934134 207.861116735 105.592007441 205.571390039 106.857219921 c 2
 193.705109564 130.589780872 l 1
 199.673634283 141.678437739 198.105264428 154.894735572 189 164 c 2
 183 170 l 1
 183 386 l 1
 282 386 l 1
 289 379 l 2
 300 367 317 367 328 379 c 2
 343 394 l 2
 354 405 354 422 343 433 c 2
 328 448 l 2
EndSplineSet
EndChar

StartChar: o
Encoding: 111 111 54
Width: 385
VWidth: 807
Flags: W
HStem: -19 20G<174 212>
LayerCount: 2
Fore
SplineSet
174 448 m 2
 163 459 145 459 134 448 c 2
 120 433 l 2
 115.423131039 428.423131039 112.750601123 422.807531691 111.98241025 417.01758975 c 1
 106.192468309 416.249398877 100.576868961 413.576868961 96 409 c 2
 81 395 l 2
 71.9902462617 385.990246262 70.3600981984 372.284379821 76.10955581 361.575276856 c 1
 63.9376410814 337.543547776 l 2
 61.4361787156 336.129541997 59.0915516764 334.281692738 57 332 c 2
 43 318 l 2
 32 307 32 289 43 278 c 2
 48 273 l 1
 48 169.357142857 l 1
 43 164 l 2
 32 153 32 136 43 124 c 2
 58 109 l 2
 60.4275917272 106.572408273 63.1474083267 104.680562145 66.0304674928 103.324461617 c 2
 76.9014234006 81.8612922604 l 1
 70.232284277 71.185955041 71.5984764768 57.4015235232 81 48 c 2
 96 32 l 2
 100.521338608 27.4786613918 106.225301346 24.8157321299 112.13969837 24.0112122145 c 1
 113.07526301 18.528110659 115.695363553 13.3046364467 120 9 c 2
 135 -6 l 2
 146 -17 163 -17 174 -6 c 2
 181 1 l 1
 205 1 l 1
 212 -6 l 2
 223 -17 240 -17 251 -6 c 2
 266 9 l 2
 270.304636447 13.3046364467 272.92473699 18.528110659 273.86030163 24.0112122145 c 1
 279.774698654 24.8157321299 285.478661392 27.4786613918 290 32 c 2
 304 48 l 2
 309.5 53.5 312.25 60.5 312.25 67.5 c 0
 312.25 72.4655753932 310.8661922 77.4311507863 308.098576599 81.8612922604 c 1
 318.683249703 102.759236594 l 2
 322.043706661 104.134004333 325.214258802 106.214258802 328 109 c 2
 343 124 l 2
 354 136 354 153 343 164 c 2
 337 170 l 1
 337 272 l 1
 343 278 l 2
 354 289 354 307 343 318 c 2
 328 332 l 2
 325.908448324 334.281692738 323.563821284 336.129541997 321.062358919 337.543547776 c 2
 308.89044419 361.575276856 l 1
 314.639901802 372.284379821 313.009753738 385.990246262 304 395 c 2
 289 409 l 2
 284.692460871 413.307539129 279.464844385 415.928269772 274.037744945 416.862191929 c 1
 273.297053023 422.706996189 270.617804708 428.382195292 266 433 c 2
 251 448 l 2
 240 459 222 459 211 448 c 2
 207.266666667 444 l 1
 178 444 l 1
 174 448 l 2
207 59 m 1
 178.285714286 59 l 1
 174 63 l 2
 169.710961137 67.2890388626 164.357699295 69.9057273284 158.770122422 70.8500653974 c 1
 157.964463137 76.6991460785 155.041088996 82.3790017532 150 87 c 2
 135 102 l 2
 133.027065866 103.972934134 130.861116735 105.592007441 128.571390039 106.857219921 c 2
 116.705109564 130.589780872 l 1
 122.673634283 141.678437739 121.105264428 154.894735572 112 164 c 2
 106 170 l 1
 106 272 l 1
 112 278 l 2
 121.362837566 287.362837566 122.756336288 301.797072578 116.180496165 312.669492214 c 1
 126.578903865 333.781410878 l 2
 130.014245698 335.15633218 133.229195221 337.229195221 136 340 c 2
 150 355 l 2
 154.710316249 359.317789895 157.571709234 364.71411836 158.584178956 370.34227577 c 1
 164.173156534 371.284178707 169.572579552 374.170086784 174 379 c 2
 181 386 l 1
 205 386 l 1
 212 379 l 2
 216.349992389 374.254553758 221.63828728 371.385712518 227.122773992 370.393476283 c 1
 228.043376455 364.746851881 230.669118458 359.330881542 235 355 c 2
 250 340 l 2
 252.427076211 337.572923789 255.194936657 335.681365664 258.153197828 334.325325622 c 2
 269.088401141 312.123549198 l 1
 262.318841359 301.317867856 263.956040979 287.206962436 274 278 c 2
 279 273 l 1
 279 169.357142857 l 1
 274 164 l 2
 264.225663791 155.040191808 262.412798276 142.099648269 268.561403456 131.122806911 c 1
 256.428609961 106.857219921 l 2
 254.138883265 105.592007441 251.972934134 103.972934134 250 102 c 2
 235 87 l 2
 230.409534186 82.4095341863 227.734738953 76.7741571468 226.975614301 70.9659832924 c 1
 221.119870017 70.1348403343 215.47951257 67.4795125701 211 63 c 2
 207 59 l 1
EndSplineSet
EndChar

StartChar: acircumflex
Encoding: 226 226 55
Width: 385
VWidth: 807
Flags: HMW
VStem: 279 58<22 415 30 415>
LayerCount: 2
Fore
SplineSet
212 602 m 2
 201 613 184 613 173 602 c 2
 158 587 l 2
 152.306236 581.306236 149.559649135 574.004920835 149.760239406 566.760239406 c 1
 116.239760594 533.239760594 l 1
 108.995079165 533.440350865 101.693764 530.693764 96 525 c 2
 81 510 l 2
 70 499 70 482 81 471 c 2
 96 456 l 2
 107 444 125 444 136 456 c 2
 150 471 l 2
 157.040822889 477.454087648 159.950546865 485.973724753 158.729171928 494.135049999 c 1
 188.219246793 524.151733343 l 2
 190.817741224 523.71156039 193.46703024 523.633105412 196.083631591 523.916368409 c 2
 226.878818662 493.121181338 l 1
 226.105673162 485.272826935 228.812733608 477.187266392 235 471 c 2
 250 456 l 2
 261 444 279 444 290 456 c 2
 304 471 l 2
 315 482 315 499 304 510 c 2
 289 525 l 2
 283.306236 530.693764 276.004920835 533.440350865 268.760239406 533.239760594 c 1
 235.956666576 566.043333424 l 1
 236.40188916 573.521332616 233.416333634 581.118360835 227 587 c 2
 212 602 l 2
328 448 m 2
 317 459 299 459 288 448 c 2
 274 433 l 2
 272.393671338 431.52753206 271.00236699 429.947551963 269.826086957 428.288843018 c 1
 268.747830259 429.947551963 267.47246794 431.52753206 266 433 c 2
 251 448 l 2
 240 459 222 459 211 448 c 2
 207.266666667 444 l 1
 178 444 l 1
 174 448 l 2
 163 459 145 459 134 448 c 2
 120 433 l 2
 115.423131039 428.423131039 112.750601123 422.807531691 111.98241025 417.01758975 c 1
 106.192468309 416.249398877 100.576868961 413.576868961 96 409 c 2
 81 395 l 2
 71.9902462617 385.990246262 70.3600981984 372.284379821 76.10955581 361.575276856 c 1
 63.9376410814 337.543547776 l 2
 61.4361787156 336.129541997 59.0915516764 334.281692738 57 332 c 2
 43 318 l 2
 32 307 32 289 43 278 c 2
 48 273 l 1
 48 169.357142857 l 1
 43 164 l 2
 32 153 32 136 43 124 c 2
 58 109 l 2
 60.4275917272 106.572408273 63.1474083267 104.680562145 66.0304674928 103.324461617 c 2
 76.9014234006 81.8612922604 l 1
 70.232284277 71.185955041 71.5984764768 57.4015235232 81 48 c 2
 96 32 l 2
 100.521338608 27.4786613918 106.225301346 24.8157321299 112.13969837 24.0112122145 c 1
 113.07526301 18.528110659 115.695363553 13.3046364467 120 9 c 2
 135 -6 l 2
 146 -17 163 -17 174 -6 c 2
 181 1 l 1
 205 1 l 1
 212 -6 l 2
 223 -17 240 -17 251 -6 c 2
 266 9 l 2
 267.472467939 10.4724679395 268.747830258 12.052448036 269.826086956 13.7135555895 c 1
 271.00236699 12.0524480362 272.393671337 10.4724679392 274 9 c 2
 289 -6 l 2
 300 -17 317 -17 328 -6 c 2
 343 9 l 2
 354 20 354 37 343 49 c 2
 337 54.6 l 1
 337 80 l 1
 343 86 l 2
 354 97 354 114 343 126 c 2
 337 131.6 l 1
 337 311 l 1
 343 317 l 2
 354 328 354 345 343 356 c 2
 337 362 l 1
 337 388 l 1
 343 394 l 2
 354 405 354 422 343 433 c 2
 328 448 l 2
279 312 m 1
 279 131 l 1
 274 126 l 2
 267.826574759 119.826574759 264.829081119 112.329844685 265.007519079 105.007519079 c 1
 231.248919407 71.2489194071 l 1
 223.916177237 71.3125856032 216.562945801 68.5629458008 211 63 c 2
 207 59 l 1
 178.285714286 59 l 1
 174 63 l 2
 169.710961137 67.2890388626 164.357699295 69.9057273284 158.770122422 70.8500653974 c 1
 157.964463137 76.6991460785 155.041088996 82.3790017532 150 87 c 2
 135 102 l 2
 133.027065866 103.972934134 130.861116735 105.592007441 128.571390039 106.857219921 c 2
 116.705109564 130.589780872 l 1
 122.673634283 141.678437739 121.105264428 154.894735572 112 164 c 2
 106 170 l 1
 106 272 l 1
 112 278 l 2
 121.362837566 287.362837566 122.756336288 301.797072578 116.180496165 312.669492214 c 1
 126.578903865 333.781410878 l 2
 130.014245698 335.15633218 133.229195221 337.229195221 136 340 c 2
 150 355 l 2
 154.710316249 359.317789895 157.571709234 364.71411836 158.584178956 370.34227577 c 1
 164.173156534 371.284178707 169.572579552 374.170086784 174 379 c 2
 181 386 l 1
 205 386 l 1
 212 379 l 2
 218.307147317 372.119475654 226.586861938 369.184085914 234.577094303 370.193830781 c 1
 265.146373423 339.175003438 l 1
 264.283615545 331.309805295 267.234824404 323.201410963 274 317 c 2
 279 312 l 1
EndSplineSet
EndChar

StartChar: n
Encoding: 110 110 56
Width: 385
VWidth: 807
Flags: HMW
VStem: 48 58<22 415 30 415> 279 58<22 299 30 292>
LayerCount: 2
Fore
SplineSet
251 448 m 2
 240 459 222 459 211 448 c 2
 207.266666667 444 l 1
 178 444 l 1
 174 448 l 2
 163 459 145 459 134 448 c 2
 120 433 l 2
 118.447573094 431.447573094 117.114239761 429.775640603 116 428.017934106 c 1
 114.885760239 429.775640603 113.552426906 431.447573094 112 433 c 2
 97 448 l 2
 86 459 68 459 57 448 c 2
 43 433 l 2
 32 422 32 405 43 394 c 2
 48 389 l 1
 48 323 l 1
 43 318 l 2
 32 307 32 289 43 278 c 2
 48 273 l 1
 48 54 l 1
 43 49 l 2
 32 37 32 20 43 9 c 2
 58 -6 l 2
 69 -17 86 -17 97 -6 c 2
 112 9 l 2
 123 20 123 37 112 49 c 2
 106 54.6 l 1
 106 272 l 1
 112 278 l 2
 121.370264017 287.370264017 122.758541875 301.819973772 116.164833574 312.695356969 c 1
 126.559636761 333.773707876 l 2
 130.002224897 335.148585117 133.224015824 337.224015824 136 340 c 2
 150 355 l 2
 154.710316249 359.317789895 157.571709234 364.71411836 158.584178956 370.34227577 c 1
 164.173156534 371.284178707 169.572579552 374.170086784 174 379 c 2
 181 386 l 1
 205 386 l 1
 212 379 l 2
 216.349992389 374.254553758 221.63828728 371.385712518 227.122773992 370.393476283 c 1
 228.043376455 364.746851881 230.669118458 359.330881542 235 355 c 2
 250 340 l 2
 252.427076211 337.572923789 255.194936657 335.681365664 258.153197828 334.325325622 c 2
 269.088401141 312.123549198 l 1
 262.318841359 301.317867856 263.956040979 287.206962436 274 278 c 2
 279 273 l 1
 279 54 l 1
 274 49 l 2
 262 37 262 20 274 9 c 2
 289 -6 l 2
 300 -17 317 -17 328 -6 c 2
 343 9 l 2
 354 20 354 37 343 49 c 2
 337 54.6 l 1
 337 272 l 1
 343 278 l 2
 354 289 354 307 343 318 c 2
 328 332 l 2
 325.908448324 334.281692738 323.563821284 336.129541997 321.062358919 337.543547776 c 2
 308.89044419 361.575276856 l 1
 314.639901802 372.284379821 313.009753738 385.990246262 304 395 c 2
 289 409 l 2
 284.692460871 413.307539129 279.464844385 415.928269772 274.037744945 416.862191929 c 1
 273.297053023 422.706996189 270.617804708 428.382195292 266 433 c 2
 251 448 l 2
EndSplineSet
EndChar

StartChar: h
Encoding: 104 104 57
Width: 385
VWidth: 807
Flags: HMW
VStem: 48 58<22 569 30 569> 279 58<22 299 30 292>
LayerCount: 2
Fore
SplineSet
251 448 m 2
 240 459 222 459 211 448 c 2
 207.266666667 444 l 1
 178 444 l 1
 174 448 l 2
 163 459 145 459 134 448 c 2
 120 433 l 2
 115.423131039 428.423131039 112.750601123 422.807531691 111.98241025 417.01758975 c 0
 109.954506918 416.748534059 107.947990571 416.245868947 106 415.509594416 c 1
 106 541.6 l 1
 112 548 l 2
 123 559 123 576 112 587 c 2
 97 602 l 2
 86 613 68 613 57 602 c 2
 43 587 l 2
 32 576 32 559 43 548 c 2
 48 542.666666667 l 1
 48 323 l 1
 43 318 l 2
 32 307 32 289 43 278 c 2
 48 273 l 1
 48 54 l 1
 43 49 l 2
 32 37 32 20 43 9 c 2
 58 -6 l 2
 69 -17 86 -17 97 -6 c 2
 112 9 l 2
 123 20 123 37 112 49 c 2
 106 54.6 l 1
 106 272 l 1
 112 278 l 2
 121.370264017 287.370264017 122.758541875 301.819973772 116.164833574 312.695356969 c 1
 126.559636761 333.773707876 l 2
 130.002224897 335.148585117 133.224015824 337.224015824 136 340 c 2
 150 355 l 2
 154.710316249 359.317789895 157.571709234 364.71411836 158.584178956 370.34227577 c 1
 164.173156534 371.284178707 169.572579552 374.170086784 174 379 c 2
 181 386 l 1
 205 386 l 1
 212 379 l 2
 216.349992389 374.254553758 221.63828728 371.385712518 227.122773992 370.393476283 c 1
 228.043376455 364.746851881 230.669118458 359.330881542 235 355 c 2
 250 340 l 2
 252.427076211 337.572923789 255.194936657 335.681365664 258.153197828 334.325325622 c 2
 269.088401141 312.123549198 l 1
 262.318841359 301.317867856 263.956040979 287.206962436 274 278 c 2
 279 273 l 1
 279 54 l 1
 274 49 l 2
 262 37 262 20 274 9 c 2
 289 -6 l 2
 300 -17 317 -17 328 -6 c 2
 343 9 l 2
 354 20 354 37 343 49 c 2
 337 54.6 l 1
 337 272 l 1
 343 278 l 2
 354 289 354 307 343 318 c 2
 328 332 l 2
 325.908448324 334.281692738 323.563821284 336.129541997 321.062358919 337.543547776 c 2
 308.89044419 361.575276856 l 1
 314.639901802 372.284379821 313.009753738 385.990246262 304 395 c 2
 289 409 l 2
 284.692460871 413.307539129 279.464844385 415.928269772 274.037744945 416.862191929 c 1
 273.297053023 422.706996189 270.617804708 428.382195292 266 433 c 2
 251 448 l 2
EndSplineSet
EndChar

StartChar: glyph58
Encoding: 260 -1 58
Width: 385
VWidth: 807
Flags: HMW
HStem: 270 58<77 346>
LayerCount: 2
Fore
SplineSet
366 332 m 2
 355 344 338 344 327 332 c 2
 322.714285714 328 l 1
 101.285714286 328 l 1
 97 332 l 2
 86 344 68 344 57 332 c 2
 43 318 l 2
 32 307 32 289 43 278 c 2
 58 263 l 2
 69 252 86 252 97 263 c 2
 104 270 l 1
 320 270 l 1
 327 263 l 2
 338 252 356 252 367 263 c 2
 381 278 l 2
 392 289 392 307 381 318 c 2
 366 332 l 2
EndSplineSet
EndChar

StartChar: Ccedilla
Encoding: 199 199 59
Width: 385
VWidth: 807
Flags: HMW
VStem: 48 58<221 373 226 373 226 376>
LayerCount: 2
Fore
SplineSet
328 217 m 2
 317 228 299 228 288 217 c 2
 274 202 l 2
 263.060795031 191.972395445 262.093773841 176.958699 271.098936431 166.049557529 c 1
 249.917808219 101.917808219 l 1
 235 87 l 2
 230.44267578 82.4426757799 227.773461019 76.8554736731 226.992355716 71.0917550317 c 1
 221.205313404 70.4809047889 215.574134508 68.1015716845 211.001304649 63.9537557185 c 1
 200.162919815 73.8348668919 184.176342896 73.6796818983 173.499665008 63.4882007377 c 1
 169.298195026 67.4881486211 164.142464196 69.9421035076 158.770122422 70.8500653974 c 1
 157.964463137 76.6991460785 155.041088996 82.3790017532 150 87 c 2
 136.787037037 100.212962963 l 1
 112.093748483 201.102684769 l 1
 122.999910716 213.096816613 122.968661222 230.031338778 112 241 c 2
 106 246.6 l 1
 106 349 l 1
 112 355 l 2
 123 366 123 384 112 395 c 2
 111.530534351 395.438167939 l 1
 135.767224657 493.769882892 l 2
 135.84515842 493.846046115 135.922751817 493.922751817 136 494 c 2
 150 509 l 2
 154.710983071 513.318401148 157.572519351 518.561525693 158.584608839 524.063819204 c 1
 164.173433403 524.927299467 169.572693066 527.572693066 174 532 c 2
 181.5 540 l 1
 204.5 540 l 1
 212 532 l 2
 216.350030704 527.649969296 221.638380438 525.020190149 227.122918913 524.110662559 c 1
 228.043651997 518.591287131 230.669345692 513.330654308 235 509 c 2
 250 494 l 2
 250.44071607 493.55928393 250.892668625 493.136225192 251.354957282 492.730823786 c 2
 271.81424306 430.784652957 l 1
 262.050593322 419.817622916 262.779178969 404.285752612 274 394 c 2
 289 379 l 2
 300 367 317 367 328 379 c 2
 343 394 l 2
 354 405 354 422 343 433 c 2
 328 448 l 2
 327.561585456 448.438414544 327.112051481 448.859355696 326.652284423 449.262823456 c 2
 306.129551715 511.371093493 l 1
 314.947111775 522.333516178 314.237261204 537.832078687 304 549 c 2
 289 563 l 2
 284.692460871 567.307539129 279.464844385 569.928269772 274.037744945 570.862191929 c 1
 273.297053023 576.706996189 270.617804708 582.382195292 266 587 c 2
 251 602 l 2
 240 613 222 613 211 602 c 2
 206.333333333 597 l 1
 179 597 l 1
 174 602 l 2
 163 613 145 613 134 602 c 2
 120 587 l 2
 115.423131039 582.423131039 112.750601123 576.807531691 111.98241025 571.01758975 c 1
 106.192468309 570.249398877 100.576868961 567.576868961 96 563 c 2
 81 549 l 2
 70.2469108106 537.269357248 70.005542268 520.760659656 80.2758943724 509.749677193 c 1
 54.8965517241 406.896551724 l 1
 43 395 l 2
 32 384 32 366 43 355 c 2
 48 350 l 1
 48 246 l 1
 43 241 l 2
 32 230 32 213 43 201 c 2
 55.6086956522 188.391304348 l 1
 80.8327238062 86.8314015173 l 1
 70.0002855419 75.8269279967 70.0560442731 58.9439557269 81 48 c 2
 96 32 l 2
 100.521338608 27.4786613918 106.225301346 24.8157321299 112.13969837 24.0112122145 c 1
 113.07526301 18.528110659 115.695363553 13.3046364467 120 9 c 2
 135 -6 l 2
 139.3472517 -10.3472516998 144.631623929 -12.9764490958 150.112407812 -13.8875921881 c 1
 151.023550904 -19.3683760712 153.6527483 -24.6527483002 158 -29 c 2
 173 -44 l 2
 174.465607069 -45.5988440758 176.055478838 -46.9846629534 177.736501992 -48.1574566327 c 1
 176.06854163 -49.2391863302 174.479965881 -50.5200341193 173 -52 c 2
 158 -67 l 2
 147 -78 147 -95 158 -106 c 2
 173 -121 l 2
 184 -133 202 -133 213 -121 c 2
 227 -106 l 2
 231.728953918 -101.665125575 234.594324073 -96.3984592678 235.596110465 -90.9344012241 c 1
 241.180840789 -90.0690701856 246.575730222 -87.4242697775 251 -83 c 2
 266 -68 l 2
 277 -57 277 -39 266 -28 c 2
 251 -14 l 2
 249.307362658 -12.3073626578 247.448980289 -10.8751817858 245.475861297 -9.70345738336 c 1
 247.06637425 -8.65151429567 248.5829715 -7.41702850142 250 -6 c 2
 265 9 l 2
 269.273166957 13.2731669571 271.886337928 18.45178627 272.839512914 23.8909997574 c 1
 279.115706284 24.5160264212 285.219026502 27.219026502 290 32 c 2
 304 48 l 2
 314.43655807 58.4365580696 314.971139381 74.274194371 305.603743934 85.2640604306 c 1
 325.39697532 145.685503607 l 2
 326.295714436 146.393639274 327.165138072 147.165138072 328 148 c 2
 343 163 l 2
 354 174 354 191 343 202 c 2
 328 217 l 2
EndSplineSet
EndChar

StartChar: ecircumflex
Encoding: 234 234 60
Width: 385
VWidth: 807
Flags: HMW
HStem: 194 58
VStem: 279 58<251 251 251 338>
LayerCount: 2
Fore
SplineSet
212 602 m 2
 201 613 184 613 173 602 c 2
 158 587 l 2
 152.306236 581.306236 149.559649135 574.004920835 149.760239406 566.760239406 c 1
 116.239760594 533.239760594 l 1
 108.995079165 533.440350865 101.693764 530.693764 96 525 c 2
 81 510 l 2
 70 499 70 482 81 471 c 2
 96 456 l 2
 107 444 125 444 136 456 c 2
 150 471 l 2
 157.040822889 477.454087648 159.950546865 485.973724753 158.729171928 494.135049999 c 1
 188.219246793 524.151733343 l 2
 190.817741224 523.71156039 193.46703024 523.633105412 196.083631591 523.916368409 c 2
 226.878818662 493.121181338 l 1
 226.105673162 485.272826935 228.812733608 477.187266392 235 471 c 2
 250 456 l 2
 261 444 279 444 290 456 c 2
 304 471 l 2
 315 482 315 499 304 510 c 2
 289 525 l 2
 283.306236 530.693764 276.004920835 533.440350865 268.760239406 533.239760594 c 1
 235.956666576 566.043333424 l 1
 236.40188916 573.521332616 233.416333634 581.118360835 227 587 c 2
 212 602 l 2
328 140 m 2
 317 151 299 151 288 140 c 2
 274 126 l 2
 267.826574759 119.826574759 264.829081119 112.329844685 265.007519079 105.007519079 c 1
 231.248919407 71.2489194071 l 1
 223.916177237 71.3125856032 216.562945801 68.5629458008 211 63 c 2
 207 59 l 1
 178.285714286 59 l 1
 174 63 l 2
 169.710961137 67.2890388626 164.357699295 69.9057273284 158.770122422 70.8500653974 c 1
 157.964463137 76.6991460785 155.041088996 82.3790017532 150 87 c 2
 135 102 l 2
 133.027065866 103.972934134 130.861116735 105.592007441 128.571390039 106.857219921 c 2
 116.705109564 130.589780872 l 1
 122.673634283 141.678437739 121.105264428 154.894735572 112 164 c 2
 106 170 l 1
 106 194 l 1
 281 194 l 1
 289 186 l 2
 300 175 317 175 328 186 c 2
 343 201 l 2
 354 213 354 230 343 241 c 2
 337 246.6 l 1
 337 311 l 1
 343 317 l 2
 348.5 322.5 351.25 329.5 351.25 336.5 c 0
 351.25 343.5 348.5 350.5 343 356 c 2
 328 371 l 2
 322.5 376.5 315.25 379.25 308 379.25 c 0
 307.591941017 379.25 307.183882034 379.241288307 306.776135079 379.223864921 c 2
 274.19613095 411.80386905 l 1
 274.676475705 419.358924033 271.944432055 427.055567945 266 433 c 2
 251 448 l 2
 240 459 222 459 211 448 c 2
 207.266666667 444 l 1
 178 444 l 1
 174 448 l 2
 163 459 145 459 134 448 c 2
 120 433 l 2
 115.423131039 428.423131039 112.750601123 422.807531691 111.98241025 417.01758975 c 1
 106.192468309 416.249398877 100.576868961 413.576868961 96 409 c 2
 81 395 l 2
 71.9902462617 385.990246262 70.3600981984 372.284379821 76.10955581 361.575276856 c 1
 63.9376410814 337.543547776 l 2
 61.4361787156 336.129541997 59.0915516764 334.281692738 57 332 c 2
 43 318 l 2
 32 307 32 289 43 278 c 2
 48 273 l 1
 48 246 l 1
 43 241 l 2
 32 230 32 213 43 201 c 2
 48 196 l 1
 48 169.357142857 l 1
 43 164 l 2
 32 153 32 136 43 124 c 2
 58 109 l 2
 60.4275917272 106.572408273 63.1474083267 104.680562145 66.0304674928 103.324461617 c 2
 76.9014234006 81.8612922604 l 1
 70.232284277 71.185955041 71.5984764768 57.4015235232 81 48 c 2
 96 32 l 2
 100.521338608 27.4786613918 106.225301346 24.8157321299 112.13969837 24.0112122145 c 1
 113.07526301 18.528110659 115.695363553 13.3046364467 120 9 c 2
 135 -6 l 2
 146 -17 163 -17 174 -6 c 2
 181 1 l 1
 205 1 l 1
 212 -6 l 2
 223 -17 240 -17 251 -6 c 2
 266 9 l 2
 272.6035678 15.6035678001 275.242853083 24.3694715187 273.917855848 32.9178558484 c 1
 304.112407812 63.1124078119 l 1
 312.49983927 61.7180543037 321.3472517 64.3472516998 328 71 c 2
 343 86 l 2
 354 97 354 114 343 126 c 2
 328 140 l 2
106 251 m 1
 106 272 l 1
 112 278 l 2
 121.362837566 287.362837566 122.756336288 301.797072578 116.180496165 312.669492214 c 1
 126.578903865 333.781410878 l 2
 130.014245698 335.15633218 133.229195221 337.229195221 136 340 c 2
 150 355 l 2
 154.710316249 359.317789895 157.571709234 364.71411836 158.584178956 370.34227577 c 1
 164.173156534 371.284178707 169.572579552 374.170086784 174 379 c 2
 181 386 l 1
 205 386 l 1
 212 379 l 2
 218.307147317 372.119475654 226.586861938 369.184085914 234.577094303 370.193830781 c 1
 265.146373423 339.175003438 l 2
 265.048791141 338.285409725 265 337.392704862 265 336.5 c 0
 265 329.5 268 322.5 274 317 c 2
 279 312 l 1
 279 251 l 1
 106 251 l 1
EndSplineSet
EndChar

StartChar: Edieresis
Encoding: 203 203 61
Width: 385
VWidth: 807
Flags: HMW
HStem: 1 58<69 77 77 85 77 308> 270 58<77 231> 540 58
VStem: 48 58<22 569 30 38 30 569 291 307 561 569 569 576.5>
LayerCount: 2
Fore
SplineSet
289 717 m 2
 278 728 261 728 250 717 c 2
 235 702 l 2
 230.679130956 697.679130956 228.055526393 692.432481286 227.129186312 686.987355871 c 1
 221.218542926 686.181111815 215.518659858 683.518659858 211 679 c 2
 197 664 l 2
 195.447573094 662.447573094 194.114239761 660.775640603 193 659.015123142 c 1
 191.885760239 660.775640603 190.552426906 662.447573094 189 664 c 2
 174 679 l 2
 169.669118458 683.330881542 164.253148119 685.956623545 158.606523717 686.877226008 c 1
 157.614287482 692.36171272 154.745446242 697.650007611 150 702 c 2
 135 717 l 2
 124 728 107 728 96 717 c 2
 81 702 l 2
 76.6791309559 697.679130956 74.0555263933 692.432481286 73.1291863121 686.987355871 c 1
 67.2185429257 686.181111815 61.518659858 683.518659858 57 679 c 2
 43 664 l 2
 32 653 32 636 43 624 c 2
 58 609 l 2
 59.1870247138 607.812975286 60.4439185683 606.754043997 61.755602219 605.823206132 c 1
 60.0675211757 604.745558846 58.4711568013 603.471156802 57 602 c 2
 43 587 l 2
 37.5 581.5 34.75 574.5 34.75 567.5 c 0
 34.75 560.5 37.5 553.5 43 548 c 2
 48 542.666666667 l 1
 48 323 l 1
 43 318 l 2
 32 307 32 289 43 278 c 2
 48 273 l 1
 48 54 l 1
 43 49 l 2
 37.5 43 34.75 35.75 34.75 28.625 c 0
 34.75 21.5 37.5 14.5 43 9 c 2
 58 -6 l 2
 63.5 -11.5 70.5 -14.25 77.5 -14.25 c 0
 84.5 -14.25 91.5 -11.5 97 -6 c 2
 104 1 l 1
 282 1 l 1
 289 -6 l 2
 300 -17 317 -17 328 -6 c 2
 343 9 l 2
 354 20 354 37 343 49 c 2
 328 63 l 2
 317 74 299 74 288 63 c 2
 284 59 l 1
 106 59 l 1
 106 270 l 1
 205 270 l 1
 212 263 l 2
 223 252 240 252 251 263 c 2
 266 278 l 2
 277 289 277 307 266 318 c 2
 251 332 l 2
 240 344 222 344 211 332 c 2
 207 328 l 1
 106 328 l 1
 106 540 l 1
 281.5 540 l 1
 289 532 l 2
 300 521 317 521 328 532 c 2
 343 548 l 2
 354 559 354 576 343 587 c 2
 328 602 l 2
 326.679267149 603.320732851 325.257622341 604.482889768 323.759297892 605.486470753 c 1
 325.246700891 606.496203988 326.667380404 607.667380403 328 609 c 2
 343 624 l 2
 348.5 630 351.25 637.25 351.25 644.375 c 0
 351.25 651.5 348.5 658.5 343 664 c 2
 328 679 l 2
 323.481340142 683.518659858 317.781457074 686.181111815 311.870813688 686.987355871 c 1
 310.944473607 692.432481286 308.320869044 697.679130956 304 702 c 2
 289 717 l 2
227.122918913 601.110662559 m 0
 227.354831716 599.720450947 227.694911896 598.346654676 228.143159455 597 c 1
 157.480189686 597 l 1
 157.963694016 598.331527431 158.331833734 599.689590109 158.584608839 601.063819204 c 0
 164.173433403 601.927299467 169.572693066 604.572693066 174 609 c 2
 189 624 l 2
 190.552426906 625.693556625 191.885760239 627.486701237 193 629.348513222 c 1
 194.114239761 627.486701237 195.447573094 625.693556625 197 624 c 2
 212 609 l 2
 216.350030704 604.649969296 221.638380438 602.020190149 227.122918913 601.110662559 c 0
61.75560222 605.823206132 m 1
 61.755602219 605.823206132 l 1
 61.75560222 605.823206132 l 1
EndSplineSet
EndChar

StartChar: asciitilde
Encoding: 126 126 62
Width: 385
VWidth: 807
Flags: W
LayerCount: 2
Fore
SplineSet
135 332 m 2
 124 344 107 344 96 332 c 2
 81 318 l 2
 75.4370541992 312.437054199 72.6874143968 305.083822763 72.7510805929 297.751080593 c 1
 38.9949991108 263.994999111 l 1
 31.8308459868 264.139766968 24.6296477699 261.141433931 19 255 c 2
 4 241 l 2
 -7 230 -7 213 4 201 c 2
 19 186 l 2
 31 175 48 175 59 186 c 2
 74 201 l 2
 80.5333816141 208.127325397 83.1863018359 217.018496882 81.9587606653 225.368738534 c 1
 111.219246793 255.151733343 l 2
 113.817741224 254.71156039 116.46703024 254.633105412 119.083631591 254.916368409 c 2
 149.886334776 224.113665224 l 1
 149.088412975 216.134650107 151.79296805 207.771307582 158 201 c 2
 173 186 l 2
 184 175 202 175 213 186 c 2
 227 201 l 2
 233.957460754 207.957460754 236.881066496 216.595694429 235.770817226 224.770817226 c 1
 266.026798967 255.026798967 l 1
 274.535314488 253.834829206 283.492562883 256.492562883 290 263 c 2
 304 278 l 2
 315 289 315 307 304 318 c 2
 289 332 l 2
 278 344 261 344 250 332 c 2
 235 318 l 2
 229.437054199 312.437054199 226.687414397 305.083822763 226.751080593 297.751080593 c 1
 192.994999111 263.994999111 l 2
 192.349639515 264.008040056 191.703979309 263.9955756 191.059194357 263.957605744 c 2
 158.964053532 296.625874083 l 1
 159.367208919 304.326631977 156.379191075 312.152408181 150 318 c 2
 135 332 l 2
EndSplineSet
EndChar

StartChar: at
Encoding: 64 64 63
Width: 385
VWidth: 807
Flags: HMW
VStem: -29 58<106 334 111 334 111 338> 48 58<295 331 295 338> 279 58<225 281.5 221 334 225 225>
LayerCount: 2
Fore
SplineSet
135 -91 m 2
 129.355948962 -85.3559489624 122.132295671 -82.6078353898 114.950013897 -82.7556592822 c 1
 82.211309794 -49.4889115648 l 1
 82.6137517596 -41.7511894093 79.876648495 -33.876648495 74 -28 c 2
 61.1659192825 -16.7701793722 l 1
 35.2341139875 86.236713883 l 2
 36.4643503526 87.4944512575 37.5529790234 88.828417346 38.5 90.2225451802 c 1
 39.5066613418 88.7406196147 40.6733280085 87.3266719915 42 86 c 2
 57 71 l 2
 59.6356945388 68.5839466727 62.5126003868 66.6985582255 65.5141616666 65.3438346583 c 2
 76.7322043918 43.195391329 l 1
 70.2562215279 31.9506769992 71.678820064 18.321179936 81 9 c 2
 96 -6 l 2
 106.664742799 -16.6647427994 123.909296945 -16.9897820554 134.975117768 -6.97511776803 c 1
 135 -7 l 2
 146 -18 163 -18 174 -7 c 2
 189 8 l 2
 190.702111505 9.70211150485 192.140842685 11.5478850051 193.316193538 13.4965657109 c 1
 194.363850143 11.9147626782 195.591785631 10.4082143714 197 9 c 2
 212 -6 l 2
 222.834784966 -16.8347849655 239.490688869 -16.9975185448 250.500334992 -6.48820073767 c 0
 251.905634077 -7.82609512308 253.417691573 -8.99103076599 255.008904702 -9.98300766642 c 1
 253.241377673 -11.10067616 251.560326395 -12.4396736045 250 -14 c 2
 235 -28 l 2
 229.437054199 -33.5629458008 226.687414397 -40.916177237 226.751080593 -48.2489194071 c 1
 192.248819692 -82.7511803082 l 1
 185.332759351 -82.8161794271 178.434214009 -85.5657859911 173 -91 c 2
 168.714285714 -95 l 1
 139.285714286 -95 l 1
 135 -91 l 2
135 602 m 2
 124 613 107 613 96 602 c 2
 81 587 l 2
 75.306236 581.306236 72.5596491352 574.004920835 72.7602394057 566.760239406 c 1
 39.2397605943 533.239760594 l 1
 31.9950791648 533.440350865 24.693764 530.693764 19 525 c 2
 4 510 l 2
 -6.75308841924 499.246911581 -6.99445769739 482.760158175 3.27589216554 471.74966825 c 1
 -22.1538461538 368.692307692 l 1
 -34 356 l 2
 -45 345 -45 328 -34 317 c 2
 -29 312 l 1
 -29 131 l 1
 -34 126 l 2
 -45 114 -45 97 -34 86 c 2
 -21.4482758621 73.4482758621 l 1
 3.66776937472 -28.3378022028 l 1
 -6.99886204831 -39.3654334638 -6.88811850655 -57.1118814934 4 -68 c 2
 19 -83 l 2
 25.7713075819 -89.2070319501 34.1346501072 -91.9115870248 42.1136652241 -91.1136652241 c 1
 72.9163684093 -121.916368409 l 1
 72.0244199652 -130.155614371 74.7189638287 -138.718963829 81 -145 c 2
 96 -160 l 2
 107 -171 125 -171 136 -160 c 2
 142.533333333 -153 l 1
 166 -153 l 1
 173 -160 l 2
 184 -171 202 -171 213 -160 c 2
 227 -145 l 2
 234.032400657 -138.553632731 236.94357973 -129.703219539 235.733537221 -121.266462779 c 1
 266.026798967 -90.9732010335 l 1
 274.535314488 -92.1651707944 283.492562883 -89.5074371166 290 -83 c 2
 304 -68 l 2
 315 -57 315 -39 304 -28 c 2
 289 -14 l 2
 287.582971497 -12.582971497 286.066374245 -11.3484857011 284.475861291 -10.2965426155 c 1
 286.448980284 -9.12481821321 288.307362655 -7.69263734032 290 -6 c 2
 304 9 l 2
 315 20 315 37 304 49 c 2
 303.13507927 49.8072593478 l 1
 317.711429391 123.064498114 326.013736099 164.806150415 330.742512239 188.742512239 c 1
 343 201 l 2
 354 213 354 230 343 241 c 2
 336.999590063 246.600382608 l 1
 336.999590063 276.411578745 336.990018719 296.83808349 336.950748329 310.950748329 c 1
 343 317 l 2
 354 328 354 345 343 356 c 2
 329.895652174 369.104347826 l 1
 304.072488939 471.072735984 l 1
 314.999946688 482.074821276 314.975783709 499.024216291 304 510 c 2
 289 525 l 2
 283.306236 530.693764 276.004920835 533.440350865 268.760239406 533.239760594 c 1
 235.956666576 566.043333424 l 1
 236.40188916 573.521332616 233.416333634 581.118360835 227 587 c 2
 212 602 l 2
 201 613 184 613 173 602 c 2
 168 597 l 1
 140 597 l 1
 135 602 l 2
174 449 m 2
 163 460 145 460 134 449 c 2
 133.977268493 448.975644814 l 1
 122.968751842 458.989770648 106.66455571 458.66455571 96 448 c 2
 81 433 l 2
 72.0021428194 424.002142819 70.3644159881 410.989669085 76.0868195062 400.53038723 c 1
 63.6186056915 375.913657391 l 2
 61.2367445613 374.640278582 59.0023927846 373.002392785 57 371 c 2
 43 356 l 2
 41.4475730941 354.447573094 40.1142397608 352.775640603 39 351.017934106 c 1
 37.8857602392 352.775640603 36.5524269059 354.447573094 35 356 c 2
 34.6312849162 356.368715084 l 1
 59.953271028 456.953271028 l 1
 74 471 l 2
 80.4866269487 477.486626949 83.1481330636 486.059683443 81.9845183448 494.258462189 c 1
 111.377380616 524.125402884 l 1
 120.077298505 522.701900626 129.326766332 525.326766332 136 532 c 2
 143 540 l 1
 165.5 540 l 1
 173 532 l 2
 179.281036171 525.718963829 187.844385629 523.024419965 196.083631591 523.916368409 c 1
 226.878818662 493.121181338 l 1
 226.105673162 485.272826935 228.812733608 477.187266392 235 471 c 2
 247.941176471 458.058823529 l 1
 250.417547444 448.566068132 l 1
 239.373632079 458.996647257 221.80795788 458.80795788 211 448 c 2
 197 433 l 2
 195.592013267 431.592013267 194.364247138 430.085724387 193.316701613 428.506298472 c 1
 192.14125731 430.451583054 190.702356772 432.297643227 189 434 c 2
 174 449 l 2
29 131.6 m 1
 29 310.571428571 l 1
 35 317 l 2
 36.5524269059 318.552426906 37.8857602392 320.224359397 39 321.982065894 c 1
 40.1142397608 320.224359397 41.4475730941 318.552426906 43 317 c 2
 48 312 l 1
 48 131.6 l 1
 42 126 l 2
 40.6733280085 124.552721464 39.5066613418 123.032713235 38.5 121.459273002 c 1
 37.4933386582 123.032713235 36.3266719915 124.552721464 35 126 c 2
 29 131.6 l 1
279 312 m 1
 279 246 l 1
 274 241 l 2
 262 230 262 213 274 201 c 2
 274.139664804 200.860335196 l 1
 249 76 l 1
 227.36527575 163.340183083 l 1
 238.829544705 174.187831532 238.878035443 190.626338586 227.510747963 201.521282656 c 1
 237.696975915 212.133277041 238.716385686 226.443821961 230.568977276 237.108645599 c 1
 254.473404255 382.473404255 l 1
 263.97677397 391.97677397 l 1
 266.859261087 381.033767918 270.493920283 367.011939122 273.466118417 355.499087322 c 1
 262.002720752 344.489430546 262.180681373 327.834375737 274 317 c 2
 279 312 l 1
196.467252255 48.4051301192 m 2
 195.003639723 46.7320975505 193.748212848 44.9678521443 192.700971635 43.1410343549 c 1
 191.940581967 44.3609958993 191.084865495 45.5498974795 190.133822223 46.6988649594 c 2
 194 58 l 1
 196.467252255 48.4051301192 l 2
165.333333333 155.666666667 m 1
 165 155 l 1
 134.49709703 63.4912910892 l 1
 132.628494688 65.2744412593 130.597309785 66.7502312199 128.459590778 67.9186609708 c 2
 116.391959512 91.6229366726 l 1
 122.725123095 102.249724671 121.261136591 115.896941901 112 126 c 2
 105.020735561 132.513980143 l 1
 105.149405974 191.811569029 105.837775126 251.668856654 105.9758675 310.9758675 c 1
 112 317 l 2
 121.49273906 326.49273906 122.793469496 340.453846461 115.902191308 351.171130442 c 1
 126.141949812 372.029897765 l 2
 129.530656794 373.438455909 132.716282783 375.580069217 135.487449114 378.454737687 c 1
 156.107033714 315.908664402 l 1
 147.041058917 304.826699635 147.672047679 288.327952321 158 278 c 2
 163 273 l 1
 163 245.666666667 l 1
 158 241 l 2
 147.158341143 230.158341143 147.002279265 213.488174843 157.531814367 201.521282657 c 1
 147.002279265 190.511825158 147.158341142 173.841658857 158 163 c 2
 165.333333333 155.666666667 l 1
197.909090909 393.090909091 m 1
 196 381 l 1
 190.626401968 396.762554226 l 2
 191.375588791 397.643631573 192.06122093 398.555770686 192.683298387 399.493701528 c 1
 193.85874269 397.548416946 195.297643228 395.702356773 197 394 c 2
 197.909090909 393.090909091 l 1
EndSplineSet
EndChar

StartChar: less
Encoding: 60 60 64
Width: 385
VWidth: 807
Flags: W
LayerCount: 2
Fore
SplineSet
328 63 m 2
 321.321019952 69.6789800485 312.061366999 72.3026169617 303.354907112 70.8709107396 c 1
 122 222 l 1
 300.254582054 371.419282016 l 1
 309.703883919 368.090421543 320.315883576 370.617327538 328 379 c 2
 343 394 l 2
 354 405 354 422 343 433 c 2
 328 448 l 2
 317 459 299 459 288 448 c 2
 274 433 l 2
 269.087624471 428.496989098 266.18620172 422.988501808 265.295731747 417.297751063 c 2
 80.566889784 263.756895405 l 1
 72.180376181 264.905077898 63.4039366991 261.986112763 57 255 c 2
 43 241 l 2
 32 230 32 213 43 201 c 2
 58 186 l 2
 65.1741427759 178.825857224 74.9004338777 176.330653045 83.8498775825 178.514387464 c 1
 265.009244651 27.9403680827 l 1
 265.195379761 21.052844949 268.192298211 14.3237266397 274 9 c 2
 289 -6 l 2
 300 -17 317 -17 328 -6 c 2
 343 9 l 2
 354 20 354 37 343 49 c 2
 328 63 l 2
EndSplineSet
EndChar

StartChar: greater
Encoding: 62 62 65
Width: 385
VWidth: 807
Flags: W
LayerCount: 2
Fore
SplineSet
328 255 m 2
 321.380838859 262.220903063 312.227024333 265.096686039 303.588970821 263.627348928 c 1
 120.121301937 416.119956832 l 1
 119.520156034 422.225186635 116.813055389 428.186944611 112 433 c 2
 97 448 l 2
 86 459 68 459 57 448 c 2
 43 433 l 2
 32 422 32 405 43 394 c 2
 58 379 l 2
 65.3193841789 371.015217259 75.2952998333 368.34349747 84.3924425174 370.984840632 c 1
 263 222 l 1
 80.8928775525 70.9843374825 l 1
 72.4083459307 72.1484087941 63.4869629665 69.4869629665 57 63 c 2
 43 49 l 2
 32 37 32 20 43 9 c 2
 58 -6 l 2
 69 -17 86 -17 97 -6 c 2
 112 9 l 2
 117.592623466 14.5926234657 120.341843547 21.7361942321 120.247660244 28.9850682545 c 1
 300.647172199 178.92751975 l 1
 309.996764297 176.064629682 320.422123099 178.422123099 328 186 c 2
 343 201 l 2
 354 213 354 230 343 241 c 2
 328 255 l 2
EndSplineSet
EndChar

StartChar: Adieresis
Encoding: 196 196 66
Width: 385
VWidth: 807
Flags: HMW
HStem: 155 58<77 308>
LayerCount: 2
Fore
SplineSet
289 717 m 2
 278 728 261 728 250 717 c 2
 235 702 l 2
 230.679130956 697.679130956 228.055526393 692.432481286 227.129186312 686.987355871 c 1
 221.218542926 686.181111815 215.518659858 683.518659858 211 679 c 2
 197 664 l 2
 195.447573094 662.447573094 194.114239761 660.775640603 193 659.015123142 c 1
 191.885760239 660.775640603 190.552426906 662.447573094 189 664 c 2
 174 679 l 2
 169.669118458 683.330881542 164.253148119 685.956623545 158.606523717 686.877226008 c 1
 157.614287482 692.36171272 154.745446242 697.650007611 150 702 c 2
 135 717 l 2
 124 728 107 728 96 717 c 2
 81 702 l 2
 76.6791309559 697.679130956 74.0555263933 692.432481286 73.1291863121 686.987355871 c 1
 67.2185429257 686.181111815 61.518659858 683.518659858 57 679 c 2
 43 664 l 2
 32 653 32 636 43 624 c 2
 58 609 l 2
 62.3500307035 604.649969296 67.6383804378 602.020190149 73.1229189132 601.110662559 c 1
 74.0436519968 595.591287131 76.6693456924 590.330654308 81 586 c 2
 96 571 l 2
 107 560 125 560 136 571 c 2
 150 586 l 2
 154.710983071 590.318401148 157.572519351 595.561525693 158.584608839 601.063819204 c 1
 164.173433403 601.927299467 169.572693066 604.572693066 174 609 c 2
 189 624 l 2
 190.552426906 625.693556625 191.885760239 627.486701237 193 629.348513222 c 1
 194.114239761 627.486701237 195.447573094 625.693556625 197 624 c 2
 212 609 l 2
 216.350030704 604.649969296 221.638380438 602.020190149 227.122918913 601.110662559 c 1
 228.043651997 595.591287131 230.669345692 590.330654308 235 586 c 2
 250 571 l 2
 261 560 279 560 290 571 c 2
 304 586 l 2
 308.291474584 590.291474584 310.908698795 595.496176644 311.851672632 600.960924097 c 1
 317.700186562 601.699733046 323.379425013 604.379425013 328 609 c 2
 343 624 l 2
 348.5 630 351.25 637.25 351.25 644.375 c 0
 351.25 651.5 348.5 658.5 343 664 c 2
 328 679 l 2
 323.481340142 683.518659858 317.781457074 686.181111815 311.870813688 686.987355871 c 1
 310.944473607 692.432481286 308.320869044 697.679130956 304 702 c 2
 289 717 l 2
212 602 m 2
 201 613 184 613 173 602 c 2
 158 587 l 2
 147.267279317 576.267279317 147.006494385 559.82259368 157.217645203 548.81229298 c 1
 63.6490875602 221.929929269 l 2
 61.2558064958 220.654242161 59.0109324051 219.010932405 57 217 c 2
 43 202 l 2
 32 191 32 174 43 163 c 2
 45.9393063584 160.060693642 l 1
 17.8484950964 61.92526209 l 1
 4 49 l 2
 -7 37 -7 20 4 9 c 2
 19 -6 l 2
 31 -17 48 -17 59 -6 c 2
 74 9 l 2
 85 20 85 37 74 49 c 2
 73.7573562698 49.2123132639 l 1
 103.879746835 154.879746835 l 1
 104 155 l 1
 280.085972851 155 l 1
 310.723538068 47.525366461 l 1
 301.017869575 35.6393712114 301.443356886 19.5566431139 312 9 c 2
 327 -6 l 2
 338 -17 356 -17 367 -6 c 2
 381 9 l 2
 392 20 392 37 381 49 c 2
 367.151504904 61.92526209 l 1
 339.283236994 159.283236994 l 1
 343 163 l 2
 354 174 354 191 343 202 c 2
 328 217 l 2
 325.989067595 219.010932405 323.744193504 220.654242161 321.35091244 221.929929269 c 2
 227.798009009 548.75760489 l 1
 238.99382667 559.768079611 238.727823667 576.249494972 227 587 c 2
 212 602 l 2
263.552036199 213 m 1
 120.447963801 213 l 1
 192 464 l 1
 263.552036199 213 l 1
EndSplineSet
EndChar

StartChar: slash
Encoding: 47 47 67
Width: 385
VWidth: 807
Flags: W
LayerCount: 2
Fore
SplineSet
328 602 m 2
 317 613 299 613 288 602 c 2
 274 587 l 2
 263.073375949 576.983927953 262.096011327 561.993226193 271.067906134 551.087212831 c 1
 58.3995450759 -89.6918054886 l 2
 57.9217199662 -90.109060215 57.4548749479 -90.5451250521 57 -91 c 2
 43 -105 l 2
 32 -116 32 -134 43 -145 c 2
 58 -160 l 2
 69 -171 86 -171 97 -160 c 2
 112 -145 l 2
 122.657068274 -134.342931726 122.989308894 -117.115518581 112.996721859 -106.04878127 c 1
 325.150191549 529.49321451 l 2
 326.136740348 530.253353867 327.08894903 531.08894903 328 532 c 2
 343 548 l 2
 354 559 354 576 343 587 c 2
 328 602 l 2
EndSplineSet
EndChar

StartChar: two
Encoding: 50 50 68
Width: 385
VWidth: 807
Flags: HMW
HStem: 1 58<127 308 127 308 127 316>
VStem: 87 58
LayerCount: 2
Fore
SplineSet
328 63 m 2
 317 74 299 74 288 63 c 2
 284 59 l 1
 127 59 l 1
 239.416753567 255.947180668 l 2
 243.615445301 257.244212353 247.59515213 259.59515213 251 263 c 2
 266 278 l 2
 276.642924974 288.642924974 276.988408857 305.838767006 267.036451649 316.907125258 c 1
 271.486125503 330.108368795 277.837754698 348.99535035 286.956742762 376.122067302 c 0
 288.018624287 376.989251395 289.036182689 377.94856224 290 379 c 2
 304 394 l 2
 315 405 315 422 304 433 c 2
 298 439 l 1
 298 464.571428571 l 1
 304 471 l 2
 315 482 315 499 304 510 c 2
 289 525 l 2
 286.897438842 527.102561158 284.575666276 528.803234731 282.11848328 530.102020721 c 2
 270.457913516 553.730017349 l 1
 276.714820473 564.318913328 275.228849301 577.771150699 266 587 c 2
 251 602 l 2
 240 613 222 613 211 602 c 2
 206.333333333 597 l 1
 179 597 l 1
 174 602 l 2
 163 613 145 613 134 602 c 2
 120 587 l 2
 111.043514095 578.043514095 109.379631805 565.109244401 115.00835313 554.674820816 c 1
 102.88151672 530.102020721 l 2
 100.424333724 528.803234731 98.1025611575 527.102561158 96 525 c 2
 81 510 l 2
 70.1652150345 499.165215034 70.0024814552 482.509311131 80.5117992623 471.499665008 c 1
 70.0024814552 460.460875359 70.1652150345 442.834784966 81 432 c 2
 96 417 l 2
 107 406 125 406 136 417 c 2
 150 432 l 2
 161.819765417 442.834784966 161.997292958 460.460875359 150.532582623 471.499665008 c 1
 160.399302878 480.974749439 161.643071979 494.631796614 154.263889926 505.161212354 c 1
 164.767863722 525.794018026 l 2
 168.096926431 527.168990299 171.237650957 529.237650957 174 532 c 2
 181.5 540 l 1
 204.5 540 l 1
 212 532 l 2
 214.310812486 529.689187514 216.886411137 527.863816333 219.615546649 526.523886455 c 2
 230.541050824 504.268229803 l 1
 224.285343537 493.67960215 225.771659929 480.228340071 235 471 c 2
 240 466 l 1
 240 438 l 1
 235 433 l 2
 224.876717994 422.876717994 224.069875858 407.671741512 232.579473594 396.738420781 c 1
 211 332 l 1
 197 318 l 2
 188.827744998 309.827744998 186.72692198 297.791851462 190.697530944 287.633162908 c 1
 66.3375188785 69.1849838194 l 2
 62.9336127052 67.8099843307 59.7483230576 65.7483230576 57 63 c 2
 43 49 l 2
 32 37 32 20 43 9 c 2
 58 -6 l 2
 69 -17 86 -17 97 -6 c 2
 104 1 l 1
 282 1 l 1
 289 -6 l 2
 300 -17 317 -17 328 -6 c 2
 343 9 l 2
 354 20 354 37 343 49 c 2
 328 63 l 2
EndSplineSet
EndChar

StartChar: exclam
Encoding: 33 33 69
Width: 385
VWidth: 807
Flags: HMW
VStem: 163 58<176 569 184 569>
LayerCount: 2
Fore
SplineSet
212 602 m 2
 201 613 184 613 173 602 c 2
 158 587 l 2
 147 576 147 559 158 548 c 2
 163 542.666666667 l 1
 163 207 l 1
 158 202 l 2
 147 191 147 174 158 163 c 2
 173 148 l 2
 174.544543192 146.455456808 176.227097093 145.127787585 178.008904702 144.016992334 c 1
 176.241377673 142.89932384 174.560326395 141.560326395 173 140 c 2
 158 126 l 2
 153.357748914 120.935726088 150.67463375 114.980935847 149.950654509 108.962429356 c 1
 144.10384371 108.127290796 138.473147677 105.473147677 134 101 c 2
 120 86 l 2
 114.5 80.5 111.75 73.5 111.75 66.375 c 0
 111.75 59.25 114.5 52 120 46 c 2
 135 31 l 2
 139.400907994 26.5990920059 144.762212245 23.9589104821 150.315437195 23.0794554284 c 1
 151.378364378 17.9376441483 153.939885313 13.0601146872 158 9 c 2
 173 -6 l 2
 184 -17 202 -17 213 -6 c 2
 227 9 l 2
 231.710983071 13.3184011485 234.572519351 18.5615256927 235.584608839 24.0638192035 c 1
 241.173433403 24.9272994667 246.572693066 27.5726930655 251 32 c 2
 266 48 l 2
 277 59 277 76 266 87 c 2
 251 102 l 2
 246.679101574 106.320898426 241.27811106 108.944509288 235.645568133 109.870832585 c 1
 234.691172431 115.578258752 231.809316386 121.190683614 227 126 c 2
 212 140 l 2
 210.582971497 141.417028503 209.066374245 142.651514299 207.475861291 143.703457384 c 1
 209.448980284 144.875181787 211.307362655 146.30736266 213 148 c 2
 227 163 l 2
 239 174 239 191 227 202 c 2
 221 208 l 1
 221 541.142857143 l 1
 227 548 l 2
 239 559 239 576 227 587 c 2
 212 602 l 2
EndSplineSet
EndChar

StartChar: AE
Encoding: 198 198 70
Width: 385
VWidth: 807
Flags: W
HStem: -19 20G<296.533 366> 218.135 82.6619<207.325 240>
LayerCount: 2
Fore
SplineSet
405 63 m 2
 393 74 376 74 365 63 c 2
 361 59 l 1
 298 59 l 1
 298 232 l 1
 359 232 l 1
 366 225 l 2
 377 214 394 214 405 225 c 2
 420 240 l 2
 431 251 431 268 420 279 c 2
 405 294 l 2
 393 305 376 305 365 294 c 2
 361.266666667 290 l 1
 298 290 l 1
 298 540 l 1
 358.5 540 l 1
 366 532 l 2
 377 521 394 521 405 532 c 2
 420 548 l 2
 431 559 431 576 420 587 c 2
 405 602 l 2
 393 613 376 613 365 602 c 2
 360.333333333 597 l 1
 294 597 l 1
 289 602 l 2
 283.5 607.5 276.5 610.25 269.5 610.25 c 0
 262.5 610.25 255.5 607.5 250 602 c 2
 248.137931034 600.137931034 l 1
 244 604 l 2
 233 615 216 615 205 604 c 2
 190 590 l 2
 180.483630158 580.483630158 179.200105313 565.728177136 186.149425466 554.798559693 c 1
 -10.1252535748 62.7551246788 l 2
 -11.1210700987 61.9204251848 -12.0814538991 61.0020502919 -13 60 c 2
 -28 46 l 2
 -39 35 -39 17 -28 6 c 2
 -12 -9 l 2
 -1 -20 16 -20 27 -9 c 2
 42 6 l 2
 52.355874454 16.355874454 52.9622820255 32.915955106 43.8192227146 43.9984273245 c 1
 113.105590796 216.896520152 l 1
 121.286552543 216.065873096 129.767033046 218.767033046 136 225 c 2
 142.533333333 232 l 1
 205 232 l 1
 212 225 l 2
 219.753201864 217.246798136 230.487170957 214.958336194 240 218.134614174 c 1
 240 53.6666666667 l 1
 235 49 l 2
 229.5 43 226.75 35.75 226.75 28.625 c 0
 226.75 21.5 229.5 14.5 235 9 c 2
 250 -6 l 2
 255.5 -11.5 262.75 -14.25 270 -14.25 c 0
 277.25 -14.25 284.5 -11.5 290 -6 c 2
 296.533333333 1 l 1
 359 1 l 1
 366 -6 l 2
 377 -17 394 -17 405 -6 c 2
 420 9 l 2
 431 20 431 37 420 49 c 2
 405 63 l 2
142.400735294 290 m 1
 238.67578769 530.24600231 l 2
 239.122753443 530.491880494 239.564346481 530.750728367 240 531.022545928 c 1
 240 300.796478507 l 1
 230.144600341 304.074080891 218.808588055 301.808588055 211 294 c 2
 207.266666667 290 l 1
 142.400735294 290 l 1
EndSplineSet
EndChar

StartChar: ampersand
Encoding: 38 38 71
Width: 385
VWidth: 807
Flags: W
HStem: -19 20G<97 135>
LayerCount: 2
Fore
SplineSet
366 140 m 2
 355 151 338 151 327 140 c 2
 312 126 l 2
 301.165324368 114.180353856 301.002484741 97.5098731631 311.511481119 86.5000016975 c 1
 307.219354893 82.0033969407 304.707399287 76.564977358 303.975614301 70.9659832924 c 1
 298.335843737 70.1654948554 292.895865049 67.6729006704 288.500334992 63.4882007377 c 0
 287.241176077 64.6901377533 285.908162984 65.7524822073 284.518450511 66.6752340997 c 2
 244 156 l 1
 290.000692797 339.044423422 l 1
 294.146574303 335.265408878 299.045559015 332.954737008 304.112407812 332.112407812 c 1
 304.988923386 326.839918263 307.455387203 321.749195008 311.511799262 317.499665008 c 1
 301.002481455 306.460875359 301.165215034 288.834784966 312 278 c 2
 327 263 l 2
 338 252 356 252 367 263 c 2
 381 278 l 2
 391.834784966 288.834784966 391.997518545 306.460875359 381.488200738 317.499665008 c 1
 391.997518545 328.509311131 391.834784966 345.165215034 381 356 c 2
 366 371 l 2
 361.679130956 375.320869044 356.432481286 377.944473607 350.987355871 378.870813688 c 1
 350.181111815 384.781457074 347.518659858 390.481340142 343 395 c 2
 328 409 l 2
 317.165215034 419.834784966 299.539124641 419.997518545 288.500334992 409.488200738 c 1
 277.490688869 419.997518545 260.834784966 419.834784966 250 409 c 2
 235 395 l 2
 224.284274601 384.284274601 224.00734655 366.925678161 234.169215848 355.866607396 c 1
 205 240 l 1
 160 341 l 1
 189.266462779 370.266462779 l 1
 197.703219539 369.05642027 206.553632731 371.967599343 213 379 c 2
 227 394 l 2
 239 405 239 422 227 433 c 2
 221 439 l 1
 221 464.571428571 l 1
 227 471 l 2
 239 482 239 499 227 510 c 2
 212 525 l 2
 209.897438842 527.102561158 207.575666276 528.803234731 205.11848328 530.102020721 c 2
 193.457913516 553.730017349 l 1
 199.714820473 564.318913328 198.228849301 577.771150699 189 587 c 2
 174 602 l 2
 163.165215034 612.834784966 145.539124641 612.997518545 134.500334992 602.488200738 c 1
 123.490688869 612.997518545 106.834784966 612.834784966 96 602 c 2
 81 587 l 2
 71.8654316624 577.865431662 70.3163486625 564.593325868 76.3527510002 554.055431462 c 1
 64.3047798983 530.268411594 l 2
 61.6655017532 528.949705463 59.1935682645 527.193568265 57 525 c 2
 43 510 l 2
 32.1652150345 499.165215034 32.0024814552 482.509311131 42.5117992623 471.499665008 c 1
 32.0024814552 460.460875359 32.1652150345 442.834784966 43 432 c 2
 58 417 l 2
 59.7818026059 415.218197394 61.7210343288 413.725014836 63.766693785 412.520452326 c 2
 90 354 l 1
 77.3796907433 340.997257129 l 1
 70.0036667053 341.103830552 62.5960161056 338.104744842 57 332 c 2
 43 318 l 2
 34.2646736639 309.264673664 32.4662497094 296.114954903 37.6047281367 285.561963428 c 1
 25.6577703727 261.982441525 l 2
 23.2833542395 260.69944883 21.0386349887 259.038634989 19 257 c 2
 4 242 l 2
 -7 231 -7 214 4 203 c 2
 10 197 l 1
 10 170 l 1
 4 164 l 2
 -7 153 -7 136 4 124 c 2
 19 109 l 2
 19.5347263078 108.509834218 20.0793808178 108.041510481 20.632990237 107.595028788 c 2
 41.21915943 46.8922221937 l 1
 32.0360424187 35.0734502258 32.629655942 19.370344058 43 9 c 2
 58 -6 l 2
 69 -17 86 -17 97 -6 c 2
 104 1 l 1
 128 1 l 1
 135 -6 l 2
 146 -17 163 -17 174 -6 c 2
 189 9 l 2
 193.304636447 13.3046364467 195.92473699 18.528110659 196.86030163 24.0112122145 c 1
 202.774698654 24.8157321299 208.478661392 27.4786613918 213 32 c 2
 227 48 l 2
 227.071918484 48.0659252774 227.143405947 48.1320660661 227.214462386 48.1984197827 c 1
 230.267131697 42.3585306658 l 1
 224.331256299 31.2805135933 225.908879067 18.0911209332 235 9 c 2
 250 -6 l 2
 260.834784966 -16.8347849655 278.460875359 -16.9975185448 289.499665008 -6.48820073767 c 1
 300.509311131 -16.9975185448 317.165215034 -16.8347849655 328 -6 c 2
 343 9 l 2
 347.304636447 13.3046364467 349.92473699 18.528110659 350.86030163 24.0112122145 c 1
 356.774698654 24.8157321299 362.478661392 27.4786613918 367 32 c 2
 381 48 l 2
 391.834675632 58.8346756324 391.997515259 75.4903527224 381.488518881 86.5000016975 c 1
 391.997515259 97.5098731631 391.834675632 114.180353856 381 126 c 2
 366 140 l 2
115.953088148 436.961019101 m 1
 122.667761979 447.683611512 121.512799509 462.020396293 112.488200738 471.499665008 c 1
 121.535534363 480.977724707 122.67353122 494.640373915 115.902191308 505.171130442 c 1
 125.889669781 525.515993999 l 2
 129.377522348 526.806888582 132.657009042 528.805490336 135.499665008 531.511799262 c 0
 137.300476531 529.792824792 139.252348411 528.359371095 141.305098553 527.211438171 c 0
 145.088150057 520.342933867 149.54919617 511.739240853 153.439188579 504.094384963 c 1
 147.301819117 493.532715285 148.822089583 480.177910384 158 471 c 2
 163 466 l 1
 163 438 l 1
 158 433 l 2
 152.446027684 427.446027684 149.696292503 420.362471475 149.750794458 413.293925301 c 1
 134 397 l 1
 115.953088148 436.961019101 l 1
119.303791084 290.702073425 m 1
 183 150 l 1
 170.08 99.08 l 1
 158 87 l 2
 153.409534186 82.4095341863 150.734738953 76.7741571468 149.975614301 70.9659832924 c 1
 144.119870017 70.1348403343 138.47951257 67.4795125701 134 63 c 2
 130 59 l 1
 101.285714286 59 l 1
 97 63 l 2
 96.8209546016 63.1790453984 96.6400546513 63.3551765009 96.4573605216 63.5283933075 c 2
 75.3316924565 125.542451176 l 1
 84.9804764494 137.421743084 84.5365789639 153.463421036 74 164 c 2
 67 170.5625 l 1
 67 196 l 1
 74 203 l 2
 83.581217974 212.581217974 84.817005233 226.714489065 77.7073617769 237.469956338 c 1
 87.8284707782 256.819135311 l 2
 91.1350444602 258.194131759 94.2544199887 260.254419989 97 263 c 2
 112 278 l 2
 115.637358679 281.637358679 118.071955707 286.040111136 119.303791084 290.702073425 c 1
EndSplineSet
EndChar

StartChar: Iacute
Encoding: 205 205 72
Width: 385
VWidth: 807
Flags: W
HStem: -19 20G<97 135 174 212>
LayerCount: 2
Fore
SplineSet
289 717 m 2
 278 728 261 728 250 717 c 2
 235 702 l 2
 233.623967682 700.623967682 232.42006854 699.15404454 231.388302575 697.613720904 c 2
 127.588777658 645.374744312 l 1
 117.287705996 650.538519101 104.746937664 648.746937664 96 640 c 2
 81 626 l 2
 76.6201597564 621.221992462 73.9842286546 615.65129895 73.0922066945 609.982287049 c 1
 67.1947722853 609.169997922 61.509235572 606.509235572 57 602 c 2
 43 587 l 2
 32 576 32 559 43 548 c 2
 58 532 l 2
 69 521 86 521 97 532 c 2
 104.5 540 l 1
 125 540 l 1
 125 59 l 1
 101.285714286 59 l 1
 97 63 l 2
 86 74 68 74 57 63 c 2
 43 49 l 2
 32 37 32 20 43 9 c 2
 58 -6 l 2
 69 -17 86 -17 97 -6 c 2
 104 1 l 1
 128 1 l 1
 135 -6 l 2
 146 -17 163 -17 174 -6 c 2
 181 1 l 1
 205 1 l 1
 212 -6 l 2
 223 -17 240 -17 251 -6 c 2
 266 9 l 2
 277 20 277 37 266 49 c 2
 251 63 l 2
 240 74 222 74 211 63 c 2
 207 59 l 1
 183 59 l 1
 183 540 l 1
 204.5 540 l 1
 212 532 l 2
 223 521 240 521 251 532 c 2
 266 548 l 2
 277 559 277 576 266 587 c 2
 251 602 l 2
 240 613 222 613 211 602 c 2
 206.333333333 597 l 1
 179 597 l 1
 174 602 l 2
 173.546965901 602.453034099 173.082058419 602.887410027 172.606255563 603.303127782 c 1
 254.579844347 644.289922174 l 1
 265.53062861 637.183309682 280.420002291 638.420002291 290 648 c 2
 304 663 l 2
 315 674 315 691 304 702 c 2
 289 717 l 2
EndSplineSet
EndChar

StartChar: D
Encoding: 68 68 73
Width: 385
VWidth: 807
Flags: HMW
HStem: 1 58<69 77 77 85 77 180> 540 58
VStem: 48 58<22 569 30 38 30 569 561 569 569 576.5> 279 58<346 376.5>
LayerCount: 2
Fore
SplineSet
212 602 m 2
 201 613 184 613 173 602 c 2
 168 597 l 1
 102 597 l 1
 97 602 l 2
 91.5 607.5 84.25 610.25 77 610.25 c 0
 69.75 610.25 62.5 607.5 57 602 c 2
 43 587 l 2
 37.5 581.5 34.75 574.5 34.75 567.5 c 0
 34.75 560.5 37.5 553.5 43 548 c 2
 48 542.666666667 l 1
 48 54 l 1
 43 49 l 2
 37.5 43 34.75 35.75 34.75 28.625 c 0
 34.75 21.5 37.5 14.5 43 9 c 2
 58 -6 l 2
 63.5 -11.5 70.5 -14.25 77.5 -14.25 c 0
 84.5 -14.25 91.5 -11.5 97 -6 c 2
 104 1 l 1
 166 1 l 1
 173 -6 l 2
 184 -17 202 -17 213 -6 c 2
 227 9 l 2
 234.136306454 15.5416142496 237.028707091 24.2051814078 235.677201911 32.6772019106 c 1
 266.026798967 63.0267989665 l 1
 274.535314488 61.8348292056 283.492562883 64.4925628834 290 71 c 2
 304 86 l 2
 314.409786413 96.409786413 314.968331629 112.192977115 305.675635649 124.026906946 c 1
 325.175872111 182.527616332 l 2
 326.158763164 183.27854451 327.102672399 184.102672399 328 185 c 2
 342 200 l 2
 354 211 354 229 342 240 c 2
 336.158777969 245.451807229 l 1
 336.823529412 347.823529412 l 1
 343 354 l 2
 354 365 354 382 343 394 c 2
 328 408 l 2
 327.625474005 408.374525995 327.242833233 408.736300197 326.852630265 409.085322606 c 2
 306.01824595 473.233295363 l 1
 314.952891415 484.199317681 314.280142764 499.719857236 304 510 c 2
 289 525 l 2
 283.306236 530.693764 276.004920835 533.440350865 268.760239406 533.239760594 c 1
 235.956666576 566.043333424 l 1
 236.40188916 573.521332616 233.416333634 581.118360835 227 587 c 2
 212 602 l 2
106 540 m 1
 165.5 540 l 1
 173 532 l 2
 179.281036171 525.718963829 187.844385629 523.024419965 196.083631591 523.916368409 c 1
 226.878818662 493.121181338 l 1
 226.105673162 485.272826935 228.812733608 477.187266392 235 471 c 2
 250 456 l 2
 250.301817985 455.670744017 250.608905876 455.350522158 250.920974482 455.039334425 c 2
 271.852119399 391.647866964 l 1
 262.04872915 379.857744748 262.764689351 364.299034762 274 354 c 2
 278.942697972 349.057302028 l 1
 278.762576941 314.274814994 278.210094938 279.492327961 278.046258136 244.709840927 c 1
 273 240 l 2
 262.946964647 229.946964647 262.081522004 214.047279387 270.403672071 202.987594804 c 1
 249.438727783 139.476145931 l 1
 235 126 l 2
 229.532233412 120.035163722 226.782327865 112.83493606 226.750283362 105.750283362 c 1
 192.248819692 71.2488196918 l 1
 185.332759351 71.1838205729 178.434214009 68.4342140089 173 63 c 2
 168.714285714 59 l 1
 106 59 l 1
 106 540 l 1
EndSplineSet
EndChar

StartChar: four
Encoding: 52 52 74
Width: 385
VWidth: 807
Flags: HMW
HStem: 194 58
VStem: 202 58<22 194 30 194 30 251 251 433>
LayerCount: 2
Fore
SplineSet
202 251 m 1
 121 251 l 1
 202 433 l 1
 202 251 l 1
328 255 m 2
 317 267 299 267 288 255 c 2
 284 251 l 1
 260 251 l 1
 260 541.6 l 1
 266 548 l 2
 277 559 277 576 266 587 c 2
 251 602 l 2
 240 613 222 613 211 602 c 2
 197 587 l 2
 187.815874579 577.815874579 186.299763681 564.449195783 192.451667304 553.884162662 c 1
 62.291331341 259.534644732 l 2
 60.4047596903 258.285270795 58.6259123388 256.773722551 57 255 c 2
 43 241 l 2
 32 230 32 213 43 201 c 2
 58 186 l 2
 69 175 86 175 97 186 c 2
 105 194 l 1
 202 194 l 1
 202 54 l 1
 197 49 l 2
 186 37 186 20 197 9 c 2
 212 -6 l 2
 223 -17 240 -17 251 -6 c 2
 266 9 l 2
 277 20 277 37 266 49 c 2
 260 54.6 l 1
 260 194 l 1
 281 194 l 1
 289 186 l 2
 300 175 317 175 328 186 c 2
 343 201 l 2
 354 213 354 230 343 241 c 2
 328 255 l 2
EndSplineSet
EndChar

StartChar: a
Encoding: 97 97 75
Width: 385
VWidth: 807
Flags: HMW
VStem: 279 58<22 415 30 415>
LayerCount: 2
Fore
SplineSet
328 448 m 2
 317 459 299 459 288 448 c 2
 274 433 l 2
 272.393671338 431.52753206 271.00236699 429.947551963 269.826086957 428.288843018 c 1
 268.747830259 429.947551963 267.47246794 431.52753206 266 433 c 2
 251 448 l 2
 240 459 222 459 211 448 c 2
 207.266666667 444 l 1
 178 444 l 1
 174 448 l 2
 163 459 145 459 134 448 c 2
 120 433 l 2
 115.423131039 428.423131039 112.750601123 422.807531691 111.98241025 417.01758975 c 1
 106.192468309 416.249398877 100.576868961 413.576868961 96 409 c 2
 81 395 l 2
 71.9902462617 385.990246262 70.3600981984 372.284379821 76.10955581 361.575276856 c 1
 63.9376410814 337.543547776 l 2
 61.4361787156 336.129541997 59.0915516764 334.281692738 57 332 c 2
 43 318 l 2
 32 307 32 289 43 278 c 2
 48 273 l 1
 48 169.357142857 l 1
 43 164 l 2
 32 153 32 136 43 124 c 2
 58 109 l 2
 60.4275917272 106.572408273 63.1474083267 104.680562145 66.0304674928 103.324461617 c 2
 76.9014234006 81.8612922604 l 1
 70.232284277 71.185955041 71.5984764768 57.4015235232 81 48 c 2
 96 32 l 2
 100.521338608 27.4786613918 106.225301346 24.8157321299 112.13969837 24.0112122145 c 1
 113.07526301 18.528110659 115.695363553 13.3046364467 120 9 c 2
 135 -6 l 2
 146 -17 163 -17 174 -6 c 2
 181 1 l 1
 205 1 l 1
 212 -6 l 2
 223 -17 240 -17 251 -6 c 2
 266 9 l 2
 267.472467939 10.4724679395 268.747830258 12.052448036 269.826086956 13.7135555895 c 1
 271.00236699 12.0524480362 272.393671337 10.4724679392 274 9 c 2
 289 -6 l 2
 300 -17 317 -17 328 -6 c 2
 343 9 l 2
 354 20 354 37 343 49 c 2
 337 54.6 l 1
 337 80 l 1
 343 86 l 2
 354 97 354 114 343 126 c 2
 337 131.6 l 1
 337 311 l 1
 343 317 l 2
 354 328 354 345 343 356 c 2
 337 362 l 1
 337 388 l 1
 343 394 l 2
 354 405 354 422 343 433 c 2
 328 448 l 2
279 312 m 1
 279 131 l 1
 274 126 l 2
 267.826574759 119.826574759 264.829081119 112.329844685 265.007519079 105.007519079 c 1
 231.248919407 71.2489194071 l 1
 223.916177237 71.3125856032 216.562945801 68.5629458008 211 63 c 2
 207 59 l 1
 178.285714286 59 l 1
 174 63 l 2
 169.710961137 67.2890388626 164.357699295 69.9057273284 158.770122422 70.8500653974 c 1
 157.964463137 76.6991460785 155.041088996 82.3790017532 150 87 c 2
 135 102 l 2
 133.027065866 103.972934134 130.861116735 105.592007441 128.571390039 106.857219921 c 2
 116.705109564 130.589780872 l 1
 122.673634283 141.678437739 121.105264428 154.894735572 112 164 c 2
 106 170 l 1
 106 272 l 1
 112 278 l 2
 121.362837566 287.362837566 122.756336288 301.797072578 116.180496165 312.669492214 c 1
 126.578903865 333.781410878 l 2
 130.014245698 335.15633218 133.229195221 337.229195221 136 340 c 2
 150 355 l 2
 154.710316249 359.317789895 157.571709234 364.71411836 158.584178956 370.34227577 c 1
 164.173156534 371.284178707 169.572579552 374.170086784 174 379 c 2
 181 386 l 1
 205 386 l 1
 212 379 l 2
 218.307147317 372.119475654 226.586861938 369.184085914 234.577094303 370.193830781 c 1
 265.146373423 339.175003438 l 1
 264.283615545 331.309805295 267.234824404 323.201410963 274 317 c 2
 279 312 l 1
EndSplineSet
EndChar

StartChar: braceleft
Encoding: 123 123 76
Width: 385
VWidth: 807
Flags: W
LayerCount: 2
Fore
SplineSet
289 -91 m 2
 280.230380736 -82.2303807365 267.647229802 -80.4522362027 257.331132797 -85.6655663987 c 1
 232.050992782 -73.025496391 l 2
 230.709242432 -70.8845169361 229.025578171 -68.8567799904 227 -67 c 2
 212 -52 l 2
 211.836516444 -51.8365164437 211.671707588 -51.6754626031 211.505612826 -51.5168384782 c 2
 190.712035859 10.8638924243 l 1
 198.624013169 20.2570666111 199.354926511 33.1729937006 192.904775886 43.8095517716 c 1
 203.344382783 64.6887655666 l 2
 206.86791071 66.0624898142 210.166234625 68.1662346254 213 71 c 2
 227 86 l 2
 239 97 239 114 227 126 c 2
 221 131.6 l 1
 221 156.571428571 l 1
 227 163 l 2
 239 174 239 191 227 202 c 2
 212 217 l 2
 210.582971497 218.417028503 209.066374245 219.651514299 207.475861291 220.703457384 c 1
 209.448980284 221.875181787 211.307362655 223.30736266 213 225 c 2
 227 240 l 2
 239 251 239 268 227 279 c 2
 221 285 l 1
 221 310.571428571 l 1
 227 317 l 2
 239 328 239 345 227 356 c 2
 212 371 l 2
 210.027065866 372.972934134 207.861116735 374.592007441 205.571390039 375.857219921 c 2
 193.553489098 399.893021804 l 1
 199.471932087 410.065712805 198.283409546 422.833251047 189.987921474 431.963764421 c 1
 209.731734442 491.195203325 l 2
 210.875032494 492.033372322 211.968304547 492.968304547 213 494 c 2
 227 509 l 2
 230.255757976 511.984444811 232.628185952 515.410554623 234.117283928 519.058641964 c 2
 253.729043538 528.864521769 l 1
 264.748323773 521.124338715 280.169498125 522.169498125 290 532 c 2
 304 548 l 2
 315 559 315 576 304 587 c 2
 289 602 l 2
 278 613 261 613 250 602 c 2
 235 587 l 2
 233.297537189 585.297537189 231.858563435 583.451353075 230.683078737 581.505934961 c 2
 204.332296581 568.501652858 l 1
 194.080173812 573.508356345 181.674472059 571.674472059 173 563 c 2
 158 549 l 2
 147.828410154 537.903720168 147.06238758 522.532182486 155.701932278 511.582620821 c 1
 134.209421034 448.20726715 l 2
 134.139336714 448.138617574 134.069528524 448.069528524 134 448 c 2
 120 433 l 2
 109 422 109 405 120 394 c 2
 135 379 l 2
 137.181760486 376.619897652 139.599557938 374.711869236 142.159760333 373.275914752 c 2
 153.519549002 350.231772025 l 1
 147.288764369 339.648741184 148.782248035 326.217751965 158 317 c 2
 163 312 l 1
 163 284 l 1
 158 279 l 2
 156.595328452 277.595328452 155.370029827 276.092817127 154.324104125 274.517453798 c 2
 127.737847093 260.781220998 l 1
 117.408909274 266.515264855 104.789175256 264.588191189 96 255 c 2
 81 241 l 2
 70 230 70 213 81 201 c 2
 96 186 l 2
 105.586582702 176.413417298 120.489842885 175.181613496 131.442731754 182.304588594 c 1
 152.035872531 171.664799192 l 2
 153.40704518 168.54629912 155.395087669 165.604912331 158 163 c 2
 163 158 l 1
 163 130.666666667 l 1
 158 126 l 2
 149.188081074 116.386997536 147.435245344 103.565320892 152.74149281 93.1898854142 c 1
 140.156948746 67.6612388849 l 2
 137.947830728 66.4262415389 135.872495244 64.8724952439 134 63 c 2
 120 49 l 2
 109 37 109 20 120 9 c 2
 135 -6 l 2
 135.078205319 -6.07820531943 135.156713915 -6.15585463231 135.235521475 -6.23294793866 c 2
 156.421971017 -68.7058119724 l 1
 147.0278915 -79.6968445879 147.553901161 -95.5539011607 158 -106 c 2
 173 -121 l 2
 182.372585799 -131.224639053 196.827134837 -132.737341126 207.70344048 -125.538106217 c 1
 229.118529055 -136.384709521 l 2
 230.486475334 -139.51685782 232.446965649 -142.446965649 235 -145 c 2
 250 -160 l 2
 261 -171 279 -171 290 -160 c 2
 304 -145 l 2
 315 -134 315 -116 304 -105 c 2
 289 -91 l 2
EndSplineSet
EndChar

StartChar: comma
Encoding: 44 44 77
Width: 385
VWidth: 807
Flags: HMW
VStem: 202 58<-35 3 3 3>
LayerCount: 2
Fore
SplineSet
212 140 m 2
 201 151 184 151 173 140 c 2
 158 126 l 2
 153.620159756 121.221992462 150.984228655 115.65129895 150.092206695 109.982287049 c 1
 144.194772285 109.169997922 138.509235572 106.509235572 134 102 c 2
 120 87 l 2
 109 76 109 59 120 48 c 2
 135 32 l 2
 139.350030704 27.6499692965 144.638380438 25.0201901495 150.122918913 24.110662559 c 1
 151.043651997 18.5912871309 153.669345692 13.3306543076 158 9 c 2
 173 -6 l 2
 180.808588055 -13.808588055 192.144600341 -16.0740808907 202 -12.796478507 c 1
 202 -23 l 1
 197 -28 l 2
 191.485355231 -33.5146447687 188.735374728 -40.7886213431 188.750058492 -48.0579133706 c 1
 153.544116091 -82.7536247216 l 1
 146.44683553 -82.8664933044 139.384714936 -85.6152850638 134 -91 c 2
 120 -105 l 2
 109 -116 109 -134 120 -145 c 2
 135 -160 l 2
 146 -171 163 -171 174 -160 c 2
 189 -145 l 2
 195.507437117 -138.492562883 198.165170794 -129.535314488 196.973201033 -121.026798967 c 1
 227.112407812 -90.8875921881 l 1
 235.49983927 -92.2819456963 244.3472517 -89.6527483002 251 -83 c 2
 266 -68 l 2
 277 -57 277 -39 266 -28 c 2
 260 -22.4 l 1
 260 41.6 l 1
 266 48 l 2
 271.5 53.5 274.25 60.5 274.25 67.5 c 0
 274.25 74.5 271.5 81.5 266 87 c 2
 251 102 l 2
 246.679101574 106.320898426 241.27811106 108.944509288 235.645568133 109.870832585 c 1
 234.691172431 115.578258752 231.809316386 121.190683614 227 126 c 2
 212 140 l 2
EndSplineSet
EndChar

StartChar: glyph78
Encoding: 261 -1 78
Width: 385
VWidth: 807
Flags: HMW
VStem: 48 58<480 518 480 530 480 534> 202 58<480 518 480 530 480 534>
LayerCount: 2
Fore
SplineSet
289 486 m 2
 280.973839446 494.026160554 269.753335757 496.196025359 260 492.509594416 c 1
 260 503 l 1
 266 509 l 2
 272.424732396 515.424732396 275.096993305 523.896267422 274.016782726 532.222911884 c 1
 304.411337853 563.064445762 l 1
 312.709612169 561.781051875 321.426236621 564.426236621 328 571 c 2
 343 586 l 2
 354 597 354 614 343 626 c 2
 328 640 l 2
 317 651 299 651 288 640 c 2
 274 626 l 2
 267.826574759 619.826574759 264.829081119 612.329844685 265.007519079 605.007519079 c 1
 231.248919407 571.248919407 l 1
 223.916177237 571.312585603 216.562945801 568.562945801 211 563 c 2
 197 549 l 2
 186 537 186 520 197 509 c 2
 202 504 l 1
 202 438.357142857 l 1
 197 433 l 2
 195.447573094 431.447573094 194.114239761 429.775640603 193 428.017934106 c 1
 191.885760239 429.775640603 190.552426906 431.447573094 189 433 c 2
 174 448 l 2
 169.696907819 452.303092181 164.322607239 454.922856879 158.715190713 455.859294093 c 1
 157.837713043 461.774050859 154.932649472 467.478404651 150 472 c 2
 135 486 l 2
 126.973839446 494.026160554 115.753335757 496.196025359 106 492.509594416 c 1
 106 503 l 1
 112 509 l 2
 118.424732396 515.424732396 121.096993305 523.896267422 120.016782726 532.222911884 c 1
 150.411337853 563.064445762 l 1
 158.709612169 561.781051875 167.426236621 564.426236621 174 571 c 2
 189 586 l 2
 200 597 200 614 189 626 c 2
 174 640 l 2
 163 651 145 651 134 640 c 2
 120 626 l 2
 114.46032529 619.956718499 111.710468389 612.645337993 111.750429295 605.470829681 c 1
 77.958216364 571.233982369 l 1
 70.3923083962 571.487006234 62.7423454443 568.742345444 57 563 c 2
 43 549 l 2
 32 537 32 520 43 509 c 2
 48 504 l 1
 48 438.357142857 l 1
 43 433 l 2
 37.5 427.5 34.75 420.5 34.75 413.5 c 0
 34.75 406.5 37.5 399.5 43 394 c 2
 58 379 l 2
 62.3499923889 374.254553758 67.6382872795 371.385712518 73.1227739916 370.393476283 c 1
 74.0433764554 364.746851881 76.6691184582 359.330881542 81 355 c 2
 96 340 l 2
 107 329 125 329 136 340 c 2
 150 355 l 2
 154.710316249 359.317789895 157.571709234 364.71411836 158.584178956 370.34227577 c 1
 164.173156534 371.284178707 169.572579552 374.170086784 174 379 c 2
 189 394 l 2
 190.552426906 395.552426906 191.885760239 397.224359397 193 398.982065894 c 1
 194.114239761 397.224359397 195.447573094 395.552426906 197 394 c 2
 212 379 l 2
 216.349992389 374.254553758 221.63828728 371.385712518 227.122773992 370.393476283 c 1
 228.043376455 364.746851881 230.669118458 359.330881542 235 355 c 2
 250 340 l 2
 261 329 279 329 290 340 c 2
 304 355 l 2
 308.289038863 359.289038863 310.905727328 364.642300705 311.850065397 370.229877578 c 1
 317.699146079 371.035536863 323.379001753 373.958911004 328 379 c 2
 343 394 l 2
 354 405 354 422 343 433 c 2
 328 448 l 2
 323.507437117 452.492562883 317.847255648 455.150296561 311.973201033 455.973201033 c 1
 311.150296561 461.847255648 308.492562883 467.507437117 304 472 c 2
 289 486 l 2
EndSplineSet
EndChar

StartChar: bar
Encoding: 124 124 79
Width: 385
VWidth: 807
Flags: HMW
VStem: 163 58<-132 569 -124 569>
LayerCount: 2
Fore
SplineSet
212 602 m 2
 201 613 184 613 173 602 c 2
 158 587 l 2
 147 576 147 559 158 548 c 2
 163 542.666666667 l 1
 163 -100.333333333 l 1
 158 -105 l 2
 147 -116 147 -134 158 -145 c 2
 173 -160 l 2
 184 -171 202 -171 213 -160 c 2
 227 -145 l 2
 239 -134 239 -116 227 -105 c 2
 221 -99.4 l 1
 221 541.142857143 l 1
 227 548 l 2
 239 559 239 576 227 587 c 2
 212 602 l 2
EndSplineSet
EndChar

StartChar: i
Encoding: 105 105 80
Width: 385
VWidth: 807
Flags: HMW
HStem: 1 58<77 308 184 200> 386 58<77 192 192 200>
VStem: 163 58<22 415 30 415>
LayerCount: 2
Fore
SplineSet
212 640 m 2
 201 651 184 651 173 640 c 2
 158 626 l 2
 153.357748914 620.935726088 150.67463375 614.980935847 149.950654509 608.962429356 c 1
 144.10384371 608.127290796 138.473147677 605.473147677 134 601 c 2
 120 586 l 2
 114.5 580.5 111.75 573.5 111.75 566.375 c 0
 111.75 559.25 114.5 552 120 546 c 2
 135 531 l 2
 139.400907994 526.599092006 144.762212245 523.958910482 150.315437195 523.079455428 c 1
 151.378364378 517.937644148 153.939885313 513.060114687 158 509 c 2
 173 494 l 2
 184 483 202 483 213 494 c 2
 227 509 l 2
 231.710983071 513.318401148 234.572519351 518.561525693 235.584608839 524.063819204 c 1
 241.173433403 524.927299467 246.572693066 527.572693066 251 532 c 2
 266 548 l 2
 277 559 277 576 266 587 c 2
 251 602 l 2
 246.679101574 606.320898426 241.27811106 608.944509288 235.645568133 609.870832585 c 1
 234.691172431 615.578258752 231.809316386 621.190683614 227 626 c 2
 212 640 l 2
328 63 m 2
 317 74 299 74 288 63 c 2
 284 59 l 1
 221 59 l 1
 221 387.571428571 l 1
 227 394 l 2
 233 399.5 236 406.5 236 413.5 c 0
 236 420.5 233 427.5 227 433 c 2
 212 448 l 2
 206.5 453.5 199.5 456.25 192.5 456.25 c 0
 185.5 456.25 178.5 453.5 173 448 c 2
 169 444 l 1
 101 444 l 1
 97 448 l 2
 86 459 68 459 57 448 c 2
 43 433 l 2
 32 422 32 405 43 394 c 2
 58 379 l 2
 69 367 86 367 97 379 c 2
 104 386 l 1
 163 386 l 1
 163 59 l 1
 101.285714286 59 l 1
 97 63 l 2
 86 74 68 74 57 63 c 2
 43 49 l 2
 32 37 32 20 43 9 c 2
 58 -6 l 2
 69 -17 86 -17 97 -6 c 2
 104 1 l 1
 166 1 l 1
 173 -6 l 2
 184 -17 202 -17 213 -6 c 2
 219.533333333 1 l 1
 282 1 l 1
 289 -6 l 2
 300 -17 317 -17 328 -6 c 2
 343 9 l 2
 354 20 354 37 343 49 c 2
 328 63 l 2
EndSplineSet
EndChar

StartChar: six
Encoding: 54 54 81
Width: 385
VWidth: 807
Flags: W
HStem: -19 20G<174 212>
LayerCount: 2
Fore
SplineSet
174 409 m 2
 163 420 145 420 134 409 c 2
 120 395 l 2
 118.836551796 393.836551796 117.796159203 392.594795476 116.878822221 391.291296027 c 1
 138 496.142857143 l 1
 150 509 l 2
 154.710983071 513.318401148 157.572519351 518.561525693 158.584608839 524.063819204 c 1
 164.173433403 524.927299467 169.572693066 527.572693066 174 532 c 2
 181.5 540 l 1
 204.5 540 l 1
 212 532 l 2
 216.350030704 527.649969296 221.638380438 525.020190149 227.122918913 524.110662559 c 1
 228.008502663 518.801991377 230.471356731 513.732684688 234.511481119 509.500001697 c 1
 224.002484741 498.490352722 224.165324368 481.834675632 235 471 c 2
 250 456 l 2
 261 444 279 444 290 456 c 2
 304 471 l 2
 314.834675632 481.834675632 314.997515259 498.490352722 304.488518881 509.500001697 c 1
 314.997515259 520.509873163 314.834675632 537.180353856 304 549 c 2
 289 563 l 2
 284.692460871 567.307539129 279.464844385 569.928269772 274.037744945 570.862191929 c 1
 273.297053023 576.706996189 270.617804708 582.382195292 266 587 c 2
 251 602 l 2
 240 613 222 613 211 602 c 2
 206.333333333 597 l 1
 179 597 l 1
 174 602 l 2
 163 613 145 613 134 602 c 2
 120 587 l 2
 115.423131039 582.423131039 112.750601123 576.807531691 111.98241025 571.01758975 c 1
 106.192468309 570.249398877 100.576868961 567.576868961 96 563 c 2
 81 549 l 2
 70 537 70 520 81 509 c 2
 81.5714285714 508.428571429 l 1
 53.8480300188 367.622889306 l 1
 43 356 l 2
 32 345 32 328 43 317 c 2
 48.078924203 311.921075797 l 1
 48.0283675813 297.752230745 48.0101961076 276.879246134 48.0036647682 246.003664768 c 1
 43 241 l 2
 32.1583411429 230.158341143 32.0022792652 213.488174843 42.5318143675 201.521282657 c 1
 32.0022792647 190.511825158 32.158341142 173.841658857 43 163 c 2
 58 148 l 2
 58.4001868537 147.599813146 58.8083150058 147.21418534 59.2238066375 146.84311658 c 2
 79.3962560658 85.2640604306 l 1
 70.028860619 74.274194371 70.5634419304 58.4365580696 81 48 c 2
 96 32 l 2
 100.521338608 27.4786613918 106.225301346 24.8157321299 112.13969837 24.0112122145 c 1
 113.07526301 18.528110659 115.695363553 13.3046364467 120 9 c 2
 135 -6 l 2
 146 -17 163 -17 174 -6 c 2
 181 1 l 1
 205 1 l 1
 212 -6 l 2
 223 -17 240 -17 251 -6 c 2
 266 9 l 2
 270.304636447 13.3046364467 272.92473699 18.528110659 273.86030163 24.0112122145 c 1
 279.774698654 24.8157321299 285.478661392 27.4786613918 290 32 c 2
 304 48 l 2
 314.43655807 58.4365580696 314.971139381 74.274194371 305.603743934 85.2640604306 c 1
 325.39697532 145.685503607 l 2
 326.295714436 146.393639274 327.165138072 147.165138072 328 148 c 2
 343 163 l 2
 353.841658857 173.841658857 353.997720735 190.511825158 343.468185633 201.521282657 c 1
 353.997720734 213.488174843 353.841658857 230.158341143 343 241 c 2
 328 255 l 2
 327.699883094 255.327400261 327.394555518 255.645867944 327.084301601 255.95540305 c 2
 306.129629809 319.370857157 l 1
 314.947107584 330.328799287 314.237230981 345.762769019 304 356 c 2
 289 371 l 2
 284.679130956 375.320869044 279.432481286 377.944473607 273.987355871 378.870813688 c 1
 273.181111815 384.781457074 270.518659858 390.481340142 266 395 c 2
 251 409 l 2
 240 420 222 420 211 409 c 2
 207 405 l 1
 178.285714286 405 l 1
 174 409 l 2
113.281314402 239.635905653 m 1
 133.529656617 299.802408232 l 2
 134.385685079 300.478325333 135.210855922 301.210855922 136 302 c 2
 150 317 l 2
 154.728953918 321.334874425 157.594324073 326.601540732 158.596110465 332.065598776 c 1
 164.180840789 332.930929814 169.575730222 335.575730222 174 340 c 2
 181 347 l 1
 205 347 l 1
 212 340 l 2
 216.3472517 335.6527483 221.631623929 333.023550904 227.112407812 332.112407812 c 1
 228.023550904 326.631623929 230.6527483 321.3472517 235 317 c 2
 250 302 l 2
 250.35095826 301.64904174 250.709042155 301.309280908 251.073796994 300.980717503 c 2
 271.953112205 238.939323734 l 1
 262.195780734 228.128823375 262.707827344 212.75335196 273.489252037 201.521282656 c 1
 262.962763352 191.432199778 262.225738175 176.589301041 271.278176507 165.834529522 c 1
 250 102 l 1
 235 87 l 2
 230.409534186 82.4095341863 227.734738953 76.7741571468 226.975614301 70.9659832924 c 1
 221.119870017 70.1348403343 215.47951257 67.4795125701 211 63 c 2
 207 59 l 1
 178.285714286 59 l 1
 174 63 l 2
 169.710961137 67.2890388626 164.357699295 69.9057273284 158.770122422 70.8500653974 c 1
 157.964463137 76.6991460785 155.041088996 82.3790017532 150 87 c 2
 135 102 l 1
 113.950035708 165.149892877 l 1
 122.81787616 175.951957608 122.323926135 191.216330431 112.468185633 201.521282657 c 1
 122.565418826 212.996860622 122.836461749 228.797444146 113.281314402 239.635905653 c 1
EndSplineSet
EndChar

