SplineFontDB: 3.2
FontName: Arkdes-Hershey-17
FullName: Arkdes Hershey 17
FamilyName: ArkDes-Hershey
Weight: Regular
Copyright: Copyright (c) 2024, Luuse All Right Reserved (contact@luuse.io / https://luuse.io/). This Font Software is licensed under the SIL Open Font License, Version 1.1. : https://openfontlicense.org/open-font-license-official-text/
Version: 001.000
ItalicAngle: 0
UnderlinePosition: -100
UnderlineWidth: 50
Ascent: 800
Descent: 200
InvalidEm: 0
LayerCount: 2
Layer: 0 0 "Arri+AOgA-re" 1
Layer: 1 0 "Avant" 0
StyleMap: 0x0000
FSType: 0
OS2Version: 0
OS2_WeightWidthSlopeOnly: 0
OS2_UseTypoMetrics: 0
CreationTime: 1706882795
ModificationTime: 1706896298
PfmFamily: 17
TTFWeight: 400
TTFWidth: 5
LineGap: 90
VLineGap: 90
OS2TypoAscent: 0
OS2TypoAOffset: 1
OS2TypoDescent: 0
OS2TypoDOffset: 1
OS2TypoLinegap: 90
OS2WinAscent: 0
OS2WinAOffset: 1
OS2WinDescent: 0
OS2WinDOffset: 1
HheadAscent: 0
HheadAOffset: 1
HheadDescent: 0
HheadDOffset: 1
OS2Vendor: 'PfEd'
MarkAttachClasses: 1
DEI: 91125

StartChar: i
Encoding: 105 105 0
Width: 412
VWidth: 876
Flags: HMW
HStem: 0 59 411 59<109.5 235 118 235>
VStem: 88 118<21 29 29 37 432.5 441> 265 118
LayerCount: 2
Fore
SplineSet
317 657 m 2
 308.659509989 665.340490011 297.437680242 668.329920512 287.031708496 665.968291504 c 1
 283.968291504 669.031708496 l 2
 284.489430501 671.327986895 284.75 673.663993448 284.75 676 c 0
 284.75 684.25 281.5 692.5 275 699 c 2
 258 716 l 2
 251.5 722.5 243.25 725.75 235 725.75 c 0
 226.75 725.75 218.5 722.5 212 716 c 2
 195 699 l 2
 188.5 692.5 185.25 684.25 185.25 676 c 0
 185.25 673.390115849 185.575250463 670.780231698 186.22575139 668.22575139 c 2
 183.77424861 665.77424861 l 1
 173.144903167 668.481021898 161.556272361 665.556272361 153 657 c 2
 136 640 l 2
 123 628 123 607 136 595 c 2
 154 577 l 2
 162.44468979 568.55531021 173.8431636 565.596219316 184.357915314 568.122727318 c 1
 186.128549463 566.382103918 l 1
 183.5916841 555.860647504 186.548834279 544.451165721 195 536 c 2
 213 518 l 2
 226 505 246 505 259 518 c 2
 275 536 l 2
 283.236488316 544.236488316 286.25453511 555.282906682 284.054140383 565.578646479 c 1
 286.642084686 568.122727318 l 1
 297.1568364 565.596219316 308.55531021 568.55531021 317 577 c 2
 334 595 l 2
 347 607 347 628 334 640 c 2
 317 657 l 2
376 69 m 2
 363 82 343 82 330 69 c 2
 319 58 l 1
 269 58 l 1
 265 62 l 1
 265 407.375 l 1
 275 418 l 2
 281.5 424.5 284.75 432.75 284.75 441 c 0
 284.75 449.25 281.5 457.5 275 464 c 2
 258 481 l 2
 251.5 487.5 243.25 490.75 235 490.75 c 0
 226.75 490.75 218.5 487.5 212 481 c 2
 201 470 l 1
 151.647058824 470 l 1
 140 481 l 2
 127 494 107 494 94 481 c 2
 78 464 l 2
 65 451 65 431 78 418 c 2
 95 401 l 2
 108 388 128 388 141 401 c 2
 151 411 l 1
 202.411764706 411 l 1
 206 407.611111111 l 1
 206 63 l 1
 201 58 l 1
 151.647058824 58 l 1
 140 69 l 2
 127 82 107 82 94 69 c 2
 78 52 l 2
 65 39 65 19 78 6 c 2
 95 -11 l 2
 108 -24 128 -24 141 -11 c 2
 152 0 l 1
 201.352941176 8.881784197e-16 l 1
 213 -11 l 2
 226 -24 246 -24 259 -11 c 2
 269.352941176 0 l 1
 319 0 l 1
 330 -11 l 2
 343 -24 363 -24 376 -11 c 2
 393 6 l 2
 406 19 406 39 393 52 c 2
 376 69 l 2
245.243131683 609.674068812 m 1
 242.297198471 606.891798556 l 1
 237.602874703 608.009974511 232.733993111 608.03547216 228.031708496 606.968291504 c 1
 225.666666667 609.333333333 l 1
 227.039484829 614.402200394 227.107559348 619.772162142 225.870890224 624.870890224 c 1
 228.22575139 627.22575139 l 2
 230.780231698 626.575250463 233.390115849 626.25 236 626.25 c 0
 238.173733495 626.25 240.34746699 626.475625436 242.489189791 626.926876309 c 2
 245.044639985 624.51339557 l 1
 243.922640499 619.635998829 243.988804399 614.523769578 245.243131683 609.674068812 c 1
EndSplineSet
EndChar

StartChar: Otilde
Encoding: 213 213 1
Width: 412
VWidth: 876
Flags: HMW
VStem: 88 59<212 434 212 441 212 443> 324 59
LayerCount: 2
Fore
SplineSet
258 834 m 2
 245 847 225 847 212 834 c 2
 195 817 l 2
 186.33426811 808.33426811 183.445067696 796.558096196 186.332398758 785.818290304 c 1
 184.152580088 783.675417714 l 1
 173.420614504 786.54970378 161.657897875 783.657897875 153 775 c 2
 136 758 l 2
 123 745 123 725 136 712 c 2
 154 695 l 2
 167 682 187 682 200 695 c 2
 217 712 l 2
 225.556272361 720.556272361 228.481021898 732.144903167 225.77424861 742.77424861 c 1
 228.22575139 745.22575139 l 1
 232.793563704 744.062553485 237.538530146 743.939345925 242.143871289 744.856128711 c 2
 245.031708496 741.968291504 l 1
 242.670079488 731.562319758 245.659509989 720.340490011 254 712 c 2
 271 695 l 2
 284 682 304 682 317 695 c 2
 334 712 l 2
 342.340490011 720.340490011 345.329920512 731.562319758 342.968291504 741.968291504 c 1
 346.031708496 745.031708496 l 1
 356.437680242 742.670079488 367.659509989 745.659509989 376 754 c 2
 393 771 l 2
 406 784 406 804 393 817 c 2
 376 834 l 2
 363 847 343 847 330 834 c 2
 313 817 l 2
 304.443727639 808.443727639 301.518978102 796.855096833 304.22575139 786.22575139 c 1
 301.77424861 783.77424861 l 1
 296.665287994 785.075250463 291.334712006 783.77424861 286.22575139 783.77424861 c 2
 283.77424861 786.22575139 l 1
 286.481021898 796.855096833 283.556272361 808.443727639 275 817 c 2
 258 834 l 2
258 658 m 2
 245 671 225 671 212 658 c 2
 195 641 l 2
 186.231693384 632.231693384 183.377479146 620.278875488 186.437357285 609.437357285 c 1
 183.77424861 606.77424861 l 1
 173.144903167 609.481021898 161.556272361 606.556272361 153 598 c 2
 136 582 l 2
 123.835105891 569.835105891 123.053646296 551.540670119 133.655621217 538.588265802 c 1
 109.012180956 489.719070709 l 1
 103.569713076 488.292743821 98.3863869183 485.386386918 94 481 c 2
 78 464 l 2
 65 451 65 431 78 418 c 2
 88 408 l 1
 88 239.625 l 1
 78 229 l 2
 65 216 65 196 78 183 c 2
 95 165 l 2
 99.0719650294 160.928034971 103.830712866 158.131523726 108.846004191 156.610466266 c 2
 133.345332644 108.027052214 l 1
 123.0701635 95.0991569032 123.955052619 77.044947381 136 65 c 2
 154 48 l 2
 162.340490011 39.659509989 173.562319758 36.6700794875 183.968291504 39.0317084955 c 1
 186.22575139 36.7742486097 l 1
 183.518978102 26.144903167 186.443727639 14.5562723614 195 6 c 2
 213 -11 l 2
 226 -24 246 -24 259 -11 c 2
 275 6 l 2
 283.340490011 14.340490011 286.329920512 25.5623197579 283.968291504 35.9682915045 c 1
 287.031708496 39.0317084955 l 1
 297.437680242 36.6700794875 308.659509989 39.659509989 317 48 c 2
 334 65 l 2
 346.044947381 77.044947381 346.9298365 95.0991569032 336.654667356 108.027052214 c 1
 360.987819044 156.280929291 l 1
 366.430286924 157.707256179 371.613613082 160.613613082 376 165 c 2
 393 183 l 2
 406 196 406 216 393 229 c 2
 382 240 l 1
 382 407 l 1
 393 418 l 2
 406 431 406 451 393 464 c 2
 376 481 l 2
 371.613613082 485.386386918 366.430286924 488.292743821 360.987819044 489.719070709 c 1
 336.344378783 538.588265802 l 1
 346.946353704 551.540670119 346.164894109 569.835105891 334 582 c 2
 317 598 l 2
 308.659509989 606.340490011 297.437680242 609.329920512 287.031708496 606.968291504 c 1
 283.77424861 610.22575139 l 1
 286.481021898 620.855096833 283.556272361 632.443727639 275 641 c 2
 258 658 l 2
242.80479967 568.995059163 m 2
 245.171642069 566.558603752 l 1
 242.558769053 555.98839863 245.501555029 544.498444971 254 536 c 2
 271 518 l 2
 275.385016648 513.614983352 280.566474698 510.709072166 286.007080487 509.282266442 c 1
 310.354414883 461.038474213 l 1
 300.069643199 448.109792786 300.951504904 430.048495096 313 418 c 2
 324 407 l 1
 324 240 l 1
 313 229 l 2
 300.831535614 216.831535614 300.053188575 198.529931118 310.664958884 185.576862974 c 1
 286.007080487 136.717733558 l 1
 280.566474698 135.290927834 275.385016648 132.385016648 271 128 c 2
 254 111 l 2
 245.59692812 102.59692812 242.625519087 91.2691147053 245.085772904 80.7976079635 c 1
 242.134036665 77.9302070461 l 1
 237.490125938 79.0104185328 232.679536884 79.0231133522 228.031708496 77.9682915045 c 1
 225.77424861 80.2257513903 l 1
 228.481021898 90.855096833 225.556272361 102.443727639 217 111 c 2
 199 128 l 2
 194.929491336 132.070508664 190.172691041 134.86647573 185.159376966 136.387901196 c 2
 160.335041116 185.576862974 l 1
 170.946811425 198.529931118 170.168464386 216.831535614 158 229 c 2
 147 239.388888889 l 1
 147 407 l 1
 158 418 l 2
 170.048495096 430.048495096 170.930356801 448.109792786 160.645585117 461.038474213 c 1
 184.992919513 509.282266442 l 1
 190.433525302 510.709072166 195.614983352 513.614983352 200 518 c 2
 217 536 l 2
 225.340490011 544.340490011 228.329920512 555.562319758 225.968291504 565.968291504 c 1
 229.031708496 569.031708496 l 2
 233.569790198 568.001793592 238.263036954 567.989577148 242.80479967 568.995059163 c 2
EndSplineSet
EndChar

StartChar: hyphen
Encoding: 45 45 2
Width: 412
VWidth: 876
Flags: HMW
HStem: 235 59<109.5 353 118 353>
LayerCount: 2
Fore
SplineSet
376 304 m 2
 363 317 343 317 330 304 c 2
 319.375 294 l 1
 151.25 294 l 1
 140 304 l 2
 127 317 107 317 94 304 c 2
 78 288 l 2
 65 275 65 255 78 242 c 2
 95 224 l 2
 108 211 128 211 141 224 c 2
 151.388888889 235 l 1
 319.611111111 235 l 1
 330 224 l 2
 343 211 363 211 376 224 c 2
 393 242 l 2
 406 255 406 275 393 288 c 2
 376 304 l 2
EndSplineSet
EndChar

StartChar: uni2010
Encoding: 256 8208 3
Width: 412
VWidth: 876
Flags: HMW
HStem: 235 59<168 294 176 294>
LayerCount: 2
Fore
SplineSet
317 304 m 2
 304 317 284 317 271 304 c 2
 260.375 294 l 1
 210.25 294 l 1
 199 304 l 2
 186 317 166 317 153 304 c 2
 136 288 l 2
 123 275 123 255 136 242 c 2
 154 224 l 2
 167 211 187 211 200 224 c 2
 210.388888889 235 l 1
 260.611111111 235 l 1
 271 224 l 2
 284 211 304 211 317 224 c 2
 334 242 l 2
 347 255 347 275 334 288 c 2
 317 304 l 2
EndSplineSet
EndChar

StartChar: parenleft
Encoding: 40 40 4
Width: 412
VWidth: 876
Flags: HMW
VStem: 147 59<151 318 151 323 151 324.5>
LayerCount: 2
Fore
SplineSet
376 -107 m 2
 367.443727639 -98.4437276386 355.855096833 -95.518978102 345.22575139 -98.2257513903 c 1
 283.968291504 -36.9682915045 l 1
 286.329920512 -26.5623197579 283.340490011 -15.340490011 275 -7 c 2
 258 10 l 2
 255.910222778 12.089777222 253.639556906 13.8436183795 251.246158842 15.2615234726 c 2
 215.52173913 122.434782609 l 1
 217 124 l 2
 230 137 230 157 217 170 c 2
 206 180.388888889 l 1
 206 289 l 1
 217 300 l 2
 230 313 230 333 217 346 c 2
 215.687738975 347.239357634 l 1
 250.686021578 452.870537854 l 2
 253.654838236 454.417779852 256.460933901 456.460933901 259 459 c 2
 275 477 l 2
 283.296074058 485.296074058 286.297929287 496.442881332 284.005565687 506.80197661 c 1
 345.829092578 568.078392644 l 1
 356.291816088 565.631480133 367.605349252 568.605349252 376 577 c 2
 393 595 l 2
 406 607 406 628 393 640 c 2
 376 657 l 2
 363 670 343 670 330 657 c 2
 313 640 l 2
 304.496785273 632.150878713 301.555467522 620.451213365 304.176046749 609.938235182 c 1
 243.373022154 548.615526616 l 1
 232.581943564 551.589059229 220.717217023 548.717217023 212 540 c 2
 195 523 l 2
 182 510 182 490 195 477 c 2
 196.140425532 475.859574468 l 1
 161.136112701 369.03606807 l 2
 158.233067093 367.500326661 155.488303971 365.488303971 153 363 c 2
 136 346 l 2
 123 333 123 313 136 300 c 2
 147 289.611111111 l 1
 147 181 l 1
 136 170 l 2
 123 157 123 137 136 124 c 2
 154 106 l 2
 156.111975431 104.050484218 158.408702823 102.417686084 160.8301527 101.1016056 c 2
 196.094017094 -5.90598290598 l 1
 195 -7 l 2
 182 -20 182 -40 195 -53 c 2
 213 -70 l 2
 221.340490011 -78.340490011 232.562319758 -81.3299205125 242.968291504 -78.9682915045 c 1
 304.031708496 -140.031708496 l 1
 301.670079488 -150.437680242 304.659509989 -161.659509989 313 -170 c 2
 330 -188 l 2
 343 -201 363 -201 376 -188 c 2
 393 -170 l 2
 406 -157 406 -137 393 -124 c 2
 376 -107 l 2
EndSplineSet
EndChar

StartChar: semicolon
Encoding: 59 59 5
Width: 412
VWidth: 876
Flags: HMW
VStem: 265 59<-77 -42 -42 -42>
LayerCount: 2
Fore
SplineSet
258 128 m 2
 245 141 225 141 212 128 c 2
 195 111 l 2
 186.443727639 102.443727639 183.518978102 90.855096833 186.22575139 80.2257513903 c 1
 183.77424861 77.7742486097 l 1
 173.144903167 80.481021898 161.556272361 77.5562723614 153 69 c 2
 136 52 l 2
 123 39 123 19 136 6 c 2
 154 -11 l 2
 162.340490011 -19.340490011 173.562319758 -22.3299205125 183.968291504 -19.9682915045 c 1
 186.22575139 -22.2257513903 l 1
 183.518978102 -32.855096833 186.443727639 -44.4437276386 195 -53 c 2
 213 -70 l 2
 222.10888541 -79.1088854104 234.654472323 -81.8353251731 245.820680712 -78.1793192881 c 1
 243.863136847 -84.1580686149 243.735362372 -90.5322689552 245.437357285 -96.5626427147 c 1
 184.562642715 -157.437357285 l 1
 173.721124512 -154.377479146 161.768306616 -157.231693384 153 -166 c 2
 136 -183 l 2
 123 -196 123 -216 136 -229 c 2
 154 -246 l 2
 167 -259 187 -259 200 -246 c 2
 217 -229 l 2
 225.556272361 -220.443727639 228.481021898 -208.855096833 225.77424861 -198.22575139 c 1
 286.22575139 -137.77424861 l 1
 296.855096833 -140.481021898 308.443727639 -137.556272361 317 -129 c 2
 334 -111 l 2
 347 -98 347 -78 334 -65 c 2
 324 -55.5882352941 l 1
 324 -4 l 1
 334 6 l 2
 340.5 12.5 343.75 20.75 343.75 29 c 0
 343.75 37.25 340.5 45.5 334 52 c 2
 317 69 l 2
 310.5 75.5 302.25 78.75 294 78.75 c 0
 291.663993448 78.75 289.327986895 78.4894305015 287.031708496 77.9682915045 c 2
 283.968291504 81.0317084955 l 1
 286.329920512 91.4376802421 283.340490011 102.659509989 275 111 c 2
 258 128 l 2
317 481 m 2
 308.443727639 489.556272361 296.855096833 492.481021898 286.22575139 489.77424861 c 1
 283.77424861 492.22575139 l 2
 284.424749537 494.780231698 284.75 497.390115849 284.75 500 c 0
 284.75 508.25 281.5 516.5 275 523 c 2
 258 540 l 2
 251.5 546.5 243.25 549.75 235 549.75 c 0
 226.75 549.75 218.5 546.5 212 540 c 2
 195 523 l 2
 188.5 516.5 185.25 508.25 185.25 500 c 0
 185.25 497.120995449 185.645785762 494.241990898 186.437357285 491.437357285 c 2
 184.562642715 489.562642715 l 1
 173.721124512 492.622520854 161.768306616 489.768306616 153 481 c 2
 136 464 l 2
 123 451 123 431 136 418 c 2
 154 401 l 2
 162.340490011 392.659509989 173.562319758 389.670079488 183.968291504 392.031708496 c 1
 186.22575139 389.77424861 l 1
 183.518978102 379.144903167 186.443727639 367.556272361 195 359 c 2
 213 342 l 2
 226 329 246 329 259 342 c 2
 275 359 l 2
 283.340490011 367.340490011 286.329920512 378.562319758 283.968291504 388.968291504 c 1
 287.031708496 392.031708496 l 1
 297.437680242 389.670079488 308.659509989 392.659509989 317 401 c 2
 334 418 l 2
 347 431 347 451 334 464 c 2
 317 481 l 2
242.489189791 38.9268763086 m 2
 245.138795565 36.4244708556 l 2
 244.546265188 33.9817574129 244.25 31.4908787065 244.25 29 c 0
 244.25 26.5091212935 244.546265188 24.0182425871 245.138795565 21.5755291444 c 2
 242.297198471 18.8917985563 l 1
 237.602874703 20.0099745108 232.733993111 20.0354721602 228.031708496 18.9682915045 c 1
 225.77424861 21.2257513903 l 1
 227.075250463 26.3347120055 225.77424861 31.6652879945 225.77424861 36.7742486097 c 2
 228.22575139 39.2257513903 l 1
 232.90782016 38.0334579656 237.776016347 37.9338329383 242.489189791 38.9268763086 c 2
245.22575139 433.22575139 m 1
 242.77424861 430.77424861 l 1
 237.781767136 432.045588935 232.577660307 432.074574211 227.575529144 430.861204435 c 1
 225.680767848 432.867422279 l 1
 227.074537889 438.085084957 227.105698143 443.545721682 225.77424861 448.77424861 c 1
 227.437357285 450.437357285 l 2
 230.241990898 449.645785762 233.120995449 449.25 236 449.25 c 0
 238.463580426 449.25 240.927160853 449.539807055 243.344142296 450.119421165 c 2
 245.138795565 448.424470856 l 1
 243.925425789 443.422339693 243.954411065 438.218232864 245.22575139 433.22575139 c 1
EndSplineSet
EndChar

StartChar: l
Encoding: 108 108 6
Width: 412
VWidth: 876
Flags: HMW
HStem: 0 59 588 59<109.5 235 118 235>
VStem: 88 118<21 29 29 37 609 617> 265 118
LayerCount: 2
Fore
SplineSet
376 69 m 2
 363 82 343 82 330 69 c 2
 319 58 l 1
 269 58 l 1
 265 62 l 1
 265 583.75 l 1
 275 595 l 2
 281.5 601 284.75 609.25 284.75 617.5 c 0
 284.75 625.75 281.5 634 275 640 c 2
 258 657 l 2
 251.5 663.5 243.25 666.75 235 666.75 c 0
 226.75 666.75 218.5 663.5 212 657 c 2
 202 647 l 1
 150.588235294 647 l 1
 140 657 l 2
 127 670 107 670 94 657 c 2
 78 640 l 2
 65 628 65 607 78 595 c 2
 95 577 l 2
 108 564 128 564 141 577 c 2
 151.388888889 588 l 1
 202 588 l 1
 206 584 l 1
 206 63 l 1
 201 58 l 1
 151.647058824 58 l 1
 140 69 l 2
 127 82 107 82 94 69 c 2
 78 52 l 2
 65 39 65 19 78 6 c 2
 95 -11 l 2
 108 -24 128 -24 141 -11 c 2
 152 0 l 1
 201.352941176 8.881784197e-16 l 1
 213 -11 l 2
 226 -24 246 -24 259 -11 c 2
 269.352941176 0 l 1
 319 0 l 1
 330 -11 l 2
 343 -24 363 -24 376 -11 c 2
 393 6 l 2
 406 19 406 39 393 52 c 2
 376 69 l 2
EndSplineSet
EndChar

StartChar: D
Encoding: 68 68 7
Width: 412
VWidth: 876
Flags: HMW
HStem: 0 59 588 59<118 126 126 223 223 223>
LayerCount: 2
Fore
SplineSet
317 598 m 2
 308.659509989 606.340490011 297.437680242 609.329920512 287.031708496 606.968291504 c 1
 283.870890224 610.129109776 l 1
 286.408751228 620.5925902 283.45178782 632.198349704 275 640 c 2
 258 657 l 2
 245 670 225 670 212 657 c 2
 202 647 l 1
 150.588235294 647 l 1
 140 657 l 2
 133.5 663.5 125.25 666.75 117 666.75 c 0
 108.75 666.75 100.5 663.5 94 657 c 2
 78 640 l 2
 71.5 634 68.25 625.75 68.25 617.5 c 0
 68.25 609.25 71.5 601 78 595 c 2
 88 584.411764706 l 1
 88 62.625 l 1
 78 52 l 2
 71.5 45.5 68.25 37.25 68.25 29 c 0
 68.25 20.75 71.5 12.5 78 6 c 2
 95 -11 l 2
 101.5 -17.5 109.75 -20.75 118 -20.75 c 0
 126.25 -20.75 134.5 -17.5 141 -11 c 2
 152 0 l 1
 201.352941176 -3.99680288865e-15 l 1
 213 -11 l 2
 226 -24 246 -24 259 -11 c 2
 275 6 l 2
 283.340490011 14.340490011 286.329920512 25.5623197579 283.968291504 35.9682915045 c 1
 287.031708496 39.0317084955 l 1
 297.437680242 36.6700794875 308.659509989 39.659509989 317 48 c 2
 334 65 l 2
 347 78 347 98 334 111 c 2
 333.25 111.75 l 1
 368.832481082 218.497443246 l 2
 371.378078442 219.955987769 373.790173353 221.790173353 376 224 c 2
 393 242 l 2
 406 255 406 275 393 288 c 2
 382 298.352941176 l 1
 382 348 l 1
 393 359 l 2
 406 372 406 392 393 405 c 2
 376 422 l 2
 373.790173353 424.209826647 371.378078442 426.044012231 368.832481082 427.502556754 c 2
 333.014492754 534.956521739 l 1
 334 536 l 2
 347 549 347 569 334 582 c 2
 317 598 l 2
201 58 m 1
 151.647058824 58 l 1
 147 62.3888888889 l 1
 147 583.352941176 l 1
 151.388888889 588 l 1
 202 588 l 1
 213 577 l 2
 221.245204462 568.754795538 232.306289258 565.739083124 242.611329911 567.952862757 c 1
 244.943722557 565.568639164 l 1
 242.747421057 555.27574917 245.766180205 544.233819795 254 536 c 2
 271 518 l 2
 273.154137308 515.845862692 275.500476704 514.048672118 277.975321312 512.608428278 c 2
 314.117647059 406.117647059 l 1
 313 405 l 2
 300 392 300 372 313 359 c 2
 324 348 l 1
 324 298.352941176 l 1
 313 288 l 2
 300 275 300 255 313 242 c 2
 314.350904799 240.569630212 l 1
 277.975321312 133.391571722 l 2
 275.500476704 131.951327882 273.154137308 130.154137308 271 128 c 2
 254 111 l 2
 245.549349582 102.549349582 242.59204474 91.1407438551 245.128085473 80.6198207062 c 1
 242.428486054 77.8602301889 l 1
 231.894189296 80.4169958597 220.463585797 77.4635857968 212 69 c 2
 201 58 l 1
EndSplineSet
EndChar

StartChar: t
Encoding: 116 116 8
Width: 412
VWidth: 876
Flags: HMW
HStem: 0 59 411 59<109.5 353 118 353>
VStem: 206 59<100 617 100 617 100 625>
LayerCount: 2
Fore
SplineSet
376 481 m 2
 363 494 343 494 330 481 c 2
 319 470 l 1
 265 470 l 1
 265 583.75 l 1
 275 595 l 2
 288 607 288 628 275 640 c 2
 258 657 l 2
 245 670 225 670 212 657 c 2
 195 640 l 2
 182 628 182 607 195 595 c 2
 206 584 l 1
 206 470 l 1
 151.647058824 470 l 1
 140 481 l 2
 127 494 107 494 94 481 c 2
 78 464 l 2
 65 451 65 431 78 418 c 2
 95 401 l 2
 108 388 128 388 141 401 c 2
 151 411 l 1
 206 411 l 1
 206 122 l 1
 195 111 l 2
 182 98 182 78 195 65 c 2
 213 48 l 2
 221.236488316 39.763511684 232.282906682 36.7454648895 242.578646479 38.9458596165 c 1
 245.122727318 36.3579153144 l 1
 242.596219316 25.8431636002 245.55531021 14.4446897897 254 6 c 2
 271 -11 l 2
 284 -24 304 -24 317 -11 c 2
 323.5 -4.5 l 1
 330 -11 l 2
 343 -24 363 -24 376 -11 c 2
 393 6 l 2
 406 19 406 39 393 52 c 2
 376 69 l 2
 363 82 343 82 330 69 c 2
 323.5 62.5 l 1
 317 69 l 2
 308.545320085 77.4546799148 297.129863323 80.4107742556 286.604771335 77.8682830224 c 1
 283.881168147 80.658315557 l 1
 286.400734205 91.1685651177 283.440344823 102.559655177 275 111 c 2
 265 121 l 1
 265 411 l 1
 320 411 l 1
 330 401 l 2
 343 388 363 388 376 401 c 2
 393 418 l 2
 406 431 406 451 393 464 c 2
 376 481 l 2
EndSplineSet
EndChar

StartChar: Uacute
Encoding: 218 218 9
Width: 412
VWidth: 876
Flags: HMW
VStem: 88 59<214 617 214 617 214 625> 324 59
LayerCount: 2
Fore
SplineSet
317 834 m 2
 304 847 284 847 271 834 c 2
 254 817 l 2
 249.66091352 812.66091352 246.770109462 807.54198266 245.327587825 802.163793913 c 1
 196.13577974 777.56788987 l 1
 183.200544837 787.93471559 165.0787523 787.0787523 153 775 c 2
 136 758 l 2
 123 745 123 725 136 712 c 2
 154 695 l 2
 167 682 187 682 200 695 c 2
 217 712 l 2
 221.071965029 716.071965029 223.868476274 720.830712866 225.389533734 725.846004191 c 2
 274.756817546 750.740617395 l 1
 287.622550722 741.110143171 305.19660404 742.19660404 317 754 c 2
 334 771 l 2
 347 784 347 804 334 817 c 2
 317 834 l 2
376 657 m 2
 363 670 343 670 330 657 c 2
 313 640 l 2
 300 628 300 607 313 595 c 2
 324 583.352941176 l 1
 324 240 l 1
 313 229 l 2
 302.109614551 218.109614551 300.34234412 202.306782554 307.698188706 189.822032687 c 1
 235 82 l 1
 163.215611578 189.676582633 l 1
 170.671258309 202.183843347 168.932721116 218.067278884 158 229 c 2
 147 239.388888889 l 1
 147 583.352941176 l 1
 158 595 l 2
 171 607 171 628 158 640 c 2
 140 657 l 2
 127 670 107 670 94 657 c 2
 78 640 l 2
 65 628 65 607 78 595 c 2
 88 584.411764706 l 1
 88 239.625 l 1
 78 229 l 2
 65 216 65 196 78 183 c 2
 95 165 l 2
 100.859922287 159.140077713 108.142157145 155.921593058 115.564452091 155.344546034 c 1
 189.57152884 44.9611095272 l 1
 182.363082552 32.5106661785 184.172572939 16.8274270615 195 6 c 2
 213 -11 l 2
 226 -24 246 -24 259 -11 c 2
 275 6 l 2
 285.635159622 16.6351596219 287.569809999 31.9552088371 280.803951131 44.2948324708 c 1
 354.59070987 155.290298607 l 1
 362.303550173 155.681317182 369.917884313 158.917884313 376 165 c 2
 393 183 l 2
 406 196 406 216 393 229 c 2
 382 240 l 1
 382 583.352941176 l 1
 393 595 l 2
 406 607 406 628 393 640 c 2
 376 657 l 2
EndSplineSet
EndChar

StartChar: eight
Encoding: 56 56 10
Width: 412
VWidth: 876
Flags: HMW
HStem: 0 59
VStem: 88 59<154 252 154 264 154 268> 324 59
LayerCount: 2
Fore
SplineSet
376 304 m 2
 367.659509989 312.340490011 356.437680242 315.329920512 346.031708496 312.968291504 c 1
 283.968291504 375.031708496 l 2
 284.489430501 377.327986895 284.75 379.663993448 284.75 382 c 0
 284.75 384.628182094 284.420172876 387.256364188 283.760518628 389.827968937 c 2
 338.239845117 452.909294346 l 1
 342.891649121 450.469764782 347.94582456 449.25 353 449.25 c 0
 361.25 449.25 369.5 452.5 376 459 c 2
 393 477 l 2
 399.5 483.5 402.75 491.75 402.75 500 c 0
 402.75 508.25 399.5 516.5 393 523 c 2
 376 540 l 2
 369.5 546.5 361.25 549.75 353 549.75 c 0
 347.835194391 549.75 342.670388783 548.476252266 337.934959548 545.928756797 c 1
 283.117754438 607.527471817 l 1
 286.86544143 618.622230379 284.159523284 631.54505543 275 640 c 2
 258 657 l 2
 245 670 225 670 212 657 c 2
 195 640 l 2
 185.618217988 631.339893527 183.00703857 617.992446797 187.166461746 606.723137426 c 1
 132.73517907 545.558087821 l 1
 120.321409524 552.614732164 104.762036224 550.762036224 94 540 c 2
 78 523 l 2
 65 510 65 490 78 477 c 2
 95 459 l 2
 105.482077619 448.517922381 120.5151473 446.487687163 132.760154883 452.909294346 c 1
 186.478930502 390.708606787 l 2
 185.659643501 387.857945112 185.25 384.928972556 185.25 382 c 0
 185.25 379.390115849 185.575250463 376.780231698 186.22575139 374.22575139 c 2
 124.77424861 312.77424861 l 1
 114.144903167 315.481021898 102.556272361 312.556272361 94 304 c 2
 78 288 l 2
 65 275 65 255 78 242 c 2
 88 231.411764706 l 1
 88 180.625 l 1
 78 170 l 2
 65 157 65 137 78 124 c 2
 95 106 l 2
 98.9688963865 102.336403336 103.590248215 99.7913017144 108.465666555 98.3646951366 c 2
 133.345332644 49.0270522143 l 1
 123.0701635 36.0991569032 123.955052619 18.044947381 136 6 c 2
 154 -11 l 2
 167 -24 187 -24 200 -11 c 2
 211 0 l 1
 260 0 l 1
 271 -11 l 2
 284 -24 304 -24 317 -11 c 2
 334 6 l 2
 346.044947381 18.044947381 346.9298365 36.0991569032 336.654667356 49.0270522143 c 1
 361.374410248 98.0475593046 l 1
 366.675576868 99.3961933275 371.7175908 102.047006893 376 106 c 2
 393 124 l 2
 406 137 406 157 393 170 c 2
 382 181 l 1
 382 230.352941176 l 1
 393 242 l 2
 406 255 406 275 393 288 c 2
 376 304 l 2
166.77424861 507.77424861 m 1
 227.437357285 568.437357285 l 1
 232.51765333 567.003509505 237.841971402 566.868293242 242.968291504 568.031708496 c 1
 304.031708496 506.968291504 l 2
 303.510569499 504.672013105 303.25 502.336006552 303.25 500 c 0
 303.25 497.638736193 303.516234593 495.277472386 304.048703779 492.957239355 c 2
 242.693474779 430.79470471 l 2
 240.164763679 431.431568237 237.58238184 431.75 235 431.75 c 0
 232.41761816 431.75 229.835236321 431.431568237 227.306525221 430.79470471 c 2
 166.753451039 492.144529868 l 1
 168.075213911 497.278196253 168.082146435 502.638207905 166.77424861 507.77424861 c 1
166.968291504 271.968291504 m 1
 228.22575139 333.22575139 l 2
 230.780231698 332.575250463 233.390115849 332.25 236 332.25 c 0
 238.079806686 332.25 240.159613372 332.456548195 242.211382181 332.869644585 c 2
 303.990590738 271.784584439 l 1
 301.70543216 261.4304063 304.70856858 250.29143142 313 242 c 2
 324 230.352941176 l 1
 324 181 l 1
 313 170 l 2
 300.9212477 157.9212477 300.06528441 139.799455163 310.43211013 126.86422026 c 1
 285.836206087 77.6724121748 l 1
 280.45801734 76.2298905379 275.33908648 73.3390864796 271 69 c 2
 260 58 l 1
 210.647058824 58 l 1
 199 69 l 2
 194.976402523 73.0235974774 190.282240805 75.8018613655 185.332604168 77.3347916644 c 2
 160.56788987 126.86422026 l 1
 170.93471559 139.799455163 170.0787523 157.9212477 158 170 c 2
 147 180.388888889 l 1
 147 230.352941176 l 1
 158 242 l 2
 166.340490011 250.340490011 169.329920512 261.562319758 166.968291504 271.968291504 c 1
EndSplineSet
EndChar

StartChar: w
Encoding: 119 119 11
Width: 412
VWidth: 876
Flags: HMW
VStem: 142 58<24 25> 206 58<445 445> 324 59
LayerCount: 2
Fore
SplineSet
140 481 m 2
 127 494 107 494 94 481 c 2
 78 464 l 2
 65 451 65 431 78 418 c 2
 92.374301676 403.625698324 l 1
 137.596566524 58.5965665236 l 1
 131 52 l 2
 118 39 118 19 131 6 c 2
 148 -11 l 2
 161 -24 181 -24 194 -11 c 2
 211 6 l 2
 224 19 224 39 211 52 c 2
 205.261904762 57.7380952381 l 1
 234 242 l 1
 260.25 58.25 l 1
 254 52 l 2
 241 39 241 19 254 6 c 2
 271 -11 l 2
 284 -24 304 -24 317 -11 c 2
 334 6 l 2
 347 19 347 39 334 52 c 2
 327.757427226 58.2425727743 l 1
 338.620976212 134.181076444 365.192884582 320.097058191 376.625503973 401.625503973 c 1
 393 418 l 2
 406 431 406 451 393 464 c 2
 376 481 l 2
 363 494 343 494 330 481 c 2
 313 464 l 2
 300 451 300 431 313 418 c 2
 319.210084034 411.789915966 l 1
 294 237 l 1
 268.83845753 411.453361126 l 1
 275 418 l 2
 288 431 288 451 275 464 c 2
 258 481 l 2
 245 494 225 494 212 481 c 2
 195 464 l 2
 182 451 182 431 195 418 c 2
 200.97761194 412.354477612 l 1
 174 237 l 1
 151.365957447 411.365957447 l 1
 158 418 l 2
 171 431 171 451 158 464 c 2
 140 481 l 2
EndSplineSet
EndChar

StartChar: uni2198
Encoding: 257 8600 12
Width: 412
VWidth: 876
Flags: HMW
HStem: 0 59
VStem: 382 59<100 382>
LayerCount: 2
Fore
SplineSet
434 422 m 2
 421 435 401 435 388 422 c 2
 372 405 l 2
 359 392 359 372 372 359 c 2
 382 349 l 1
 382 100 l 1
 48.7742486097 433.22575139 l 1
 51.481021898 443.855096833 48.5562723614 455.443727639 40 464 c 2
 23 481 l 2
 10 494 -10 494 -23 481 c 2
 -40 464 l 2
 -53 451 -53 431 -40 418 c 2
 -23 401 l 2
 -14.659509989 392.659509989 -3.43768024209 389.670079488 6.96829150447 392.031708496 c 1
 341 58 l 1
 92.6470588235 58 l 1
 81 69 l 2
 69 82 48 82 36 69 c 2
 19 52 l 2
 6 39 6 19 19 6 c 2
 36 -11 l 2
 49 -24 69 -24 82 -11 c 2
 93 0 l 1
 378 0 l 1
 389 -11 l 2
 402 -24 422 -24 435 -11 c 2
 452 6 l 2
 465 19 465 39 452 52 c 2
 441 62.3888888889 l 1
 441 348 l 1
 452 359 l 2
 465 372 465 392 452 405 c 2
 434 422 l 2
EndSplineSet
EndChar

StartChar: W
Encoding: 87 87 13
Width: 412
VWidth: 876
Flags: HMW
VStem: 147 59<26 26> 206 59<26 26> 324 59
LayerCount: 2
Fore
SplineSet
376 657 m 2x20
 363 670 343 670 330 657 c 2
 313 640 l 2
 300 628 300 607 313 595 c 2
 320.635463546 586.915391539 l 1
 294 325 l 1
 268.20869897 587.359786341 l 1
 275 595 l 2
 288 607 288 628 275 640 c 2
 258 657 l 2
 245 670 225 670 212 657 c 2
 195 640 l 2
 182 628 182 607 195 595 c 2
 202.676923077 587.323076923 l 1
 176 325 l 1
 150.262958281 586.80783818 l 1
 158 595 l 2
 171 607 171 628 158 640 c 2
 140 657 l 2
 127 670 107 670 94 657 c 2
 78 640 l 2
 65 628 65 607 78 595 c 2
 91.321804343 580.894560107 l 1
 143.625965997 59.6259659969 l 1
 136 52 l 2
 123 39 123 19 136 6 c 2
 154 -11 l 2
 167 -24 187 -24 200 -11 c 2
 217 6 l 2
 230 19 230 39 217 52 c 2
 209.26318502 59.3069919258 l 1
 235 322 l 1
 261.595092025 59.5950920245 l 1
 254 52 l 2
 241 39 241 19 254 6 c 2
 271 -11 l 2
 284 -24 304 -24 317 -11 c 2
 334 6 l 2
 347 19 347 39 334 52 c 2
 326.37319546 59.6268045398 l 1
 336.678172438 162.371778211 367.691691842 471.715783933 378.353486313 579.491926685 c 1
 393 595 l 2
 406 607 406 628 393 640 c 2
 376 657 l 2x20
EndSplineSet
EndChar

StartChar: eacute
Encoding: 233 233 14
Width: 412
VWidth: 876
Flags: HMW
HStem: 235 59<118 324>
VStem: 88 59<159 311 159 323 256 272 159 327> 324 59
LayerCount: 2
Fore
SplineSet
317 657 m 2
 304 670 284 670 271 657 c 2
 254 640 l 2
 249.824621295 636.145804272 246.990303154 631.363182001 245.497045577 626.248522788 c 2
 195.35326566 601.17663283 l 1
 182.477847427 610.895973362 164.837095752 609.837095752 153 598 c 2
 136 582 l 2
 123 569 123 549 136 536 c 2
 154 518 l 2
 167 505 187 505 200 518 c 2
 217 536 l 2
 221.071965029 540.071965029 223.868476274 544.830712866 225.389533734 549.846004191 c 2
 273.972947786 574.345332644 l 1
 286.900843097 564.0701635 304.955052619 564.955052619 317 577 c 2
 334 595 l 2
 347 607 347 628 334 640 c 2
 317 657 l 2
376 187 m 2
 363 200 343 200 330 187 c 2
 313 170 l 2
 304.505245379 161.505245379 301.561325841 150.021579561 304.168241384 139.45516673 c 1
 242.027288996 77.9548427172 l 2
 237.416436292 79.0105503811 232.643934048 79.0150333102 228.031708496 77.9682915045 c 1
 166.77424861 139.22575139 l 1
 169.481021898 149.855096833 166.556272361 161.443727639 158 170 c 2
 147 180.388888889 l 1
 147 230.352941176 l 1
 151.388888889 235 l 1
 319.611111111 235 l 1
 330 224 l 2
 343 211 363 211 376 224 c 2
 393 242 l 2
 406 255 406 275 393 288 c 2
 386.818181818 293.818181818 l 1
 393 300 l 2
 399.5 306.5 402.75 314.75 402.75 323 c 0
 402.75 331.25 399.5 339.5 393 346 c 2
 376 363 l 2
 369.5 369.5 361.25 372.75 353 372.75 c 0
 350.598177511 372.75 348.196355022 372.474540803 345.837714153 371.923622408 c 2
 283.821613304 433.41416308 l 1
 286.446281774 443.991862476 283.505744006 455.494255994 275 464 c 2
 258 481 l 2
 245 494 225 494 212 481 c 2
 195 464 l 2
 186.282782977 455.282782977 183.410940771 443.418056436 186.384473384 432.626977846 c 1
 124.962631981 371.725660524 l 1
 114.28200595 374.515400535 102.606847027 371.606847027 94 363 c 2
 78 346 l 2
 65 333 65 313 78 300 c 2
 84 294 l 1
 78 288 l 2
 65 275 65 255 78 242 c 2
 88 231.411764706 l 1
 88 180.625 l 1
 78 170 l 2
 65 157 65 137 78 124 c 2
 95 106 l 2
 103.40881339 98.2380184097 114.746366414 95.4967333367 125.223855219 97.7761447812 c 1
 186.22575139 36.7742486097 l 1
 183.518978102 26.144903167 186.443727639 14.5562723614 195 6 c 2
 213 -11 l 2
 226 -24 246 -24 259 -11 c 2
 275 6 l 2
 283.340490011 14.340490011 286.329920512 25.5623197579 283.968291504 35.9682915045 c 1
 345.776144781 97.7761447812 l 1
 356.253633586 95.4967333367 367.59118661 98.2380184097 376 106 c 2
 393 124 l 2
 406 137 406 157 393 170 c 2
 376 187 l 2
166.77424861 330.77424861 m 1
 228.22575139 392.22575139 l 1
 232.793563704 391.062553485 237.538530146 390.939345925 242.143871289 391.856128711 c 2
 304.031708496 329.968291504 l 2
 303.510569499 327.672013105 303.25 325.336006552 303.25 323 c 0
 303.25 314.75 306.5 306.5 313 300 c 2
 319 294 l 1
 152 294 l 1
 158 300 l 2
 166.556272361 308.556272361 169.481021898 320.144903167 166.77424861 330.77424861 c 1
EndSplineSet
EndChar

StartChar: quotedblleft
Encoding: 258 8220 15
Width: 412
VWidth: 876
Flags: HMW
VStem: 265 59<512 546 512 558 512 562>
LayerCount: 2
Fore
SplineSet
376 540 m 2
 366.466135584 549.533864416 353.167407294 552.075838778 341.625923086 547.625923086 c 1
 343.798417501 553.26059388 344.304400236 559.314102465 343.143871289 565.143871289 c 1
 405.031708496 627.031708496 l 1
 415.437680242 624.670079488 426.659509989 627.659509989 435 636 c 2
 452 653 l 2
 465 666 465 686 452 699 c 2
 434 716 l 2
 421 729 401 729 388 716 c 2
 372 699 l 2
 363.659509989 690.659509989 360.670079488 679.437680242 363.031708496 669.031708496 c 1
 300.968291504 606.968291504 l 1
 290.562319758 609.329920512 279.340490011 606.340490011 271 598 c 2
 254 582 l 2
 241 569 241 549 254 536 c 2
 265 524.352941176 l 1
 265 475 l 1
 254 464 l 2
 247.5 457.5 244.25 449.25 244.25 441 c 0
 244.25 432.75 247.5 424.5 254 418 c 2
 271 401 l 2
 277.5 394.5 285.75 391.25 294 391.25 c 0
 296.336006552 391.25 298.672013105 391.510569499 300.968291504 392.031708496 c 2
 304.031708496 388.968291504 l 1
 301.670079488 378.562319758 304.659509989 367.340490011 313 359 c 2
 330 342 l 2
 343 329 363 329 376 342 c 2
 393 359 l 2
 401.340490011 367.340490011 404.329920512 378.562319758 401.968291504 388.968291504 c 1
 405.031708496 392.031708496 l 1
 415.437680242 389.670079488 426.659509989 392.659509989 435 401 c 2
 452 418 l 2
 465 431 465 451 452 464 c 2
 434 481 l 2
 425.659509989 489.340490011 414.437680242 492.329920512 404.031708496 489.968291504 c 1
 401.77424861 492.22575139 l 1
 404.481021898 502.855096833 401.556272361 514.443727639 393 523 c 2
 376 540 l 2
140 540 m 2
 130.783739551 549.216260449 118.049276756 551.898716539 106.78502225 548.047368271 c 1
 108.921254568 553.828833161 109.315677653 560.031346223 107.968291504 565.968291504 c 1
 169.22575139 627.22575139 l 1
 179.855096833 624.518978102 191.443727639 627.443727639 200 636 c 2
 217 653 l 2
 230 666 230 686 217 699 c 2
 199 716 l 2
 186 729 166 729 153 716 c 2
 136 699 l 2
 127.443727639 690.443727639 124.518978102 678.855096833 127.22575139 668.22575139 c 1
 65.8708902241 606.870890224 l 1
 55.4074097999 609.408751228 43.8016502957 606.45178782 36 598 c 2
 19 582 l 2
 6 569 6 549 19 536 c 2
 29 525.411764706 l 1
 29 474 l 1
 19 464 l 2
 12.5 457.5 9.25 449.25 9.25 441 c 0
 9.25 432.75 12.5 424.5 19 418 c 2
 36 401 l 2
 42.5 394.5 50.75 391.25 59 391.25 c 0
 61.3360065524 391.25 63.6720131049 391.510569499 65.9682915045 392.031708496 c 2
 69.0317084955 388.968291504 l 1
 66.6700794875 378.562319758 69.659509989 367.340490011 78 359 c 2
 95 342 l 2
 108 329 128 329 141 342 c 2
 158 359 l 2
 166.556272361 367.556272361 169.481021898 379.144903167 166.77424861 389.77424861 c 1
 169.22575139 392.22575139 l 1
 179.855096833 389.518978102 191.443727639 392.443727639 200 401 c 2
 217 418 l 2
 230 431 230 451 217 464 c 2
 199 481 l 2
 190.443727639 489.556272361 178.855096833 492.481021898 168.22575139 489.77424861 c 1
 166.562642715 491.437357285 l 1
 169.622520854 502.278875488 166.768306616 514.231693384 158 523 c 2
 140 540 l 2
360.77424861 450.22575139 m 2
 363.031708496 447.968291504 l 1
 361.96452784 443.266006889 361.990025489 438.397125297 363.108201444 433.702801529 c 1
 360.424470856 430.861204435 l 1
 355.53904397 432.046265188 350.46095603 430.861204435 345.575529144 430.861204435 c 2
 342.891798556 433.702801529 l 2
 343.463932852 436.104734438 343.75 438.552367219 343.75 441 c 0
 343.75 443.336006552 343.489430501 445.672013105 342.968291504 447.968291504 c 2
 345.22575139 450.22575139 l 1
 350.334712006 448.924749537 355.665287994 450.22575139 360.77424861 450.22575139 c 2
125.77424861 450.22575139 m 1
 127.22575139 448.77424861 l 1
 125.894301857 443.545721682 125.925462111 438.085084957 127.319232152 432.867422279 c 1
 125.229461202 430.654723626 l 1
 120.249891664 432.001776976 115.046077845 432.106299602 110.031708496 430.968291504 c 1
 107.77424861 433.22575139 l 2
 108.424749537 435.780231698 108.75 438.390115849 108.75 441 c 0
 108.75 443.490878706 108.453734812 445.981757413 107.861204435 448.424470856 c 2
 109.867422279 450.319232152 l 1
 115.085084957 448.925462111 120.545721682 448.894301857 125.77424861 450.22575139 c 1
EndSplineSet
EndChar

StartChar: quoteright
Encoding: 259 8217 16
Width: 412
VWidth: 876
Flags: HMW
VStem: 265 59<512 546 546 546>
LayerCount: 2
Fore
SplineSet
258 716 m 2
 245 729 225 729 212 716 c 2
 195 699 l 2
 186.443727639 690.443727639 183.518978102 678.855096833 186.22575139 668.22575139 c 1
 183.77424861 665.77424861 l 1
 173.144903167 668.481021898 161.556272361 665.556272361 153 657 c 2
 136 640 l 2
 123 628 123 607 136 595 c 2
 154 577 l 2
 162.44468979 568.55531021 173.8431636 565.596219316 184.357915314 568.122727318 c 1
 186.128549463 566.382103918 l 1
 183.5916841 555.860647504 186.548834279 544.451165721 195 536 c 2
 213 518 l 2
 222.10888541 508.89111459 234.654472323 506.164674827 245.820680712 509.820680712 c 1
 243.948240397 504.101855466 243.749930623 498.021215981 245.22575139 492.22575139 c 1
 183.77424861 430.77424861 l 1
 173.144903167 433.481021898 161.556272361 430.556272361 153 422 c 2
 136 405 l 2
 123 392 123 372 136 359 c 2
 154 342 l 2
 167 329 187 329 200 342 c 2
 217 359 l 2
 225.556272361 367.556272361 228.481021898 379.144903167 225.77424861 389.77424861 c 1
 286.22575139 450.22575139 l 1
 296.855096833 447.518978102 308.443727639 450.443727639 317 459 c 2
 334 477 l 2
 347 490 347 510 334 523 c 2
 324 533 l 1
 324 584.411764706 l 1
 334 595 l 2
 340.5 601 343.75 609.25 343.75 617.5 c 0
 343.75 625.75 340.5 634 334 640 c 2
 317 657 l 2
 310.5 663.5 302.25 666.75 294 666.75 c 0
 291.663993448 666.75 289.327986895 666.489430501 287.031708496 665.968291504 c 2
 283.968291504 669.031708496 l 1
 286.329920512 679.437680242 283.340490011 690.659509989 275 699 c 2
 258 716 l 2
242.489189791 626.926876309 m 2
 245.044639985 624.51339557 l 2
 244.514879995 622.210498214 244.25 619.855249107 244.25 617.5 c 0
 244.25 614.866974536 244.581043894 612.233949072 245.243131683 609.674068812 c 2
 242.297198471 606.891798556 l 1
 237.602874703 608.009974511 232.733993111 608.03547216 228.031708496 606.968291504 c 1
 225.666666667 609.333333333 l 1
 227.039484829 614.402200394 227.107559348 619.772162142 225.870890224 624.870890224 c 1
 228.22575139 627.22575139 l 1
 232.90782016 626.033457966 237.776016347 625.933832938 242.489189791 626.926876309 c 2
EndSplineSet
EndChar

StartChar: F
Encoding: 70 70 17
Width: 412
VWidth: 876
Flags: HMW
HStem: 294 59 588 59<118 126 126 353>
VStem: 88 59<29 617 315 331 609 617>
LayerCount: 2
Fore
SplineSet
376 363 m 2
 363 376 343 376 330 363 c 2
 319 352 l 1
 151.647058824 352 l 1
 147 356.388888889 l 1
 147 583.352941176 l 1
 151.388888889 588 l 1
 319.611111111 588 l 1
 330 577 l 2
 343 564 363 564 376 577 c 2
 393 595 l 2
 406 607 406 628 393 640 c 2
 376 657 l 2
 363 670 343 670 330 657 c 2
 320 647 l 1
 150.588235294 647 l 1
 140 657 l 2
 133.5 663.5 125.25 666.75 117 666.75 c 0
 108.75 666.75 100.5 663.5 94 657 c 2
 78 640 l 2
 71.5 634 68.25 625.75 68.25 617.5 c 0
 68.25 609.25 71.5 601 78 595 c 2
 88 584.411764706 l 1
 88 356.625 l 1
 78 346 l 2
 65 333 65 313 78 300 c 2
 88 290 l 1
 88 62.625 l 1
 78 52 l 2
 65 39 65 19 78 6 c 2
 95 -11 l 2
 108 -24 128 -24 141 -11 c 2
 158 6 l 2
 171 19 171 39 158 52 c 2
 147 62.3888888889 l 1
 147 289 l 1
 152 294 l 1
 319 294 l 1
 330 283 l 2
 343 270 363 270 376 283 c 2
 393 300 l 2
 406 313 406 333 393 346 c 2
 376 363 l 2
EndSplineSet
EndChar

StartChar: Udieresis
Encoding: 220 220 18
Width: 412
VWidth: 876
Flags: HMW
VStem: 88 59<214 617 214 617 214 625> 324 59
LayerCount: 2
Fore
SplineSet
140 893 m 2
 127 906 107 906 94 893 c 2
 78 876 l 2
 69.4437276386 867.443727639 66.518978102 855.855096833 69.2257513903 845.22575139 c 1
 66.6666666667 842.666666667 l 1
 56 845.555555556 44 842.666666667 36 834 c 2
 19 817 l 2
 6 804 6 784 19 771 c 2
 36 754 l 2
 44.340490011 745.659509989 55.5623197579 742.670079488 65.9682915045 745.031708496 c 1
 69.0317084955 741.968291504 l 1
 66.6700794875 731.562319758 69.659509989 720.340490011 78 712 c 2
 95 695 l 2
 108 682 128 682 141 695 c 2
 158 712 l 2
 166.556272361 720.556272361 169.481021898 732.144903167 166.77424861 742.77424861 c 1
 169.22575139 745.22575139 l 2
 171.780231698 744.575250463 174.390115849 744.25 177 744.25 c 0
 185.25 744.25 193.5 747.5 200 754 c 2
 217 771 l 2
 223.5 777.5 226.75 785.75 226.75 794 c 0
 226.75 802.25 223.5 810.5 217 817 c 2
 199 834 l 2
 192.5 840.5 184.25 843.75 176 843.75 c 0
 173.390115849 843.75 170.780231698 843.424749537 168.22575139 842.77424861 c 2
 166.562642715 844.437357285 l 1
 169.622520854 855.278875488 166.768306616 867.231693384 158 876 c 2
 140 893 l 2
376 893 m 2
 363 906 343 906 330 893 c 2
 313 876 l 2
 304.443727639 867.443727639 301.518978102 855.855096833 304.22575139 845.22575139 c 1
 301.77424861 842.77424861 l 1
 291.144903167 845.481021898 279.556272361 842.556272361 271 834 c 2
 254 817 l 2
 241 804 241 784 254 771 c 2
 271 754 l 2
 279.340490011 745.659509989 290.562319758 742.670079488 300.968291504 745.031708496 c 1
 304.031708496 741.968291504 l 1
 301.670079488 731.562319758 304.659509989 720.340490011 313 712 c 2
 330 695 l 2
 343 682 363 682 376 695 c 2
 393 712 l 2
 401.340490011 720.340490011 404.329920512 731.562319758 401.968291504 741.968291504 c 1
 405.031708496 745.031708496 l 1
 415.437680242 742.670079488 426.659509989 745.659509989 435 754 c 2
 452 771 l 2
 465 784 465 804 452 817 c 2
 434 834 l 2
 425.659509989 842.340490011 414.437680242 845.329920512 404.031708496 842.968291504 c 1
 401.77424861 845.22575139 l 1
 404.481021898 855.855096833 401.556272361 867.443727639 393 876 c 2
 376 893 l 2
376 657 m 2
 363 670 343 670 330 657 c 2
 313 640 l 2
 300 628 300 607 313 595 c 2
 324 583.352941176 l 1
 324 240 l 1
 313 229 l 2
 302.109614551 218.109614551 300.34234412 202.306782554 307.698188706 189.822032687 c 1
 235 82 l 1
 163.215611578 189.676582633 l 1
 170.671258309 202.183843347 168.932721116 218.067278884 158 229 c 2
 147 239.388888889 l 1
 147 583.352941176 l 1
 158 595 l 2
 171 607 171 628 158 640 c 2
 140 657 l 2
 127 670 107 670 94 657 c 2
 78 640 l 2
 65 628 65 607 78 595 c 2
 88 584.411764706 l 1
 88 239.625 l 1
 78 229 l 2
 65 216 65 196 78 183 c 2
 95 165 l 2
 100.859922287 159.140077713 108.142157145 155.921593058 115.564452091 155.344546034 c 1
 189.57152884 44.9611095272 l 1
 182.363082552 32.5106661785 184.172572939 16.8274270615 195 6 c 2
 213 -11 l 2
 226 -24 246 -24 259 -11 c 2
 275 6 l 2
 285.635159622 16.6351596219 287.569809999 31.9552088371 280.803951131 44.2948324708 c 1
 354.59070987 155.290298607 l 1
 362.303550173 155.681317182 369.917884313 158.917884313 376 165 c 2
 393 183 l 2
 406 196 406 216 393 229 c 2
 382 240 l 1
 382 583.352941176 l 1
 393 595 l 2
 406 607 406 628 393 640 c 2
 376 657 l 2
125.77424861 803.22575139 m 1
 127.22575139 801.77424861 l 2
 126.575250463 799.219768302 126.25 796.609884151 126.25 794 c 0
 126.25 791.267956276 126.606410717 788.535912552 127.319232152 785.867422279 c 2
 125.229461202 783.654723626 l 1
 120.249891664 785.001776976 115.046077845 785.106299602 110.031708496 783.968291504 c 1
 107.77424861 786.22575139 l 1
 109.045588935 791.218232864 109.074574211 796.422339693 107.861204435 801.424470856 c 1
 109.867422279 803.319232152 l 1
 115.085084957 801.925462111 120.545721682 801.894301857 125.77424861 803.22575139 c 1
360.77424861 803.22575139 m 2
 363.031708496 800.968291504 l 1
 361.96452784 796.266006889 361.990025489 791.397125297 363.108201444 786.702801529 c 1
 360.424470856 783.861204435 l 1
 355.53904397 785.046265188 350.46095603 783.861204435 345.575529144 783.861204435 c 2
 342.891798556 786.702801529 l 1
 344.009974511 791.397125297 344.03547216 796.266006889 342.968291504 800.968291504 c 1
 345.22575139 803.22575139 l 1
 350.334712006 801.924749537 355.665287994 803.22575139 360.77424861 803.22575139 c 2
EndSplineSet
EndChar

StartChar: ccedilla
Encoding: 231 231 19
Width: 412
VWidth: 876
Flags: HMW
VStem: 206 59<-18 29 -18 29 -18 37>
LayerCount: 2
Fore
SplineSet
317 -49 m 2
 308.659509989 -40.659509989 297.437680242 -37.6700794875 287.031708496 -40.0317084955 c 1
 283.968291504 -36.9682915045 l 1
 286.329920512 -26.5623197579 283.340490011 -15.340490011 275 -7 c 2
 268.696969697 -0.69696969697 l 1
 275 6 l 2
 281.5 12.5 284.75 20.75 284.75 29 c 0
 284.75 31.3360065524 284.489430501 33.6720131049 283.968291504 35.9682915045 c 2
 345.776144781 97.7761447812 l 1
 356.253633586 95.4967333367 367.59118661 98.2380184097 376 106 c 2
 393 124 l 2
 406 137 406 157 393 170 c 2
 376 187 l 2
 363 200 343 200 330 187 c 2
 313 170 l 2
 304.505245379 161.505245379 301.561325841 150.021579561 304.168241384 139.45516673 c 1
 242.027288996 77.9548427172 l 2
 239.712031194 78.4849475724 237.356015597 78.75 235 78.75 c 0
 232.663993448 78.75 230.327986895 78.4894305015 228.031708496 77.9682915045 c 2
 166.77424861 139.22575139 l 1
 169.481021898 149.855096833 166.556272361 161.443727639 158 170 c 2
 147 180.388888889 l 1
 147 289 l 1
 158 300 l 2
 166.556272361 308.556272361 169.481021898 320.144903167 166.77424861 330.77424861 c 1
 228.22575139 392.22575139 l 1
 232.793563704 391.062553485 237.538530146 390.939345925 242.143871289 391.856128711 c 2
 304.031708496 329.968291504 l 1
 301.670079488 319.562319758 304.659509989 308.340490011 313 300 c 2
 330 283 l 2
 343 270 363 270 376 283 c 2
 393 300 l 2
 406 313 406 333 393 346 c 2
 376 363 l 2
 367.607655009 371.392344991 356.298030839 374.366885794 345.837714153 371.923622408 c 1
 283.821613304 433.41416308 l 1
 286.446281774 443.991862476 283.505744006 455.494255994 275 464 c 2
 258 481 l 2
 245 494 225 494 212 481 c 2
 195 464 l 2
 186.282782977 455.282782977 183.410940771 443.418056436 186.384473384 432.626977846 c 1
 124.962631981 371.725660524 l 1
 114.28200595 374.515400535 102.606847027 371.606847027 94 363 c 2
 78 346 l 2
 65 333 65 313 78 300 c 2
 88 290 l 1
 88 180.625 l 1
 78 170 l 2
 65 157 65 137 78 124 c 2
 95 106 l 2
 103.40881339 98.2380184097 114.746366414 95.4967333367 125.223855219 97.7761447812 c 1
 186.22575139 36.7742486097 l 2
 185.575250463 34.2197683021 185.25 31.6098841511 185.25 29 c 0
 185.25 20.75 188.5 12.5 195 6 c 2
 201.685714286 -0.314285714286 l 1
 195 -7 l 2
 182 -20 182 -40 195 -53 c 2
 213 -70 l 2
 221.340490011 -78.340490011 232.562319758 -81.3299205125 242.968291504 -78.9682915045 c 1
 245.031708496 -81.0317084955 l 1
 243.868293242 -86.1580285983 244.003509505 -91.4823466697 245.437357285 -96.5626427147 c 1
 243.562642715 -98.4373572853 l 1
 232.721124512 -95.377479146 220.768306616 -98.2316933842 212 -107 c 2
 195 -124 l 2
 182 -137 182 -157 195 -170 c 2
 213 -188 l 2
 226 -201 246 -201 259 -188 c 2
 275 -170 l 2
 283.340490011 -161.659509989 286.329920512 -150.437680242 283.968291504 -140.031708496 c 1
 286.22575139 -137.77424861 l 1
 296.855096833 -140.481021898 308.443727639 -137.556272361 317 -129 c 2
 334 -111 l 2
 347 -98 347 -78 334 -65 c 2
 317 -49 l 2
EndSplineSet
EndChar

StartChar: f
Encoding: 102 102 20
Width: 412
VWidth: 876
Flags: W
LayerCount: 2
Fore
SplineSet
376 481 m 2
 363 494 343 494 330 481 c 2
 319 470 l 1
 268.777777778 470 l 1
 275 477 l 2
 286.871059587 488.871059587 287.901961042 506.5791274 278.092704364 519.463976906 c 1
 302.283317 568.359896065 l 1
 307.617808021 569.813033893 312.693068538 572.693068538 317 577 c 2
 323.5 583.882352941 l 1
 330 577 l 2
 343 564 363 564 376 577 c 2
 393 595 l 2
 406 607 406 628 393 640 c 2
 376 657 l 2
 363 670 343 670 330 657 c 2
 323.5 650.5 l 1
 317 657 l 2
 304 670 284 670 271 657 c 2
 254 640 l 2
 241.85572485 628.789899861 241.056328078 609.725653153 251.601809685 597.4815548 c 1
 227.012180956 548.719070709 l 1
 221.569713076 547.292743821 216.386386918 544.386386918 212 540 c 2
 195 523 l 2
 182 510 182 490 195 477 c 2
 201.303030303 470.696969697 l 1
 200.647058824 470 l 1
 151.647058824 470 l 1
 140 481 l 2
 127 494 107 494 94 481 c 2
 78 464 l 2
 65 451 65 431 78 418 c 2
 95 401 l 2
 108 388 128 388 141 401 c 2
 151 411 l 1
 202 411 l 1
 206 407 l 1
 206 63 l 1
 195 52 l 2
 182 39 182 19 195 6 c 2
 213 -11 l 2
 226 -24 246 -24 259 -11 c 2
 275 6 l 2
 288 19 288 39 275 52 c 2
 265 62 l 1
 265 408 l 1
 268 411 l 1
 320 411 l 1
 330 401 l 2
 343 388 363 388 376 401 c 2
 393 418 l 2
 406 431 406 451 393 464 c 2
 376 481 l 2
EndSplineSet
EndChar

StartChar: grave
Encoding: 96 96 21
Width: 412
VWidth: 876
Flags: W
LayerCount: 2
Fore
SplineSet
317 657 m 2
 304 670 284 670 271 657 c 2
 254 640 l 2
 249.824621295 636.145804272 246.990303154 631.363182001 245.497045577 626.248522788 c 2
 195.35326566 601.17663283 l 1
 182.477847427 610.895973362 164.837095752 609.837095752 153 598 c 2
 136 582 l 2
 123 569 123 549 136 536 c 2
 154 518 l 2
 167 505 187 505 200 518 c 2
 217 536 l 2
 221.071965029 540.071965029 223.868476274 544.830712866 225.389533734 549.846004191 c 2
 273.972947786 574.345332644 l 1
 286.900843097 564.0701635 304.955052619 564.955052619 317 577 c 2
 334 595 l 2
 347 607 347 628 334 640 c 2
 317 657 l 2
EndSplineSet
EndChar

StartChar: B
Encoding: 66 66 22
Width: 412
VWidth: 876
Flags: HMW
HStem: 294 59 588 59<118 126 126 276 276 276>
VStem: 324 59
LayerCount: 2
Fore
SplineSet
317 657 m 2
 304 670 284 670 271 657 c 2
 261 647 l 1
 150.588235294 647 l 1
 140 657 l 2
 133.5 663.5 125.25 666.75 117 666.75 c 0
 108.75 666.75 100.5 663.5 94 657 c 2
 78 640 l 2
 71.5 634 68.25 625.75 68.25 617.5 c 0
 68.25 609.25 71.5 601 78 595 c 2
 88 584.411764706 l 1
 88 356.625 l 1
 78 346 l 2
 71.5 339.5 68.25 331.25 68.25 323 c 0
 68.25 314.75 71.5 306.5 78 300 c 2
 88 290 l 1
 88 62.625 l 1
 78 52 l 2
 71.5 45.5 68.25 37.25 68.25 29 c 0
 68.25 20.75 71.5 12.5 78 6 c 2
 95 -11 l 2
 101.5 -17.5 109.75 -20.75 118 -20.75 c 0
 126.25 -20.75 134.5 -17.5 141 -11 c 2
 152 0 l 1
 260 0 l 1
 271 -11 l 2
 277.5 -17.5 285.75 -20.75 294 -20.75 c 0
 302.25 -20.75 310.5 -17.5 317 -11 c 2
 334 6 l 2
 340.5 12.5 343.75 20.75 343.75 29 c 0
 343.75 36.6406762113 340.962344799 44.2813524226 335.387034396 50.531846858 c 1
 360.391525902 97.8130671596 l 1
 366.051266629 99.0744271216 371.453688463 101.803404735 376 106 c 2
 393 124 l 2
 406 137 406 157 393 170 c 2
 386.685714286 176.314285714 l 1
 393 183 l 2
 406 196 406 216 393 229 c 2
 376 246 l 2
 371.7175908 249.952993107 366.675576868 252.603806673 361.374410248 253.952440695 c 1
 336.654667356 302.972947786 l 1
 341.384889119 308.924364341 343.75 315.96218217 343.75 323 c 0
 343.75 330.671858429 340.939545077 338.343716858 335.318635231 344.608303622 c 1
 360.185738821 392.081865021 l 1
 365.920258403 393.425905844 371.398617504 396.398617504 376 401 c 2
 393 418 l 2
 406 431 406 451 393 464 c 2
 386.685714286 470.314285714 l 1
 393 477 l 2
 406 490 406 510 393 523 c 2
 376 540 l 2
 371.613613082 544.386386918 366.430286924 547.292743821 360.987819044 548.719070709 c 1
 336.398190315 597.4815548 l 1
 346.943671922 609.725653153 346.14427515 628.789899861 334 640 c 2
 317 657 l 2
310.43211013 420.86422026 m 1
 285.836206087 371.672412175 l 1
 280.45801734 370.229890538 275.33908648 367.33908648 271 363 c 2
 260 352 l 1
 151.647058824 352 l 1
 147 356.388888889 l 1
 147 583.352941176 l 1
 151.388888889 588 l 1
 260.611111111 588 l 1
 271 577 l 2
 275.371245699 572.628754301 280.533938278 569.727338522 285.955830233 568.295752663 c 1
 310.344656251 520.02620117 l 1
 300.07020234 507.098364573 300.955316923 489.044683077 313 477 c 2
 319.314285714 470.314285714 l 1
 313 464 l 2
 300.9212477 451.9212477 300.06528441 433.799455163 310.43211013 420.86422026 c 1
260 58 m 1
 151.647058824 58 l 1
 147 62.3888888889 l 1
 147 289 l 1
 152 294 l 1
 260 294 l 1
 271 283 l 2
 275.33908648 278.66091352 280.45801734 275.770109462 285.836206087 274.327587825 c 1
 310.125956846 225.748086309 l 1
 300.083431503 212.84047577 301.041445888 194.958554112 313 183 c 2
 319.314285714 176.314285714 l 1
 313 170 l 2
 300.9212477 157.9212477 300.06528441 139.799455163 310.43211013 126.86422026 c 1
 285.836206087 77.6724121748 l 1
 280.45801734 76.2298905379 275.33908648 73.3390864796 271 69 c 2
 260 58 l 1
EndSplineSet
EndChar

StartChar: k
Encoding: 107 107 23
Width: 412
VWidth: 876
Flags: HMW
VStem: 88 59<29 617>
LayerCount: 2
Fore
SplineSet
376 422 m 2
 363 435 343 435 330 422 c 2
 313 405 l 2
 304.633643493 396.633643493 301.651588617 385.368047645 304.053835372 374.934915523 c 1
 147 217.212765957 l 1
 147 583.352941176 l 1
 158 595 l 2
 171 607 171 628 158 640 c 2
 140 657 l 2
 127 670 107 670 94 657 c 2
 78 640 l 2
 65 628 65 607 78 595 c 2
 88 584.411764706 l 1
 88 180 l 1
 78 170 l 2
 65 157 65 137 78 124 c 2
 88 114.555555556 l 1
 88 62.625 l 1
 78 52 l 2
 65 39 65 19 78 6 c 2
 95 -11 l 2
 108 -24 128 -24 141 -11 c 2
 158 6 l 2
 171 19 171 39 158 52 c 2
 147 62.3888888889 l 1
 147 112.3125 l 1
 158 124 l 2
 166.467789489 132.467789489 169.419928299 143.905544729 166.856416429 154.444181909 c 1
 194.906648676 182.093696552 l 2
 194.937690943 182.062424198 194.968808051 182.031191949 195 182 c 2
 213 165 l 2
 218.806725298 159.193274702 226.010056577 155.980246226 233.362346563 155.360914572 c 1
 307.196048869 44.2948324708 l 1
 300.430190001 31.9552088371 302.364840378 16.6351596219 313 6 c 2
 330 -11 l 2
 343 -24 363 -24 376 -11 c 2
 393 6 l 2
 406 19 406 39 393 52 c 2
 376 69 l 2
 369.917884313 75.0821156871 362.303550173 78.3186828179 354.59070987 78.7097013925 c 1
 280.803951131 189.705167529 l 1
 287.569809999 202.044791163 285.635159622 217.364840378 275 228 c 2
 258 245 l 2
 257.849133133 245.150866867 257.69732351 245.299982903 257.544593014 245.447348107 c 1
 345.854320033 333.072503599 l 1
 356.309998953 330.636263668 367.612095802 333.612095802 376 342 c 2
 393 359 l 2
 406 372 406 392 393 405 c 2
 376 422 l 2
EndSplineSet
EndChar

StartChar: acircumflex
Encoding: 226 226 24
Width: 412
VWidth: 876
Flags: HMW
VStem: 88 59<159 311 159 323 159 327> 324 59
LayerCount: 2
Fore
SplineSet
258 657 m 2
 245 670 225 670 212 657 c 2
 195 640 l 2
 186.333333333 632 183.444444444 620 186.333333333 609.333333333 c 1
 183.77424861 606.77424861 l 1
 173.144903167 609.481021898 161.556272361 606.556272361 153 598 c 2
 136 582 l 2
 123 569 123 549 136 536 c 2
 154 518 l 2
 167 505 187 505 200 518 c 2
 217 536 l 2
 225.556272361 544.556272361 228.481021898 556.144903167 225.77424861 566.77424861 c 1
 227.437357285 568.437357285 l 1
 232.51765333 567.003509505 237.841971402 566.868293242 242.968291504 568.031708496 c 1
 245.031708496 565.968291504 l 1
 242.670079488 555.562319758 245.659509989 544.340490011 254 536 c 2
 271 518 l 2
 284 505 304 505 317 518 c 2
 334 536 l 2
 347 549 347 569 334 582 c 2
 317 598 l 2
 308.659509989 606.340490011 297.437680242 609.329920512 287.031708496 606.968291504 c 1
 283.870890224 610.129109776 l 1
 286.408751228 620.5925902 283.45178782 632.198349704 275 640 c 2
 258 657 l 2
376 481 m 2
 363 494 343 494 330 481 c 2
 313 464 l 2
 300 451 300 431 313 418 c 2
 324 407 l 1
 324 393.576271186 l 1
 283.821613304 433.41416308 l 1
 286.446281774 443.991862476 283.505744006 455.494255994 275 464 c 2
 258 481 l 2
 245 494 225 494 212 481 c 2
 195 464 l 2
 186.282782977 455.282782977 183.410940771 443.418056436 186.384473384 432.626977846 c 1
 124.962631981 371.725660524 l 1
 114.28200595 374.515400535 102.606847027 371.606847027 94 363 c 2
 78 346 l 2
 65 333 65 313 78 300 c 2
 88 290 l 1
 88 180.625 l 1
 78 170 l 2
 65 157 65 137 78 124 c 2
 95 106 l 2
 103.40881339 98.2380184097 114.746366414 95.4967333367 125.223855219 97.7761447812 c 1
 186.22575139 36.7742486097 l 1
 183.518978102 26.144903167 186.443727639 14.5562723614 195 6 c 2
 213 -11 l 2
 226 -24 246 -24 259 -11 c 2
 275 6 l 2
 283.340490011 14.340490011 286.329920512 25.5623197579 283.968291504 35.9682915045 c 1
 324 76 l 1
 324 63 l 1
 313 52 l 2
 300 39 300 19 313 6 c 2
 330 -11 l 2
 343 -24 363 -24 376 -11 c 2
 393 6 l 2
 406 19 406 39 393 52 c 2
 382 63 l 1
 382 112.352941176 l 1
 393 124 l 2
 406 137 406 157 393 170 c 2
 382 181 l 1
 382 289 l 1
 393 300 l 2
 406 313 406 333 393 346 c 2
 382 357 l 1
 382 407 l 1
 393 418 l 2
 406 431 406 451 393 464 c 2
 376 481 l 2
324 289 m 1
 324 181 l 1
 313 170 l 2
 304.505245379 161.505245379 301.561325841 150.021579561 304.168241384 139.45516673 c 1
 242.027288996 77.9548427172 l 2
 237.416436292 79.0105503811 232.643934048 79.0150333102 228.031708496 77.9682915045 c 1
 166.77424861 139.22575139 l 1
 169.481021898 149.855096833 166.556272361 161.443727639 158 170 c 2
 147 180.388888889 l 1
 147 289 l 1
 158 300 l 2
 166.556272361 308.556272361 169.481021898 320.144903167 166.77424861 330.77424861 c 1
 228.22575139 392.22575139 l 1
 232.793563704 391.062553485 237.538530146 390.939345925 242.143871289 391.856128711 c 2
 304.031708496 329.968291504 l 1
 301.670079488 319.562319758 304.659509989 308.340490011 313 300 c 2
 324 289 l 1
EndSplineSet
EndChar

StartChar: oacute
Encoding: 243 243 25
Width: 412
VWidth: 876
Flags: HMW
VStem: 88 59<212 257 212 264 212 266.5> 324 59
LayerCount: 2
Fore
SplineSet
317 657 m 2
 304 670 284 670 271 657 c 2
 254 640 l 2
 249.824621295 636.145804272 246.990303154 631.363182001 245.497045577 626.248522788 c 2
 195.35326566 601.17663283 l 1
 182.477847427 610.895973362 164.837095752 609.837095752 153 598 c 2
 136 582 l 2
 123 569 123 549 136 536 c 2
 154 518 l 2
 167 505 187 505 200 518 c 2
 217 536 l 2
 221.071965029 540.071965029 223.868476274 544.830712866 225.389533734 549.846004191 c 2
 273.972947786 574.345332644 l 1
 286.900843097 564.0701635 304.955052619 564.955052619 317 577 c 2
 334 595 l 2
 347 607 347 628 334 640 c 2
 317 657 l 2
317 422 m 2
 308.55531021 430.44468979 297.1568364 433.403780684 286.642084686 430.877272682 c 1
 283.868144307 433.604197122 l 2
 284.456048102 436.03772992 284.75 438.51886496 284.75 441 c 0
 284.75 449.25 281.5 457.5 275 464 c 2
 258 481 l 2
 251.5 487.5 243.25 490.75 235 490.75 c 0
 226.75 490.75 218.5 487.5 212 481 c 2
 195 464 l 2
 188.5 457.5 185.25 449.25 185.25 441 c 0
 185.25 438.251186448 185.610799586 435.502372896 186.332398758 432.818290304 c 2
 184.152580088 430.675417714 l 1
 173.420614504 433.54970378 161.657897875 430.657897875 153 422 c 2
 136 405 l 2
 123.9212477 392.9212477 123.06528441 374.799455163 133.43211013 361.86422026 c 1
 108.836206087 312.672412175 l 1
 103.45801734 311.229890538 98.3390864796 308.33908648 94 304 c 2
 78 288 l 2
 65 275 65 255 78 242 c 2
 84.1282495667 235.511265165 l 1
 78 229 l 2
 65 216 65 196 78 183 c 2
 95 165 l 2
 99.0719650294 160.928034971 103.830712866 158.131523726 108.846004191 156.610466266 c 2
 133.345332644 108.027052214 l 1
 123.0701635 95.0991569032 123.955052619 77.044947381 136 65 c 2
 154 48 l 2
 162.340490011 39.659509989 173.562319758 36.6700794875 183.968291504 39.0317084955 c 1
 186.22575139 36.7742486097 l 1
 183.518978102 26.144903167 186.443727639 14.5562723614 195 6 c 2
 213 -11 l 2
 226 -24 246 -24 259 -11 c 2
 275 6 l 2
 283.340490011 14.340490011 286.329920512 25.5623197579 283.968291504 35.9682915045 c 1
 287.031708496 39.0317084955 l 1
 297.437680242 36.6700794875 308.659509989 39.659509989 317 48 c 2
 334 65 l 2
 346.044947381 77.044947381 346.9298365 95.0991569032 336.654667356 108.027052214 c 1
 360.987819044 156.280929291 l 1
 366.430286924 157.707256179 371.613613082 160.613613082 376 165 c 2
 393 183 l 2
 406 196 406 216 393 229 c 2
 386.685714286 235.314285714 l 1
 393 242 l 2
 406 255 406 275 393 288 c 2
 376 304 l 2
 371.66091352 308.33908648 366.54198266 311.229890538 361.163793913 312.672412175 c 1
 336.56788987 361.86422026 l 1
 346.93471559 374.799455163 346.0787523 392.9212477 334 405 c 2
 317 422 l 2
285.421939216 333.441713035 m 1
 310.047428336 284.646762372 l 1
 300.088515203 271.747028931 301.072705758 253.927294242 313 242 c 2
 319.314285714 235.314285714 l 1
 313 229 l 2
 300.831535614 216.831535614 300.053188575 198.529931118 310.664958884 185.576862974 c 1
 286.007080487 136.717733558 l 1
 280.566474698 135.290927834 275.385016648 132.385016648 271 128 c 2
 254 111 l 2
 245.59692812 102.59692812 242.625519087 91.2691147053 245.085772904 80.7976079635 c 1
 242.134036665 77.9302070461 l 1
 237.490125938 79.0104185328 232.679536884 79.0231133522 228.031708496 77.9682915045 c 1
 225.77424861 80.2257513903 l 1
 228.481021898 90.855096833 225.556272361 102.443727639 217 111 c 2
 199 128 l 2
 194.929491336 132.070508664 190.172691041 134.86647573 185.159376966 136.387901196 c 2
 160.335041116 185.576862974 l 1
 170.946811425 198.529931118 170.168464386 216.831535614 158 229 c 2
 151.510603589 235.128874388 l 1
 158 242 l 2
 169.927294242 253.927294242 170.911484797 271.747028931 160.952571664 284.646762372 c 1
 185.578060784 333.441713035 l 1
 190.804663678 334.919701059 195.772463381 337.772463381 200 342 c 2
 217 359 l 2
 225.498444971 367.498444971 228.441230947 378.98839863 225.828357931 389.558603752 c 1
 228.381243209 392.186573891 l 2
 230.886094955 391.562191297 233.443047477 391.25 236 391.25 c 0
 238.056998943 391.25 240.113997887 391.452042904 242.143871289 391.856128711 c 2
 245.031708496 388.968291504 l 1
 242.670079488 378.562319758 245.659509989 367.340490011 254 359 c 2
 271 342 l 2
 275.227536619 337.772463381 280.195336322 334.919701059 285.421939216 333.441713035 c 1
EndSplineSet
EndChar

StartChar: at
Encoding: 64 64 26
Width: 412
VWidth: 876
Flags: HMW
HStem: -118 59<172 353 189 353 189 353> 0 59 411 59<253 276 253 253> 588 59<189 282 189 189>
VStem: 29 59<95 377 95 382 95 383.5> 147 59<154 316 154 323 154 325.5> 324 59
LayerCount: 2
Fore
SplineSet
376 -49 m 2
 363 -36 343 -36 330 -49 c 2
 319.375 -59 l 1
 210.25 -59 l 1
 199 -49 l 2
 190.879334166 -40.8793341658 180.02720978 -37.8313770693 169.856128711 -39.8561287107 c 1
 166.968291504 -36.9682915045 l 1
 169.329920512 -26.5623197579 166.340490011 -15.340490011 158 -7 c 2
 140 10 l 2
 136.092168656 13.9078313444 131.551804644 16.6409591644 126.759189656 18.1993834602 c 2
 101.645585117 67.9615257866 l 1
 111.930356801 80.8902072142 111.048495096 98.9515049044 99 111 c 2
 88 121.388888889 l 1
 88 348 l 1
 99 359 l 2
 112 372 112 392 99 405 c 2
 97.7323943662 406.197183099 l 1
 133.014748061 512.044244182 l 2
 135.862036373 513.569587736 138.554839675 515.554839675 141 518 c 2
 158 536 l 2
 166.340490011 544.340490011 169.329920512 555.562319758 166.968291504 565.968291504 c 1
 169.22575139 568.22575139 l 1
 179.855096833 565.518978102 191.443727639 568.443727639 200 577 c 2
 210.388888889 588 l 1
 260.611111111 588 l 1
 271 577 l 2
 279.556272361 568.443727639 291.144903167 565.518978102 301.77424861 568.22575139 c 1
 304.031708496 565.968291504 l 1
 301.670079488 555.562319758 304.659509989 544.340490011 313 536 c 2
 323.100244499 525.305623472 l 1
 321 477 l 1
 317 481 l 2
 304 494 284 494 271 481 c 2
 264.5 474.5 l 1
 258 481 l 2
 245 494 225 494 212 481 c 2
 195 464 l 2
 182.9212477 451.9212477 182.06528441 433.799455163 192.43211013 420.86422026 c 1
 167.836206087 371.672412175 l 1
 162.45801734 370.229890538 157.33908648 367.33908648 153 363 c 2
 136 346 l 2
 123 333 123 313 136 300 c 2
 147 289.611111111 l 1
 147 181 l 1
 136 170 l 2
 123 157 123 137 136 124 c 2
 154 106 l 2
 157.968896386 102.336403336 162.590248215 99.7913017144 167.465666555 98.3646951366 c 2
 192.345332644 49.0270522143 l 1
 182.0701635 36.0991569032 182.955052619 18.044947381 195 6 c 2
 213 -11 l 2
 226 -24 246 -24 259 -11 c 2
 264.818181818 -4.81818181818 l 1
 271 -11 l 2
 284 -24 304 -24 317 -11 c 2
 334 6 l 2
 342.340490011 14.340490011 345.329920512 25.5623197579 342.968291504 35.9682915045 c 1
 346.031708496 39.0317084955 l 1
 356.437680242 36.6700794875 367.659509989 39.659509989 376 48 c 2
 393 65 l 2
 406 78 406 98 393 111 c 2
 382 122 l 1
 382 289 l 1
 393 300 l 2
 406 313 406 333 393 346 c 2
 382 357 l 1
 382 407 l 1
 393 418 l 2
 406 431 406 451 393 464 c 2
 382 475 l 1
 382 524.352941176 l 1
 393 536 l 2
 406 549 406 569 393 582 c 2
 376 598 l 2
 367.659509989 606.340490011 356.437680242 609.329920512 346.031708496 606.968291504 c 1
 342.870890224 610.129109776 l 1
 345.408751228 620.5925902 342.45178782 632.198349704 334 640 c 2
 317 657 l 2
 304 670 284 670 271 657 c 2
 261 647 l 1
 209.588235294 647 l 1
 199 657 l 2
 186 670 166 670 153 657 c 2
 136 640 l 2
 127.333333333 632 124.444444444 620 127.333333333 609.333333333 c 1
 124.77424861 606.77424861 l 1
 114.144903167 609.481021898 102.556272361 606.556272361 94 598 c 2
 78 582 l 2
 65 569 65 549 78 536 c 2
 78.9855072464 534.956521739 l 1
 43.2526721955 427.758016587 l 2
 40.6133644718 426.26018092 38.1607772837 424.340842057 36 422 c 2
 19 405 l 2
 6 392 6 372 19 359 c 2
 29 349 l 1
 29 121 l 1
 19 111 l 2
 6 98 6 78 19 65 c 2
 36 48 l 2
 40.0235974774 43.9764025226 44.7177591951 41.1981386345 49.6673958322 39.6652083356 c 2
 74.8233671698 -10.6467343396 l 1
 65.1040266376 -23.5221525727 66.1629042477 -41.1629042477 78 -53 c 2
 95 -70 l 2
 103.44468979 -78.4446897897 114.8431636 -81.4037806837 125.357915314 -78.8772726819 c 1
 127.128549463 -80.617896082 l 1
 124.5916841 -91.1393524965 127.548834279 -102.548834279 136 -111 c 2
 154 -129 l 2
 167 -142 187 -142 200 -129 c 2
 210.388888889 -118 l 1
 319.611111111 -118 l 1
 330 -129 l 2
 343 -142 363 -142 376 -129 c 2
 393 -111 l 2
 406 -98 406 -78 393 -65 c 2
 376 -49 l 2
304.22575139 80.2257513903 m 1
 301.77424861 77.7742486097 l 1
 291.144903167 80.481021898 279.556272361 77.5562723614 271 69 c 2
 264.5 62.5 l 1
 258 69 l 2
 253.724547694 73.2754523063 248.691956648 76.1447898108 243.400243874 77.6080125135 c 1
 219.391863385 126.646406702 l 1
 229.94399114 139.595369553 229.146703345 157.853296655 217 170 c 2
 206 180.388888889 l 1
 206 289 l 1
 217 300 l 2
 229.112998765 312.112998765 229.939479139 330.303353587 219.479441122 343.245678864 c 1
 243.702719816 392.207625159 l 1
 249.249176575 393.606291847 254.53708346 396.53708346 259 401 c 2
 264.818181818 407.181818182 l 1
 271 401 l 2
 275.213333305 396.786666695 280.161963905 393.938885508 285.369268325 392.45665644 c 2
 310.344656251 343.02620117 l 1
 300.07020234 330.098364573 300.955316923 312.044683077 313 300 c 2
 324 289 l 1
 324 122 l 1
 313 111 l 2
 304.443727639 102.443727639 301.518978102 90.855096833 304.22575139 80.2257513903 c 1
EndSplineSet
EndChar

StartChar: z
Encoding: 122 122 27
Width: 412
VWidth: 876
Flags: W
LayerCount: 2
Fore
SplineSet
376 69 m 2
 363 82 343 82 330 69 c 2
 319 58 l 1
 169.716707022 58 l 1
 357.066066211 391.51416097 l 1
 363.918500168 392.407959044 370.569905387 395.569905387 376 401 c 2
 393 418 l 2
 406 431 406 451 393 464 c 2
 376 481 l 2
 373.038477994 483.961522006 369.713676176 486.248381505 366.191111677 487.860578558 c 0
 353.869454918 494.558907895 338.605381721 492.605381689 328 482 c 2
 316 470 l 1
 151.647058824 470 l 1
 140 481 l 2
 127 494 107 494 94 481 c 2
 78 464 l 2
 65 451 65 431 78 418 c 2
 95 401 l 2
 108 388 128 388 141 401 c 2
 151 411 l 1
 299.891304348 411 l 1
 114.447484287 78.6461406703 l 1
 107.065681626 78.0445172751 99.8291370517 74.8291370517 94 69 c 2
 78 52 l 2
 65 39 65 19 78 6 c 2
 79 5 l 1
 95 -11 l 2
 97.961522006 -13.961522006 101.286323824 -16.2483815049 104.808888323 -17.8605785583 c 0
 117.130545082 -24.5589078952 132.394618279 -22.6053816887 143 -12 c 2
 155 0 l 1
 319 0 l 1
 330 -11 l 2
 343 -24 363 -24 376 -11 c 2
 393 6 l 2
 406 19 406 39 393 52 c 2
 376 69 l 2
EndSplineSet
EndChar

StartChar: M
Encoding: 77 77 28
Width: 412
VWidth: 876
Flags: HMW
VStem: 88 59<29 617> 324 59
LayerCount: 2
Fore
SplineSet
324 322.758764039 m 1
 324 63 l 1
 313 52 l 2
 300 39 300 19 313 6 c 2
 330 -11 l 2
 343 -24 363 -24 376 -11 c 2
 393 6 l 2
 406 19 406 39 393 52 c 2
 382 63 l 1
 382 583.352941176 l 1
 393 595 l 2
 399.5 601 402.75 609.25 402.75 617.5 c 0
 402.75 625.75 399.5 634 393 640 c 2
 376 657 l 2
 369.5 663.5 361.25 666.75 353 666.75 c 0
 344.75 666.75 336.5 663.5 330 657 c 2
 313 640 l 2
 306.5 634 303.25 625.75 303.25 617.5 c 0
 303.25 609.25 306.5 601 313 595 c 2
 317.444153005 590.29442623 l 1
 235 179 l 1
 152.730928962 589.420983607 l 1
 158 595 l 2
 164.5 601 167.75 609.25 167.75 617.5 c 0
 167.75 625.75 164.5 634 158 640 c 2
 140 657 l 2
 133.5 663.5 125.25 666.75 117 666.75 c 0
 108.75 666.75 100.5 663.5 94 657 c 2
 78 640 l 2
 71.5 634 68.25 625.75 68.25 617.5 c 0
 68.25 609.25 71.5 601 78 595 c 2
 88 584.411764706 l 1
 88 62.625 l 1
 78 52 l 2
 65 39 65 19 78 6 c 2
 95 -11 l 2
 108 -24 128 -24 141 -11 c 2
 158 6 l 2
 171 19 171 39 158 52 c 2
 147 62.3888888889 l 1
 147 319.512820513 l 1
 199.361702128 56.3617021277 l 1
 195 52 l 2
 182 39 182 19 195 6 c 2
 213 -11 l 2
 226 -24 246 -24 259 -11 c 2
 275 6 l 2
 288 19 288 39 275 52 c 2
 270.682524529 56.3174754706 l 1
 281.219875202 108.870892102 302.696877801 216.05023804 324 322.758764039 c 1
EndSplineSet
EndChar

StartChar: parenright
Encoding: 41 41 29
Width: 412
VWidth: 876
Flags: HMW
VStem: 324 59
LayerCount: 2
Fore
SplineSet
317 540 m 2
 308.443727639 548.556272361 296.855096833 551.481021898 286.22575139 548.77424861 c 1
 225.666666667 609.333333333 l 1
 228.555555556 620 225.666666667 632 217 640 c 2
 199 657 l 2
 186 670 166 670 153 657 c 2
 136 640 l 2
 123 628 123 607 136 595 c 2
 154 577 l 2
 162.340490011 568.659509989 173.562319758 565.670079488 183.968291504 568.031708496 c 1
 245.031708496 506.968291504 l 1
 242.670079488 496.562319758 245.659509989 485.340490011 254 477 c 2
 271 459 l 2
 273.25365736 456.74634264 275.717686321 454.883375395 278.319147573 453.411098265 c 2
 314.162162162 347.162162162 l 1
 313 346 l 2
 300 333 300 313 313 300 c 2
 324 289 l 1
 324 181 l 1
 313 170 l 2
 300 157 300 137 313 124 c 2
 314.350904799 122.569630212 l 1
 277.975321312 15.3915717222 l 2
 275.500476704 13.9513278821 273.154137308 12.154137308 271 10 c 2
 254 -7 l 2
 245.615013402 -15.384986598 242.638334515 -26.6821388869 245.06996334 -37.1347691298 c 1
 184.364592818 -98.3821518893 l 1
 173.575765268 -95.412436668 161.714947295 -98.2850527049 153 -107 c 2
 136 -124 l 2
 123 -137 123 -157 136 -170 c 2
 154 -188 l 2
 167 -201 187 -201 200 -188 c 2
 217 -170 l 2
 225.503920858 -161.496079142 228.44502095 -149.996793257 225.823300276 -139.42096498 c 1
 286.837714153 -78.9236224079 l 1
 297.298030839 -81.3668857938 308.607655009 -78.3923449912 317 -70 c 2
 334 -53 l 2
 347 -40 347 -20 334 -7 c 2
 333.046808511 -6.04680851064 l 1
 368.920989207 100.967696616 l 2
 371.433996243 102.306381105 373.815800197 103.983815566 376 106 c 2
 393 124 l 2
 406 137 406 157 393 170 c 2
 382 181 l 1
 382 289 l 1
 393 300 l 2
 406 313 406 333 393 346 c 2
 376 363 l 2
 373.790173353 365.209826647 371.378078442 367.044012231 368.832481082 368.502556754 c 2
 333.014492754 475.956521739 l 1
 334 477 l 2
 347 490 347 510 334 523 c 2
 317 540 l 2
EndSplineSet
EndChar

StartChar: udieresis
Encoding: 252 252 30
Width: 412
VWidth: 876
Flags: HMW
VStem: 88 59<159 441 159 441 159 449> 324 59
LayerCount: 2
Fore
SplineSet
140 716 m 2
 127 729 107 729 94 716 c 2
 78 699 l 2
 69.659509989 690.659509989 66.6700794875 679.437680242 69.0317084955 669.031708496 c 1
 65.8708902241 665.870890224 l 1
 55.4074097999 668.408751228 43.8016502957 665.45178782 36 657 c 2
 19 640 l 2
 6 628 6 607 19 595 c 2
 36 577 l 2
 44.4446897897 568.55531021 55.8431636002 565.596219316 66.3579153144 568.122727318 c 1
 68.9458596165 565.578646479 l 1
 66.7454648895 555.282906682 69.763511684 544.236488316 78 536 c 2
 95 518 l 2
 108 505 128 505 141 518 c 2
 158 536 l 2
 166.451165721 544.451165721 169.4083159 555.860647504 166.871450537 566.382103918 c 1
 168.847419912 568.324582286 l 2
 171.52225924 567.608194095 174.26112962 567.25 177 567.25 c 0
 185.25 567.25 193.5 570.5 200 577 c 2
 217 595 l 2
 223.5 601 226.75 609.25 226.75 617.5 c 0
 226.75 625.75 223.5 634 217 640 c 2
 199 657 l 2
 192.5 663.5 184.25 666.75 176 666.75 c 0
 173.663993448 666.75 171.327986895 666.489430501 169.031708496 665.968291504 c 2
 166.77424861 668.22575139 l 1
 169.481021898 678.855096833 166.556272361 690.443727639 158 699 c 2
 140 716 l 2
376 716 m 2
 363 729 343 729 330 716 c 2
 313 699 l 2
 304.659509989 690.659509989 301.670079488 679.437680242 304.031708496 669.031708496 c 1
 300.968291504 665.968291504 l 1
 290.562319758 668.329920512 279.340490011 665.340490011 271 657 c 2
 254 640 l 2
 241 628 241 607 254 595 c 2
 271 577 l 2
 279.44468979 568.55531021 290.8431636 565.596219316 301.357915314 568.122727318 c 1
 303.945859617 565.578646479 l 1
 301.74546489 555.282906682 304.763511684 544.236488316 313 536 c 2
 330 518 l 2
 343 505 363 505 376 518 c 2
 393 536 l 2
 401.236488316 544.236488316 404.25453511 555.282906682 402.054140383 565.578646479 c 1
 404.642084686 568.122727318 l 1
 415.1568364 565.596219316 426.55531021 568.55531021 435 577 c 2
 452 595 l 2
 465 607 465 628 452 640 c 2
 434 657 l 2
 425.879334166 665.120665834 415.02720978 668.168622931 404.856128711 666.143871289 c 1
 401.968291504 669.031708496 l 1
 404.329920512 679.437680242 401.340490011 690.659509989 393 699 c 2
 376 716 l 2
140 481 m 2
 127 494 107 494 94 481 c 2
 78 464 l 2
 65 451 65 431 78 418 c 2
 88 408 l 1
 88 180.625 l 1
 78 170 l 2
 65 157 65 137 78 124 c 2
 95 106 l 2
 103.40881339 98.2380184097 114.746366414 95.4967333367 125.223855219 97.7761447812 c 1
 186.22575139 36.7742486097 l 1
 183.518978102 26.144903167 186.443727639 14.5562723614 195 6 c 2
 213 -11 l 2
 226 -24 246 -24 259 -11 c 2
 275 6 l 2
 283.340490011 14.340490011 286.329920512 25.5623197579 283.968291504 35.9682915045 c 1
 324 76 l 1
 324 63 l 1
 313 52 l 2
 300 39 300 19 313 6 c 2
 330 -11 l 2
 343 -24 363 -24 376 -11 c 2
 393 6 l 2
 406 19 406 39 393 52 c 2
 382 63 l 1
 382 112.352941176 l 1
 393 124 l 2
 406 137 406 157 393 170 c 2
 382 181 l 1
 382 407 l 1
 393 418 l 2
 406 431 406 451 393 464 c 2
 376 481 l 2
 363 494 343 494 330 481 c 2
 313 464 l 2
 300 451 300 431 313 418 c 2
 324 407 l 1
 324 181 l 1
 313 170 l 2
 304.505245379 161.505245379 301.561325841 150.021579561 304.168241384 139.45516673 c 1
 242.027288996 77.9548427172 l 2
 237.416436292 79.0105503811 232.643934048 79.0150333102 228.031708496 77.9682915045 c 1
 166.77424861 139.22575139 l 1
 169.481021898 149.855096833 166.556272361 161.443727639 158 170 c 2
 147 180.388888889 l 1
 147 407 l 1
 158 418 l 2
 171 431 171 451 158 464 c 2
 140 481 l 2
124.968291504 627.031708496 m 1
 127.129109776 624.870890224 l 2
 126.543036592 622.454538313 126.25 619.977269157 126.25 617.5 c 0
 126.25 614.75 126.611111111 612 127.333333333 609.333333333 c 2
 124.77424861 606.77424861 l 1
 120.09217984 607.966542034 115.223983653 608.066167062 110.510810209 607.073123691 c 2
 107.756868317 609.674068812 l 1
 109.011195601 614.523769578 109.077359501 619.635998829 107.955360015 624.51339557 c 1
 110.702801529 627.108201444 l 1
 115.397125297 625.990025489 120.266006889 625.96452784 124.968291504 627.031708496 c 1
359.968291504 627.031708496 m 2
 362.943215704 624.056784296 l 2
 361.960639303 619.470393437 362.022603993 614.691180581 363.129109776 610.129109776 c 1
 359.968291504 606.968291504 l 2
 355.375734705 608.010569499 350.624265295 606.968291504 346.031708496 606.968291504 c 2
 342.870890224 610.129109776 l 1
 343.977396007 614.691180581 344.039360697 619.470393437 343.056784296 624.056784296 c 2
 346.031708496 627.031708496 l 2
 350.624265295 625.989430501 355.375734705 627.031708496 359.968291504 627.031708496 c 2
EndSplineSet
EndChar

StartChar: igrave
Encoding: 236 236 31
Width: 412
VWidth: 876
Flags: HMW
HStem: 0 59 411 59<109.5 235 118 235>
VStem: 88 118<21 29 29 37 432.5 441> 265 118
LayerCount: 2
Fore
SplineSet
205 667 m 2
 192 680 172 680 159 667 c 2
 142 650 l 2
 129 637 129 617 142 604 c 2
 160 587 l 2
 170.017004105 576.982995895 184.19011826 574.684481886 196.114454553 580.10445797 c 1
 238.250155817 549.098941946 l 1
 238.224067156 540.815989339 241.474015217 532.525984783 248 526 c 2
 266 509 l 2
 278 496 299 496 312 509 c 2
 328 526 l 2
 341 539 341 559 328 572 c 2
 311 589 l 2
 300.819244369 599.180755631 286.345385209 601.388604707 274.302582201 595.623547228 c 1
 231.748174835 627.338624416 l 1
 231.66045877 635.475425005 228.411067158 643.588932842 222 650 c 2
 205 667 l 2
376 69 m 2
 363 82 343 82 330 69 c 2
 319 58 l 1
 269 58 l 1
 265 62 l 1
 265 407.375 l 1
 275 418 l 2
 281.5 424.5 284.75 432.75 284.75 441 c 0
 284.75 449.25 281.5 457.5 275 464 c 2
 258 481 l 2
 251.5 487.5 243.25 490.75 235 490.75 c 0
 226.75 490.75 218.5 487.5 212 481 c 2
 201 470 l 1
 151.647058824 470 l 1
 140 481 l 2
 127 494 107 494 94 481 c 2
 78 464 l 2
 65 451 65 431 78 418 c 2
 95 401 l 2
 108 388 128 388 141 401 c 2
 151 411 l 1
 202.411764706 411 l 1
 206 407.611111111 l 1
 206 63 l 1
 201 58 l 1
 151.647058824 58 l 1
 140 69 l 2
 127 82 107 82 94 69 c 2
 78 52 l 2
 65 39 65 19 78 6 c 2
 95 -11 l 2
 108 -24 128 -24 141 -11 c 2
 152 0 l 1
 201.352941176 8.881784197e-16 l 1
 213 -11 l 2
 226 -24 246 -24 259 -11 c 2
 269.352941176 0 l 1
 319 0 l 1
 330 -11 l 2
 343 -24 363 -24 376 -11 c 2
 393 6 l 2
 406 19 406 39 393 52 c 2
 376 69 l 2
EndSplineSet
EndChar

StartChar: Acircumflex
Encoding: 194 194 32
Width: 412
VWidth: 876
Flags: W
VStem: 186.332 97.5357<786.604 830.016>
LayerCount: 2
Fore
SplineSet
258 834 m 2
 245 847 225 847 212 834 c 2
 195 817 l 2
 186.33426811 808.33426811 183.445067696 796.558096196 186.332398758 785.818290304 c 1
 184.152580088 783.675417714 l 1
 173.420614504 786.54970378 161.657897875 783.657897875 153 775 c 2
 136 758 l 2
 123 745 123 725 136 712 c 2
 154 695 l 2
 167 682 187 682 200 695 c 2
 217 712 l 2
 225.556272361 720.556272361 228.481021898 732.144903167 225.77424861 742.77424861 c 1
 228.22575139 745.22575139 l 1
 232.793563704 744.062553485 237.538530146 743.939345925 242.143871289 744.856128711 c 2
 245.031708496 741.968291504 l 1
 242.670079488 731.562319758 245.659509989 720.340490011 254 712 c 2
 271 695 l 2
 284 682 304 682 317 695 c 2
 334 712 l 2
 347 725 347 745 334 758 c 2
 317 775 l 2
 308.55531021 783.44468979 297.1568364 786.403780684 286.642084686 783.877272682 c 1
 283.868144307 786.604197122 l 1
 286.41088177 797.129448129 283.454833668 808.545166332 275 817 c 2
 258 834 l 2
258 657 m 2
 245 670 225 670 212 657 c 2
 195 640 l 2
 182 628 182 607 195 595 c 2
 197.107189542 592.892810458 l 1
 113.642334943 313.570086825 l 1
 106.540924353 312.807065887 99.617036945 309.617036945 94 304 c 2
 78 288 l 2
 65 275 65 255 78 242 c 2
 88.8299066839 230.533039982 l 1
 42.0713904766 74.05141472 l 2
 39.8800775366 72.6715398199 37.8348322276 70.9877349132 36 69 c 2
 19 52 l 2
 6 39 6 19 19 6 c 2
 36 -11 l 2
 49 -24 69 -24 82 -11 c 2
 99 6 l 2
 112 19 112 39 99 52 c 2
 97.1032732365 53.7913530544 l 1
 151.233698487 234.835680751 l 1
 151.388888889 235 l 1
 319.282828283 235 l 1
 373.793934756 53.9060556778 l 1
 372 52 l 2
 359 39 359 19 372 6 c 2
 389 -11 l 2
 402 -24 422 -24 435 -11 c 2
 452 6 l 2
 465 19 465 39 452 52 c 2
 434 69 l 2
 432.479361962 70.5206380377 430.862946526 71.8634037645 429.17316027 73.0282971804 c 2
 381.920827335 230.269111296 l 1
 393 242 l 2
 406 255 406 275 393 288 c 2
 376 304 l 2
 370.527984078 309.472015922 363.815727282 312.640727363 356.90732466 313.506134323 c 1
 272.993973037 592.743219667 l 1
 275 595 l 2
 288 607 288 628 275 640 c 2
 258 657 l 2
301.523232323 294 m 1
 168.923232323 294 l 1
 235 515 l 1
 301.523232323 294 l 1
EndSplineSet
EndChar

StartChar: L
Encoding: 76 76 33
Width: 412
VWidth: 876
Flags: HMW
HStem: 0 59
VStem: 88 59<21 29 29 37 29 617>
LayerCount: 2
Fore
SplineSet
376 69 m 2
 363 82 343 82 330 69 c 2
 319 58 l 1
 151.647058824 58 l 1
 147 62.3888888889 l 1
 147 583.352941176 l 1
 158 595 l 2
 171 607 171 628 158 640 c 2
 140 657 l 2
 127 670 107 670 94 657 c 2
 78 640 l 2
 65 628 65 607 78 595 c 2
 88 584.411764706 l 1
 88 62.625 l 1
 78 52 l 2
 71.5 45.5 68.25 37.25 68.25 29 c 0
 68.25 20.75 71.5 12.5 78 6 c 2
 95 -11 l 2
 101.5 -17.5 109.75 -20.75 118 -20.75 c 0
 126.25 -20.75 134.5 -17.5 141 -11 c 2
 152 0 l 1
 319 0 l 1
 330 -11 l 2
 343 -24 363 -24 376 -11 c 2
 393 6 l 2
 406 19 406 39 393 52 c 2
 376 69 l 2
EndSplineSet
EndChar

StartChar: question
Encoding: 63 63 34
Width: 412
VWidth: 876
Flags: HMW
VStem: 88 59<438 544> 206 59<204 250 196 262 196 266> 324 59
LayerCount: 2
Fore
SplineSet
376 596 m 2
 367.55531021 604.44468979 356.1568364 607.403780684 345.642084686 604.877272682 c 1
 283.868144307 665.604197122 l 1
 286.41088177 676.129448129 283.454833668 687.545166332 275 696 c 2
 258 712 l 2
 245 725 225 725 212 712 c 2
 195 696 l 2
 186.33426811 687.33426811 183.445067696 675.558096196 186.332398758 664.818290304 c 1
 125.152580088 604.675417714 l 1
 114.420614504 607.54970378 102.657897875 604.657897875 94 596 c 2
 78 579 l 2
 65 566 65 546 78 533 c 2
 88 523 l 1
 88 472 l 1
 78 462 l 2
 65 449 65 429 78 416 c 2
 95 398 l 2
 108 385 128 385 141 398 c 2
 158 416 l 2
 171 429 171 449 158 462 c 2
 147 471.777777778 l 1
 147 522 l 1
 158 533 l 2
 166.508010433 541.508010433 169.447848441 553.014267556 166.819514024 563.594292273 c 1
 227.369798656 623.456505489 l 1
 232.51944122 621.990786166 237.922043066 621.860535156 243.116644036 623.065752459 c 1
 304.136916881 563.416721701 l 1
 301.585203681 552.885679764 304.539564721 541.460435279 313 533 c 2
 324 522 l 1
 324 472.352941176 l 1
 313 462 l 2
 300.831535614 449.831535614 300.053188575 431.529931118 310.664958884 418.576862974 c 1
 286.007080487 369.717733558 l 1
 280.566474698 368.290927834 275.385016648 365.385016648 271 361 c 2
 254 344 l 2
 245.443727639 335.443727639 242.518978102 323.855096833 245.22575139 313.22575139 c 1
 242.77424861 310.77424861 l 1
 232.144903167 313.481021898 220.556272361 310.556272361 212 302 c 2
 195 285 l 2
 182 272 182 252 195 239 c 2
 201.171428571 233.171428571 l 1
 195 227 l 2
 182 214 182 194 195 181 c 2
 213 164 l 2
 226 151 246 151 259 164 c 2
 275 181 l 2
 288 194 288 214 275 227 c 2
 269.181818182 232.818181818 l 1
 275 239 l 2
 283.340490011 247.340490011 286.329920512 258.562319758 283.968291504 268.968291504 c 1
 287.031708496 272.031708496 l 1
 297.437680242 269.670079488 308.659509989 272.659509989 317 281 c 2
 334 298 l 2
 346.044947381 310.044947381 346.9298365 328.099156903 336.654667356 341.027052214 c 1
 360.987819044 389.280929291 l 1
 366.430286924 390.707256179 371.613613082 393.613613082 376 398 c 2
 393 416 l 2
 406 429 406 449 393 462 c 2
 382 472.352941176 l 1
 382 522 l 1
 393 533 l 2
 406 546 406 566 393 579 c 2
 376 596 l 2
317 69 m 2
 308.659509989 77.340490011 297.437680242 80.3299205125 287.031708496 77.9682915045 c 1
 283.968291504 81.0317084955 l 2
 284.489430501 83.3279868951 284.75 85.6639934476 284.75 88 c 0
 284.75 96.25 281.5 104.5 275 111 c 2
 258 128 l 2
 251.5 134.5 243.25 137.75 235 137.75 c 0
 226.75 137.75 218.5 134.5 212 128 c 2
 195 111 l 2
 188.5 104.5 185.25 96.25 185.25 88 c 0
 185.25 85.3901158489 185.575250463 82.7802316979 186.22575139 80.2257513903 c 2
 183.77424861 77.7742486097 l 1
 173.144903167 80.481021898 161.556272361 77.5562723614 153 69 c 2
 136 52 l 2
 123 39 123 19 136 6 c 2
 154 -11 l 2
 162.340490011 -19.340490011 173.562319758 -22.3299205125 183.968291504 -19.9682915045 c 1
 186.22575139 -22.2257513903 l 1
 183.518978102 -32.855096833 186.443727639 -44.4437276386 195 -53 c 2
 213 -70 l 2
 226 -83 246 -83 259 -70 c 2
 275 -53 l 2
 283.340490011 -44.659509989 286.329920512 -33.4376802421 283.968291504 -23.0317084955 c 1
 287.031708496 -19.9682915045 l 1
 297.437680242 -22.3299205125 308.659509989 -19.340490011 317 -11 c 2
 334 6 l 2
 347 19 347 39 334 52 c 2
 317 69 l 2
245.138795565 21.5755291444 m 2
 242.297198471 18.8917985563 l 1
 237.602874703 20.0099745108 232.733993111 20.0354721602 228.031708496 18.9682915045 c 1
 225.77424861 21.2257513903 l 1
 227.075250463 26.3347120055 225.77424861 31.6652879945 225.77424861 36.7742486097 c 2
 228.22575139 39.2257513903 l 2
 230.780231698 38.5752504634 233.390115849 38.25 236 38.25 c 0
 238.173733495 38.25 240.34746699 38.4756254362 242.489189791 38.9268763086 c 2
 245.138795565 36.4244708556 l 1
 243.953734812 31.5390439703 245.138795565 26.4609560297 245.138795565 21.5755291444 c 2
EndSplineSet
EndChar

StartChar: E
Encoding: 69 69 35
Width: 412
VWidth: 876
Flags: HMW
HStem: 0 59 294 59 588 59<118 126 126 353>
VStem: 147 235<21 29 29 37 315 331 609 617>
LayerCount: 2
Fore
SplineSet
376 69 m 2
 363 82 343 82 330 69 c 2
 319 58 l 1
 151.647058824 58 l 1
 147 62.3888888889 l 1
 147 289 l 1
 152 294 l 1
 319 294 l 1
 330 283 l 2
 343 270 363 270 376 283 c 2
 393 300 l 2
 406 313 406 333 393 346 c 2
 376 363 l 2
 363 376 343 376 330 363 c 2
 319 352 l 1
 151.647058824 352 l 1
 147 356.388888889 l 1
 147 583.352941176 l 1
 151.388888889 588 l 1
 319.611111111 588 l 1
 330 577 l 2
 343 564 363 564 376 577 c 2
 393 595 l 2
 406 607 406 628 393 640 c 2
 376 657 l 2
 363 670 343 670 330 657 c 2
 320 647 l 1
 150.588235294 647 l 1
 140 657 l 2
 133.5 663.5 125.25 666.75 117 666.75 c 0
 108.75 666.75 100.5 663.5 94 657 c 2
 78 640 l 2
 71.5 634 68.25 625.75 68.25 617.5 c 0
 68.25 609.25 71.5 601 78 595 c 2
 88 584.411764706 l 1
 88 356.625 l 1
 78 346 l 2
 65 333 65 313 78 300 c 2
 88 290 l 1
 88 62.625 l 1
 78 52 l 2
 71.5 45.5 68.25 37.25 68.25 29 c 0
 68.25 20.75 71.5 12.5 78 6 c 2
 95 -11 l 2
 101.5 -17.5 109.75 -20.75 118 -20.75 c 0
 126.25 -20.75 134.5 -17.5 141 -11 c 2
 152 0 l 1
 319 0 l 1
 330 -11 l 2
 343 -24 363 -24 376 -11 c 2
 393 6 l 2
 406 19 406 39 393 52 c 2
 376 69 l 2
EndSplineSet
EndChar

StartChar: icircumflex
Encoding: 238 238 36
Width: 412
VWidth: 876
Flags: HMW
HStem: 0 59 411 59<109.5 235 118 235>
VStem: 88 118<21 29 29 37 432.5 441> 265 118
LayerCount: 2
Fore
SplineSet
258 657 m 2
 245 670 225 670 212 657 c 2
 195 640 l 2
 186.333333333 632 183.444444444 620 186.333333333 609.333333333 c 1
 183.77424861 606.77424861 l 1
 173.144903167 609.481021898 161.556272361 606.556272361 153 598 c 2
 136 582 l 2
 123 569 123 549 136 536 c 2
 154 518 l 2
 167 505 187 505 200 518 c 2
 217 536 l 2
 225.556272361 544.556272361 228.481021898 556.144903167 225.77424861 566.77424861 c 1
 227.437357285 568.437357285 l 1
 232.51765333 567.003509505 237.841971402 566.868293242 242.968291504 568.031708496 c 1
 245.031708496 565.968291504 l 1
 242.670079488 555.562319758 245.659509989 544.340490011 254 536 c 2
 271 518 l 2
 284 505 304 505 317 518 c 2
 334 536 l 2
 347 549 347 569 334 582 c 2
 317 598 l 2
 308.659509989 606.340490011 297.437680242 609.329920512 287.031708496 606.968291504 c 1
 283.870890224 610.129109776 l 1
 286.408751228 620.5925902 283.45178782 632.198349704 275 640 c 2
 258 657 l 2
376 69 m 2
 363 82 343 82 330 69 c 2
 319 58 l 1
 269 58 l 1
 265 62 l 1
 265 407.375 l 1
 275 418 l 2
 281.5 424.5 284.75 432.75 284.75 441 c 0
 284.75 449.25 281.5 457.5 275 464 c 2
 258 481 l 2
 251.5 487.5 243.25 490.75 235 490.75 c 0
 226.75 490.75 218.5 487.5 212 481 c 2
 201 470 l 1
 151.647058824 470 l 1
 140 481 l 2
 127 494 107 494 94 481 c 2
 78 464 l 2
 65 451 65 431 78 418 c 2
 95 401 l 2
 108 388 128 388 141 401 c 2
 151 411 l 1
 202.411764706 411 l 1
 206 407.611111111 l 1
 206 63 l 1
 201 58 l 1
 151.647058824 58 l 1
 140 69 l 2
 127 82 107 82 94 69 c 2
 78 52 l 2
 65 39 65 19 78 6 c 2
 95 -11 l 2
 108 -24 128 -24 141 -11 c 2
 152 0 l 1
 201.352941176 8.881784197e-16 l 1
 213 -11 l 2
 226 -24 246 -24 259 -11 c 2
 269.352941176 0 l 1
 319 0 l 1
 330 -11 l 2
 343 -24 363 -24 376 -11 c 2
 393 6 l 2
 406 19 406 39 393 52 c 2
 376 69 l 2
EndSplineSet
EndChar

StartChar: J
Encoding: 74 74 37
Width: 412
VWidth: 876
Flags: HMW
VStem: 88 59<159 205 159 205 159 213.5> 324 59
LayerCount: 2
Fore
SplineSet
140 246 m 2
 127 258 107 258 94 246 c 2
 78 229 l 2
 65 216 65 196 78 183 c 2
 84.1282495667 176.511265165 l 1
 78 170 l 2
 65 157 65 137 78 124 c 2
 95 106 l 2
 103.40881339 98.2380184097 114.746366414 95.4967333367 125.223855219 97.7761447812 c 1
 186.22575139 36.7742486097 l 1
 183.518978102 26.144903167 186.443727639 14.5562723614 195 6 c 2
 213 -11 l 2
 226 -24 246 -24 259 -11 c 2
 275 6 l 2
 283.340490011 14.340490011 286.329920512 25.5623197579 283.968291504 35.9682915045 c 1
 345.776144781 97.7761447812 l 1
 356.253633586 95.4967333367 367.59118661 98.2380184097 376 106 c 2
 393 124 l 2
 406 137 406 157 393 170 c 2
 382 181 l 1
 382 583.352941176 l 1
 393 595 l 2
 406 607 406 628 393 640 c 2
 376 657 l 2
 363 670 343 670 330 657 c 2
 313 640 l 2
 300 628 300 607 313 595 c 2
 324 583.352941176 l 1
 324 181 l 1
 313 170 l 2
 304.491445014 161.491445014 301.551775255 149.98425952 304.180990723 139.40367622 c 1
 242.03263629 77.9536179048 l 2
 237.420126207 79.010546758 232.645717035 79.0154379579 228.031708496 77.9682915045 c 1
 166.77424861 139.22575139 l 1
 169.481021898 149.855096833 166.556272361 161.443727639 158 170 c 2
 151.510603589 176.128874388 l 1
 158 183 l 2
 171 196 171 216 158 229 c 2
 140 246 l 2
EndSplineSet
EndChar

StartChar: e
Encoding: 101 101 38
Width: 412
VWidth: 876
Flags: HMW
HStem: 235 59<118 324>
VStem: 88 59<159 311 159 323 256 272 159 327> 324 59
LayerCount: 2
Fore
SplineSet
376 187 m 2
 363 200 343 200 330 187 c 2
 313 170 l 2
 304.505245379 161.505245379 301.561325841 150.021579561 304.168241384 139.45516673 c 1
 242.027288996 77.9548427172 l 2
 237.416436292 79.0105503811 232.643934048 79.0150333102 228.031708496 77.9682915045 c 1
 166.77424861 139.22575139 l 1
 169.481021898 149.855096833 166.556272361 161.443727639 158 170 c 2
 147 180.388888889 l 1
 147 230.352941176 l 1
 151.388888889 235 l 1
 319.611111111 235 l 1
 330 224 l 2
 343 211 363 211 376 224 c 2
 393 242 l 2
 406 255 406 275 393 288 c 2
 386.818181818 293.818181818 l 1
 393 300 l 2
 399.5 306.5 402.75 314.75 402.75 323 c 0
 402.75 331.25 399.5 339.5 393 346 c 2
 376 363 l 2
 369.5 369.5 361.25 372.75 353 372.75 c 0
 350.598177511 372.75 348.196355022 372.474540803 345.837714153 371.923622408 c 2
 283.821613304 433.41416308 l 1
 286.446281774 443.991862476 283.505744006 455.494255994 275 464 c 2
 258 481 l 2
 245 494 225 494 212 481 c 2
 195 464 l 2
 186.282782977 455.282782977 183.410940771 443.418056436 186.384473384 432.626977846 c 1
 124.962631981 371.725660524 l 1
 114.28200595 374.515400535 102.606847027 371.606847027 94 363 c 2
 78 346 l 2
 65 333 65 313 78 300 c 2
 84 294 l 1
 78 288 l 2
 65 275 65 255 78 242 c 2
 88 231.411764706 l 1
 88 180.625 l 1
 78 170 l 2
 65 157 65 137 78 124 c 2
 95 106 l 2
 103.40881339 98.2380184097 114.746366414 95.4967333367 125.223855219 97.7761447812 c 1
 186.22575139 36.7742486097 l 1
 183.518978102 26.144903167 186.443727639 14.5562723614 195 6 c 2
 213 -11 l 2
 226 -24 246 -24 259 -11 c 2
 275 6 l 2
 283.340490011 14.340490011 286.329920512 25.5623197579 283.968291504 35.9682915045 c 1
 345.776144781 97.7761447812 l 1
 356.253633586 95.4967333367 367.59118661 98.2380184097 376 106 c 2
 393 124 l 2
 406 137 406 157 393 170 c 2
 376 187 l 2
166.77424861 330.77424861 m 1
 228.22575139 392.22575139 l 1
 232.793563704 391.062553485 237.538530146 390.939345925 242.143871289 391.856128711 c 2
 304.031708496 329.968291504 l 2
 303.510569499 327.672013105 303.25 325.336006552 303.25 323 c 0
 303.25 314.75 306.5 306.5 313 300 c 2
 319 294 l 1
 152 294 l 1
 158 300 l 2
 166.556272361 308.556272361 169.481021898 320.144903167 166.77424861 330.77424861 c 1
EndSplineSet
EndChar

StartChar: atilde
Encoding: 227 227 39
Width: 412
VWidth: 876
Flags: HMW
VStem: 88 59<159 311 159 323 159 327> 324 59
LayerCount: 2
Fore
SplineSet
258 657 m 2
 245 670 225 670 212 657 c 2
 195 640 l 2
 186.333333333 632 183.444444444 620 186.333333333 609.333333333 c 1
 183.77424861 606.77424861 l 1
 173.144903167 609.481021898 161.556272361 606.556272361 153 598 c 2
 136 582 l 2
 123 569 123 549 136 536 c 2
 154 518 l 2
 167 505 187 505 200 518 c 2
 217 536 l 2
 225.556272361 544.556272361 228.481021898 556.144903167 225.77424861 566.77424861 c 1
 227.437357285 568.437357285 l 1
 232.51765333 567.003509505 237.841971402 566.868293242 242.968291504 568.031708496 c 1
 245.031708496 565.968291504 l 1
 242.670079488 555.562319758 245.659509989 544.340490011 254 536 c 2
 271 518 l 2
 284 505 304 505 317 518 c 2
 334 536 l 2
 342.236488316 544.236488316 345.25453511 555.282906682 343.054140383 565.578646479 c 1
 345.642084686 568.122727318 l 1
 356.1568364 565.596219316 367.55531021 568.55531021 376 577 c 2
 393 595 l 2
 406 607 406 628 393 640 c 2
 376 657 l 2
 363 670 343 670 330 657 c 2
 313 640 l 2
 304.54821218 632.198349704 301.591248772 620.5925902 304.129109776 610.129109776 c 1
 300.968291504 606.968291504 l 2
 296.375734705 608.010569499 291.624265295 606.968291504 287.031708496 606.968291504 c 2
 283.870890224 610.129109776 l 1
 286.408751228 620.5925902 283.45178782 632.198349704 275 640 c 2
 258 657 l 2
376 481 m 2
 363 494 343 494 330 481 c 2
 313 464 l 2
 300 451 300 431 313 418 c 2
 324 407 l 1
 324 393.576271186 l 1
 283.821613304 433.41416308 l 1
 286.446281774 443.991862476 283.505744006 455.494255994 275 464 c 2
 258 481 l 2
 245 494 225 494 212 481 c 2
 195 464 l 2
 186.282782977 455.282782977 183.410940771 443.418056436 186.384473384 432.626977846 c 1
 124.962631981 371.725660524 l 1
 114.28200595 374.515400535 102.606847027 371.606847027 94 363 c 2
 78 346 l 2
 65 333 65 313 78 300 c 2
 88 290 l 1
 88 180.625 l 1
 78 170 l 2
 65 157 65 137 78 124 c 2
 95 106 l 2
 103.40881339 98.2380184097 114.746366414 95.4967333367 125.223855219 97.7761447812 c 1
 186.22575139 36.7742486097 l 1
 183.518978102 26.144903167 186.443727639 14.5562723614 195 6 c 2
 213 -11 l 2
 226 -24 246 -24 259 -11 c 2
 275 6 l 2
 283.340490011 14.340490011 286.329920512 25.5623197579 283.968291504 35.9682915045 c 1
 324 76 l 1
 324 63 l 1
 313 52 l 2
 300 39 300 19 313 6 c 2
 330 -11 l 2
 343 -24 363 -24 376 -11 c 2
 393 6 l 2
 406 19 406 39 393 52 c 2
 382 63 l 1
 382 112.352941176 l 1
 393 124 l 2
 406 137 406 157 393 170 c 2
 382 181 l 1
 382 289 l 1
 393 300 l 2
 406 313 406 333 393 346 c 2
 382 357 l 1
 382 407 l 1
 393 418 l 2
 406 431 406 451 393 464 c 2
 376 481 l 2
324 289 m 1
 324 181 l 1
 313 170 l 2
 304.505245379 161.505245379 301.561325841 150.021579561 304.168241384 139.45516673 c 1
 242.027288996 77.9548427172 l 2
 237.416436292 79.0105503811 232.643934048 79.0150333102 228.031708496 77.9682915045 c 1
 166.77424861 139.22575139 l 1
 169.481021898 149.855096833 166.556272361 161.443727639 158 170 c 2
 147 180.388888889 l 1
 147 289 l 1
 158 300 l 2
 166.556272361 308.556272361 169.481021898 320.144903167 166.77424861 330.77424861 c 1
 228.22575139 392.22575139 l 1
 232.793563704 391.062553485 237.538530146 390.939345925 242.143871289 391.856128711 c 2
 304.031708496 329.968291504 l 1
 301.670079488 319.562319758 304.659509989 308.340490011 313 300 c 2
 324 289 l 1
EndSplineSet
EndChar

StartChar: quotedbl
Encoding: 34 34 40
Width: 412
VWidth: 876
Flags: HMW
VStem: 147 59<441 676> 265 59<441 676>
LayerCount: 2
Fore
SplineSet
317 716 m 2
 304 729 284 729 271 716 c 2
 254 699 l 2
 241 686 241 666 254 653 c 2
 265 642 l 1
 265 475 l 1
 254 464 l 2
 241 451 241 431 254 418 c 2
 271 401 l 2
 284 388 304 388 317 401 c 2
 334 418 l 2
 347 431 347 451 334 464 c 2
 324 474 l 1
 324 643 l 1
 334 653 l 2
 347 666 347 686 334 699 c 2
 317 716 l 2
199 716 m 2
 186 729 166 729 153 716 c 2
 136 699 l 2
 123 686 123 666 136 653 c 2
 147 642.611111111 l 1
 147 475 l 1
 136 464 l 2
 123 451 123 431 136 418 c 2
 154 401 l 2
 167 388 187 388 200 401 c 2
 217 418 l 2
 230 431 230 451 217 464 c 2
 206 474.388888889 l 1
 206 642 l 1
 217 653 l 2
 230 666 230 686 217 699 c 2
 199 716 l 2
EndSplineSet
EndChar

StartChar: aring
Encoding: 229 229 41
Width: 412
VWidth: 876
Flags: W
VStem: 186.226 97.7425<-6.48438 35.9683>
LayerCount: 2
Fore
SplineSet
317 657 m 2
 304 670 284 670 271 657 c 2
 261 647 l 1
 209.588235294 647 l 1
 199 657 l 2
 192.5 663.5 184.25 666.75 176 666.75 c 0
 167.75 666.75 159.5 663.5 153 657 c 2
 136 640 l 2
 129.5 634 126.25 625.75 126.25 617.5 c 0
 126.25 609.25 129.5 601 136 595 c 2
 147 584 l 1
 147 534 l 1
 136 523 l 2
 123 510 123 490 136 477 c 2
 154 459 l 2
 163.10888541 449.89111459 175.654472323 447.164674827 186.820680712 450.820680712 c 1
 184.883642523 444.904560017 184.73824008 438.601229778 186.384473384 432.626977846 c 1
 124.962631981 371.725660524 l 1
 114.28200595 374.515400535 102.606847027 371.606847027 94 363 c 2
 78 346 l 2
 65 333 65 313 78 300 c 2
 88 290 l 1
 88 180.625 l 1
 78 170 l 2
 65 157 65 137 78 124 c 2
 95 106 l 2
 103.40881339 98.2380184097 114.746366414 95.4967333367 125.223855219 97.7761447812 c 1
 186.22575139 36.7742486097 l 1
 183.518978102 26.144903167 186.443727639 14.5562723614 195 6 c 2
 213 -11 l 2
 226 -24 246 -24 259 -11 c 2
 275 6 l 2
 283.340490011 14.340490011 286.329920512 25.5623197579 283.968291504 35.9682915045 c 1
 324 76 l 1
 324 63 l 1
 313 52 l 2
 300 39 300 19 313 6 c 2
 330 -11 l 2
 343 -24 363 -24 376 -11 c 2
 393 6 l 2
 406 19 406 39 393 52 c 2
 382 63 l 1
 382 112.352941176 l 1
 393 124 l 2
 406 137 406 157 393 170 c 2
 382 181 l 1
 382 289 l 1
 393 300 l 2
 406 313 406 333 393 346 c 2
 382 357 l 1
 382 407 l 1
 393 418 l 2
 406 431 406 451 393 464 c 2
 376 481 l 2
 366.466135584 490.533864416 353.167407294 493.075838778 341.625923086 488.625923086 c 1
 346.075838778 500.167407294 343.533864416 513.466135584 334 523 c 2
 324 533 l 1
 324 584.411764706 l 1
 334 595 l 2
 347 607 347 628 334 640 c 2
 317 657 l 2
324 393.576271186 m 1
 283.821613304 433.41416308 l 1
 285.278710555 439.286423476 285.020628877 445.443671671 283.047368271 451.21497775 c 1
 290.138013967 448.595007417 297.861986033 451.21497775 304.952631729 451.21497775 c 1
 301.101283461 439.950723244 303.783739551 427.216260449 313 418 c 2
 324 407 l 1
 324 393.576271186 l 1
265 583.352941176 m 1
 265 534 l 1
 260 529 l 1
 210.647058824 529 l 1
 206 533.388888889 l 1
 206 583.352941176 l 1
 210.388888889 588 l 1
 260.611111111 588 l 1
 265 583.352941176 l 1
324 289 m 1
 324 181 l 1
 313 170 l 2
 304.505245379 161.505245379 301.561325841 150.021579561 304.168241384 139.45516673 c 1
 242.027288996 77.9548427172 l 2
 237.416436292 79.0105503811 232.643934048 79.0150333102 228.031708496 77.9682915045 c 1
 166.77424861 139.22575139 l 1
 169.481021898 149.855096833 166.556272361 161.443727639 158 170 c 2
 147 180.388888889 l 1
 147 289 l 1
 158 300 l 2
 166.556272361 308.556272361 169.481021898 320.144903167 166.77424861 330.77424861 c 1
 228.22575139 392.22575139 l 1
 232.793563704 391.062553485 237.538530146 390.939345925 242.143871289 391.856128711 c 2
 304.031708496 329.968291504 l 1
 301.670079488 319.562319758 304.659509989 308.340490011 313 300 c 2
 324 289 l 1
EndSplineSet
EndChar

StartChar: Odieresis
Encoding: 214 214 42
Width: 412
VWidth: 876
Flags: HMW
VStem: 88 59<212 434 212 441 212 443> 324 59
LayerCount: 2
Fore
SplineSet
140 893 m 2
 127 906 107 906 94 893 c 2
 78 876 l 2
 69.4437276386 867.443727639 66.518978102 855.855096833 69.2257513903 845.22575139 c 1
 66.6666666667 842.666666667 l 1
 56 845.555555556 44 842.666666667 36 834 c 2
 19 817 l 2
 6 804 6 784 19 771 c 2
 36 754 l 2
 44.340490011 745.659509989 55.5623197579 742.670079488 65.9682915045 745.031708496 c 1
 69.0317084955 741.968291504 l 1
 66.6700794875 731.562319758 69.659509989 720.340490011 78 712 c 2
 95 695 l 2
 108 682 128 682 141 695 c 2
 158 712 l 2
 166.556272361 720.556272361 169.481021898 732.144903167 166.77424861 742.77424861 c 1
 169.22575139 745.22575139 l 2
 171.780231698 744.575250463 174.390115849 744.25 177 744.25 c 0
 185.25 744.25 193.5 747.5 200 754 c 2
 217 771 l 2
 223.5 777.5 226.75 785.75 226.75 794 c 0
 226.75 802.25 223.5 810.5 217 817 c 2
 199 834 l 2
 192.5 840.5 184.25 843.75 176 843.75 c 0
 173.390115849 843.75 170.780231698 843.424749537 168.22575139 842.77424861 c 2
 166.562642715 844.437357285 l 1
 169.622520854 855.278875488 166.768306616 867.231693384 158 876 c 2
 140 893 l 2
376 893 m 2
 363 906 343 906 330 893 c 2
 313 876 l 2
 304.443727639 867.443727639 301.518978102 855.855096833 304.22575139 845.22575139 c 1
 301.77424861 842.77424861 l 1
 291.144903167 845.481021898 279.556272361 842.556272361 271 834 c 2
 254 817 l 2
 241 804 241 784 254 771 c 2
 271 754 l 2
 279.340490011 745.659509989 290.562319758 742.670079488 300.968291504 745.031708496 c 1
 304.031708496 741.968291504 l 1
 301.670079488 731.562319758 304.659509989 720.340490011 313 712 c 2
 330 695 l 2
 343 682 363 682 376 695 c 2
 393 712 l 2
 401.340490011 720.340490011 404.329920512 731.562319758 401.968291504 741.968291504 c 1
 405.031708496 745.031708496 l 1
 415.437680242 742.670079488 426.659509989 745.659509989 435 754 c 2
 452 771 l 2
 465 784 465 804 452 817 c 2
 434 834 l 2
 425.659509989 842.340490011 414.437680242 845.329920512 404.031708496 842.968291504 c 1
 401.77424861 845.22575139 l 1
 404.481021898 855.855096833 401.556272361 867.443727639 393 876 c 2
 376 893 l 2
258 658 m 2
 245 671 225 671 212 658 c 2
 195 641 l 2
 186.231693384 632.231693384 183.377479146 620.278875488 186.437357285 609.437357285 c 1
 183.77424861 606.77424861 l 1
 173.144903167 609.481021898 161.556272361 606.556272361 153 598 c 2
 136 582 l 2
 123.835105891 569.835105891 123.053646296 551.540670119 133.655621217 538.588265802 c 1
 109.012180956 489.719070709 l 1
 103.569713076 488.292743821 98.3863869183 485.386386918 94 481 c 2
 78 464 l 2
 65 451 65 431 78 418 c 2
 88 408 l 1
 88 239.625 l 1
 78 229 l 2
 65 216 65 196 78 183 c 2
 95 165 l 2
 99.0719650294 160.928034971 103.830712866 158.131523726 108.846004191 156.610466266 c 2
 133.345332644 108.027052214 l 1
 123.0701635 95.0991569032 123.955052619 77.044947381 136 65 c 2
 154 48 l 2
 162.340490011 39.659509989 173.562319758 36.6700794875 183.968291504 39.0317084955 c 1
 186.22575139 36.7742486097 l 1
 183.518978102 26.144903167 186.443727639 14.5562723614 195 6 c 2
 213 -11 l 2
 226 -24 246 -24 259 -11 c 2
 275 6 l 2
 283.340490011 14.340490011 286.329920512 25.5623197579 283.968291504 35.9682915045 c 1
 287.031708496 39.0317084955 l 1
 297.437680242 36.6700794875 308.659509989 39.659509989 317 48 c 2
 334 65 l 2
 346.044947381 77.044947381 346.9298365 95.0991569032 336.654667356 108.027052214 c 1
 360.987819044 156.280929291 l 1
 366.430286924 157.707256179 371.613613082 160.613613082 376 165 c 2
 393 183 l 2
 406 196 406 216 393 229 c 2
 382 240 l 1
 382 407 l 1
 393 418 l 2
 406 431 406 451 393 464 c 2
 376 481 l 2
 371.613613082 485.386386918 366.430286924 488.292743821 360.987819044 489.719070709 c 1
 336.344378783 538.588265802 l 1
 346.946353704 551.540670119 346.164894109 569.835105891 334 582 c 2
 317 598 l 2
 308.659509989 606.340490011 297.437680242 609.329920512 287.031708496 606.968291504 c 1
 283.77424861 610.22575139 l 1
 286.481021898 620.855096833 283.556272361 632.443727639 275 641 c 2
 258 658 l 2
125.77424861 803.22575139 m 1
 127.22575139 801.77424861 l 2
 126.575250463 799.219768302 126.25 796.609884151 126.25 794 c 0
 126.25 791.267956276 126.606410717 788.535912552 127.319232152 785.867422279 c 2
 125.229461202 783.654723626 l 1
 120.249891664 785.001776976 115.046077845 785.106299602 110.031708496 783.968291504 c 1
 107.77424861 786.22575139 l 1
 109.045588935 791.218232864 109.074574211 796.422339693 107.861204435 801.424470856 c 1
 109.867422279 803.319232152 l 1
 115.085084957 801.925462111 120.545721682 801.894301857 125.77424861 803.22575139 c 1
360.77424861 803.22575139 m 2
 363.031708496 800.968291504 l 1
 361.96452784 796.266006889 361.990025489 791.397125297 363.108201444 786.702801529 c 1
 360.424470856 783.861204435 l 1
 355.53904397 785.046265188 350.46095603 783.861204435 345.575529144 783.861204435 c 2
 342.891798556 786.702801529 l 1
 344.009974511 791.397125297 344.03547216 796.266006889 342.968291504 800.968291504 c 1
 345.22575139 803.22575139 l 1
 350.334712006 801.924749537 355.665287994 803.22575139 360.77424861 803.22575139 c 2
242.80479967 568.995059163 m 2
 245.171642069 566.558603752 l 1
 242.558769053 555.98839863 245.501555029 544.498444971 254 536 c 2
 271 518 l 2
 275.385016648 513.614983352 280.566474698 510.709072166 286.007080487 509.282266442 c 1
 310.354414883 461.038474213 l 1
 300.069643199 448.109792786 300.951504904 430.048495096 313 418 c 2
 324 407 l 1
 324 240 l 1
 313 229 l 2
 300.831535614 216.831535614 300.053188575 198.529931118 310.664958884 185.576862974 c 1
 286.007080487 136.717733558 l 1
 280.566474698 135.290927834 275.385016648 132.385016648 271 128 c 2
 254 111 l 2
 245.59692812 102.59692812 242.625519087 91.2691147053 245.085772904 80.7976079635 c 1
 242.134036665 77.9302070461 l 1
 237.490125938 79.0104185328 232.679536884 79.0231133522 228.031708496 77.9682915045 c 1
 225.77424861 80.2257513903 l 1
 228.481021898 90.855096833 225.556272361 102.443727639 217 111 c 2
 199 128 l 2
 194.929491336 132.070508664 190.172691041 134.86647573 185.159376966 136.387901196 c 2
 160.335041116 185.576862974 l 1
 170.946811425 198.529931118 170.168464386 216.831535614 158 229 c 2
 147 239.388888889 l 1
 147 407 l 1
 158 418 l 2
 170.048495096 430.048495096 170.930356801 448.109792786 160.645585117 461.038474213 c 1
 184.992919513 509.282266442 l 1
 190.433525302 510.709072166 195.614983352 513.614983352 200 518 c 2
 217 536 l 2
 225.340490011 544.340490011 228.329920512 555.562319758 225.968291504 565.968291504 c 1
 229.031708496 569.031708496 l 2
 233.569790198 568.001793592 238.263036954 567.989577148 242.80479967 568.995059163 c 2
EndSplineSet
EndChar

StartChar: Eacute
Encoding: 201 201 43
Width: 412
VWidth: 876
Flags: HMW
HStem: 0 59 294 59 588 59<118 126 126 353>
VStem: 147 235<21 29 29 37 315 331 609 617>
LayerCount: 2
Fore
SplineSet
317 834 m 2
 304 847 284 847 271 834 c 2
 254 817 l 2
 249.66091352 812.66091352 246.770109462 807.54198266 245.327587825 802.163793913 c 1
 196.13577974 777.56788987 l 1
 183.200544837 787.93471559 165.0787523 787.0787523 153 775 c 2
 136 758 l 2
 123 745 123 725 136 712 c 2
 154 695 l 2
 167 682 187 682 200 695 c 2
 217 712 l 2
 221.071965029 716.071965029 223.868476274 720.830712866 225.389533734 725.846004191 c 2
 274.756817546 750.740617395 l 1
 287.622550722 741.110143171 305.19660404 742.19660404 317 754 c 2
 334 771 l 2
 347 784 347 804 334 817 c 2
 317 834 l 2
376 69 m 2
 363 82 343 82 330 69 c 2
 319 58 l 1
 151.647058824 58 l 1
 147 62.3888888889 l 1
 147 289 l 1
 152 294 l 1
 319 294 l 1
 330 283 l 2
 343 270 363 270 376 283 c 2
 393 300 l 2
 406 313 406 333 393 346 c 2
 376 363 l 2
 363 376 343 376 330 363 c 2
 319 352 l 1
 151.647058824 352 l 1
 147 356.388888889 l 1
 147 583.352941176 l 1
 151.388888889 588 l 1
 319.611111111 588 l 1
 330 577 l 2
 343 564 363 564 376 577 c 2
 393 595 l 2
 406 607 406 628 393 640 c 2
 376 657 l 2
 363 670 343 670 330 657 c 2
 320 647 l 1
 150.588235294 647 l 1
 140 657 l 2
 133.5 663.5 125.25 666.75 117 666.75 c 0
 108.75 666.75 100.5 663.5 94 657 c 2
 78 640 l 2
 71.5 634 68.25 625.75 68.25 617.5 c 0
 68.25 609.25 71.5 601 78 595 c 2
 88 584.411764706 l 1
 88 356.625 l 1
 78 346 l 2
 65 333 65 313 78 300 c 2
 88 290 l 1
 88 62.625 l 1
 78 52 l 2
 71.5 45.5 68.25 37.25 68.25 29 c 0
 68.25 20.75 71.5 12.5 78 6 c 2
 95 -11 l 2
 101.5 -17.5 109.75 -20.75 118 -20.75 c 0
 126.25 -20.75 134.5 -17.5 141 -11 c 2
 152 0 l 1
 319 0 l 1
 330 -11 l 2
 343 -24 363 -24 376 -11 c 2
 393 6 l 2
 406 19 406 39 393 52 c 2
 376 69 l 2
EndSplineSet
EndChar

StartChar: Oacute
Encoding: 211 211 44
Width: 412
VWidth: 876
Flags: HMW
VStem: 88 59<212 434 212 441 212 443> 324 59
LayerCount: 2
Fore
SplineSet
317 598 m 2
 308.659509989 606.340490011 297.437680242 609.329920512 287.031708496 606.968291504 c 1
 283.968291504 610.031708496 l 1
 286.329920512 620.437680242 283.340490011 631.659509989 275 640 c 2
 258 657 l 2
 245 670 225 670 212 657 c 2
 195 640 l 2
 186.443727639 631.443727639 183.518978102 619.855096833 186.22575139 609.22575139 c 1
 183.77424861 606.77424861 l 1
 173.144903167 609.481021898 161.556272361 606.556272361 153 598 c 2
 136 582 l 2
 123.835105891 569.835105891 123.053646296 551.540670119 133.655621217 538.588265802 c 1
 109.012180956 489.719070709 l 1
 103.569713076 488.292743821 98.3863869183 485.386386918 94 481 c 2
 78 464 l 2
 65 451 65 431 78 418 c 2
 88 408 l 1
 88 239.625 l 1
 78 229 l 2
 65 216 65 196 78 183 c 2
 95 165 l 2
 99.0719650294 160.928034971 103.830712866 158.131523726 108.846004191 156.610466266 c 2
 133.345332644 108.027052214 l 1
 123.0701635 95.0991569032 123.955052619 77.044947381 136 65 c 2
 154 48 l 2
 162.340490011 39.659509989 173.562319758 36.6700794875 183.968291504 39.0317084955 c 1
 186.22575139 36.7742486097 l 1
 183.518978102 26.144903167 186.443727639 14.5562723614 195 6 c 2
 213 -11 l 2
 226 -24 246 -24 259 -11 c 2
 275 6 l 2
 283.340490011 14.340490011 286.329920512 25.5623197579 283.968291504 35.9682915045 c 1
 287.031708496 39.0317084955 l 1
 297.437680242 36.6700794875 308.659509989 39.659509989 317 48 c 2
 334 65 l 2
 346.044947381 77.044947381 346.9298365 95.0991569032 336.654667356 108.027052214 c 1
 360.987819044 156.280929291 l 1
 366.430286924 157.707256179 371.613613082 160.613613082 376 165 c 2
 393 183 l 2
 406 196 406 216 393 229 c 2
 382 240 l 1
 382 407 l 1
 393 418 l 2
 406 431 406 451 393 464 c 2
 376 481 l 2
 371.613613082 485.386386918 366.430286924 488.292743821 360.987819044 489.719070709 c 1
 336.344378783 538.588265802 l 1
 346.946353704 551.540670119 346.164894109 569.835105891 334 582 c 2
 317 598 l 2
317 834 m 2
 304 847 284 847 271 834 c 2
 254 817 l 2
 249.66091352 812.66091352 246.770109462 807.54198266 245.327587825 802.163793913 c 1
 196.13577974 777.56788987 l 1
 183.200544837 787.93471559 165.0787523 787.0787523 153 775 c 2
 136 758 l 2
 123 745 123 725 136 712 c 2
 154 695 l 2
 167 682 187 682 200 695 c 2
 217 712 l 2
 221.071965029 716.071965029 223.868476274 720.830712866 225.389533734 725.846004191 c 2
 274.756817546 750.740617395 l 1
 287.622550722 741.110143171 305.19660404 742.19660404 317 754 c 2
 334 771 l 2
 347 784 347 804 334 817 c 2
 317 834 l 2
286.007080487 509.282266442 m 1
 310.354414883 461.038474213 l 1
 300.069643199 448.109792786 300.951504904 430.048495096 313 418 c 2
 324 407 l 1
 324 240 l 1
 313 229 l 2
 300.831535614 216.831535614 300.053188575 198.529931118 310.664958884 185.576862974 c 1
 286.007080487 136.717733558 l 1
 280.566474698 135.290927834 275.385016648 132.385016648 271 128 c 2
 254 111 l 2
 245.59692812 102.59692812 242.625519087 91.2691147053 245.085772904 80.7976079635 c 1
 242.134036665 77.9302070461 l 1
 237.490125938 79.0104185328 232.679536884 79.0231133522 228.031708496 77.9682915045 c 1
 225.77424861 80.2257513903 l 1
 228.481021898 90.855096833 225.556272361 102.443727639 217 111 c 2
 199 128 l 2
 194.929491336 132.070508664 190.172691041 134.86647573 185.159376966 136.387901196 c 2
 160.335041116 185.576862974 l 1
 170.946811425 198.529931118 170.168464386 216.831535614 158 229 c 2
 147 239.388888889 l 1
 147 407 l 1
 158 418 l 2
 170.048495096 430.048495096 170.930356801 448.109792786 160.645585117 461.038474213 c 1
 184.992919513 509.282266442 l 1
 190.433525302 510.709072166 195.614983352 513.614983352 200 518 c 2
 217 536 l 2
 225.340490011 544.340490011 228.329920512 555.562319758 225.968291504 565.968291504 c 1
 227.437357285 567.437357285 l 1
 232.982495545 565.872313809 238.818354365 565.854421165 244.370140056 567.383679354 c 1
 245.171642069 566.558603752 l 1
 242.558769053 555.98839863 245.501555029 544.498444971 254 536 c 2
 271 518 l 2
 275.385016648 513.614983352 280.566474698 510.709072166 286.007080487 509.282266442 c 1
EndSplineSet
EndChar

StartChar: three
Encoding: 51 51 45
Width: 412
VWidth: 876
Flags: HMW
HStem: 588 59<168 353 176 305>
VStem: 324 59
LayerCount: 2
Fore
SplineSet
140 187 m 2
 127 200 107 200 94 187 c 2
 78 170 l 2
 65 157 65 137 78 124 c 2
 95 106 l 2
 103.40881339 98.2380184097 114.746366414 95.4967333367 125.223855219 97.7761447812 c 1
 186.22575139 36.7742486097 l 1
 183.518978102 26.144903167 186.443727639 14.5562723614 195 6 c 2
 213 -11 l 2
 226 -24 246 -24 259 -11 c 2
 275 6 l 2
 283.340490011 14.340490011 286.329920512 25.5623197579 283.968291504 35.9682915045 c 1
 345.776144781 97.7761447812 l 1
 356.253633586 95.4967333367 367.59118661 98.2380184097 376 106 c 2
 393 124 l 2
 406 137 406 157 393 170 c 2
 382 181 l 1
 382 230.352941176 l 1
 393 242 l 2
 406 255 406 275 393 288 c 2
 376 304 l 2
 371.66091352 308.33908648 366.54198266 311.229890538 361.163793913 312.672412175 c 1
 336.56788987 361.86422026 l 1
 346.93471559 374.799455163 346.0787523 392.9212477 334 405 c 2
 317 422 l 2
 310.320762614 428.679237386 301.793682126 431.926766152 293.317555879 431.742586298 c 1
 361.270551674 568.356421594 l 1
 366.609711184 569.808440403 371.689633205 572.689633205 376 577 c 2
 393 595 l 2
 406 607 406 628 393 640 c 2
 376 657 l 2
 363 670 343 670 330 657 c 2
 320 647 l 1
 209.588235294 647 l 1
 199 657 l 2
 186 670 166 670 153 657 c 2
 136 640 l 2
 123 628 123 607 136 595 c 2
 154 577 l 2
 167 564 187 564 200 577 c 2
 210.388888889 588 l 1
 305 588 l 1
 226.729448326 430.643578406 l 1
 221.390288816 429.191559597 216.310366795 426.310366795 212 422 c 2
 195 405 l 2
 182 392 182 372 195 359 c 2
 213 342 l 2
 226 329 246 329 259 342 c 2
 264.818181818 348.181818182 l 1
 271 342 l 2
 275.213333305 337.786666695 280.161963905 334.938885508 285.369268325 333.45665644 c 2
 310.037566754 284.633982466 l 1
 300.089166347 271.735261585 301.076644096 253.923355904 313 242 c 2
 324 230.352941176 l 1
 324 181 l 1
 313 170 l 2
 304.491445014 161.491445014 301.551775255 149.98425952 304.180990723 139.40367622 c 1
 242.03263629 77.9536179048 l 1
 237.400463842 79.0150522705 232.605009063 77.9548427172 227.972711004 77.9548427172 c 2
 166.626870054 138.668252318 l 1
 169.581727708 149.448301514 166.706104357 161.293895643 158 170 c 2
 140 187 l 2
EndSplineSet
EndChar

StartChar: K
Encoding: 75 75 46
Width: 412
VWidth: 876
Flags: HMW
VStem: 88 59<29 617>
LayerCount: 2
Fore
SplineSet
376 657 m 2
 363 670 343 670 330 657 c 2
 313 640 l 2
 301.629778159 629.504410608 300.204321296 612.123983923 308.723629412 599.902124155 c 1
 179.286223736 372.577680436 l 1
 169.974486183 373.556688672 160.364128527 370.364128527 153 363 c 2
 147 357 l 1
 147 583.352941176 l 1
 158 595 l 2
 171 607 171 628 158 640 c 2
 140 657 l 2
 127 670 107 670 94 657 c 2
 78 640 l 2
 65 628 65 607 78 595 c 2
 88 584.411764706 l 1
 88 62.625 l 1
 78 52 l 2
 65 39 65 19 78 6 c 2
 95 -11 l 2
 108 -24 128 -24 141 -11 c 2
 158 6 l 2
 171 19 171 39 158 52 c 2
 147 62.3888888889 l 1
 147 198.052631579 l 1
 181 258 l 1
 308.467848123 46.4207146809 l 1
 300.234214338 33.757095011 301.744931631 17.2550683694 313 6 c 2
 330 -11 l 2
 343 -24 363 -24 376 -11 c 2
 393 6 l 2
 406 19 406 39 393 52 c 2
 376 69 l 2
 370.64690831 74.35309169 364.106898664 77.5019071768 357.357460393 78.4464464604 c 1
 221.381961115 305.350347096 l 1
 227.035937277 313.892245765 228.223555176 324.218632972 224.944814812 333.510195405 c 1
 357.915659196 567.636774167 l 1
 364.4669029 568.673537169 370.794612447 571.794612447 376 577 c 2
 393 595 l 2
 406 607 406 628 393 640 c 2
 376 657 l 2
EndSplineSet
EndChar

StartChar: q
Encoding: 113 113 47
Width: 412
VWidth: 876
Flags: HMW
VStem: 88 59<159 311 159 323 159 327> 324 59
LayerCount: 2
Fore
SplineSet
258 481 m 2
 245 494 225 494 212 481 c 2
 195 464 l 2
 186.282782977 455.282782977 183.410940771 443.418056436 186.384473384 432.626977846 c 1
 124.962631981 371.725660524 l 1
 114.28200595 374.515400535 102.606847027 371.606847027 94 363 c 2
 78 346 l 2
 65 333 65 313 78 300 c 2
 88 290 l 1
 88 180.625 l 1
 78 170 l 2
 65 157 65 137 78 124 c 2
 95 106 l 2
 103.40881339 98.2380184097 114.746366414 95.4967333367 125.223855219 97.7761447812 c 1
 186.22575139 36.7742486097 l 1
 183.518978102 26.144903167 186.443727639 14.5562723614 195 6 c 2
 213 -11 l 2
 226 -24 246 -24 259 -11 c 2
 275 6 l 2
 283.340490011 14.340490011 286.329920512 25.5623197579 283.968291504 35.9682915045 c 1
 324 76 l 1
 324 -113 l 1
 313 -124 l 2
 300 -137 300 -157 313 -170 c 2
 330 -188 l 2
 343 -201 363 -201 376 -188 c 2
 393 -170 l 2
 406 -157 406 -137 393 -124 c 2
 382 -113 l 1
 382 112.352941176 l 1
 393 124 l 2
 406 137 406 157 393 170 c 2
 382 181 l 1
 382 289 l 1
 393 300 l 2
 406 313 406 333 393 346 c 2
 382 357 l 1
 382 407 l 1
 393 418 l 2
 406 431 406 451 393 464 c 2
 376 481 l 2
 363 494 343 494 330 481 c 2
 313 464 l 2
 300 451 300 431 313 418 c 2
 324 407 l 1
 324 393.576271186 l 1
 283.821613304 433.41416308 l 1
 286.446281774 443.991862476 283.505744006 455.494255994 275 464 c 2
 258 481 l 2
304.168241384 139.45516673 m 1
 242.027288996 77.9548427172 l 2
 237.416436292 79.0105503811 232.643934048 79.0150333102 228.031708496 77.9682915045 c 1
 166.77424861 139.22575139 l 1
 169.481021898 149.855096833 166.556272361 161.443727639 158 170 c 2
 147 180.388888889 l 1
 147 289 l 1
 158 300 l 2
 166.556272361 308.556272361 169.481021898 320.144903167 166.77424861 330.77424861 c 1
 228.22575139 392.22575139 l 1
 232.793563704 391.062553485 237.538530146 390.939345925 242.143871289 391.856128711 c 2
 304.031708496 329.968291504 l 1
 301.670079488 319.562319758 304.659509989 308.340490011 313 300 c 2
 324 289 l 1
 324 181 l 1
 313 170 l 2
 304.505245379 161.505245379 301.561325841 150.021579561 304.168241384 139.45516673 c 1
EndSplineSet
EndChar

StartChar: Z
Encoding: 90 90 48
Width: 412
VWidth: 876
Flags: HMW
HStem: 2 56<100 353> 588 59<109.5 353 118 353>
LayerCount: 2
Fore
SplineSet
376 69 m 2
 363 82 343 82 330 69 c 2
 319 58 l 1
 154.229845626 58 l 1
 371.353666685 566.366215573 l 2
 375.557249772 567.983650141 379.528244951 570.528244951 383 574 c 2
 400 592 l 2
 413 605 413 625 400 638 c 2
 383 654 l 2
 378.857773686 658.142226314 374.004859373 660.964603487 368.894154074 662.467131545 c 0
 356.454480779 669.630404151 340.808026979 667.80802696 330 657 c 2
 320 647 l 1
 150.588235294 647 l 1
 140 657 l 2
 127 670 107 670 94 657 c 2
 78 640 l 2
 65 628 65 607 78 595 c 2
 95 577 l 2
 108 564 128 564 141 577 c 2
 151.388888889 588 l 1
 316.704974271 588 l 1
 98.7215309927 79.6626102749 l 2
 94.4901103388 78.0466536789 90.4924502539 75.4924502539 87 72 c 2
 70 55 l 2
 57 42 57 22 70 9 c 2
 88 -8 l 2
 92.1422263139 -12.1422263139 96.9951406268 -14.9646034866 102.105845926 -16.4671315452 c 0
 114.545519221 -23.6304041506 130.191973021 -21.8080269598 141 -11 c 2
 152 0 l 1
 319 0 l 1
 330 -11 l 2
 343 -24 363 -24 376 -11 c 2
 393 6 l 2
 406 19 406 39 393 52 c 2
 376 69 l 2
EndSplineSet
EndChar

StartChar: one
Encoding: 49 49 49
Width: 412
VWidth: 876
Flags: W
LayerCount: 2
Fore
SplineSet
317 657 m 2
 304 670 284 670 271 657 c 2
 254 640 l 2
 245.496785273 632.150878713 242.555467522 620.451213365 245.176046749 609.938235182 c 1
 184.373022154 548.615526616 l 1
 173.581943564 551.589059229 161.717217023 548.717217023 153 540 c 2
 136 523 l 2
 123 510 123 490 136 477 c 2
 154 459 l 2
 167 446 187 446 200 459 c 2
 217 477 l 2
 225.465169679 485.465169679 228.418101074 496.898467666 225.858794184 507.434400152 c 1
 265 546 l 1
 265 63 l 1
 260 58 l 1
 210.647058824 58 l 1
 199 69 l 2
 186 82 166 82 153 69 c 2
 136 52 l 2
 123 39 123 19 136 6 c 2
 154 -11 l 2
 167 -24 187 -24 200 -11 c 2
 211 0 l 1
 260 0 l 1
 271 -11 l 2
 284 -24 304 -24 317 -11 c 2
 328 0 l 1
 378 0 l 1
 389 -11 l 2
 402 -24 422 -24 435 -11 c 2
 452 6 l 2
 465 19 465 39 452 52 c 2
 434 69 l 2
 421 82 401 82 388 69 c 2
 377.647058824 58 l 1
 328 58 l 1
 324 62 l 1
 324 584.411764706 l 1
 334 595 l 2
 347 607 347 628 334 640 c 2
 317 657 l 2
EndSplineSet
EndChar

StartChar: endash
Encoding: 260 8211 50
Width: 412
VWidth: 876
Flags: HMW
HStem: 235 59<168 412 176 412>
LayerCount: 2
Fore
SplineSet
434 304 m 2
 421 317 401 317 388 304 c 2
 378 294 l 1
 210.25 294 l 1
 199 304 l 2
 186 317 166 317 153 304 c 2
 136 288 l 2
 123 275 123 255 136 242 c 2
 154 224 l 2
 167 211 187 211 200 224 c 2
 210.388888889 235 l 1
 378.611111111 235 l 1
 389 224 l 2
 402 211 422 211 435 224 c 2
 452 242 l 2
 465 255 465 275 452 288 c 2
 434 304 l 2
EndSplineSet
EndChar

StartChar: guillemotleft
Encoding: 171 171 51
Width: 412
VWidth: 876
Flags: HMW
VStem: 88 59<214 255 214 264 214 267> 206 59<214 255>
LayerCount: 2
Fore
SplineSet
376 481 m 2
 363 494 343 494 330 481 c 2
 313 464 l 2
 302.364840378 453.364840378 300.430190001 438.044791163 307.196048869 425.705167529 c 1
 232.716044852 313.666870888 l 1
 225.241365365 313.122101866 217.89981157 309.89981157 212 304 c 2
 195 288 l 2
 182 275 182 255 195 242 c 2
 201.5 235.5 l 1
 195 229 l 2
 182 216 182 196 195 183 c 2
 213 165 l 2
 218.806725298 159.193274702 226.010056577 155.980246226 233.362346563 155.360914572 c 1
 307.196048869 44.2948324708 l 1
 300.430190001 31.9552088371 302.364840378 16.6351596219 313 6 c 2
 330 -11 l 2
 343 -24 363 -24 376 -11 c 2
 393 6 l 2
 406 19 406 39 393 52 c 2
 376 69 l 2
 369.936703672 75.0632963283 362.35065624 78.2986263208 354.6623025 78.7059899776 c 1
 280.637137558 190.404676363 l 1
 287.600704758 202.795275161 285.721658905 218.278341095 275 229 c 2
 268.882352941 235.117647059 l 1
 275 242 l 2
 285.405293175 252.405293175 287.482115115 267.295147786 281.230465819 279.490613601 c 1
 355.35440497 391.338343214 l 1
 362.804753075 391.898172712 370.118724974 395.118724974 376 401 c 2
 393 418 l 2
 406 431 406 451 393 464 c 2
 376 481 l 2
258 481 m 2
 245 494 225 494 212 481 c 2
 195 464 l 2
 184.172572939 453.172572939 182.363082552 437.489333821 189.57152884 425.038890473 c 1
 114.910759231 313.680454446 l 1
 107.368952536 313.177851785 99.9510336367 309.951033637 94 304 c 2
 78 288 l 2
 65 275 65 255 78 242 c 2
 84.1282495667 235.511265165 l 1
 78 229 l 2
 65 216 65 196 78 183 c 2
 95 165 l 2
 100.859922287 159.140077713 108.142157145 155.921593058 115.564452091 155.344546034 c 1
 189.57152884 44.9611095272 l 1
 182.363082552 32.5106661785 184.172572939 16.8274270615 195 6 c 2
 213 -11 l 2
 226 -24 246 -24 259 -11 c 2
 275 6 l 2
 288 19 288 39 275 52 c 2
 258 69 l 2
 252.157052623 74.8429473774 244.900020994 78.0597382891 237.500046633 78.6503727349 c 1
 163.238205293 189.714542527 l 1
 170.66773219 202.215967305 168.921663759 218.078336241 158 229 c 2
 151.510603589 235.128874388 l 1
 158 242 l 2
 168.609361256 252.609361256 170.5603728 267.880910818 163.853034631 280.204980997 c 1
 238.151382228 391.323748643 l 1
 245.67178537 391.839894698 253.065311817 395.065311817 259 401 c 2
 275 418 l 2
 288 431 288 451 275 464 c 2
 258 481 l 2
EndSplineSet
EndChar

StartChar: y
Encoding: 121 121 52
Width: 412
VWidth: 876
Flags: W
VStem: 185.25 99.5<9.25652 53.684>
LayerCount: 2
Fore
SplineSet
376 481 m 2
 363 494 343 494 330 481 c 2
 313 464 l 2
 300 451 300 431 313 418 c 2
 315.397022333 415.602977667 l 1
 235 136 l 1
 155.519900498 415.519900498 l 1
 158 418 l 2
 171 431 171 451 158 464 c 2
 140 481 l 2
 127 494 107 494 94 481 c 2
 78 464 l 2
 65 451 65 431 78 418 c 2
 95 401 l 2
 96.3285034033 399.671496597 97.7301100554 398.47875637 99.1898787387 397.421779319 c 2
 197.426415094 54.4264150943 l 1
 195 52 l 2
 188.5 45.5 185.25 37.25 185.25 29 c 0
 185.25 21.96369806 187.614092139 14.92739612 192.342276417 8.97679359944 c 1
 167.413094868 -40.4442154374 l 2
 162.189732129 -41.922919843 157.225151969 -44.7748480305 153 -49 c 2
 136 -65 l 2
 127.348129391 -73.6518706087 124.454325323 -85.4042385854 127.318587796 -96.1301651531 c 1
 125.161111351 -98.3268684425 l 1
 114.426848646 -95.4487640455 102.660192102 -98.339807898 94 -107 c 2
 78 -124 l 2
 65 -137 65 -157 78 -170 c 2
 95 -188 l 2
 108 -201 128 -201 141 -188 c 2
 158 -170 l 2
 166.556272361 -161.443727639 169.481021898 -149.855096833 166.77424861 -139.22575139 c 1
 168.437357285 -137.562642715 l 1
 179.278875488 -140.622520854 191.231693384 -137.768306616 200 -129 c 2
 217 -111 l 2
 228.958554112 -99.0414458877 229.916568497 -81.1595242298 219.874043154 -68.251913691 c 1
 244.163793913 -19.6724121748 l 1
 249.54198266 -18.2298905379 254.66091352 -15.3390864796 259 -11 c 2
 275 6 l 2
 281.5 12.5 284.75 20.75 284.75 29 c 0
 284.75 37.25 281.5 45.5 275 52 c 2
 273.289224953 53.7107750473 l 1
 370.672534349 396.633197879 l 2
 372.544105076 397.874222355 374.329823062 399.329823062 376 401 c 2
 393 418 l 2
 406 431 406 451 393 464 c 2
 376 481 l 2
EndSplineSet
EndChar

StartChar: R
Encoding: 82 82 53
Width: 412
VWidth: 876
Flags: HMW
HStem: 294 59 588 59<118 126 126 276 276 276>
VStem: 88 59<29 617 315 331 609 617>
LayerCount: 2
Fore
SplineSet
317 657 m 2
 304 670 284 670 271 657 c 2
 261 647 l 1
 150.588235294 647 l 1
 140 657 l 2
 133.5 663.5 125.25 666.75 117 666.75 c 0
 108.75 666.75 100.5 663.5 94 657 c 2
 78 640 l 2
 71.5 634 68.25 625.75 68.25 617.5 c 0
 68.25 609.25 71.5 601 78 595 c 2
 88 584.411764706 l 1
 88 356.625 l 1
 78 346 l 2
 65 333 65 313 78 300 c 2
 88 290 l 1
 88 62.625 l 1
 78 52 l 2
 65 39 65 19 78 6 c 2
 95 -11 l 2
 108 -24 128 -24 141 -11 c 2
 158 6 l 2
 171 19 171 39 158 52 c 2
 147 62.3888888889 l 1
 147 289 l 1
 152 294 l 1
 260 294 l 1
 271 283 l 2
 274.118542836 279.881457164 277.639909139 277.511015053 281.370833949 275.888673666 c 2
 370.918923588 50.8703971382 l 1
 359.010584535 37.8643352436 359.37094334 18.6290566605 372 6 c 2
 389 -11 l 2
 402 -24 422 -24 435 -11 c 2
 452 6 l 2
 465 19 465 39 452 52 c 2
 434 69 l 2
 431.182393777 71.8176062234 428.035957176 74.0245274599 424.703230892 75.6207637094 c 2
 334.458736608 300.46721557 l 1
 340.652912203 306.892838164 343.75 314.946419082 343.75 323 c 0
 343.75 330.671858429 340.939545077 338.343716858 335.318635231 344.608303622 c 1
 360.185738821 392.081865021 l 1
 365.920258403 393.425905844 371.398617504 396.398617504 376 401 c 2
 393 418 l 2
 406 431 406 451 393 464 c 2
 386.685714286 470.314285714 l 1
 393 477 l 2
 406 490 406 510 393 523 c 2
 376 540 l 2
 371.613613082 544.386386918 366.430286924 547.292743821 360.987819044 548.719070709 c 1
 336.398190315 597.4815548 l 1
 346.943671922 609.725653153 346.14427515 628.789899861 334 640 c 2
 317 657 l 2
260 352 m 1
 151.647058824 352 l 1
 147 356.388888889 l 1
 147 583.352941176 l 1
 151.388888889 588 l 1
 260.611111111 588 l 1
 271 577 l 2
 275.371245699 572.628754301 280.533938278 569.727338522 285.955830233 568.295752663 c 1
 310.344656251 520.02620117 l 1
 300.07020234 507.098364573 300.955316923 489.044683077 313 477 c 2
 319.314285714 470.314285714 l 1
 313 464 l 2
 300.9212477 451.9212477 300.06528441 433.799455163 310.43211013 420.86422026 c 1
 285.836206087 371.672412175 l 1
 280.45801734 370.229890538 275.33908648 367.33908648 271 363 c 2
 260 352 l 1
EndSplineSet
EndChar

StartChar: AE
Encoding: 198 198 54
Width: 412
VWidth: 876
Flags: HMW
HStem: 0 59 235 59<176 294 286 294 294 302 294 412> 588 59<294 302 302 412>
VStem: 324 118
LayerCount: 2
Fore
SplineSet
434 69 m 2
 421 82 401 82 388 69 c 2
 377.647058824 58 l 1
 328 58 l 1
 324 62 l 1
 324 231.411764706 l 1
 327.388888889 235 l 1
 378.611111111 235 l 1
 389 224 l 2
 402 211 422 211 435 224 c 2
 452 242 l 2
 465 255 465 275 452 288 c 2
 434 304 l 2
 421 317 401 317 388 304 c 2
 378 294 l 1
 327.625 294 l 1
 324 297.411764706 l 1
 324 573.038185056 l 2
 324.337663529 573.350467474 324.671072455 573.671072455 325 574 c 2
 337.444444444 588 l 1
 378.611111111 588 l 1
 389 577 l 2
 402 564 422 564 435 577 c 2
 452 595 l 2
 465 607 465 628 452 640 c 2
 434 657 l 2
 421 670 401 670 388 657 c 2
 378.588235294 647 l 1
 331.4375 647 l 1
 324 654 l 2
 319.857773686 658.142226314 315.004859373 660.964603487 309.894154074 662.467131545 c 0
 304.935760805 665.322377164 299.467880398 666.749999973 294 666.75 c 0
 285.75 666.75 277.5 663.5 271 657 c 2
 254 640 l 2
 247.5 634 244.25 625.75 244.25 617.5 c 0
 244.25 609.25 247.5 601 254 595 c 2
 258.65483221 590.07135413 l 1
 40.8294472671 80.0625211112 l 2
 36.1885088362 78.4833604955 31.7958534585 75.7958534585 28 72 c 2
 12 55 l 2
 -1 42 -1 22 12 9 c 2
 29 -8 l 2
 42 -21 62 -21 75 -8 c 2
 92 9 l 2
 104.535867158 21.5358671581 104.983429285 40.5808216408 93.3426863806 53.5814705217 c 1
 163.300205878 217.37759047 l 1
 175.343481148 211.611104884 189.818574728 213.818574728 200 224 c 2
 210.388888889 235 l 1
 260.611111111 235 l 1
 265 230.352941176 l 1
 265 63 l 1
 254 52 l 2
 247.5 45.5 244.25 37.25 244.25 29 c 0
 244.25 20.75 247.5 12.5 254 6 c 2
 271 -11 l 2
 277.5 -17.5 285.75 -20.75 294 -20.75 c 0
 302.25 -20.75 310.5 -17.5 317 -11 c 2
 328 0 l 1
 378 0 l 1
 389 -11 l 2
 402 -24 422 -24 435 -11 c 2
 452 6 l 2
 465 19 465 39 452 52 c 2
 434 69 l 2
265 455.493975904 m 1
 265 298.352941176 l 1
 260.375 294 l 1
 210.25 294 l 1
 199.939908827 303.164525487 l 1
 265 455.493975904 l 1
EndSplineSet
EndChar

StartChar: Ocircumflex
Encoding: 212 212 55
Width: 412
VWidth: 876
Flags: HMW
VStem: 88 59<212 434 212 441 212 443> 324 59
LayerCount: 2
Fore
SplineSet
317 598 m 2
 308.659509989 606.340490011 297.437680242 609.329920512 287.031708496 606.968291504 c 1
 283.968291504 610.031708496 l 1
 286.329920512 620.437680242 283.340490011 631.659509989 275 640 c 2
 258 657 l 2
 245 670 225 670 212 657 c 2
 195 640 l 2
 186.443727639 631.443727639 183.518978102 619.855096833 186.22575139 609.22575139 c 1
 183.77424861 606.77424861 l 1
 173.144903167 609.481021898 161.556272361 606.556272361 153 598 c 2
 136 582 l 2
 123.835105891 569.835105891 123.053646296 551.540670119 133.655621217 538.588265802 c 1
 109.012180956 489.719070709 l 1
 103.569713076 488.292743821 98.3863869183 485.386386918 94 481 c 2
 78 464 l 2
 65 451 65 431 78 418 c 2
 88 408 l 1
 88 239.625 l 1
 78 229 l 2
 65 216 65 196 78 183 c 2
 95 165 l 2
 99.0719650294 160.928034971 103.830712866 158.131523726 108.846004191 156.610466266 c 2
 133.345332644 108.027052214 l 1
 123.0701635 95.0991569032 123.955052619 77.044947381 136 65 c 2
 154 48 l 2
 162.340490011 39.659509989 173.562319758 36.6700794875 183.968291504 39.0317084955 c 1
 186.22575139 36.7742486097 l 1
 183.518978102 26.144903167 186.443727639 14.5562723614 195 6 c 2
 213 -11 l 2
 226 -24 246 -24 259 -11 c 2
 275 6 l 2
 283.340490011 14.340490011 286.329920512 25.5623197579 283.968291504 35.9682915045 c 1
 287.031708496 39.0317084955 l 1
 297.437680242 36.6700794875 308.659509989 39.659509989 317 48 c 2
 334 65 l 2
 346.044947381 77.044947381 346.9298365 95.0991569032 336.654667356 108.027052214 c 1
 360.987819044 156.280929291 l 1
 366.430286924 157.707256179 371.613613082 160.613613082 376 165 c 2
 393 183 l 2
 406 196 406 216 393 229 c 2
 382 240 l 1
 382 407 l 1
 393 418 l 2
 406 431 406 451 393 464 c 2
 376 481 l 2
 371.613613082 485.386386918 366.430286924 488.292743821 360.987819044 489.719070709 c 1
 336.344378783 538.588265802 l 1
 346.946353704 551.540670119 346.164894109 569.835105891 334 582 c 2
 317 598 l 2
258 834 m 2
 245 847 225 847 212 834 c 2
 195 817 l 2
 186.33426811 808.33426811 183.445067696 796.558096196 186.332398758 785.818290304 c 1
 184.152580088 783.675417714 l 1
 173.420614504 786.54970378 161.657897875 783.657897875 153 775 c 2
 136 758 l 2
 123 745 123 725 136 712 c 2
 154 695 l 2
 167 682 187 682 200 695 c 2
 217 712 l 2
 225.556272361 720.556272361 228.481021898 732.144903167 225.77424861 742.77424861 c 1
 228.22575139 745.22575139 l 1
 232.793563704 744.062553485 237.538530146 743.939345925 242.143871289 744.856128711 c 2
 245.031708496 741.968291504 l 1
 242.670079488 731.562319758 245.659509989 720.340490011 254 712 c 2
 271 695 l 2
 284 682 304 682 317 695 c 2
 334 712 l 2
 347 725 347 745 334 758 c 2
 317 775 l 2
 308.55531021 783.44468979 297.1568364 786.403780684 286.642084686 783.877272682 c 1
 283.868144307 786.604197122 l 1
 286.41088177 797.129448129 283.454833668 808.545166332 275 817 c 2
 258 834 l 2
286.007080487 509.282266442 m 1
 310.354414883 461.038474213 l 1
 300.069643199 448.109792786 300.951504904 430.048495096 313 418 c 2
 324 407 l 1
 324 240 l 1
 313 229 l 2
 300.831535614 216.831535614 300.053188575 198.529931118 310.664958884 185.576862974 c 1
 286.007080487 136.717733558 l 1
 280.566474698 135.290927834 275.385016648 132.385016648 271 128 c 2
 254 111 l 2
 245.59692812 102.59692812 242.625519087 91.2691147053 245.085772904 80.7976079635 c 1
 242.134036665 77.9302070461 l 1
 237.490125938 79.0104185328 232.679536884 79.0231133522 228.031708496 77.9682915045 c 1
 225.77424861 80.2257513903 l 1
 228.481021898 90.855096833 225.556272361 102.443727639 217 111 c 2
 199 128 l 2
 194.929491336 132.070508664 190.172691041 134.86647573 185.159376966 136.387901196 c 2
 160.335041116 185.576862974 l 1
 170.946811425 198.529931118 170.168464386 216.831535614 158 229 c 2
 147 239.388888889 l 1
 147 407 l 1
 158 418 l 2
 170.048495096 430.048495096 170.930356801 448.109792786 160.645585117 461.038474213 c 1
 184.992919513 509.282266442 l 1
 190.433525302 510.709072166 195.614983352 513.614983352 200 518 c 2
 217 536 l 2
 225.340490011 544.340490011 228.329920512 555.562319758 225.968291504 565.968291504 c 1
 227.437357285 567.437357285 l 1
 232.982495545 565.872313809 238.818354365 565.854421165 244.370140056 567.383679354 c 1
 245.171642069 566.558603752 l 1
 242.558769053 555.98839863 245.501555029 544.498444971 254 536 c 2
 271 518 l 2
 275.385016648 513.614983352 280.566474698 510.709072166 286.007080487 509.282266442 c 1
EndSplineSet
EndChar

StartChar: egrave
Encoding: 232 232 56
Width: 412
VWidth: 876
Flags: HMW
HStem: 235 59<118 324>
VStem: 88 59<159 311 159 323 256 272 159 327> 324 59
LayerCount: 2
Fore
SplineSet
205 667 m 2
 192 680 172 680 159 667 c 2
 142 650 l 2
 129 637 129 617 142 604 c 2
 160 587 l 2
 170.017004105 576.982995895 184.19011826 574.684481886 196.114454553 580.10445797 c 1
 238.250155817 549.098941946 l 1
 238.224067156 540.815989339 241.474015217 532.525984783 248 526 c 2
 266 509 l 2
 278 496 299 496 312 509 c 2
 328 526 l 2
 341 539 341 559 328 572 c 2
 311 589 l 2
 300.819244369 599.180755631 286.345385209 601.388604707 274.302582201 595.623547228 c 1
 231.748174835 627.338624416 l 1
 231.66045877 635.475425005 228.411067158 643.588932842 222 650 c 2
 205 667 l 2
376 187 m 2
 363 200 343 200 330 187 c 2
 313 170 l 2
 304.505245379 161.505245379 301.561325841 150.021579561 304.168241384 139.45516673 c 1
 242.027288996 77.9548427172 l 2
 237.416436292 79.0105503811 232.643934048 79.0150333102 228.031708496 77.9682915045 c 1
 166.77424861 139.22575139 l 1
 169.481021898 149.855096833 166.556272361 161.443727639 158 170 c 2
 147 180.388888889 l 1
 147 230.352941176 l 1
 151.388888889 235 l 1
 319.611111111 235 l 1
 330 224 l 2
 343 211 363 211 376 224 c 2
 393 242 l 2
 406 255 406 275 393 288 c 2
 386.818181818 293.818181818 l 1
 393 300 l 2
 399.5 306.5 402.75 314.75 402.75 323 c 0
 402.75 331.25 399.5 339.5 393 346 c 2
 376 363 l 2
 369.5 369.5 361.25 372.75 353 372.75 c 0
 350.598177511 372.75 348.196355022 372.474540803 345.837714153 371.923622408 c 2
 283.821613304 433.41416308 l 1
 286.446281774 443.991862476 283.505744006 455.494255994 275 464 c 2
 258 481 l 2
 245 494 225 494 212 481 c 2
 195 464 l 2
 186.282782977 455.282782977 183.410940771 443.418056436 186.384473384 432.626977846 c 1
 124.962631981 371.725660524 l 1
 114.28200595 374.515400535 102.606847027 371.606847027 94 363 c 2
 78 346 l 2
 65 333 65 313 78 300 c 2
 84 294 l 1
 78 288 l 2
 65 275 65 255 78 242 c 2
 88 231.411764706 l 1
 88 180.625 l 1
 78 170 l 2
 65 157 65 137 78 124 c 2
 95 106 l 2
 103.40881339 98.2380184097 114.746366414 95.4967333367 125.223855219 97.7761447812 c 1
 186.22575139 36.7742486097 l 1
 183.518978102 26.144903167 186.443727639 14.5562723614 195 6 c 2
 213 -11 l 2
 226 -24 246 -24 259 -11 c 2
 275 6 l 2
 283.340490011 14.340490011 286.329920512 25.5623197579 283.968291504 35.9682915045 c 1
 345.776144781 97.7761447812 l 1
 356.253633586 95.4967333367 367.59118661 98.2380184097 376 106 c 2
 393 124 l 2
 406 137 406 157 393 170 c 2
 376 187 l 2
166.77424861 330.77424861 m 1
 228.22575139 392.22575139 l 1
 232.793563704 391.062553485 237.538530146 390.939345925 242.143871289 391.856128711 c 2
 304.031708496 329.968291504 l 2
 303.510569499 327.672013105 303.25 325.336006552 303.25 323 c 0
 303.25 314.75 306.5 306.5 313 300 c 2
 319 294 l 1
 152 294 l 1
 158 300 l 2
 166.556272361 308.556272361 169.481021898 320.144903167 166.77424861 330.77424861 c 1
EndSplineSet
EndChar

StartChar: h
Encoding: 104 104 57
Width: 412
VWidth: 876
Flags: HMW
VStem: 88 59<29 617> 324 59
LayerCount: 2
Fore
SplineSet
376 363 m 2
 367.607655009 371.392344991 356.298030839 374.366885794 345.837714153 371.923622408 c 1
 283.821613304 433.41416308 l 1
 286.446281774 443.991862476 283.505744006 455.494255994 275 464 c 2
 258 481 l 2
 245 494 225 494 212 481 c 2
 195 464 l 2
 186.282782977 455.282782977 183.410940771 443.418056436 186.384473384 432.626977846 c 1
 147 393.576271186 l 1
 147 583.352941176 l 1
 158 595 l 2
 171 607 171 628 158 640 c 2
 140 657 l 2
 127 670 107 670 94 657 c 2
 78 640 l 2
 65 628 65 607 78 595 c 2
 88 584.411764706 l 1
 88 356.625 l 1
 78 346 l 2
 65 333 65 313 78 300 c 2
 88 290 l 1
 88 62.625 l 1
 78 52 l 2
 65 39 65 19 78 6 c 2
 95 -11 l 2
 108 -24 128 -24 141 -11 c 2
 158 6 l 2
 171 19 171 39 158 52 c 2
 147 62.3888888889 l 1
 147 289 l 1
 158 300 l 2
 166.556272361 308.556272361 169.481021898 320.144903167 166.77424861 330.77424861 c 1
 228.22575139 392.22575139 l 1
 232.815887273 391.056868766 237.584913072 390.938166497 242.211382181 391.869644585 c 2
 304.180990723 330.59632378 l 1
 301.551775255 320.01574048 304.491445014 308.508554986 313 300 c 2
 324 289 l 1
 324 63 l 1
 313 52 l 2
 300 39 300 19 313 6 c 2
 330 -11 l 2
 343 -24 363 -24 376 -11 c 2
 393 6 l 2
 406 19 406 39 393 52 c 2
 382 63 l 1
 382 289 l 1
 393 300 l 2
 406 313 406 333 393 346 c 2
 376 363 l 2
EndSplineSet
EndChar

StartChar: x
Encoding: 120 120 58
Width: 412
VWidth: 876
Flags: W
LayerCount: 2
Fore
SplineSet
374 482 m 2
 361 495 341 495 328 482 c 2
 311 465 l 2
 299.502229906 453.502229906 298.173591899 436.528773303 307.01408598 423.765504743 c 1
 234.829595643 294.395898684 l 1
 161.679574962 422.330615704 l 1
 170.855382089 435.141030044 169.628857101 452.371142899 158 464 c 2
 140 481 l 2
 127 494 107 494 94 481 c 2
 78 464 l 2
 65 451 65 431 78 418 c 2
 95 401 l 2
 99.7643411316 396.235658868 105.46887531 393.217390538 111.424464012 391.945195009 c 1
 201.320385323 234.340430838 l 1
 113.695973633 77.29927742 l 1
 107.283285463 76.2022144431 101.102455303 73.1024553031 96 68 c 2
 79 51 l 2
 66 38 66 18 79 5 c 2
 97 -12 l 2
 110 -25 130 -25 143 -12 c 2
 160 5 l 2
 170.744539537 16.6399178321 171.868651586 33.8917516994 163.372336145 46.7059259819 c 1
 235.305119939 174.75868334 l 1
 308.489037106 46.4532626057 l 1
 300.231632266 33.7853817921 301.735286564 17.2647134359 313 6 c 2
 330 -11 l 2
 343 -24 363 -24 376 -11 c 2
 393 6 l 2
 406 19 406 39 393 52 c 2
 376 69 l 2
 370.922404799 74.0775952013 364.776917223 77.1719617081 358.39774115 78.2830995205 c 1
 268.969585306 234.687235911 l 1
 357.843612186 392.898326865 l 1
 363.855181159 394.142240339 369.5471982 397.176131384 374 402 c 2
 391 419 l 2
 404 432 404 452 391 465 c 2
 374 482 l 2
EndSplineSet
EndChar

StartChar: u
Encoding: 117 117 59
Width: 412
VWidth: 876
Flags: HMW
VStem: 88 59<159 441 159 441 159 449> 324 59
LayerCount: 2
Fore
SplineSet
140 481 m 2
 127 494 107 494 94 481 c 2
 78 464 l 2
 65 451 65 431 78 418 c 2
 88 408 l 1
 88 180.625 l 1
 78 170 l 2
 65 157 65 137 78 124 c 2
 95 106 l 2
 103.40881339 98.2380184097 114.746366414 95.4967333367 125.223855219 97.7761447812 c 1
 186.22575139 36.7742486097 l 1
 183.518978102 26.144903167 186.443727639 14.5562723614 195 6 c 2
 213 -11 l 2
 226 -24 246 -24 259 -11 c 2
 275 6 l 2
 283.340490011 14.340490011 286.329920512 25.5623197579 283.968291504 35.9682915045 c 1
 324 76 l 1
 324 63 l 1
 313 52 l 2
 300 39 300 19 313 6 c 2
 330 -11 l 2
 343 -24 363 -24 376 -11 c 2
 393 6 l 2
 406 19 406 39 393 52 c 2
 382 63 l 1
 382 112.352941176 l 1
 393 124 l 2
 406 137 406 157 393 170 c 2
 382 181 l 1
 382 407 l 1
 393 418 l 2
 406 431 406 451 393 464 c 2
 376 481 l 2
 363 494 343 494 330 481 c 2
 313 464 l 2
 300 451 300 431 313 418 c 2
 324 407 l 1
 324 181 l 1
 313 170 l 2
 304.505245379 161.505245379 301.561325841 150.021579561 304.168241384 139.45516673 c 1
 242.027288996 77.9548427172 l 2
 237.416436292 79.0105503811 232.643934048 79.0150333102 228.031708496 77.9682915045 c 1
 166.77424861 139.22575139 l 1
 169.481021898 149.855096833 166.556272361 161.443727639 158 170 c 2
 147 180.388888889 l 1
 147 407 l 1
 158 418 l 2
 171 431 171 451 158 464 c 2
 140 481 l 2
EndSplineSet
EndChar

StartChar: bar
Encoding: 124 124 60
Width: 412
VWidth: 876
Flags: HMW
VStem: 206 59<-148 617>
LayerCount: 2
Fore
SplineSet
258 657 m 2
 245 670 225 670 212 657 c 2
 195 640 l 2
 182 628 182 607 195 595 c 2
 206 584 l 1
 206 -113 l 1
 195 -124 l 2
 182 -137 182 -157 195 -170 c 2
 213 -188 l 2
 226 -201 246 -201 259 -188 c 2
 275 -170 l 2
 288 -157 288 -137 275 -124 c 2
 265 -114 l 1
 265 583.75 l 1
 275 595 l 2
 288 607 288 628 275 640 c 2
 258 657 l 2
EndSplineSet
EndChar

StartChar: a
Encoding: 97 97 61
Width: 412
VWidth: 876
Flags: HMW
VStem: 88 59<159 311 159 323 159 327> 324 59
LayerCount: 2
Fore
SplineSet
376 481 m 2
 363 494 343 494 330 481 c 2
 313 464 l 2
 300 451 300 431 313 418 c 2
 324 407 l 1
 324 393.576271186 l 1
 283.821613304 433.41416308 l 1
 286.446281774 443.991862476 283.505744006 455.494255994 275 464 c 2
 258 481 l 2
 245 494 225 494 212 481 c 2
 195 464 l 2
 186.282782977 455.282782977 183.410940771 443.418056436 186.384473384 432.626977846 c 1
 124.962631981 371.725660524 l 1
 114.28200595 374.515400535 102.606847027 371.606847027 94 363 c 2
 78 346 l 2
 65 333 65 313 78 300 c 2
 88 290 l 1
 88 180.625 l 1
 78 170 l 2
 65 157 65 137 78 124 c 2
 95 106 l 2
 103.40881339 98.2380184097 114.746366414 95.4967333367 125.223855219 97.7761447812 c 1
 186.22575139 36.7742486097 l 1
 183.518978102 26.144903167 186.443727639 14.5562723614 195 6 c 2
 213 -11 l 2
 226 -24 246 -24 259 -11 c 2
 275 6 l 2
 283.340490011 14.340490011 286.329920512 25.5623197579 283.968291504 35.9682915045 c 1
 324 76 l 1
 324 63 l 1
 313 52 l 2
 300 39 300 19 313 6 c 2
 330 -11 l 2
 343 -24 363 -24 376 -11 c 2
 393 6 l 2
 406 19 406 39 393 52 c 2
 382 63 l 1
 382 112.352941176 l 1
 393 124 l 2
 406 137 406 157 393 170 c 2
 382 181 l 1
 382 289 l 1
 393 300 l 2
 406 313 406 333 393 346 c 2
 382 357 l 1
 382 407 l 1
 393 418 l 2
 406 431 406 451 393 464 c 2
 376 481 l 2
324 289 m 1
 324 181 l 1
 313 170 l 2
 304.505245379 161.505245379 301.561325841 150.021579561 304.168241384 139.45516673 c 1
 242.027288996 77.9548427172 l 2
 237.416436292 79.0105503811 232.643934048 79.0150333102 228.031708496 77.9682915045 c 1
 166.77424861 139.22575139 l 1
 169.481021898 149.855096833 166.556272361 161.443727639 158 170 c 2
 147 180.388888889 l 1
 147 289 l 1
 158 300 l 2
 166.556272361 308.556272361 169.481021898 320.144903167 166.77424861 330.77424861 c 1
 228.22575139 392.22575139 l 1
 232.793563704 391.062553485 237.538530146 390.939345925 242.143871289 391.856128711 c 2
 304.031708496 329.968291504 l 1
 301.670079488 319.562319758 304.659509989 308.340490011 313 300 c 2
 324 289 l 1
EndSplineSet
EndChar

StartChar: S
Encoding: 83 83 62
Width: 412
VWidth: 876
Flags: HMW
VStem: 88 59<453 487 453 500 453 504> 324 59
LayerCount: 2
Fore
SplineSet
140 187 m 2
 127 200 107 200 94 187 c 2
 78 170 l 2
 65 157 65 137 78 124 c 2
 95 106 l 2
 103.40881339 98.2380184097 114.746366414 95.4967333367 125.223855219 97.7761447812 c 1
 186.22575139 36.7742486097 l 1
 183.518978102 26.144903167 186.443727639 14.5562723614 195 6 c 2
 213 -11 l 2
 226 -24 246 -24 259 -11 c 2
 275 6 l 2
 283.340490011 14.340490011 286.329920512 25.5623197579 283.968291504 35.9682915045 c 1
 345.776144781 97.7761447812 l 1
 356.253633586 95.4967333367 367.59118661 98.2380184097 376 106 c 2
 393 124 l 2
 406 137 406 157 393 170 c 2
 386.685714286 176.314285714 l 1
 393 183 l 2
 406 196 406 216 393 229 c 2
 376 246 l 2
 367.59118661 253.76198159 356.253633586 256.503266663 345.776144781 254.223855219 c 1
 166.77424861 433.22575139 l 1
 169.481021898 443.855096833 166.556272361 455.443727639 158 464 c 2
 151.510603589 470.128874388 l 1
 158 477 l 2
 166.38969277 485.38969277 169.365005172 496.694821121 166.925937208 507.152368313 c 1
 227.50385166 568.418668157 l 1
 232.564098724 567.002354592 237.864332319 566.873368038 242.968291504 568.031708496 c 1
 304.031708496 506.968291504 l 1
 301.670079488 496.562319758 304.659509989 485.340490011 313 477 c 2
 330 459 l 2
 343 446 363 446 376 459 c 2
 393 477 l 2
 406 490 406 510 393 523 c 2
 376 540 l 2
 367.443727639 548.556272361 355.855096833 551.481021898 345.22575139 548.77424861 c 1
 283.870890224 610.129109776 l 1
 286.408751228 620.5925902 283.45178782 632.198349704 275 640 c 2
 258 657 l 2
 245 670 225 670 212 657 c 2
 195 640 l 2
 186.333333333 632 183.444444444 620 186.333333333 609.333333333 c 1
 125.562642715 548.562642715 l 1
 114.721124512 551.622520854 102.768306616 548.768306616 94 540 c 2
 78 523 l 2
 65 510 65 490 78 477 c 2
 84.1282495667 470.511265165 l 1
 78 464 l 2
 65 451 65 431 78 418 c 2
 95 401 l 2
 103.340490011 392.659509989 114.562319758 389.670079488 124.968291504 392.031708496 c 1
 304.031708496 212.968291504 l 1
 301.670079488 202.562319758 304.659509989 191.340490011 313 183 c 2
 319.314285714 176.314285714 l 1
 313 170 l 2
 304.491445014 161.491445014 301.551775255 149.98425952 304.180990723 139.40367622 c 1
 242.03263629 77.9536179048 l 1
 237.400463842 79.0150522705 232.605009063 77.9548427172 227.972711004 77.9548427172 c 2
 166.626870054 138.668252318 l 1
 169.581727708 149.448301514 166.706104357 161.293895643 158 170 c 2
 140 187 l 2
EndSplineSet
EndChar

StartChar: H
Encoding: 72 72 63
Width: 412
VWidth: 876
Flags: HMW
VStem: 88 59<29 617 315 331> 324 59
LayerCount: 2
Fore
SplineSet
376 657 m 2
 363 670 343 670 330 657 c 2
 313 640 l 2
 300 628 300 607 313 595 c 2
 324 583.352941176 l 1
 324 357 l 1
 319 352 l 1
 151.647058824 352 l 1
 147 356.388888889 l 1
 147 583.352941176 l 1
 158 595 l 2
 171 607 171 628 158 640 c 2
 140 657 l 2
 127 670 107 670 94 657 c 2
 78 640 l 2
 65 628 65 607 78 595 c 2
 88 584.411764706 l 1
 88 356.625 l 1
 78 346 l 2
 65 333 65 313 78 300 c 2
 88 290 l 1
 88 62.625 l 1
 78 52 l 2
 65 39 65 19 78 6 c 2
 95 -11 l 2
 108 -24 128 -24 141 -11 c 2
 158 6 l 2
 171 19 171 39 158 52 c 2
 147 62.3888888889 l 1
 147 289 l 1
 152 294 l 1
 319 294 l 1
 324 289 l 1
 324 63 l 1
 313 52 l 2
 300 39 300 19 313 6 c 2
 330 -11 l 2
 343 -24 363 -24 376 -11 c 2
 393 6 l 2
 406 19 406 39 393 52 c 2
 382 63 l 1
 382 289 l 1
 393 300 l 2
 406 313 406 333 393 346 c 2
 382 357 l 1
 382 583.352941176 l 1
 393 595 l 2
 406 607 406 628 393 640 c 2
 376 657 l 2
EndSplineSet
EndChar

StartChar: V
Encoding: 86 86 64
Width: 412
VWidth: 876
Flags: W
LayerCount: 2
Fore
SplineSet
434 657 m 2
 421 670 401 670 388 657 c 2
 372 640 l 2
 359 628 359 607 372 595 c 2
 374.023700099 592.857258719 l 1
 235 131 l 1
 96.9254445347 592.80341186 l 1
 99 595 l 2
 112 607 112 628 99 640 c 2
 81 657 l 2
 69 670 48 670 36 657 c 2
 19 640 l 2
 6 628 6 607 19 595 c 2
 36 577 l 2
 37.8679384298 575.13206157 39.880399687 573.532522677 41.9958515034 572.201383321 c 2
 196.877124183 53.877124183 l 1
 195 52 l 2
 182 39 182 19 195 6 c 2
 213 -11 l 2
 226 -24 246 -24 259 -11 c 2
 275 6 l 2
 288 19 288 39 275 52 c 2
 273.167101828 53.8328981723 l 1
 428.927157692 572.153084071 l 2
 431.070779483 573.493775381 433.109414024 575.109414024 435 577 c 2
 452 595 l 2
 465 607 465 628 452 640 c 2
 434 657 l 2
EndSplineSet
EndChar

StartChar: Ucircumflex
Encoding: 219 219 65
Width: 412
VWidth: 876
Flags: HMW
VStem: 88 59<214 617 214 617 214 625> 324 59
LayerCount: 2
Fore
SplineSet
258 834 m 2
 245 847 225 847 212 834 c 2
 195 817 l 2
 186.33426811 808.33426811 183.445067696 796.558096196 186.332398758 785.818290304 c 1
 184.152580088 783.675417714 l 1
 173.420614504 786.54970378 161.657897875 783.657897875 153 775 c 2
 136 758 l 2
 123 745 123 725 136 712 c 2
 154 695 l 2
 167 682 187 682 200 695 c 2
 217 712 l 2
 225.556272361 720.556272361 228.481021898 732.144903167 225.77424861 742.77424861 c 1
 228.22575139 745.22575139 l 1
 232.793563704 744.062553485 237.538530146 743.939345925 242.143871289 744.856128711 c 2
 245.031708496 741.968291504 l 1
 242.670079488 731.562319758 245.659509989 720.340490011 254 712 c 2
 271 695 l 2
 284 682 304 682 317 695 c 2
 334 712 l 2
 347 725 347 745 334 758 c 2
 317 775 l 2
 308.55531021 783.44468979 297.1568364 786.403780684 286.642084686 783.877272682 c 1
 283.868144307 786.604197122 l 1
 286.41088177 797.129448129 283.454833668 808.545166332 275 817 c 2
 258 834 l 2
376 657 m 2
 363 670 343 670 330 657 c 2
 313 640 l 2
 300 628 300 607 313 595 c 2
 324 583.352941176 l 1
 324 240 l 1
 313 229 l 2
 302.109614551 218.109614551 300.34234412 202.306782554 307.698188706 189.822032687 c 1
 235 82 l 1
 163.215611578 189.676582633 l 1
 170.671258309 202.183843347 168.932721116 218.067278884 158 229 c 2
 147 239.388888889 l 1
 147 583.352941176 l 1
 158 595 l 2
 171 607 171 628 158 640 c 2
 140 657 l 2
 127 670 107 670 94 657 c 2
 78 640 l 2
 65 628 65 607 78 595 c 2
 88 584.411764706 l 1
 88 239.625 l 1
 78 229 l 2
 65 216 65 196 78 183 c 2
 95 165 l 2
 100.859922287 159.140077713 108.142157145 155.921593058 115.564452091 155.344546034 c 1
 189.57152884 44.9611095272 l 1
 182.363082552 32.5106661785 184.172572939 16.8274270615 195 6 c 2
 213 -11 l 2
 226 -24 246 -24 259 -11 c 2
 275 6 l 2
 285.635159622 16.6351596219 287.569809999 31.9552088371 280.803951131 44.2948324708 c 1
 354.59070987 155.290298607 l 1
 362.303550173 155.681317182 369.917884313 158.917884313 376 165 c 2
 393 183 l 2
 406 196 406 216 393 229 c 2
 382 240 l 1
 382 583.352941176 l 1
 393 595 l 2
 406 607 406 628 393 640 c 2
 376 657 l 2
EndSplineSet
EndChar

StartChar: Ecircumflex
Encoding: 202 202 66
Width: 412
VWidth: 876
Flags: HMW
HStem: 0 59 294 59 588 59<118 126 126 353>
VStem: 147 235<21 29 29 37 315 331 609 617>
LayerCount: 2
Fore
SplineSet
258 834 m 2
 245 847 225 847 212 834 c 2
 195 817 l 2
 186.33426811 808.33426811 183.445067696 796.558096196 186.332398758 785.818290304 c 1
 184.152580088 783.675417714 l 1
 173.420614504 786.54970378 161.657897875 783.657897875 153 775 c 2
 136 758 l 2
 123 745 123 725 136 712 c 2
 154 695 l 2
 167 682 187 682 200 695 c 2
 217 712 l 2
 225.556272361 720.556272361 228.481021898 732.144903167 225.77424861 742.77424861 c 1
 228.22575139 745.22575139 l 1
 232.793563704 744.062553485 237.538530146 743.939345925 242.143871289 744.856128711 c 2
 245.031708496 741.968291504 l 1
 242.670079488 731.562319758 245.659509989 720.340490011 254 712 c 2
 271 695 l 2
 284 682 304 682 317 695 c 2
 334 712 l 2
 347 725 347 745 334 758 c 2
 317 775 l 2
 308.55531021 783.44468979 297.1568364 786.403780684 286.642084686 783.877272682 c 1
 283.868144307 786.604197122 l 1
 286.41088177 797.129448129 283.454833668 808.545166332 275 817 c 2
 258 834 l 2
376 69 m 2
 363 82 343 82 330 69 c 2
 319 58 l 1
 151.647058824 58 l 1
 147 62.3888888889 l 1
 147 289 l 1
 152 294 l 1
 319 294 l 1
 330 283 l 2
 343 270 363 270 376 283 c 2
 393 300 l 2
 406 313 406 333 393 346 c 2
 376 363 l 2
 363 376 343 376 330 363 c 2
 319 352 l 1
 151.647058824 352 l 1
 147 356.388888889 l 1
 147 583.352941176 l 1
 151.388888889 588 l 1
 319.611111111 588 l 1
 330 577 l 2
 343 564 363 564 376 577 c 2
 393 595 l 2
 406 607 406 628 393 640 c 2
 376 657 l 2
 363 670 343 670 330 657 c 2
 320 647 l 1
 150.588235294 647 l 1
 140 657 l 2
 133.5 663.5 125.25 666.75 117 666.75 c 0
 108.75 666.75 100.5 663.5 94 657 c 2
 78 640 l 2
 71.5 634 68.25 625.75 68.25 617.5 c 0
 68.25 609.25 71.5 601 78 595 c 2
 88 584.411764706 l 1
 88 356.625 l 1
 78 346 l 2
 65 333 65 313 78 300 c 2
 88 290 l 1
 88 62.625 l 1
 78 52 l 2
 71.5 45.5 68.25 37.25 68.25 29 c 0
 68.25 20.75 71.5 12.5 78 6 c 2
 95 -11 l 2
 101.5 -17.5 109.75 -20.75 118 -20.75 c 0
 126.25 -20.75 134.5 -17.5 141 -11 c 2
 152 0 l 1
 319 0 l 1
 330 -11 l 2
 343 -24 363 -24 376 -11 c 2
 393 6 l 2
 406 19 406 39 393 52 c 2
 376 69 l 2
EndSplineSet
EndChar

StartChar: oe
Encoding: 261 339 67
Width: 412
VWidth: 876
Flags: HMW
HStem: 0 59 235 59<276 382 276 412 265 382> 411 59<139 156 139 139 315 335 315 315>
VStem: 29 59<210 259 210 264 210 265.5> 382 59<294 316 316 316>
LayerCount: 2
Fore
SplineSet
434 128 m 2
 421 141 401 141 388 128 c 2
 372 111 l 2
 363.538786783 102.538786783 360.58466042 91.1122191054 363.137620912 80.5803733298 c 1
 360.462662039 77.8519152795 l 1
 349.918917602 80.4233777543 338.472739328 77.4727393278 330 69 c 2
 323.5 62.5 l 1
 317 69 l 2
 314.411198366 71.5888016337 311.544803494 73.6620729675 308.511374434 75.2198140015 c 2
 270.012722646 177.389312977 l 1
 275 183 l 2
 281.5 189.5 284.75 197.75 284.75 206 c 0
 284.75 214.25 281.5 222.5 275 229 c 2
 269 235 l 1
 378.611111111 235 l 1
 389 224 l 2
 402 211 422 211 435 224 c 2
 452 242 l 2
 465 255 465 275 452 288 c 2
 445.647058824 293.647058824 l 1
 452 300 l 2
 465 313 465 333 452 346 c 2
 434 363 l 2
 429.976402523 367.023597477 425.282240805 369.801861366 420.332604168 371.334791664 c 2
 395.56788987 420.86422026 l 1
 405.93471559 433.799455163 405.0787523 451.9212477 393 464 c 2
 376 481 l 2
 363 494 343 494 330 481 c 2
 323.5 474.5 l 1
 317 481 l 2
 304 494 284 494 271 481 c 2
 254 464 l 2
 241 451 241 431 254 418 c 2
 254.379451556 417.620548444 l 1
 247.747032296 398.241096888 241.373516148 379.120548444 235 360 c 1
 228.708179064 378.875462809 222.416358128 397.750925617 215.875462809 416.875462809 c 1
 217 418 l 2
 230 431 230 451 217 464 c 2
 199 481 l 2
 186 494 166 494 153 481 c 2
 146.685714286 474.685714286 l 1
 140 481 l 2
 127 494 107 494 94 481 c 2
 78 464 l 2
 65 451 65 431 78 418 c 2
 78.9531914894 417.046808511 l 1
 42.923518954 309.56846332 l 2
 40.4093524658 308.099396016 38.0706845319 306.243241576 36 304 c 2
 19 288 l 2
 6 275 6 255 19 242 c 2
 25.3142857143 235.314285714 l 1
 19 229 l 2
 6 216 6 196 19 183 c 2
 36 165 l 2
 38.2345526128 162.765447387 40.6759252118 160.914989034 43.2530177753 159.448624941 c 2
 78.9384655669 52.9971196648 l 1
 78 52 l 2
 65 39 65 19 78 6 c 2
 95 -11 l 2
 108 -24 128 -24 141 -11 c 2
 147.314285714 -4.68571428571 l 1
 154 -11 l 2
 167 -24 187 -24 200 -11 c 2
 217 6 l 2
 230 19 230 39 217 52 c 2
 215.317911131 53.5886394869 l 1
 235 112 l 1
 254.910569106 52.9105691057 l 1
 254 52 l 2
 241 39 241 19 254 6 c 2
 271 -11 l 2
 284 -24 304 -24 317 -11 c 2
 323.5 -4.5 l 1
 330 -11 l 2
 343 -24 363 -24 376 -11 c 2
 393 6 l 2
 401.340490011 14.340490011 404.329920512 25.5623197579 401.968291504 35.9682915045 c 1
 405.031708496 39.0317084955 l 1
 415.437680242 36.6700794875 426.659509989 39.659509989 435 48 c 2
 452 65 l 2
 465 78 465 98 452 111 c 2
 434 128 l 2
309.513577083 395.317073818 m 0
 312.176710559 396.803784474 314.698093234 398.698093199 317 401 c 2
 323.5 407.5 l 1
 330 401 l 2
 334.151871952 396.848128048 339.017745589 394.022259228 344.141552671 392.522393538 c 2
 368.907295636 342.463976906 l 1
 359.098038958 329.5791274 360.128940413 311.871059587 372 300 c 2
 378 294 l 1
 276 294 l 1
 287.17119237 330.091544578 298.342384739 363.22934859 309.513577083 395.317073818 c 0
195 242 m 2
 201.5 235.5 l 1
 195 229 l 2
 188.5 222.5 185.25 214.25 185.25 206 c 0
 185.25 197.75 188.5 189.5 195 183 c 2
 197.5 180.5 l 1
 160.859024824 74.8877774342 l 2
 158.058368074 73.3715904266 155.408997949 71.4089979485 153 69 c 2
 146.685714286 62.6857142857 l 1
 140 69 l 2
 138.019051733 70.9809482673 135.875564458 72.6600383779 133.61907377 74.0372703317 c 2
 97.567961165 181.483723587 l 1
 99 183 l 2
 112 196 112 216 99 229 c 2
 92.5106035889 235.128874388 l 1
 99 242 l 2
 112 255 112 275 99 288 c 2
 98.0219594595 288.869369369 l 1
 133.790410081 395.473379066 l 2
 136.351503567 396.935795977 138.778002955 398.778002955 141 401 c 2
 147.314285714 407.314285714 l 1
 154 401 l 2
 156.269055601 398.730944399 158.751367376 396.857935976 161.37249069 395.380974732 c 0
 173.225966373 360.561481323 184.643433068 324.80656169 196.469373219 289.3829395 c 1
 195 288 l 2
 188.5 281.5 185.25 273.25 185.25 265 c 0
 185.25 256.75 188.5 248.5 195 242 c 2
EndSplineSet
EndChar

StartChar: Igrave
Encoding: 204 204 68
Width: 412
VWidth: 876
Flags: HMW
HStem: 0 59 588 59<109.5 353 118 353>
VStem: 88 118<21 29 29 37 609 617> 265 118
LayerCount: 2
Fore
SplineSet
205 843 m 2
 192 856 172 856 159 843 c 2
 142 827 l 2
 129 814 129 794 142 781 c 2
 160 763 l 2
 170.180755631 752.819244369 184.654614791 750.611395293 196.697417799 756.376452772 c 1
 238.250134959 725.407918285 l 1
 238.274228093 717.188643257 241.524183107 708.977677132 248 703 c 2
 266 685 l 2
 278 672 299 672 312 685 c 2
 328 703 l 2
 341 715 341 736 328 748 c 2
 311 765 l 2
 300.982995895 775.017004105 286.80988174 777.315518114 274.885545447 771.89554203 c 1
 231.747917882 803.638324577 l 1
 231.844292859 812.008505697 228.594986899 820.405013101 222 827 c 2
 205 843 l 2
376 657 m 2
 363 670 343 670 330 657 c 2
 320 647 l 1
 268 647 l 1
 258 657 l 2
 245 670 225 670 212 657 c 2
 202 647 l 1
 150.588235294 647 l 1
 140 657 l 2
 127 670 107 670 94 657 c 2
 78 640 l 2
 65 628 65 607 78 595 c 2
 95 577 l 2
 108 564 128 564 141 577 c 2
 151.388888889 588 l 1
 202 588 l 1
 206 584 l 1
 206 63 l 1
 201 58 l 1
 151.647058824 58 l 1
 140 69 l 2
 127 82 107 82 94 69 c 2
 78 52 l 2
 65 39 65 19 78 6 c 2
 95 -11 l 2
 108 -24 128 -24 141 -11 c 2
 152 0 l 1
 201.352941176 8.881784197e-16 l 1
 213 -11 l 2
 226 -24 246 -24 259 -11 c 2
 269.352941176 0 l 1
 319 0 l 1
 330 -11 l 2
 343 -24 363 -24 376 -11 c 2
 393 6 l 2
 406 19 406 39 393 52 c 2
 376 69 l 2
 363 82 343 82 330 69 c 2
 319 58 l 1
 269 58 l 1
 265 62 l 1
 265 583.75 l 1
 268.777777778 588 l 1
 319.611111111 588 l 1
 330 577 l 2
 343 564 363 564 376 577 c 2
 393 595 l 2
 406 607 406 628 393 640 c 2
 376 657 l 2
EndSplineSet
EndChar

StartChar: dieresis
Encoding: 168 168 69
Width: 412
VWidth: 876
Flags: W
HStem: 567.25 99.5<24.5781 65.8709 169.139 211.375 259.578 300.968 404.856 446.375>
VStem: 68.9459 97.9256<522.5 565.579 669.032 711.219> 303.946 98.1083<522.5 565.579 669.032 711.75>
LayerCount: 2
Fore
SplineSet
140 716 m 2
 127 729 107 729 94 716 c 2
 78 699 l 2
 69.659509989 690.659509989 66.6700794875 679.437680242 69.0317084955 669.031708496 c 1
 65.8708902241 665.870890224 l 1
 55.4074097999 668.408751228 43.8016502957 665.45178782 36 657 c 2
 19 640 l 2
 6 628 6 607 19 595 c 2
 36 577 l 2
 44.4446897897 568.55531021 55.8431636002 565.596219316 66.3579153144 568.122727318 c 1
 68.9458596165 565.578646479 l 1
 66.7454648895 555.282906682 69.763511684 544.236488316 78 536 c 2
 95 518 l 2
 108 505 128 505 141 518 c 2
 158 536 l 2
 166.451165721 544.451165721 169.4083159 555.860647504 166.871450537 566.382103918 c 1
 168.847419912 568.324582286 l 2
 171.52225924 567.608194095 174.26112962 567.25 177 567.25 c 0
 185.25 567.25 193.5 570.5 200 577 c 2
 217 595 l 2
 223.5 601 226.75 609.25 226.75 617.5 c 0
 226.75 625.75 223.5 634 217 640 c 2
 199 657 l 2
 192.5 663.5 184.25 666.75 176 666.75 c 0
 173.663993448 666.75 171.327986895 666.489430501 169.031708496 665.968291504 c 2
 166.77424861 668.22575139 l 1
 169.481021898 678.855096833 166.556272361 690.443727639 158 699 c 2
 140 716 l 2
376 716 m 2
 363 729 343 729 330 716 c 2
 313 699 l 2
 304.659509989 690.659509989 301.670079488 679.437680242 304.031708496 669.031708496 c 1
 300.968291504 665.968291504 l 1
 290.562319758 668.329920512 279.340490011 665.340490011 271 657 c 2
 254 640 l 2
 241 628 241 607 254 595 c 2
 271 577 l 2
 279.44468979 568.55531021 290.8431636 565.596219316 301.357915314 568.122727318 c 1
 303.945859617 565.578646479 l 1
 301.74546489 555.282906682 304.763511684 544.236488316 313 536 c 2
 330 518 l 2
 343 505 363 505 376 518 c 2
 393 536 l 2
 401.236488316 544.236488316 404.25453511 555.282906682 402.054140383 565.578646479 c 1
 404.642084686 568.122727318 l 1
 415.1568364 565.596219316 426.55531021 568.55531021 435 577 c 2
 452 595 l 2
 465 607 465 628 452 640 c 2
 434 657 l 2
 425.879334166 665.120665834 415.02720978 668.168622931 404.856128711 666.143871289 c 1
 401.968291504 669.031708496 l 1
 404.329920512 679.437680242 401.340490011 690.659509989 393 699 c 2
 376 716 l 2
124.968291504 627.031708496 m 1
 127.129109776 624.870890224 l 2
 126.543036592 622.454538313 126.25 619.977269157 126.25 617.5 c 0
 126.25 614.75 126.611111111 612 127.333333333 609.333333333 c 2
 124.77424861 606.77424861 l 1
 120.09217984 607.966542034 115.223983653 608.066167062 110.510810209 607.073123691 c 2
 107.756868317 609.674068812 l 1
 109.011195601 614.523769578 109.077359501 619.635998829 107.955360015 624.51339557 c 1
 110.702801529 627.108201444 l 1
 115.397125297 625.990025489 120.266006889 625.96452784 124.968291504 627.031708496 c 1
359.968291504 627.031708496 m 2
 362.943215704 624.056784296 l 2
 361.960639303 619.470393437 362.022603993 614.691180581 363.129109776 610.129109776 c 1
 359.968291504 606.968291504 l 2
 355.375734705 608.010569499 350.624265295 606.968291504 346.031708496 606.968291504 c 2
 342.870890224 610.129109776 l 1
 343.977396007 614.691180581 344.039360697 619.470393437 343.056784296 624.056784296 c 2
 346.031708496 627.031708496 l 2
 350.624265295 625.989430501 355.375734705 627.031708496 359.968291504 627.031708496 c 2
EndSplineSet
EndChar

StartChar: greater
Encoding: 62 62 70
Width: 412
VWidth: 876
Flags: HMW
VStem: 324 59
LayerCount: 2
Fore
SplineSet
376 304 m 2
 366.055175825 313.944824175 352.013921501 316.28199236 340.143664348 311.011504554 c 1
 167.718769503 439.599561727 l 1
 168.107465022 448.310557512 164.867875188 457.132124812 158 464 c 2
 140 481 l 2
 127 494 107 494 94 481 c 2
 78 464 l 2
 65 451 65 431 78 418 c 2
 95 401 l 2
 104.946468435 391.053531565 118.990721724 388.717235001 130.862223297 393.991110309 c 1
 303.25347553 265.467274939 l 1
 303.128436746 257.062148291 306.377278236 248.622721764 313 242 c 2
 319.314285714 235.314285714 l 1
 313 229 l 2
 306.096921953 222.096921953 302.859419793 213.220072276 303.287493518 204.465620139 c 1
 131.182083879 75.3865629095 l 1
 119.044798655 81.446562262 104.317707959 79.3177079588 94 69 c 2
 78 52 l 2
 65 39 65 19 78 6 c 2
 95 -11 l 2
 108 -24 128 -24 141 -11 c 2
 158 6 l 2
 164.646753625 12.6467536245 167.895096961 21.1234204811 167.745030009 29.558772507 c 1
 339.424520935 158.318390701 l 1
 351.442972937 152.626379521 365.853582621 154.853582621 376 165 c 2
 393 183 l 2
 406 196 406 216 393 229 c 2
 386.685714286 235.314285714 l 1
 393 242 l 2
 406 255 406 275 393 288 c 2
 376 304 l 2
EndSplineSet
EndChar

StartChar: Aacute
Encoding: 193 193 71
Width: 412
VWidth: 876
Flags: W
LayerCount: 2
Fore
SplineSet
317 834 m 2
 304 847 284 847 271 834 c 2
 254 817 l 2
 249.66091352 812.66091352 246.770109462 807.54198266 245.327587825 802.163793913 c 1
 196.13577974 777.56788987 l 1
 183.200544837 787.93471559 165.0787523 787.0787523 153 775 c 2
 136 758 l 2
 123 745 123 725 136 712 c 2
 154 695 l 2
 167 682 187 682 200 695 c 2
 217 712 l 2
 221.071965029 716.071965029 223.868476274 720.830712866 225.389533734 725.846004191 c 2
 274.756817546 750.740617395 l 1
 287.622550722 741.110143171 305.19660404 742.19660404 317 754 c 2
 334 771 l 2
 347 784 347 804 334 817 c 2
 317 834 l 2
258 657 m 2
 245 670 225 670 212 657 c 2
 195 640 l 2
 182 628 182 607 195 595 c 2
 197.107189542 592.892810458 l 1
 113.642334943 313.570086825 l 1
 106.540924353 312.807065887 99.617036945 309.617036945 94 304 c 2
 78 288 l 2
 65 275 65 255 78 242 c 2
 88.8299066839 230.533039982 l 1
 42.0713904766 74.05141472 l 2
 39.8800775366 72.6715398199 37.8348322276 70.9877349132 36 69 c 2
 19 52 l 2
 6 39 6 19 19 6 c 2
 36 -11 l 2
 49 -24 69 -24 82 -11 c 2
 99 6 l 2
 112 19 112 39 99 52 c 2
 97.1032732365 53.7913530544 l 1
 151.233698487 234.835680751 l 1
 151.388888889 235 l 1
 319.282828283 235 l 1
 373.793934756 53.9060556778 l 1
 372 52 l 2
 359 39 359 19 372 6 c 2
 389 -11 l 2
 402 -24 422 -24 435 -11 c 2
 452 6 l 2
 465 19 465 39 452 52 c 2
 434 69 l 2
 432.479361962 70.5206380377 430.862946526 71.8634037645 429.17316027 73.0282971804 c 2
 381.920827335 230.269111296 l 1
 393 242 l 2
 406 255 406 275 393 288 c 2
 376 304 l 2
 370.527984078 309.472015922 363.815727282 312.640727363 356.90732466 313.506134323 c 1
 272.993973037 592.743219667 l 1
 275 595 l 2
 288 607 288 628 275 640 c 2
 258 657 l 2
301.523232323 294 m 1
 168.923232323 294 l 1
 235 515 l 1
 301.523232323 294 l 1
EndSplineSet
EndChar

StartChar: Adieresis
Encoding: 196 196 72
Width: 412
VWidth: 876
Flags: W
HStem: 745.032 97.635<22.9844 65.9683 169.346 212.781 257.984 300.968 405.032 447.781>
VStem: 69.0317 97.7425<698.984 741.968 845.226 888.484> 304.032 97.9366<698.984 741.968 845.226 889.016>
LayerCount: 2
Fore
SplineSet
140 893 m 2
 127 906 107 906 94 893 c 2
 78 876 l 2
 69.4437276386 867.443727639 66.518978102 855.855096833 69.2257513903 845.22575139 c 1
 66.6666666667 842.666666667 l 1
 56 845.555555556 44 842.666666667 36 834 c 2
 19 817 l 2
 6 804 6 784 19 771 c 2
 36 754 l 2
 44.340490011 745.659509989 55.5623197579 742.670079488 65.9682915045 745.031708496 c 1
 69.0317084955 741.968291504 l 1
 66.6700794875 731.562319758 69.659509989 720.340490011 78 712 c 2
 95 695 l 2
 108 682 128 682 141 695 c 2
 158 712 l 2
 166.556272361 720.556272361 169.481021898 732.144903167 166.77424861 742.77424861 c 1
 169.22575139 745.22575139 l 2
 171.780231698 744.575250463 174.390115849 744.25 177 744.25 c 0
 185.25 744.25 193.5 747.5 200 754 c 2
 217 771 l 2
 223.5 777.5 226.75 785.75 226.75 794 c 0
 226.75 802.25 223.5 810.5 217 817 c 2
 199 834 l 2
 192.5 840.5 184.25 843.75 176 843.75 c 0
 173.390115849 843.75 170.780231698 843.424749537 168.22575139 842.77424861 c 2
 166.562642715 844.437357285 l 1
 169.622520854 855.278875488 166.768306616 867.231693384 158 876 c 2
 140 893 l 2
376 893 m 2
 363 906 343 906 330 893 c 2
 313 876 l 2
 304.443727639 867.443727639 301.518978102 855.855096833 304.22575139 845.22575139 c 1
 301.77424861 842.77424861 l 1
 291.144903167 845.481021898 279.556272361 842.556272361 271 834 c 2
 254 817 l 2
 241 804 241 784 254 771 c 2
 271 754 l 2
 279.340490011 745.659509989 290.562319758 742.670079488 300.968291504 745.031708496 c 1
 304.031708496 741.968291504 l 1
 301.670079488 731.562319758 304.659509989 720.340490011 313 712 c 2
 330 695 l 2
 343 682 363 682 376 695 c 2
 393 712 l 2
 401.340490011 720.340490011 404.329920512 731.562319758 401.968291504 741.968291504 c 1
 405.031708496 745.031708496 l 1
 415.437680242 742.670079488 426.659509989 745.659509989 435 754 c 2
 452 771 l 2
 465 784 465 804 452 817 c 2
 434 834 l 2
 425.659509989 842.340490011 414.437680242 845.329920512 404.031708496 842.968291504 c 1
 401.77424861 845.22575139 l 1
 404.481021898 855.855096833 401.556272361 867.443727639 393 876 c 2
 376 893 l 2
258 657 m 2
 245 670 225 670 212 657 c 2
 195 640 l 2
 182 628 182 607 195 595 c 2
 197.107189542 592.892810458 l 1
 113.642334943 313.570086825 l 1
 106.540924353 312.807065887 99.617036945 309.617036945 94 304 c 2
 78 288 l 2
 65 275 65 255 78 242 c 2
 88.8299066839 230.533039982 l 1
 42.0713904766 74.05141472 l 2
 39.8800775366 72.6715398199 37.8348322276 70.9877349132 36 69 c 2
 19 52 l 2
 6 39 6 19 19 6 c 2
 36 -11 l 2
 49 -24 69 -24 82 -11 c 2
 99 6 l 2
 112 19 112 39 99 52 c 2
 97.1032732365 53.7913530544 l 1
 151.233698487 234.835680751 l 1
 151.388888889 235 l 1
 319.282828283 235 l 1
 373.793934756 53.9060556778 l 1
 372 52 l 2
 359 39 359 19 372 6 c 2
 389 -11 l 2
 402 -24 422 -24 435 -11 c 2
 452 6 l 2
 465 19 465 39 452 52 c 2
 434 69 l 2
 432.479361962 70.5206380377 430.862946526 71.8634037645 429.17316027 73.0282971804 c 2
 381.920827335 230.269111296 l 1
 393 242 l 2
 406 255 406 275 393 288 c 2
 376 304 l 2
 370.527984078 309.472015922 363.815727282 312.640727363 356.90732466 313.506134323 c 1
 272.993973037 592.743219667 l 1
 275 595 l 2
 288 607 288 628 275 640 c 2
 258 657 l 2
301.523232323 294 m 1
 168.923232323 294 l 1
 235 515 l 1
 301.523232323 294 l 1
125.77424861 803.22575139 m 1
 127.22575139 801.77424861 l 2
 126.575250463 799.219768302 126.25 796.609884151 126.25 794 c 0
 126.25 791.267956276 126.606410717 788.535912552 127.319232152 785.867422279 c 2
 125.229461202 783.654723626 l 1
 120.249891664 785.001776976 115.046077845 785.106299602 110.031708496 783.968291504 c 1
 107.77424861 786.22575139 l 1
 109.045588935 791.218232864 109.074574211 796.422339693 107.861204435 801.424470856 c 1
 109.867422279 803.319232152 l 1
 115.085084957 801.925462111 120.545721682 801.894301857 125.77424861 803.22575139 c 1
360.77424861 803.22575139 m 2
 363.031708496 800.968291504 l 1
 361.96452784 796.266006889 361.990025489 791.397125297 363.108201444 786.702801529 c 1
 360.424470856 783.861204435 l 1
 355.53904397 785.046265188 350.46095603 783.861204435 345.575529144 783.861204435 c 2
 342.891798556 786.702801529 l 1
 344.009974511 791.397125297 344.03547216 796.266006889 342.968291504 800.968291504 c 1
 345.22575139 803.22575139 l 1
 350.334712006 801.924749537 355.665287994 803.22575139 360.77424861 803.22575139 c 2
EndSplineSet
EndChar

StartChar: aacute
Encoding: 225 225 73
Width: 412
VWidth: 876
Flags: HMW
VStem: 88 59<159 311 159 323 159 327> 324 59
LayerCount: 2
Fore
SplineSet
317 657 m 2
 304 670 284 670 271 657 c 2
 254 640 l 2
 249.824621295 636.145804272 246.990303154 631.363182001 245.497045577 626.248522788 c 2
 195.35326566 601.17663283 l 1
 182.477847427 610.895973362 164.837095752 609.837095752 153 598 c 2
 136 582 l 2
 123 569 123 549 136 536 c 2
 154 518 l 2
 167 505 187 505 200 518 c 2
 217 536 l 2
 221.071965029 540.071965029 223.868476274 544.830712866 225.389533734 549.846004191 c 2
 273.972947786 574.345332644 l 1
 286.900843097 564.0701635 304.955052619 564.955052619 317 577 c 2
 334 595 l 2
 347 607 347 628 334 640 c 2
 317 657 l 2
376 481 m 2
 363 494 343 494 330 481 c 2
 313 464 l 2
 300 451 300 431 313 418 c 2
 324 407 l 1
 324 393.576271186 l 1
 283.821613304 433.41416308 l 1
 286.446281774 443.991862476 283.505744006 455.494255994 275 464 c 2
 258 481 l 2
 245 494 225 494 212 481 c 2
 195 464 l 2
 186.282782977 455.282782977 183.410940771 443.418056436 186.384473384 432.626977846 c 1
 124.962631981 371.725660524 l 1
 114.28200595 374.515400535 102.606847027 371.606847027 94 363 c 2
 78 346 l 2
 65 333 65 313 78 300 c 2
 88 290 l 1
 88 180.625 l 1
 78 170 l 2
 65 157 65 137 78 124 c 2
 95 106 l 2
 103.40881339 98.2380184097 114.746366414 95.4967333367 125.223855219 97.7761447812 c 1
 186.22575139 36.7742486097 l 1
 183.518978102 26.144903167 186.443727639 14.5562723614 195 6 c 2
 213 -11 l 2
 226 -24 246 -24 259 -11 c 2
 275 6 l 2
 283.340490011 14.340490011 286.329920512 25.5623197579 283.968291504 35.9682915045 c 1
 324 76 l 1
 324 63 l 1
 313 52 l 2
 300 39 300 19 313 6 c 2
 330 -11 l 2
 343 -24 363 -24 376 -11 c 2
 393 6 l 2
 406 19 406 39 393 52 c 2
 382 63 l 1
 382 112.352941176 l 1
 393 124 l 2
 406 137 406 157 393 170 c 2
 382 181 l 1
 382 289 l 1
 393 300 l 2
 406 313 406 333 393 346 c 2
 382 357 l 1
 382 407 l 1
 393 418 l 2
 406 431 406 451 393 464 c 2
 376 481 l 2
324 289 m 1
 324 181 l 1
 313 170 l 2
 304.505245379 161.505245379 301.561325841 150.021579561 304.168241384 139.45516673 c 1
 242.027288996 77.9548427172 l 2
 237.416436292 79.0105503811 232.643934048 79.0150333102 228.031708496 77.9682915045 c 1
 166.77424861 139.22575139 l 1
 169.481021898 149.855096833 166.556272361 161.443727639 158 170 c 2
 147 180.388888889 l 1
 147 289 l 1
 158 300 l 2
 166.556272361 308.556272361 169.481021898 320.144903167 166.77424861 330.77424861 c 1
 228.22575139 392.22575139 l 1
 232.793563704 391.062553485 237.538530146 390.939345925 242.143871289 391.856128711 c 2
 304.031708496 329.968291504 l 1
 301.670079488 319.562319758 304.659509989 308.340490011 313 300 c 2
 324 289 l 1
EndSplineSet
EndChar

StartChar: equal
Encoding: 61 61 74
Width: 412
VWidth: 876
Flags: HMW
HStem: 176 59<109.5 353 118 353> 352 59<109.5 353 118 353>
LayerCount: 2
Fore
SplineSet
376 246 m 2
 363 258 343 258 330 246 c 2
 319 235 l 1
 151.647058824 235 l 1
 140 246 l 2
 127 258 107 258 94 246 c 2
 78 229 l 2
 65 216 65 196 78 183 c 2
 95 165 l 2
 108 152 128 152 141 165 c 2
 151.388888889 176 l 1
 319.611111111 176 l 1
 330 165 l 2
 343 152 363 152 376 165 c 2
 393 183 l 2
 406 196 406 216 393 229 c 2
 376 246 l 2
376 422 m 2
 363 435 343 435 330 422 c 2
 319 411 l 1
 151.647058824 411 l 1
 140 422 l 2
 127 435 107 435 94 422 c 2
 78 405 l 2
 65 392 65 372 78 359 c 2
 95 342 l 2
 108 329 128 329 141 342 c 2
 151 352 l 1
 320 352 l 1
 330 342 l 2
 343 329 363 329 376 342 c 2
 393 359 l 2
 406 372 406 392 393 405 c 2
 376 422 l 2
EndSplineSet
EndChar

StartChar: cedilla
Encoding: 184 184 75
Width: 412
VWidth: 876
Flags: HMW
VStem: 206 59<-18 29 -18 29 -18 37>
LayerCount: 2
Fore
SplineSet
317 -49 m 2
 308.659509989 -40.659509989 297.437680242 -37.6700794875 287.031708496 -40.0317084955 c 1
 283.968291504 -36.9682915045 l 1
 286.329920512 -26.5623197579 283.340490011 -15.340490011 275 -7 c 2
 268.696969697 -0.69696969697 l 1
 275 6 l 2
 288 19 288 39 275 52 c 2
 258 69 l 2
 245 82 225 82 212 69 c 2
 195 52 l 2
 182 39 182 19 195 6 c 2
 201.685714286 -0.314285714286 l 1
 195 -7 l 2
 182 -20 182 -40 195 -53 c 2
 213 -70 l 2
 221.340490011 -78.340490011 232.562319758 -81.3299205125 242.968291504 -78.9682915045 c 1
 245.031708496 -81.0317084955 l 1
 243.868293242 -86.1580285983 244.003509505 -91.4823466697 245.437357285 -96.5626427147 c 1
 243.562642715 -98.4373572853 l 1
 232.721124512 -95.377479146 220.768306616 -98.2316933842 212 -107 c 2
 195 -124 l 2
 182 -137 182 -157 195 -170 c 2
 213 -188 l 2
 226 -201 246 -201 259 -188 c 2
 275 -170 l 2
 283.340490011 -161.659509989 286.329920512 -150.437680242 283.968291504 -140.031708496 c 1
 286.22575139 -137.77424861 l 1
 296.855096833 -140.481021898 308.443727639 -137.556272361 317 -129 c 2
 334 -111 l 2
 347 -98 347 -78 334 -65 c 2
 317 -49 l 2
EndSplineSet
EndChar

StartChar: braceleft
Encoding: 123 123 76
Width: 412
VWidth: 876
Flags: W
HStem: 215.032 97.7425<141.062 183.774>
LayerCount: 2
Fore
SplineSet
317 -107 m 2
 304.9212477 -94.9212476996 286.799455163 -94.0652844095 273.86422026 -104.43211013 c 1
 225.820662214 -80.4103311071 l 2
 225.098753049 -77.5025091801 223.956259852 -74.6646057295 222.393182624 -71.9780897163 c 2
 296.966452975 38.3903504033 l 1
 304.204459151 39.0766456869 311.279862219 42.2798622192 317 48 c 2
 334 65 l 2
 347 78 347 98 334 111 c 2
 317 128 l 2
 312.754985398 132.245014602 307.763574093 135.103863899 302.513222224 136.57654789 c 1
 278.010028252 186.427873556 l 1
 287.907650684 199.32163365 286.904307934 217.095692066 275 229 c 2
 258 246 l 2
 249.59118661 253.76198159 238.253633586 256.503266663 227.776144781 254.223855219 c 1
 225.562642715 256.437357285 l 1
 226.996490495 261.51765333 227.131706758 266.841971402 225.968291504 271.968291504 c 1
 228.22575139 274.22575139 l 1
 238.855096833 271.518978102 250.443727639 274.443727639 259 283 c 2
 275 300 l 2
 286.904307934 311.904307934 287.907650684 329.67836635 278.010028252 342.572126444 c 1
 302.513222224 392.42345211 l 1
 307.763574093 393.896136101 312.754985398 396.754985398 317 401 c 2
 334 418 l 2
 347 431 347 451 334 464 c 2
 317 481 l 2
 311.133665537 486.866334463 303.841904091 490.085447385 296.411182036 490.657338766 c 1
 222.174967111 601.269299004 l 2
 223.740807912 603.799315498 224.904707763 606.519946614 225.666666667 609.333333333 c 2
 273.86422026 633.43211013 l 1
 286.799455163 623.06528441 304.9212477 623.9212477 317 636 c 2
 334 653 l 2
 347 666 347 686 334 699 c 2
 317 716 l 2
 304 729 284 729 271 716 c 2
 254 699 l 2
 249.754985398 694.754985398 246.896136101 689.763574093 245.42345211 684.513222224 c 1
 195.572126444 660.010028252 l 1
 182.67836635 669.907650684 164.904307934 668.904307934 153 657 c 2
 136 640 l 2
 123 628 123 607 136 595 c 2
 154 577 l 2
 159.824481056 571.175518944 167.054122211 567.960620932 174.429796024 567.355305964 c 1
 248.320359351 456.519460973 l 1
 242.065861089 445.321226695 243.019341006 431.61525408 251.180799101 421.181614511 c 1
 226.651416868 371.622250407 l 1
 221.340800191 370.163446704 216.289363235 367.289363235 212 363 c 2
 195 346 l 2
 186.443727639 337.443727639 183.518978102 325.855096833 186.22575139 315.22575139 c 1
 183.77424861 312.77424861 l 1
 173.144903167 315.481021898 161.556272361 312.556272361 153 304 c 2
 136 288 l 2
 123 275 123 255 136 242 c 2
 154 224 l 2
 162.340490011 215.659509989 173.562319758 212.670079488 183.968291504 215.031708496 c 1
 186.031708496 212.968291504 l 1
 183.670079488 202.562319758 186.659509989 191.340490011 195 183 c 2
 213 165 l 2
 217.023597477 160.976402523 221.717759195 158.198138634 226.667395832 156.665208336 c 2
 251.125956846 107.748086309 l 1
 243.015097453 97.3232369208 242.079898288 83.6536406982 248.320359351 72.4805390269 c 1
 173.781026106 -39.3284608415 l 1
 166.283924578 -39.8592462134 158.9169074 -43.0830925996 153 -49 c 2
 136 -65 l 2
 123 -78 123 -98 136 -111 c 2
 154 -129 l 2
 165.958554112 -140.958554112 183.84047577 -141.916568497 196.748086309 -131.874043154 c 1
 245.665208336 -156.332604168 l 2
 247.198138634 -161.282240805 249.976402523 -165.976402523 254 -170 c 2
 271 -188 l 2
 284 -201 304 -201 317 -188 c 2
 334 -170 l 2
 347 -157 347 -137 334 -124 c 2
 317 -107 l 2
EndSplineSet
EndChar

StartChar: m
Encoding: 109 109 77
Width: 412
VWidth: 876
Flags: HMW
VStem: 88 59<29 441> 206 59<29 316> 324 59
LayerCount: 2
Fore
SplineSet
317 481 m 2
 304 494 284 494 271 481 c 2
 254 464 l 2
 241.982006234 451.982006234 241.074179711 433.98161472 251.276520432 421.059812973 c 1
 235 389 l 1
 219.409541668 420.668118487 l 1
 229.943096581 433.615771927 229.139916025 451.860083975 217 464 c 2
 199 481 l 2
 186 494 166 494 153 481 c 2
 146.685714286 474.685714286 l 1
 140 481 l 2
 127 494 107 494 94 481 c 2
 78 464 l 2
 65 451 65 431 78 418 c 2
 88 408 l 1
 88 358 l 1
 77 347 l 2
 64 334 64 314 77 301 c 2
 88 290.611111111 l 1
 88 62.625 l 1
 78 52 l 2
 65 39 65 19 78 6 c 2
 95 -11 l 2
 108 -24 128 -24 141 -11 c 2
 158 6 l 2
 171 19 171 39 158 52 c 2
 147 62.3888888889 l 1
 147 290.375 l 1
 157 301 l 2
 168.777119956 312.777119956 169.884966492 330.299233293 160.323539607 343.157189827 c 1
 176 375 l 1
 192.291779853 342.959499622 l 1
 187.597259951 337.022416358 185.25 330.011208179 185.25 323 c 0
 185.25 314.75 188.5 306.5 195 300 c 2
 206 289.611111111 l 1
 206 63 l 1
 195 52 l 2
 182 39 182 19 195 6 c 2
 213 -11 l 2
 226 -24 246 -24 259 -11 c 2
 275 6 l 2
 288 19 288 39 275 52 c 2
 265 62 l 1
 265 289.375 l 1
 275 300 l 2
 281.5 306.5 284.75 314.75 284.75 323 c 0
 284.75 329.843531558 282.513669368 336.687063116 278.041008105 342.531706145 c 1
 294 375 l 1
 310.291779853 342.959499622 l 1
 300.073277749 330.036325563 300.976017798 312.023982202 313 300 c 2
 324 289 l 1
 324 63 l 1
 313 52 l 2
 300 39 300 19 313 6 c 2
 330 -11 l 2
 343 -24 363 -24 376 -11 c 2
 393 6 l 2
 406 19 406 39 393 52 c 2
 382 63 l 1
 382 289 l 1
 393 300 l 2
 406 313 406 333 393 346 c 2
 376 363 l 2
 371.66091352 367.33908648 366.54198266 370.229890538 361.163793913 371.672412175 c 1
 336.56788987 420.86422026 l 1
 346.93471559 433.799455163 346.0787523 451.9212477 334 464 c 2
 317 481 l 2
EndSplineSet
EndChar

StartChar: arrowup
Encoding: 262 8593 78
Width: 412
VWidth: 876
Flags: HMW
VStem: 206 59<88 344>
LayerCount: 2
Fore
SplineSet
258 481 m 2
 245 494 225 494 212 481 c 2
 195 464 l 2
 184.172572939 453.172572939 182.363082552 437.489333821 189.57152884 425.038890473 c 1
 114.910759231 313.680454446 l 1
 107.368952536 313.177851785 99.9510336367 309.951033637 94 304 c 2
 78 288 l 2
 65 275 65 255 78 242 c 2
 95 224 l 2
 108 211 128 211 141 224 c 2
 158 242 l 2
 168.699788549 252.699788549 170.593002098 268.141579021 163.679640649 280.519460973 c 1
 206 344 l 1
 206 122 l 1
 195 111 l 2
 182 98 182 78 195 65 c 2
 213 48 l 2
 226 35 246 35 259 48 c 2
 275 65 l 2
 288 78 288 98 275 111 c 2
 265 121 l 1
 265 344 l 1
 307.020034379 279.969471422 l 1
 300.464795441 267.686836578 302.458117314 252.541882686 313 242 c 2
 330 224 l 2
 343 211 363 211 376 224 c 2
 393 242 l 2
 406 255 406 275 393 288 c 2
 376 304 l 2
 370.10018843 309.89981157 362.758634635 313.122101866 355.283955148 313.666870888 c 1
 280.803951131 425.705167529 l 1
 287.569809999 438.044791163 285.635159622 453.364840378 275 464 c 2
 258 481 l 2
EndSplineSet
EndChar

StartChar: odieresis
Encoding: 246 246 79
Width: 412
Flags: HMW
VStem: 88 59<212 257 212 264 212 266.5> 324 59
LayerCount: 2
Fore
SplineSet
140 716 m 2
 127 729 107 729 94 716 c 2
 78 699 l 2
 69.659509989 690.659509989 66.6700794875 679.437680242 69.0317084955 669.031708496 c 1
 65.8708902241 665.870890224 l 1
 55.4074097999 668.408751228 43.8016502957 665.45178782 36 657 c 2
 19 640 l 2
 6 628 6 607 19 595 c 2
 36 577 l 2
 44.4446897897 568.55531021 55.8431636002 565.596219316 66.3579153144 568.122727318 c 1
 68.9458596165 565.578646479 l 1
 66.7454648895 555.282906682 69.763511684 544.236488316 78 536 c 2
 95 518 l 2
 108 505 128 505 141 518 c 2
 158 536 l 2
 166.451165721 544.451165721 169.4083159 555.860647504 166.871450537 566.382103918 c 1
 168.847419912 568.324582286 l 2
 171.52225924 567.608194095 174.26112962 567.25 177 567.25 c 0
 185.25 567.25 193.5 570.5 200 577 c 2
 217 595 l 2
 223.5 601 226.75 609.25 226.75 617.5 c 0
 226.75 625.75 223.5 634 217 640 c 2
 199 657 l 2
 192.5 663.5 184.25 666.75 176 666.75 c 0
 173.663993448 666.75 171.327986895 666.489430501 169.031708496 665.968291504 c 2
 166.77424861 668.22575139 l 1
 169.481021898 678.855096833 166.556272361 690.443727639 158 699 c 2
 140 716 l 2
376 716 m 2
 363 729 343 729 330 716 c 2
 313 699 l 2
 304.659509989 690.659509989 301.670079488 679.437680242 304.031708496 669.031708496 c 1
 300.968291504 665.968291504 l 1
 290.562319758 668.329920512 279.340490011 665.340490011 271 657 c 2
 254 640 l 2
 241 628 241 607 254 595 c 2
 271 577 l 2
 279.44468979 568.55531021 290.8431636 565.596219316 301.357915314 568.122727318 c 1
 303.945859617 565.578646479 l 1
 301.74546489 555.282906682 304.763511684 544.236488316 313 536 c 2
 330 518 l 2
 343 505 363 505 376 518 c 2
 393 536 l 2
 401.236488316 544.236488316 404.25453511 555.282906682 402.054140383 565.578646479 c 1
 404.642084686 568.122727318 l 1
 415.1568364 565.596219316 426.55531021 568.55531021 435 577 c 2
 452 595 l 2
 465 607 465 628 452 640 c 2
 434 657 l 2
 425.879334166 665.120665834 415.02720978 668.168622931 404.856128711 666.143871289 c 1
 401.968291504 669.031708496 l 1
 404.329920512 679.437680242 401.340490011 690.659509989 393 699 c 2
 376 716 l 2
317 422 m 2
 308.55531021 430.44468979 297.1568364 433.403780684 286.642084686 430.877272682 c 1
 283.868144307 433.604197122 l 2
 284.456048102 436.03772992 284.75 438.51886496 284.75 441 c 0
 284.75 449.25 281.5 457.5 275 464 c 2
 258 481 l 2
 251.5 487.5 243.25 490.75 235 490.75 c 0
 226.75 490.75 218.5 487.5 212 481 c 2
 195 464 l 2
 188.5 457.5 185.25 449.25 185.25 441 c 0
 185.25 438.251186448 185.610799586 435.502372896 186.332398758 432.818290304 c 2
 184.152580088 430.675417714 l 1
 173.420614504 433.54970378 161.657897875 430.657897875 153 422 c 2
 136 405 l 2
 123.9212477 392.9212477 123.06528441 374.799455163 133.43211013 361.86422026 c 1
 108.836206087 312.672412175 l 1
 103.45801734 311.229890538 98.3390864796 308.33908648 94 304 c 2
 78 288 l 2
 65 275 65 255 78 242 c 2
 84.1282495667 235.511265165 l 1
 78 229 l 2
 65 216 65 196 78 183 c 2
 95 165 l 2
 99.0719650294 160.928034971 103.830712866 158.131523726 108.846004191 156.610466266 c 2
 133.345332644 108.027052214 l 1
 123.0701635 95.0991569032 123.955052619 77.044947381 136 65 c 2
 154 48 l 2
 162.340490011 39.659509989 173.562319758 36.6700794875 183.968291504 39.0317084955 c 1
 186.22575139 36.7742486097 l 1
 183.518978102 26.144903167 186.443727639 14.5562723614 195 6 c 2
 213 -11 l 2
 226 -24 246 -24 259 -11 c 2
 275 6 l 2
 283.340490011 14.340490011 286.329920512 25.5623197579 283.968291504 35.9682915045 c 1
 287.031708496 39.0317084955 l 1
 297.437680242 36.6700794875 308.659509989 39.659509989 317 48 c 2
 334 65 l 2
 346.044947381 77.044947381 346.9298365 95.0991569032 336.654667356 108.027052214 c 1
 360.987819044 156.280929291 l 1
 366.430286924 157.707256179 371.613613082 160.613613082 376 165 c 2
 393 183 l 2
 406 196 406 216 393 229 c 2
 386.685714286 235.314285714 l 1
 393 242 l 2
 406 255 406 275 393 288 c 2
 376 304 l 2
 371.66091352 308.33908648 366.54198266 311.229890538 361.163793913 312.672412175 c 1
 336.56788987 361.86422026 l 1
 346.93471559 374.799455163 346.0787523 392.9212477 334 405 c 2
 317 422 l 2
124.968291504 627.031708496 m 1
 127.129109776 624.870890224 l 2
 126.543036592 622.454538313 126.25 619.977269157 126.25 617.5 c 0
 126.25 614.75 126.611111111 612 127.333333333 609.333333333 c 2
 124.77424861 606.77424861 l 1
 120.09217984 607.966542034 115.223983653 608.066167062 110.510810209 607.073123691 c 2
 107.756868317 609.674068812 l 1
 109.011195601 614.523769578 109.077359501 619.635998829 107.955360015 624.51339557 c 1
 110.702801529 627.108201444 l 1
 115.397125297 625.990025489 120.266006889 625.96452784 124.968291504 627.031708496 c 1
359.968291504 627.031708496 m 2
 362.943215704 624.056784296 l 2
 361.960639303 619.470393437 362.022603993 614.691180581 363.129109776 610.129109776 c 1
 359.968291504 606.968291504 l 2
 355.375734705 608.010569499 350.624265295 606.968291504 346.031708496 606.968291504 c 2
 342.870890224 610.129109776 l 1
 343.977396007 614.691180581 344.039360697 619.470393437 343.056784296 624.056784296 c 2
 346.031708496 627.031708496 l 2
 350.624265295 625.989430501 355.375734705 627.031708496 359.968291504 627.031708496 c 2
285.421939216 333.441713035 m 1
 310.047428336 284.646762372 l 1
 300.088515203 271.747028931 301.072705758 253.927294242 313 242 c 2
 319.314285714 235.314285714 l 1
 313 229 l 2
 300.831535614 216.831535614 300.053188575 198.529931118 310.664958884 185.576862974 c 1
 286.007080487 136.717733558 l 1
 280.566474698 135.290927834 275.385016648 132.385016648 271 128 c 2
 254 111 l 2
 245.59692812 102.59692812 242.625519087 91.2691147053 245.085772904 80.7976079635 c 1
 242.134036665 77.9302070461 l 1
 237.490125938 79.0104185328 232.679536884 79.0231133522 228.031708496 77.9682915045 c 1
 225.77424861 80.2257513903 l 1
 228.481021898 90.855096833 225.556272361 102.443727639 217 111 c 2
 199 128 l 2
 194.929491336 132.070508664 190.172691041 134.86647573 185.159376966 136.387901196 c 2
 160.335041116 185.576862974 l 1
 170.946811425 198.529931118 170.168464386 216.831535614 158 229 c 2
 151.510603589 235.128874388 l 1
 158 242 l 2
 169.927294242 253.927294242 170.911484797 271.747028931 160.952571664 284.646762372 c 1
 185.578060784 333.441713035 l 1
 190.804663678 334.919701059 195.772463381 337.772463381 200 342 c 2
 217 359 l 2
 225.498444971 367.498444971 228.441230947 378.98839863 225.828357931 389.558603752 c 1
 228.381243209 392.186573891 l 2
 230.886094955 391.562191297 233.443047477 391.25 236 391.25 c 0
 238.056998943 391.25 240.113997887 391.452042904 242.143871289 391.856128711 c 2
 245.031708496 388.968291504 l 1
 242.670079488 378.562319758 245.659509989 367.340490011 254 359 c 2
 271 342 l 2
 275.227536619 337.772463381 280.195336322 334.919701059 285.421939216 333.441713035 c 1
EndSplineSet
EndChar

StartChar: slash
Encoding: 47 47 80
Width: 412
VWidth: 876
Flags: W
LayerCount: 2
Fore
SplineSet
376 657 m 2
 363 670 343 670 330 657 c 2
 313 640 l 2
 300 628 300 607 313 595 c 2
 314.86916159 593.020887728 l 1
 101.59420254 -101.257170456 l 2
 98.8913092298 -102.752785437 96.3329380482 -104.667061952 94 -107 c 2
 78 -124 l 2
 65 -137 65 -157 78 -170 c 2
 95 -188 l 2
 108 -201 128 -201 141 -188 c 2
 158 -170 l 2
 171 -157 171 -137 158 -124 c 2
 156.318041092 -122.411483254 l 1
 369.623337399 571.965332383 l 2
 371.878264551 573.342076897 374.020299436 575.020299436 376 577 c 2
 393 595 l 2
 406 607 406 628 393 640 c 2
 376 657 l 2
EndSplineSet
EndChar

StartChar: uni2199
Encoding: 263 8601 81
Width: 412
VWidth: 876
Flags: HMW
HStem: 0 59
VStem: -29 59
LayerCount: 2
Fore
SplineSet
376 69 m 2
 363 82 343 82 330 69 c 2
 319 58 l 1
 71 58 l 1
 405.031708496 392.031708496 l 1
 415.437680242 389.670079488 426.659509989 392.659509989 435 401 c 2
 452 418 l 2
 465 431 465 451 452 464 c 2
 434 481 l 2
 421 494 401 494 388 481 c 2
 372 464 l 2
 363.460156324 455.460156324 360.530230341 443.899587735 363.210222052 433.286989394 c 1
 29 100 l 1
 29 348 l 1
 40 359 l 2
 53 372 53 392 40 405 c 2
 23 422 l 2
 10 435 -10 435 -23 422 c 2
 -40 405 l 2
 -53 392 -53 372 -40 359 c 2
 -29 348 l 1
 -29 63 l 1
 -40 52 l 2
 -53 39 -53 19 -40 6 c 2
 -23 -11 l 2
 -10 -24 10 -24 23 -11 c 2
 34 0 l 1
 319 0 l 1
 330 -11 l 2
 343 -24 363 -24 376 -11 c 2
 393 6 l 2
 406 19 406 39 393 52 c 2
 376 69 l 2
EndSplineSet
EndChar

StartChar: multiply
Encoding: 215 215 82
Width: 412
VWidth: 876
Flags: W
LayerCount: 2
Fore
SplineSet
376 481 m 2
 363 494 343 494 330 481 c 2
 313 464 l 2
 304.505245379 455.505245379 301.561325841 444.021579561 304.168241384 433.45516673 c 1
 235 365 l 1
 166.626870054 432.668252318 l 1
 169.581727708 443.448301514 166.706104357 455.293895643 158 464 c 2
 141 481 l 2
 128 494 108 494 95 481 c 2
 78 464 l 2
 65 451 65 431 78 418 c 2
 95 401 l 2
 103.340490011 392.659509989 114.562319758 389.670079488 124.968291504 392.031708496 c 1
 194 323 l 1
 125.036546832 254.036546832 l 1
 114.335898881 256.641961949 102.626705756 253.963113005 94 246 c 2
 78 229 l 2
 65 216 65 196 78 183 c 2
 95 165 l 2
 108 152 128 152 141 165 c 2
 158 183 l 2
 166.492533926 191.492533926 169.437134584 202.972416536 166.833801974 213.536546283 c 1
 235 281 l 1
 303.979048836 212.732075379 l 1
 301.715599158 202.392759918 304.722582879 191.277417121 313 183 c 2
 330 165 l 2
 343 152 363 152 376 165 c 2
 393 183 l 2
 406 196 406 216 393 229 c 2
 376 246 l 2
 367.59118661 253.76198159 356.253633586 256.503266663 345.776144781 254.223855219 c 1
 277 323 l 1
 346.031708496 392.031708496 l 1
 356.437680242 389.670079488 367.659509989 392.659509989 376 401 c 2
 393 418 l 2
 406 431 406 451 393 464 c 2
 376 481 l 2
EndSplineSet
EndChar

StartChar: period
Encoding: 46 46 83
Width: 412
VWidth: 876
Flags: W
HStem: -19.9683 97.7425<140.25 183.774 287.032 330.016>
VStem: 185.25 99.5<-64.4219 -23.0317 81.1394 123.219>
LayerCount: 2
Fore
SplineSet
317 69 m 2
 308.659509989 77.340490011 297.437680242 80.3299205125 287.031708496 77.9682915045 c 1
 283.968291504 81.0317084955 l 2
 284.489430501 83.3279868951 284.75 85.6639934476 284.75 88 c 0
 284.75 96.25 281.5 104.5 275 111 c 2
 258 128 l 2
 251.5 134.5 243.25 137.75 235 137.75 c 0
 226.75 137.75 218.5 134.5 212 128 c 2
 195 111 l 2
 188.5 104.5 185.25 96.25 185.25 88 c 0
 185.25 85.3901158489 185.575250463 82.7802316979 186.22575139 80.2257513903 c 2
 183.77424861 77.7742486097 l 1
 173.144903167 80.481021898 161.556272361 77.5562723614 153 69 c 2
 136 52 l 2
 123 39 123 19 136 6 c 2
 154 -11 l 2
 162.340490011 -19.340490011 173.562319758 -22.3299205125 183.968291504 -19.9682915045 c 1
 186.22575139 -22.2257513903 l 1
 183.518978102 -32.855096833 186.443727639 -44.4437276386 195 -53 c 2
 213 -70 l 2
 226 -83 246 -83 259 -70 c 2
 275 -53 l 2
 283.340490011 -44.659509989 286.329920512 -33.4376802421 283.968291504 -23.0317084955 c 1
 287.031708496 -19.9682915045 l 1
 297.437680242 -22.3299205125 308.659509989 -19.340490011 317 -11 c 2
 334 6 l 2
 347 19 347 39 334 52 c 2
 317 69 l 2
245.138795565 21.5755291444 m 2
 242.297198471 18.8917985563 l 1
 237.602874703 20.0099745108 232.733993111 20.0354721602 228.031708496 18.9682915045 c 1
 225.77424861 21.2257513903 l 1
 227.075250463 26.3347120055 225.77424861 31.6652879945 225.77424861 36.7742486097 c 2
 228.22575139 39.2257513903 l 2
 230.780231698 38.5752504634 233.390115849 38.25 236 38.25 c 0
 238.173733495 38.25 240.34746699 38.4756254362 242.489189791 38.9268763086 c 2
 245.138795565 36.4244708556 l 1
 243.953734812 31.5390439703 245.138795565 26.4609560297 245.138795565 21.5755291444 c 2
EndSplineSet
EndChar

StartChar: N
Encoding: 78 78 84
Width: 412
VWidth: 876
Flags: HMW
VStem: 88 59<29 617> 324 59
LayerCount: 2
Fore
SplineSet
376 657 m 2
 363 670 343 670 330 657 c 2
 313 640 l 2
 300 628 300 607 313 595 c 2
 324 583.352941176 l 1
 324 180.119148936 l 1
 158.137670781 595.127870558 l 1
 164.54589026 601.116904804 167.75 609.308452402 167.75 617.5 c 0
 167.75 625.75 164.5 634 158 640 c 2
 140 657 l 2
 133.5 663.5 125.25 666.75 117 666.75 c 0
 108.75 666.75 100.5 663.5 94 657 c 2
 78 640 l 2
 71.5 634 68.25 625.75 68.25 617.5 c 0
 68.25 609.25 71.5 601 78 595 c 2
 88 584.411764706 l 1
 88 62.625 l 1
 78 52 l 2
 65 39 65 19 78 6 c 2
 95 -11 l 2
 108 -24 128 -24 141 -11 c 2
 158 6 l 2
 171 19 171 39 158 52 c 2
 147 62.3888888889 l 1
 147 463.983050847 l 1
 312.541263392 51.5327844296 l 1
 306.347087797 45.1071618361 303.25 37.053580918 303.25 29 c 0
 303.25 20.75 306.5 12.5 313 6 c 2
 330 -11 l 2
 336.5 -17.5 344.75 -20.75 353 -20.75 c 0
 361.25 -20.75 369.5 -17.5 376 -11 c 2
 393 6 l 2
 399.5 12.5 402.75 20.75 402.75 29 c 0
 402.75 37.25 399.5 45.5 393 52 c 2
 382 63 l 1
 382 583.352941176 l 1
 393 595 l 2
 406 607 406 628 393 640 c 2
 376 657 l 2
EndSplineSet
EndChar

StartChar: ocircumflex
Encoding: 244 244 85
Width: 412
VWidth: 876
Flags: HMW
VStem: 88 59<212 257 212 264 212 266.5> 324 59
LayerCount: 2
Fore
SplineSet
258 657 m 2
 245 670 225 670 212 657 c 2
 195 640 l 2
 186.333333333 632 183.444444444 620 186.333333333 609.333333333 c 1
 183.77424861 606.77424861 l 1
 173.144903167 609.481021898 161.556272361 606.556272361 153 598 c 2
 136 582 l 2
 123 569 123 549 136 536 c 2
 154 518 l 2
 167 505 187 505 200 518 c 2
 217 536 l 2
 225.556272361 544.556272361 228.481021898 556.144903167 225.77424861 566.77424861 c 1
 227.437357285 568.437357285 l 1
 232.51765333 567.003509505 237.841971402 566.868293242 242.968291504 568.031708496 c 1
 245.031708496 565.968291504 l 1
 242.670079488 555.562319758 245.659509989 544.340490011 254 536 c 2
 271 518 l 2
 284 505 304 505 317 518 c 2
 334 536 l 2
 347 549 347 569 334 582 c 2
 317 598 l 2
 308.659509989 606.340490011 297.437680242 609.329920512 287.031708496 606.968291504 c 1
 283.870890224 610.129109776 l 1
 286.408751228 620.5925902 283.45178782 632.198349704 275 640 c 2
 258 657 l 2
317 422 m 2
 308.55531021 430.44468979 297.1568364 433.403780684 286.642084686 430.877272682 c 1
 283.868144307 433.604197122 l 2
 284.456048102 436.03772992 284.75 438.51886496 284.75 441 c 0
 284.75 449.25 281.5 457.5 275 464 c 2
 258 481 l 2
 251.5 487.5 243.25 490.75 235 490.75 c 0
 226.75 490.75 218.5 487.5 212 481 c 2
 195 464 l 2
 188.5 457.5 185.25 449.25 185.25 441 c 0
 185.25 438.251186448 185.610799586 435.502372896 186.332398758 432.818290304 c 2
 184.152580088 430.675417714 l 1
 173.420614504 433.54970378 161.657897875 430.657897875 153 422 c 2
 136 405 l 2
 123.9212477 392.9212477 123.06528441 374.799455163 133.43211013 361.86422026 c 1
 108.836206087 312.672412175 l 1
 103.45801734 311.229890538 98.3390864796 308.33908648 94 304 c 2
 78 288 l 2
 65 275 65 255 78 242 c 2
 84.1282495667 235.511265165 l 1
 78 229 l 2
 65 216 65 196 78 183 c 2
 95 165 l 2
 99.0719650294 160.928034971 103.830712866 158.131523726 108.846004191 156.610466266 c 2
 133.345332644 108.027052214 l 1
 123.0701635 95.0991569032 123.955052619 77.044947381 136 65 c 2
 154 48 l 2
 162.340490011 39.659509989 173.562319758 36.6700794875 183.968291504 39.0317084955 c 1
 186.22575139 36.7742486097 l 1
 183.518978102 26.144903167 186.443727639 14.5562723614 195 6 c 2
 213 -11 l 2
 226 -24 246 -24 259 -11 c 2
 275 6 l 2
 283.340490011 14.340490011 286.329920512 25.5623197579 283.968291504 35.9682915045 c 1
 287.031708496 39.0317084955 l 1
 297.437680242 36.6700794875 308.659509989 39.659509989 317 48 c 2
 334 65 l 2
 346.044947381 77.044947381 346.9298365 95.0991569032 336.654667356 108.027052214 c 1
 360.987819044 156.280929291 l 1
 366.430286924 157.707256179 371.613613082 160.613613082 376 165 c 2
 393 183 l 2
 406 196 406 216 393 229 c 2
 386.685714286 235.314285714 l 1
 393 242 l 2
 406 255 406 275 393 288 c 2
 376 304 l 2
 371.66091352 308.33908648 366.54198266 311.229890538 361.163793913 312.672412175 c 1
 336.56788987 361.86422026 l 1
 346.93471559 374.799455163 346.0787523 392.9212477 334 405 c 2
 317 422 l 2
285.421939216 333.441713035 m 1
 310.047428336 284.646762372 l 1
 300.088515203 271.747028931 301.072705758 253.927294242 313 242 c 2
 319.314285714 235.314285714 l 1
 313 229 l 2
 300.831535614 216.831535614 300.053188575 198.529931118 310.664958884 185.576862974 c 1
 286.007080487 136.717733558 l 1
 280.566474698 135.290927834 275.385016648 132.385016648 271 128 c 2
 254 111 l 2
 245.59692812 102.59692812 242.625519087 91.2691147053 245.085772904 80.7976079635 c 1
 242.134036665 77.9302070461 l 1
 237.490125938 79.0104185328 232.679536884 79.0231133522 228.031708496 77.9682915045 c 1
 225.77424861 80.2257513903 l 1
 228.481021898 90.855096833 225.556272361 102.443727639 217 111 c 2
 199 128 l 2
 194.929491336 132.070508664 190.172691041 134.86647573 185.159376966 136.387901196 c 2
 160.335041116 185.576862974 l 1
 170.946811425 198.529931118 170.168464386 216.831535614 158 229 c 2
 151.510603589 235.128874388 l 1
 158 242 l 2
 169.927294242 253.927294242 170.911484797 271.747028931 160.952571664 284.646762372 c 1
 185.578060784 333.441713035 l 1
 190.804663678 334.919701059 195.772463381 337.772463381 200 342 c 2
 217 359 l 2
 225.498444971 367.498444971 228.441230947 378.98839863 225.828357931 389.558603752 c 1
 228.381243209 392.186573891 l 2
 230.886094955 391.562191297 233.443047477 391.25 236 391.25 c 0
 238.056998943 391.25 240.113997887 391.452042904 242.143871289 391.856128711 c 2
 245.031708496 388.968291504 l 1
 242.670079488 378.562319758 245.659509989 367.340490011 254 359 c 2
 271 342 l 2
 275.227536619 337.772463381 280.195336322 334.919701059 285.421939216 333.441713035 c 1
EndSplineSet
EndChar

StartChar: Y
Encoding: 89 89 86
Width: 412
VWidth: 876
Flags: HMW
VStem: 206 59<29 317>
LayerCount: 2
Fore
SplineSet
376 657 m 2
 363 670 343 670 330 657 c 2
 313 640 l 2
 300.070091456 628.064699806 300.000377909 607.22618769 312.790859358 595.194881482 c 1
 235 402 l 1
 158.103404543 595.095895258 l 1
 170.999908123 607.111591964 170.965439942 628.031901592 158 640 c 2
 140 657 l 2
 127 670 107 670 94 657 c 2
 78 640 l 2
 65 628 65 607 78 595 c 2
 95 577 l 2
 97.8178987472 574.182101253 100.964696154 571.975014302 104.297807124 570.378739147 c 2
 194.545592316 345.537274317 l 1
 182.001807205 332.529353316 182.153276433 312.846723567 195 300 c 2
 206 289.611111111 l 1
 206 63 l 1
 195 52 l 2
 182 39 182 19 195 6 c 2
 213 -11 l 2
 226 -24 246 -24 259 -11 c 2
 275 6 l 2
 288 19 288 39 275 52 c 2
 265 62 l 1
 265 289.375 l 1
 275 300 l 2
 287.626784478 312.626784478 287.989285398 331.85741395 276.087502759 344.863376498 c 1
 365.630707883 569.889344158 l 2
 369.361061015 571.511668141 372.881886754 573.881886754 376 577 c 2
 393 595 l 2
 406 607 406 628 393 640 c 2
 376 657 l 2
EndSplineSet
EndChar

