SplineFontDB: 3.0
FontName: Career
FullName: Career
FamilyName: Career
Weight: Medium

StartChar: exclam
Encoding: 33 33 0
Width: 515
GlyphClass: 2
Flags: W
LayerCount: 2
Fore
SplineSet
339.224 367.272 m 1
 381.112 600.213 l 1
 350.939 600.213 l 1
 310.414 372.719 l 1
 215.612 390.638 l 1
 252.83 597.606 l 1
 222.657 597.606 l 1
 186.76 396.091 l 1
 25 426.666 l 1
 25 397.507 l 1
 181.676 367.554 l 1
 161.72 255.53 l 1
 25 281.372 l 1
 25 252.213 l 1
 156.646 227.045 l 1
 115.736 -2.60449 l 1
 144.896 -2.60449 l 1
 185.212 221.584 l 1
 280.255 203.414 l 1
 244.02 0.000976562 l 1
 273.18 0.000976562 l 1
 308.777 197.961 l 1
 493.18 162.708 l 1
 493.18 192.88 l 1
 313.956 226.756 l 1
 334.037 338.425 l 1
 493.18 308.001 l 1
 493.18 338.173 l 1
 339.224 367.272 l 1
305.285 343.923 m 1
 285.375 232.159 l 1
 190.343 250.121 l 1
 210.471 362.049 l 1
 305.285 343.923 l 1
EndSplineSet
Validated: 524297
EndChar

StartChar: quotedbl
Encoding: 34 34 1
Width: 301
GlyphClass: 2
Flags: W
HStem: -125.883 18.498<40.4477 54.8585>
LayerCount: 2
Fore
SplineSet
42.6953 -125.883 m 1
 175.411 -83.293 212.313 16.0303 213 104 c 0
 213.5 168 165.503 195 126 195 c 0
 52 195 21.2295 95.7695 71.5 45.5 c 0
 161.186 -44.1865 74.0947 -96.6074 36.7559 -107.385 c 1
 42.6953 -125.883 l 1
EndSplineSet
Validated: 524329
EndChar

StartChar: dollar
Encoding: 36 36 2
Width: 297
GlyphClass: 2
Flags: W
LayerCount: 2
Fore
SplineSet
40.082 237.5 m 1
 277 1.39648 l 1
 277 30.3955 l 1
 245.957 79.958 168.014 203.352 149.498 237.146 c 1
 168.014 271.649 245.957 395.043 277 444.604 c 1
 277 473.604 l 1
 40.082 237.5 l 1
EndSplineSet
Validated: 524297
EndChar

StartChar: percent
Encoding: 37 37 3
Width: 297
GlyphClass: 2
Flags: W
LayerCount: 2
Fore
SplineSet
257 237.5 m 1
 20.082 473.603 l 1
 20.082 444.604 l 1
 51.125 395.042 129.068 271.648 147.584 237.854 c 1
 129.068 203.351 51.125 79.957 20.082 30.3945 c 1
 20.082 1.39551 l 1
 257 237.5 l 1
EndSplineSet
Validated: 524297
EndChar

StartChar: ampersand
Encoding: 38 38 4
Width: 752
GlyphClass: 2
Flags: W
HStem: -108.483 16.9996<255.159 397.692> 38.8926 43.3779<307.231 367.578> 78.0156 18.1699<528.39 586.976> 439.479 20.413<379.619 448.954> 562.518 16.998<360.069 486.592>
LayerCount: 2
Fore
SplineSet
277.759 38.8926 m 0xd8
 183.353 38.8926 153.584 128.197 178.247 234.51 c 0
 206.314 356.98 304.974 459.892 416.39 459.892 c 0
 448.884 459.892 471.826 446.146 483.753 422.925 c 1
 484.429 425.872 l 1
 591.592 451.388 l 1
 519.3 136.702 l 2
 516.747 124.795 521.95 96.1855 548.882 96.1855 c 0
 625.45 96.1855 669.478 175.447 678.92 241.532 c 0
 704.729 422.191 581.865 558.625 431.845 562.43 c 0
 429.538 562.487 427.218 562.518 424.882 562.518 c 0
 269.227 562.518 101.001 423.578 74.8447 240.501 c 0
 48.9697 59.3877 130.301 -86.6123 320.562 -91.3555 c 0
 323.954 -91.4404 327.394 -91.4834 330.882 -91.4834 c 0
 375.783 -91.4834 422.919 -80.3848 468.919 -58.3438 c 1
 498.845 -69.624 l 1
 448.845 -93.582 391.979 -108.483 330.882 -108.483 c 0
 326.624 -108.483 322.403 -108.432 318.223 -108.328 c 0
 78.1318 -102.342 9.69336 64.9365 34.9199 241.53 c 0
 60.7646 422.453 222.538 579.516 424.883 579.516 c 0
 428.01 579.516 431.125 579.477 434.227 579.396 c 0
 633.212 574.351 744.247 418.294 718.846 240.5 c 0
 710.286 180.586 676.371 78.0156 548.218 78.0156 c 0xb8
 535.451 78.0156 509.095 76.3145 474.224 67.8096 c 0
 440.204 59.3047 415.539 50.7998 401.931 43.9961 c 1
 397.679 47.3975 l 1
 409.644 99.5986 l 1
 380.277 58.9434 339.551 38.8926 277.759 38.8926 c 0xd8
464.89 340.632 m 1
 473.796 396.159 468.598 439.479 413.837 439.479 c 0
 361.105 439.479 321.133 380.794 294.768 268.528 c 0
 276.057 189.433 281.158 83.1201 348.349 82.2705 c 0xd8
 389.864 81.1924 410.872 119.421 424.806 165.755 c 1
 464.89 340.632 l 1
EndSplineSet
Validated: 524321
EndChar

StartChar: quotesingle
Encoding: 39 39 5
Width: 359
GlyphClass: 2
Flags: W
HStem: -91.4004 10<269.628 321> 849.267 10<269.628 321>
VStem: 60 142<-51.7129 819.58>
LayerCount: 2
Fore
SplineSet
321 -91.4004 m 1
 60 -91.4004 l 1
 60 859.267 l 1
 321 859.267 l 1
 321 849.267 l 1
 255 849.267 204 832.267 202 758.267 c 1
 202 9.59961 l 1
 204 -64.4004 255 -81.4004 321 -81.4004 c 1
 321 -91.4004 l 1
EndSplineSet
Validated: 524289
EndChar

StartChar: parenleft
Encoding: 40 40 6
Width: 295
GlyphClass: 2
Flags: W
HStem: 0 21G<242.326 284.75>
VStem: 10.75 274
LayerCount: 2
Fore
SplineSet
248.75 0 m 1
 10.75 741 l 1
 48 741 l 1
 284.75 0 l 1
 248.75 0 l 1
EndSplineSet
Validated: 524289
EndChar

StartChar: parenright
Encoding: 41 41 7
Width: 359
GlyphClass: 2
Flags: W
HStem: -91.4004 10<59 110.372> 849.267 10<59 110.372>
VStem: 178 141<-51.7129 9.59961 758.267 819.58>
LayerCount: 2
Fore
SplineSet
59 -91.4004 m 1
 319 -91.4004 l 1
 319 859.267 l 1
 59 859.267 l 1
 59 849.267 l 1
 125 849.267 176 832.267 178 758.267 c 1
 178 9.59961 l 1
 176 -64.4004 125 -81.4004 59 -81.4004 c 1
 59 -91.4004 l 1
EndSplineSet
Validated: 524297
EndChar

StartChar: asterisk
Encoding: 42 42 8
Width: 516
GlyphClass: 2
Flags: W
HStem: 565.82 17.231<296.708 335.557>
LayerCount: 2
Fore
SplineSet
344.355 565.82 m 1
 260.756 565.82 205.699 566.364 150.937 606.232 c 0
 111.094 635.236 116.367 677.312 134.46 701.765 c 0
 168.354 747.565 251.955 723.854 251.955 667.021 c 0
 251.955 627.055 272.488 583.051 335.557 583.051 c 1
 344.355 565.82 l 1
EndSplineSet
Validated: 524321
EndChar

StartChar: plus
Encoding: 43 43 9
Width: 193
GlyphClass: 2
Flags: W
HStem: 357.346 9.125<38.2617 68.9964>
LayerCount: 2
Fore
SplineSet
156.752 853.623 m 1
 124.832 881.441 105.834 850.002 95.3359 808.941 c 0
 61.9551 677.517 194.596 585.56 157.762 441.488 c 0
 144.435 389.232 124.241 369.415 97.6328 361.908 c 1
 124.241 354.401 144.435 334.584 157.762 282.328 c 0
 194.596 138.258 61.9551 46.3008 95.3359 -85.125 c 0
 105.834 -126.186 124.832 -157.627 156.752 -129.809 c 1
 159.488 -140.713 l 1
 107.146 -186.324 56.0293 -145.691 34.8066 -62.6855 c 0
 -9.37109 110.107 129.6 189.123 97.3359 315.322 c 0
 91.3125 338.869 82.1543 357.346 38.2617 357.346 c 1
 38.2617 366.471 l 1
 82.1543 366.471 91.3125 384.946 97.3359 408.493 c 0
 129.6 534.692 -9.37109 613.708 34.8066 786.501 c 0
 56.0293 869.507 107.146 910.14 159.488 864.527 c 1
 156.752 853.623 l 1
EndSplineSet
Validated: 524321
EndChar

StartChar: hyphen
Encoding: 45 45 10
Width: 84
GlyphClass: 2
Flags: W
LayerCount: 2
Fore
SplineSet
57.7021 -117.917 m 1
 58.2764 861.271 l 1
 29.8203 861.725 l 1
 30.3906 -117.959 l 1
 57.7021 -117.917 l 1
EndSplineSet
Validated: 524289
EndChar

StartChar: period
Encoding: 46 46 11
Width: 193
GlyphClass: 2
Flags: W
HStem: 357.346 9.125<125.298 156.032>
LayerCount: 2
Fore
SplineSet
37.543 853.623 m 1
 69.4629 881.441 88.4609 850.002 98.959 808.941 c 0
 132.34 677.517 -0.300781 585.56 36.5332 441.488 c 0
 49.8594 389.232 70.0527 369.415 96.6611 361.908 c 1
 70.0527 354.401 49.8594 334.584 36.5332 282.328 c 0
 -0.300781 138.258 132.34 46.3008 98.959 -85.125 c 0
 88.4609 -126.186 69.4629 -157.627 37.543 -129.809 c 1
 34.8066 -140.713 l 1
 87.1484 -186.324 138.266 -145.691 159.487 -62.6855 c 0
 203.665 110.107 64.6943 189.123 96.958 315.322 c 0
 102.981 338.869 112.141 357.346 156.032 357.346 c 1
 156.032 366.471 l 1
 112.141 366.471 102.981 384.946 96.958 408.493 c 0
 64.6943 534.692 203.665 613.708 159.487 786.501 c 0
 138.266 869.507 87.1484 910.14 34.8066 864.527 c 1
 37.543 853.623 l 1
EndSplineSet
Validated: 524329
EndChar

StartChar: slash
Encoding: 47 47 12
Width: 613
GlyphClass: 2
Flags: W
LayerCount: 2
Fore
SplineSet
419.527 653.271 m 1
 436.086 618.195 417.372 597.318 392.932 585.781 c 0
 314.703 549.099 259.966 694.857 174.209 654.381 c 0
 123.173 630.291 100.371 573.382 124.124 523.062 c 1
 129.556 527.384 l 1
 111.663 565.001 140.554 581.361 154.57 587.979 c 0
 229.688 623.435 276.722 470.719 379.574 519.266 c 0
 428.983 542.588 453.168 598.761 426.019 656.279 c 1
 419.527 653.271 l 1
EndSplineSet
Validated: 524329
EndChar

StartChar: zero
Encoding: 48 48 13
Width: 213
GlyphClass: 2
Flags: W
HStem: 595.949 238.964
LayerCount: 2
Fore
SplineSet
117.407 595.949 m 1
 105.178 610.235 l 1
 128.519 666.92 96.5664 701.659 60.6445 716.451 c 0
 9.56445 737.484 19.1934 821.401 72.9023 834.913 c 0
 101.576 842.126 141.349 831.293 152.669 784.748 c 0
 168.233 720.772 148.348 671.088 117.407 595.949 c 1
EndSplineSet
Validated: 524321
EndChar

StartChar: one
Encoding: 49 49 14
Width: 282
GlyphClass: 2
Flags: W
HStem: 639.999 175.001<85.2343 195.626>
VStem: 58 166<14.5601 298.887 668.918 785.931>
LayerCount: 2
Fore
SplineSet
153 608 m 1
 132 608 l 1
 132 608 58 249 58 85 c 0
 58 40 79 -15 141 -15 c 0
 203 -15 224 40 224 85 c 0
 224 249 146 600 153 608 c 1
58 726.999 m 0
 58 679.999 92 639.999 140 639.999 c 0
 188 639.999 224 679.999 224 726.999 c 0
 224 775 188 815 140 815 c 0
 92 815 58 775 58 726.999 c 0
EndSplineSet
Validated: 524329
EndChar

StartChar: two
Encoding: 50 50 15
Width: 543
GlyphClass: 2
Flags: W
HStem: 585.413 111.983<155.072 239.494 321.932 406.353>
VStem: 144.417 106.224<596.713 685.989> 311.276 106.224<596.712 685.988>
LayerCount: 2
Fore
SplineSet
144.417 641.726 m 0
 144.417 671.622 166.173 699.119 196.888 697.396 c 1
 227.604 697.396 250.641 671.801 250.641 641.726 c 0
 250.641 611.009 227.604 585.413 196.888 585.413 c 0
 166.173 585.413 144.417 611.009 144.417 641.726 c 0
311.276 641.725 m 0
 311.276 671.62 333.033 699.118 363.748 697.395 c 1
 394.464 697.395 417.5 671.8 417.5 641.725 c 0
 417.5 611.008 394.464 585.412 363.748 585.412 c 0
 333.033 585.412 311.276 611.008 311.276 641.725 c 0
EndSplineSet
Validated: 524321
EndChar

StartChar: three
Encoding: 51 51 16
Width: 479
GlyphClass: 2
Flags: W
LayerCount: 2
Fore
SplineSet
60.082 237.5 m 1
 236.415 410.79 l 1
 236.415 381.791 l 1
 205.371 332.229 188.014 271.648 169.497 237.854 c 1
 188.014 204.058 205.371 143.479 236.415 93.916 c 1
 236.415 64.917 l 1
 60.082 237.5 l 1
242.667 237.499 m 1
 419 410.79 l 1
 419 381.791 l 1
 387.956 332.229 370.599 271.648 352.082 237.854 c 1
 370.598 204.058 387.955 143.479 419 93.915 c 1
 419 64.916 l 1
 242.667 237.499 l 1
EndSplineSet
Validated: 524289
EndChar

StartChar: four
Encoding: 52 52 17
Width: 516
GlyphClass: 2
Flags: W
HStem: 565.82 17.231<143.259 182.107>
LayerCount: 2
Fore
SplineSet
134.459 565.82 m 1
 218.06 565.82 273.115 566.364 327.879 606.232 c 0
 367.722 635.236 362.447 677.312 344.354 701.765 c 0
 310.461 747.565 226.859 723.854 226.859 667.021 c 0
 226.859 627.055 206.326 583.051 143.259 583.051 c 1
 134.459 565.82 l 1
EndSplineSet
Validated: 524329
EndChar

StartChar: five
Encoding: 53 53 18
Width: 479
GlyphClass: 2
Flags: W
LayerCount: 2
Fore
SplineSet
419 237.5 m 1
 242.667 410.79 l 1
 242.667 381.791 l 1
 273.711 332.229 291.068 271.648 309.585 237.854 c 1
 291.068 204.058 273.711 143.479 242.667 93.916 c 1
 242.667 64.917 l 1
 419 237.5 l 1
236.415 237.499 m 1
 60.082 410.79 l 1
 60.082 381.791 l 1
 91.126 332.229 108.483 271.648 127 237.854 c 1
 108.484 204.058 91.127 143.479 60.082 93.915 c 1
 60.082 64.916 l 1
 236.415 237.499 l 1
EndSplineSet
Validated: 524297
EndChar

StartChar: six
Encoding: 54 54 19
Width: 835
GlyphClass: 2
Flags: W
HStem: 0 8.25<10.0469 35.5333 303.392 323.545 458.68 476.728> 246 16<246.67 470.096> 878 17.23<482.899 521.747>
LayerCount: 2
Fore
SplineSet
530.546 878 m 1
 446.946 878 391.89 878.544 337.127 918.412 c 0
 297.284 947.416 302.557 989.492 320.65 1013.94 c 0
 354.545 1059.75 438.146 1036.03 438.146 979.201 c 0
 438.146 939.234 458.679 895.23 521.747 895.23 c 1
 530.546 878 l 1
728.547 90.665 m 2
 752.635 29.833 825.68 8 825.68 8 c 1
 825.68 0 l 1
 732.677 12.5596 552.677 11.5713 458.68 0 c 1
 458.68 8 l 1
 458.68 8 564.916 24.5723 540.545 82.668 c 1
 476.382 246 l 1
 240.407 246 l 1
 211.047 170.997 l 2
 154.353 26.1641 323.545 8 323.545 8 c 1
 323.545 0 l 1
 232.046 9.58594 103.992 11.7979 10 0 c 1
 10.0469 8.25 l 1
 121.88 11 195.047 178.997 195.047 178.997 c 1
 349.012 563.036 l 1
 335.714 586.07 321.912 597.991 301.621 597.991 c 1
 298.812 603.294 l 1
 342.795 635.63 350.978 655.332 378.547 698 c 0
 399.547 730.5 433.894 815.608 433.894 815.608 c 1
 440.547 818 l 1
 728.547 90.665 l 2
357.863 546.053 m 1
 246.67 262 l 1
 470.096 262 l 1
 362.104 536.903 l 2
 360.677 540.073 359.265 543.123 357.863 546.053 c 1
EndSplineSet
Validated: 524321
EndChar

StartChar: seven
Encoding: 55 55 20
Width: 835
GlyphClass: 2
Flags: W
HStem: 0 8.25<10.0469 35.5333 303.392 323.545 458.68 476.728> 246 16<246.67 470.096> 878 17.23<331.347 370.195>
LayerCount: 2
Fore
SplineSet
322.547 878 m 1
 406.148 878 461.203 878.544 515.967 918.412 c 0
 555.81 947.416 550.536 989.492 532.443 1013.94 c 0
 498.549 1059.75 414.947 1036.03 414.947 979.201 c 0
 414.947 939.234 394.414 895.23 331.347 895.23 c 1
 322.547 878 l 1
728.547 90.665 m 2
 752.635 29.833 825.68 8 825.68 8 c 1
 825.68 0 l 1
 732.677 12.5596 552.677 11.5713 458.68 0 c 1
 458.68 8 l 1
 458.68 8 564.916 24.5723 540.545 82.668 c 1
 476.382 246 l 1
 240.407 246 l 1
 211.047 170.997 l 2
 154.353 26.1641 323.545 8 323.545 8 c 1
 323.545 0 l 1
 232.046 9.58594 103.992 11.7979 10 0 c 1
 10.0469 8.25 l 1
 121.88 11 195.047 178.997 195.047 178.997 c 1
 349.012 563.036 l 1
 335.714 586.07 321.912 597.991 301.621 597.991 c 1
 298.812 603.294 l 1
 342.795 635.63 350.978 655.332 378.547 698 c 0
 399.547 730.5 433.894 815.608 433.894 815.608 c 1
 440.547 818 l 1
 728.547 90.665 l 2
357.863 546.053 m 1
 246.67 262 l 1
 470.096 262 l 1
 362.104 536.903 l 2
 360.677 540.073 359.265 543.123 357.863 546.053 c 1
EndSplineSet
Validated: 524329
EndChar

StartChar: eight
Encoding: 56 56 21
Width: 835
GlyphClass: 2
Flags: W
HStem: 0 8.25<10.0469 35.5333 303.392 323.545 458.68 476.728> 246 16<246.67 470.096>
LayerCount: 2
Fore
SplineSet
584.484 878 m 1
 613.484 878 l 1
 476.4 1033 l 1
 440.568 1033 l 1
 440.547 1033 l 1
 440.525 1033 l 1
 404.692 1033 l 1
 267.609 878 l 1
 296.609 878 l 1
 346.172 909.044 406.751 926.401 440.546 944.917 c 1
 474.342 926.401 534.921 909.044 584.484 878 c 1
728.547 90.665 m 2
 752.635 29.833 825.68 8 825.68 8 c 1
 825.68 0 l 1
 732.677 12.5596 552.677 11.5713 458.68 0 c 1
 458.68 8 l 1
 458.68 8 564.916 24.5723 540.545 82.668 c 1
 476.382 246 l 1
 240.407 246 l 1
 211.047 170.997 l 2
 154.353 26.1641 323.545 8 323.545 8 c 1
 323.545 0 l 1
 232.046 9.58594 103.992 11.7979 10 0 c 1
 10.0469 8.25 l 1
 121.88 11 195.047 178.997 195.047 178.997 c 1
 349.012 563.036 l 1
 335.714 586.07 321.912 597.991 301.621 597.991 c 1
 298.812 603.294 l 1
 342.795 635.63 350.978 655.332 378.547 698 c 0
 399.547 730.5 433.894 815.608 433.894 815.608 c 1
 440.547 818 l 1
 728.547 90.665 l 2
357.863 546.053 m 1
 246.67 262 l 1
 470.096 262 l 1
 362.104 536.903 l 2
 360.677 540.073 359.265 543.123 357.863 546.053 c 1
EndSplineSet
Validated: 524329
EndChar

StartChar: nine
Encoding: 57 57 22
Width: 835
GlyphClass: 2
Flags: W
HStem: 0 8.25<10.0469 35.5333 303.392 323.545 458.68 476.728> 246 16<246.67 470.096>
LayerCount: 2
Fore
SplineSet
584.059 1021.63 m 1
 600.618 986.555 581.902 965.679 557.462 954.142 c 0
 479.233 917.459 424.496 1063.22 338.739 1022.74 c 0
 287.703 998.651 264.901 941.742 288.654 891.422 c 1
 294.086 895.744 l 1
 276.193 933.361 305.084 949.721 319.101 956.339 c 0
 394.219 991.794 441.252 839.078 544.105 887.625 c 0
 593.514 910.947 617.699 967.12 590.55 1024.64 c 1
 584.059 1021.63 l 1
728.547 90.665 m 2
 752.635 29.833 825.68 8 825.68 8 c 1
 825.68 0 l 1
 732.677 12.5596 552.677 11.5713 458.68 0 c 1
 458.68 8 l 1
 458.68 8 564.916 24.5723 540.545 82.668 c 1
 476.382 246 l 1
 240.407 246 l 1
 211.047 170.997 l 2
 154.353 26.1641 323.545 8 323.545 8 c 1
 323.545 0 l 1
 232.046 9.58594 103.992 11.7979 10 0 c 1
 10.0469 8.25 l 1
 121.88 11 195.047 178.997 195.047 178.997 c 1
 349.012 563.036 l 1
 335.714 586.07 321.912 597.991 301.621 597.991 c 1
 298.812 603.294 l 1
 342.795 635.63 350.978 655.332 378.547 698 c 0
 399.547 730.5 433.894 815.608 433.894 815.608 c 1
 440.547 818 l 1
 728.547 90.665 l 2
357.863 546.053 m 1
 246.67 262 l 1
 470.096 262 l 1
 362.104 536.903 l 2
 360.677 540.073 359.265 543.123 357.863 546.053 c 1
EndSplineSet
Validated: 524329
EndChar

StartChar: colon
Encoding: 58 58 23
Width: 835
GlyphClass: 2
Flags: W
HStem: 0 8.25<10.0469 35.5333 303.392 323.545 458.68 476.728> 246 16<246.67 470.096> 878 111.983<314.66 399.082 481.52 565.941>
VStem: 304.005 106.224<889.3 978.576> 470.864 106.224<889.3 978.576>
LayerCount: 2
Fore
SplineSet
304.005 934.312 m 0
 304.005 964.209 325.761 991.707 356.476 989.983 c 1
 387.192 989.983 410.229 964.388 410.229 934.312 c 0
 410.229 903.596 387.192 878 356.476 878 c 0
 325.761 878 304.005 903.596 304.005 934.312 c 0
470.864 934.312 m 0
 470.864 964.209 492.621 991.707 523.336 989.983 c 1
 554.052 989.983 577.088 964.388 577.088 934.312 c 0
 577.088 903.596 554.052 878 523.336 878 c 0
 492.621 878 470.864 903.596 470.864 934.312 c 0
728.547 90.665 m 2
 752.635 29.833 825.68 8 825.68 8 c 1
 825.68 0 l 1
 732.677 12.5596 552.677 11.5713 458.68 0 c 1
 458.68 8 l 1
 458.68 8 564.916 24.5723 540.545 82.668 c 1
 476.382 246 l 1
 240.407 246 l 1
 211.047 170.997 l 2
 154.353 26.1641 323.545 8 323.545 8 c 1
 323.545 0 l 1
 232.046 9.58594 103.992 11.7979 10 0 c 1
 10.0469 8.25 l 1
 121.88 11 195.047 178.997 195.047 178.997 c 1
 349.012 563.036 l 1
 335.714 586.07 321.912 597.991 301.621 597.991 c 1
 298.812 603.294 l 1
 342.795 635.63 350.978 655.332 378.547 698 c 0
 399.547 730.5 433.894 815.608 433.894 815.608 c 1
 440.547 818 l 1
 728.547 90.665 l 2
357.863 546.053 m 1
 246.67 262 l 1
 470.096 262 l 1
 362.104 536.903 l 2
 360.677 540.073 359.265 543.123 357.863 546.053 c 1
EndSplineSet
Validated: 524321
EndChar

StartChar: semicolon
Encoding: 59 59 24
Width: 1284
GlyphClass: 2
Flags: W
HStem: 0.000976562 16.9853<823.193 959.095> 0.000976562 8<9.66016 32.2324 305.59 323.157 519.66 535.662> 389.913 16.088<816.66 873.224> 782.887 16.989<788.534 937.341> 792.501 8<521.159 537.051>
VStem: 612.362 174.751<40.9317 85.001 715.501 762.972> 1023.66 9.33002<202.912 243.405 552.508 593.001>
LayerCount: 2
Fore
SplineSet
786.696 793 m 0xb6
 759.506 789.858 730.098 786.801 695.659 786.562 c 0
 631.7 786.536 567.766 791.081 521.159 800.501 c 1
 521.159 792.501 l 1
 521.159 792.501 548.698 788.366 573.805 774.48 c 1
 209.66 178.999 l 1
 209.66 178.999 121.494 11.002 9.66016 8.25195 c 1
 9.61328 0.000976562 l 1
 103.604 11.7988 231.659 9.58691 323.157 0.000976562 c 1
 323.157 8.00098 l 1
 323.157 8.00098 167.533 26.7373 225.659 170.999 c 1
 270.808 246.002 l 1
 612.298 246.002 l 1
 611.66 85.001 l 2
 611.51 22.001 519.66 8.00098 519.66 8.00098 c 1
 519.66 0.000976562 l 1x6e
 872.16 0.000976562 l 1xa6
 1211.66 0.000976562 l 1x66
 1254 282.994 l 1
 1244.66 282.994 l 1
 1244.66 282.994 1208.66 16.9863 872.16 16.9863 c 0
 846.66 16.9863 786.377 20.7441 786.66 85.001 c 2
 787.091 389.913 l 1
 816.66 389.913 l 1
 816.66 389.913 1023.66 389.912 1023.66 202.912 c 1
 1032.99 202.912 l 1
 1032.99 593.001 l 1
 1023.66 593.001 l 1
 1023.66 406.001 816.66 406.001 816.66 406.001 c 1
 787.113 406.001 l 1
 787.637 776.062 l 1
 792.516 777.375 816.195 782.887 870.041 782.887 c 0
 1083.98 782.887 1202.66 568.001 1202.66 568.001 c 1
 1212.06 568.001 l 1
 1134.83 771.501 l 1
 1134.83 771.501 1003.16 799.876 870.041 799.876 c 1
 831.084 798.721 820.61 796.686 787.66 793.104 c 1
 787.66 793.112 l 2
 787.339 793.075 787.018 793.038 786.696 793 c 0xb6
584.779 767.597 m 1
 601.164 755.904 614.254 739.157 614.16 715.501 c 2
 612.362 262.002 l 1
 280.439 262.002 l 1
 584.779 767.597 l 1
EndSplineSet
Validated: 524329
EndChar

StartChar: equal
Encoding: 61 61 25
Width: 776
GlyphClass: 2
Flags: W
HStem: -15 17<359.925 480.026> 798 17<368.537 477.202>
VStem: 28 189<271.147 537.068> 423.022 13.956<-45.9889 -14.0908> 702.5 8.5<-4.01074 16.0269 278.178 293.833 489 519.322 778.496 803>
LayerCount: 2
Fore
SplineSet
436.978 -6.96289 m 1
 423.022 -14.0908 l 1
 423.022 -65.1758 387.378 -81.8066 355.004 -81.8066 c 0
 308.97 -81.8066 289.763 -149.524 326.863 -176.979 c 0
 346.668 -191.635 386.81 -194.183 409.244 -163.633 c 0
 438.603 -123.651 436.978 -74.6787 436.978 -6.96289 c 1
420 815 m 0
 344 815 29.0498 717.689 28 406 c 1
 29.1592 145.176 245 -15 420 -15 c 0
 547 -15 618 64 665 64 c 0
 693.5 64 702.565 -4.01074 702.565 -4.01074 c 1
 711 -4.01074 l 1
 711.166 293.833 l 1
 702.565 293.87 l 1
 702.565 293.87 650 2 419 2 c 0
 212 2 217 233 217 411 c 0
 217 548 217 798 420 798 c 0
 605 798 702.5 566 702.5 489 c 1
 711 489 l 1
 711 803 l 1
 702.625 803 l 1
 702.625 803 702.375 746 660 746 c 0
 625.875 746 549.5 815 420 815 c 0
EndSplineSet
Validated: 524325
EndChar

StartChar: A
Encoding: 65 65 26
Width: 790
GlyphClass: 2
Flags: W
HStem: 0 16.9854<329.533 465.435> 0 8<26 42.0329> 389.912 16.088<323 379.564> 782.886 16.989<293.728 441.682> 792.5 8<25.5 41.3917> 874.989 17.23<433.853 472.701>
VStem: 117.5 175.5<39.2837 85 715.5 761.275> 530 9.33301<202.911 243.404 552.507 593>
LayerCount: 2
Fore
SplineSet
481.5 874.989 m 1x27
 397.9 874.989 342.844 875.533 288.081 915.401 c 0
 248.238 944.405 253.511 986.481 271.604 1010.93 c 0
 305.499 1056.73 389.1 1033.02 389.1 976.19 c 0
 389.1 936.223 409.633 892.219 472.701 892.219 c 1
 481.5 874.989 l 1x27
374.381 799.875 m 1xb7
 335.047 798.709 324.75 796.646 291.037 793 c 1
 291.037 792.885 l 1
 264.08 789.784 234.017 786.796 200 786.561 c 0
 136.041 786.535 72.1055 791.08 25.5 800.5 c 1
 25.5 792.5 l 1
 25.5 792.5 117.75 778.5 117.5 715.5 c 2
 118 85 l 2
 118.05 22 26 8 26 8 c 1
 26 0 l 1x6f
 378.5 0 l 1xa7
 718.002 0 l 1x67
 760.341 282.993 l 1
 751 282.993 l 1
 751 282.993 715 16.9854 378.5 16.9854 c 0
 353 16.9854 292.717 20.7432 293 85 c 2
 293 389.912 l 1
 323 389.912 l 1
 323 389.912 530 389.911 530 202.911 c 1
 539.333 202.911 l 1
 539.333 593 l 1
 530 593 l 1
 530 406 323 406 323 406 c 1
 293 406 l 1
 293 776.324 l 1
 299.655 777.984 323.604 782.886 374.381 782.886 c 0
 588.328 782.886 706.999 568 706.999 568 c 1
 716.398 568 l 1
 639.167 771.5 l 1
 639.167 771.5 507.5 799.875 374.381 799.875 c 1xb7
EndSplineSet
Validated: 524329
EndChar

StartChar: B
Encoding: 66 66 27
Width: 790
GlyphClass: 2
Flags: W
HStem: 0 16.9854<329.533 465.435> 0 8<26 42.0329> 389.912 16.088<323 379.564> 782.886 16.989<293.728 441.682> 792.5 8<25.5 41.3917> 874.989 17.23<274.3 313.148>
VStem: 117.5 175.5<39.2837 85 715.5 761.275> 530 9.33301<202.911 243.404 552.507 593>
LayerCount: 2
Fore
SplineSet
265.5 874.989 m 1x27
 349.101 874.989 404.156 875.533 458.92 915.401 c 0
 498.763 944.405 493.489 986.481 475.396 1010.93 c 0
 441.502 1056.73 357.9 1033.02 357.9 976.19 c 0
 357.9 936.223 337.367 892.219 274.3 892.219 c 1
 265.5 874.989 l 1x27
374.381 799.875 m 1xb7
 335.047 798.709 324.75 796.646 291.037 793 c 1
 291.037 792.885 l 1
 264.08 789.784 234.017 786.796 200 786.561 c 0
 136.041 786.535 72.1055 791.08 25.5 800.5 c 1
 25.5 792.5 l 1
 25.5 792.5 117.75 778.5 117.5 715.5 c 2
 118 85 l 2
 118.05 22 26 8 26 8 c 1
 26 0 l 1x6f
 378.5 0 l 1xa7
 718.002 0 l 1x67
 760.341 282.993 l 1
 751 282.993 l 1
 751 282.993 715 16.9854 378.5 16.9854 c 0
 353 16.9854 292.717 20.7432 293 85 c 2
 293 389.912 l 1
 323 389.912 l 1
 323 389.912 530 389.911 530 202.911 c 1
 539.333 202.911 l 1
 539.333 593 l 1
 530 593 l 1
 530 406 323 406 323 406 c 1
 293 406 l 1
 293 776.324 l 1
 299.655 777.984 323.604 782.886 374.381 782.886 c 0
 588.328 782.886 706.999 568 706.999 568 c 1
 716.398 568 l 1
 639.167 771.5 l 1
 639.167 771.5 507.5 799.875 374.381 799.875 c 1xb7
EndSplineSet
Validated: 524329
EndChar

StartChar: C
Encoding: 67 67 28
Width: 790
GlyphClass: 2
Flags: W
HStem: 0 16.9854<329.533 465.435> 0 8<26 42.0329> 389.912 16.088<323 379.564> 782.886 16.989<293.728 441.682> 792.5 8<25.5 41.3917>
VStem: 117.5 175.5<39.2837 85 715.5 761.275> 530 9.33301<202.911 243.404 552.507 593>
LayerCount: 2
Fore
SplineSet
511.438 874.989 m 1x26
 540.438 874.989 l 1
 403.354 1029.99 l 1
 367.522 1029.99 l 1
 367.501 1029.99 l 1
 367.479 1029.99 l 1
 331.646 1029.99 l 1
 194.562 874.989 l 1
 223.562 874.989 l 1
 273.126 906.033 333.705 923.39 367.5 941.906 c 1
 401.296 923.39 461.875 906.033 511.438 874.989 c 1x26
374.381 799.875 m 1xb6
 335.047 798.709 324.75 796.646 291.037 793 c 1
 291.037 792.885 l 1
 264.08 789.784 234.017 786.796 200 786.561 c 0
 136.041 786.535 72.1055 791.08 25.5 800.5 c 1
 25.5 792.5 l 1
 25.5 792.5 117.75 778.5 117.5 715.5 c 2
 118 85 l 2
 118.05 22 26 8 26 8 c 1
 26 0 l 1x6e
 378.5 0 l 1xa6
 718.002 0 l 1x66
 760.341 282.993 l 1
 751 282.993 l 1
 751 282.993 715 16.9854 378.5 16.9854 c 0
 353 16.9854 292.717 20.7432 293 85 c 2
 293 389.912 l 1
 323 389.912 l 1
 323 389.912 530 389.911 530 202.911 c 1
 539.333 202.911 l 1
 539.333 593 l 1
 530 593 l 1
 530 406 323 406 323 406 c 1
 293 406 l 1
 293 776.324 l 1
 299.655 777.984 323.604 782.886 374.381 782.886 c 0
 588.328 782.886 706.999 568 706.999 568 c 1
 716.398 568 l 1
 639.167 771.5 l 1
 639.167 771.5 507.5 799.875 374.381 799.875 c 1xb6
EndSplineSet
Validated: 524329
EndChar

StartChar: D
Encoding: 68 68 29
Width: 790
GlyphClass: 2
Flags: W
HStem: 0 16.9854<329.533 465.435> 0 8<26 42.0329> 389.912 16.088<323 379.564> 782.886 16.989<293.728 441.682> 792.5 8<25.5 41.3917> 876.989 111.983<232.614 317.036 399.473 483.895>
VStem: 117.5 175.5<39.2837 85 715.5 761.275> 221.959 106.224<888.289 977.565> 388.817 106.224<888.289 977.565> 530 9.33301<202.911 243.404 552.507 593>
LayerCount: 2
Fore
SplineSet
221.959 933.302 m 0x25c0
 221.959 963.198 243.715 990.696 274.43 988.972 c 1
 305.146 988.972 328.183 963.377 328.183 933.302 c 0
 328.183 902.585 305.146 876.989 274.43 876.989 c 0
 243.715 876.989 221.959 902.585 221.959 933.302 c 0x25c0
388.817 933.302 m 0
 388.817 963.198 410.574 990.696 441.289 988.972 c 1
 472.006 988.972 495.041 963.377 495.041 933.302 c 0
 495.041 902.585 472.006 876.989 441.289 876.989 c 0
 410.574 876.989 388.817 902.585 388.817 933.302 c 0
374.381 799.875 m 1xb6c0
 335.047 798.709 324.75 796.646 291.037 793 c 1
 291.037 792.885 l 1
 264.08 789.784 234.017 786.796 200 786.561 c 0
 136.041 786.535 72.1055 791.08 25.5 800.5 c 1
 25.5 792.5 l 1
 25.5 792.5 117.75 778.5 117.5 715.5 c 2
 118 85 l 2
 118.05 22 26 8 26 8 c 1
 26 0 l 1x6ec0
 378.5 0 l 1xa6c0
 718.002 0 l 1x66c0
 760.341 282.993 l 1
 751 282.993 l 1
 751 282.993 715 16.9854 378.5 16.9854 c 0
 353 16.9854 292.717 20.7432 293 85 c 2
 293 389.912 l 1
 323 389.912 l 1
 323 389.912 530 389.911 530 202.911 c 1
 539.333 202.911 l 1
 539.333 593 l 1
 530 593 l 1
 530 406 323 406 323 406 c 1
 293 406 l 1
 293 776.324 l 1
 299.655 777.984 323.604 782.886 374.381 782.886 c 0
 588.328 782.886 706.999 568 706.999 568 c 1
 716.398 568 l 1
 639.167 771.5 l 1
 639.167 771.5 507.5 799.875 374.381 799.875 c 1xb6c0
EndSplineSet
Validated: 524329
EndChar

StartChar: E
Encoding: 69 69 30
Width: 790
GlyphClass: 2
Flags: W
HStem: 0 16.9854<329.533 465.435> 0 8<26 42.0329> 389.912 16.088<323 379.564> 782.886 16.989<293.728 441.682> 792.5 8<25.5 41.3917> 874.989 17.23<433.853 472.701>
VStem: 117.5 175.5<39.2837 85 715.5 761.275> 530 9.33301<202.911 243.404 552.507 593>
LayerCount: 2
Fore
SplineSet
481.5 874.989 m 1x27
 397.9 874.989 342.844 875.533 288.081 915.401 c 0
 248.238 944.405 253.511 986.481 271.604 1010.93 c 0
 305.499 1056.73 389.1 1033.02 389.1 976.19 c 0
 389.1 936.223 409.633 892.219 472.701 892.219 c 1
 481.5 874.989 l 1x27
374.381 799.875 m 1xb7
 335.047 798.709 324.75 796.646 291.037 793 c 1
 291.037 792.885 l 1
 264.08 789.784 234.017 786.796 200 786.561 c 0
 136.041 786.535 72.1055 791.08 25.5 800.5 c 1
 25.5 792.5 l 1
 25.5 792.5 117.75 778.5 117.5 715.5 c 2
 118 85 l 2
 118.05 22 26 8 26 8 c 1
 26 0 l 1x6f
 378.5 0 l 1xa7
 718.002 0 l 1x67
 760.341 282.993 l 1
 751 282.993 l 1
 751 282.993 715 16.9854 378.5 16.9854 c 0
 353 16.9854 292.717 20.7432 293 85 c 2
 293 389.912 l 1
 323 389.912 l 1
 323 389.912 530 389.911 530 202.911 c 1
 539.333 202.911 l 1
 539.333 593 l 1
 530 593 l 1
 530 406 323 406 323 406 c 1
 293 406 l 1
 293 776.324 l 1
 299.655 777.984 323.604 782.886 374.381 782.886 c 0
 588.328 782.886 706.999 568 706.999 568 c 1
 716.398 568 l 1
 639.167 771.5 l 1
 639.167 771.5 507.5 799.875 374.381 799.875 c 1xb7
EndSplineSet
Validated: 524329
EndChar

StartChar: F
Encoding: 70 70 31
Width: 412
GlyphClass: 2
Flags: W
HStem: 0 8<26 39.6675 372.347 386> 792 8<26 39.7231 372.411 386> 874.989 17.23<266.352 305.2>
VStem: 119 174<40.4903 760.775>
LayerCount: 2
Fore
SplineSet
314 874.989 m 1
 230.399 874.989 175.344 875.533 120.58 915.401 c 0
 80.7373 944.405 86.0107 986.481 104.104 1010.93 c 0
 137.998 1056.73 221.6 1033.02 221.6 976.19 c 0
 221.6 936.223 242.133 892.219 305.2 892.219 c 1
 314 874.989 l 1
119 85 m 2
 119 715 l 2
 119 778 26 792 26 792 c 1
 26 800 l 1
 120 781 293 778 386 800 c 1
 386 792 l 1
 386 792 293 778 293 715 c 2
 293 85 l 2
 293 21 386 8 386 8 c 1
 386 0 l 1
 292.522 20.9863 119.588 18.9883 26 0 c 1
 26 8 l 1
 26 8 119 22 119 85 c 2
EndSplineSet
Validated: 524321
EndChar

StartChar: G
Encoding: 71 71 32
Width: 412
GlyphClass: 2
Flags: W
HStem: 0 8<26 39.6675 372.347 386> 792 8<26 39.7231 372.411 386> 874.989 17.23<114.8 153.648>
VStem: 119 174<40.4903 760.775>
LayerCount: 2
Fore
SplineSet
106 874.989 m 1
 189.601 874.989 244.656 875.533 299.42 915.401 c 0
 339.263 944.405 333.989 986.481 315.896 1010.93 c 0
 282.002 1056.73 198.4 1033.02 198.4 976.19 c 0
 198.4 936.223 177.867 892.219 114.8 892.219 c 1
 106 874.989 l 1
119 85 m 2
 119 715 l 2
 119 778 26 792 26 792 c 1
 26 800 l 1
 120 781 293 778 386 800 c 1
 386 792 l 1
 386 792 293 778 293 715 c 2
 293 85 l 2
 293 21 386 8 386 8 c 1
 386 0 l 1
 292.522 20.9863 119.588 18.9883 26 0 c 1
 26 8 l 1
 26 8 119 22 119 85 c 2
EndSplineSet
Validated: 524329
EndChar

StartChar: H
Encoding: 72 72 33
Width: 412
GlyphClass: 2
Flags: W
HStem: 0 8<26 39.6675 372.347 386> 792 8<26 39.7231 372.411 386>
VStem: 119 174<40.4903 760.775>
LayerCount: 2
Fore
SplineSet
349.938 874.989 m 1
 378.938 874.989 l 1
 241.854 1029.99 l 1
 206.021 1029.99 l 1
 206.001 1029.99 l 1
 205.979 1029.99 l 1
 170.146 1029.99 l 1
 33.0625 874.989 l 1
 62.0625 874.989 l 1
 111.626 906.033 172.204 923.39 205.999 941.906 c 1
 239.796 923.39 300.375 906.033 349.938 874.989 c 1
119 85 m 2
 119 715 l 2
 119 778 26 792 26 792 c 1
 26 800 l 1
 120 781 293 778 386 800 c 1
 386 792 l 1
 386 792 293 778 293 715 c 2
 293 85 l 2
 293 21 386 8 386 8 c 1
 386 0 l 1
 292.522 20.9863 119.588 18.9883 26 0 c 1
 26 8 l 1
 26 8 119 22 119 85 c 2
EndSplineSet
Validated: 524329
EndChar

StartChar: I
Encoding: 73 73 34
Width: 412
GlyphClass: 2
Flags: W
HStem: 0 8<26 39.6675 372.347 386> 792 8<26 39.7231 372.411 386> 874.989 111.983<80.1144 164.536 246.973 331.395>
VStem: 69.459 106.224<886.289 975.565> 119 174<40.4903 760.775> 236.317 106.224<886.289 975.565>
LayerCount: 2
Fore
SplineSet
69.459 931.302 m 0xf0
 69.459 961.198 91.2148 988.696 121.93 986.972 c 1
 152.646 986.972 175.683 961.377 175.683 931.302 c 0
 175.683 900.585 152.646 874.989 121.93 874.989 c 0
 91.2148 874.989 69.459 900.585 69.459 931.302 c 0xf0
236.317 931.302 m 0xe4
 236.317 961.198 258.074 988.696 288.789 986.972 c 1
 319.506 986.972 342.541 961.377 342.541 931.302 c 0
 342.541 900.585 319.506 874.989 288.789 874.989 c 0
 258.074 874.989 236.317 900.585 236.317 931.302 c 0xe4
119 85 m 2xe8
 119 715 l 2
 119 778 26 792 26 792 c 1
 26 800 l 1
 120 781 293 778 386 800 c 1
 386 792 l 1
 386 792 293 778 293 715 c 2
 293 85 l 2
 293 21 386 8 386 8 c 1
 386 0 l 1
 292.522 20.9863 119.588 18.9883 26 0 c 1
 26 8 l 1
 26 8 119 22 119 85 c 2xe8
EndSplineSet
Validated: 524321
EndChar

StartChar: J
Encoding: 74 74 35
Width: 412
GlyphClass: 2
Flags: W
HStem: 0 8<26 39.6675 372.347 386> 792 8<26 39.7231 372.411 386> 874.989 17.23<266.352 305.2>
VStem: 119 174<40.4903 760.775>
LayerCount: 2
Fore
SplineSet
314 874.989 m 1
 230.399 874.989 175.344 875.533 120.58 915.401 c 0
 80.7373 944.405 86.0107 986.481 104.104 1010.93 c 0
 137.998 1056.73 221.6 1033.02 221.6 976.19 c 0
 221.6 936.223 242.133 892.219 305.2 892.219 c 1
 314 874.989 l 1
119 85 m 2
 119 715 l 2
 119 778 26 792 26 792 c 1
 26 800 l 1
 120 781 293 778 386 800 c 1
 386 792 l 1
 386 792 293 778 293 715 c 2
 293 85 l 2
 293 21 386 8 386 8 c 1
 386 0 l 1
 292.522 20.9863 119.588 18.9883 26 0 c 1
 26 8 l 1
 26 8 119 22 119 85 c 2
EndSplineSet
Validated: 524321
EndChar

StartChar: K
Encoding: 75 75 36
Width: 925
GlyphClass: 2
Flags: W
HStem: 0.00195312 8.00391<296.36 310.107> 791.875 7.99902<10.291 34.1643 640.625 653.893 902.161 915.357>
VStem: 163.832 17.818<96.3721 139.839> 768.949 17.761<660.042 703.509>
LayerCount: 2
Fore
SplineSet
608.45 1018.62 m 1
 625.009 983.544 606.293 962.668 581.854 951.131 c 0
 503.624 914.448 448.887 1060.21 363.13 1019.73 c 0
 312.094 995.64 289.292 938.731 313.045 888.411 c 1
 318.477 892.733 l 1
 300.584 930.35 329.475 946.71 343.492 953.328 c 0
 418.61 988.783 465.643 836.067 568.496 884.614 c 0
 617.905 907.936 642.09 964.109 614.941 1021.63 c 1
 608.45 1018.62 l 1
640.625 799.874 m 1
 640.625 791.875 l 1
 640.625 791.875 769.082 764.375 769.082 660.042 c 2
 768.949 278.483 l 1
 323.875 800 l 1
 237.961 782.301 140.97 781.315 10 800 c 1
 10.291 790.542 l 1
 81.625 789.829 131.291 734.874 131.291 734.874 c 1
 163.388 697.929 l 1
 163.832 139.839 l 2
 163.832 35.5059 35.375 8.00586 35.375 8.00586 c 1
 35.375 0.00195312 l 2
 34.9648 -10.7148 160.943 34.251 310.107 0.00195312 c 1
 310.107 8.00586 l 1
 310.107 8.00586 181.65 35.5059 181.65 139.839 c 0
 181.507 319.027 181.364 498.215 181.221 677.403 c 1
 778.43 -10 l 1
 786.975 -10 l 1
 786.71 120.385 l 2
 786.773 300.27 786.837 480.156 786.9 660.042 c 0
 786.9 764.375 915.357 791.875 915.357 791.875 c 1
 915.357 799.874 l 1
 774.328 769.979 640.625 799.874 640.625 799.874 c 1
EndSplineSet
Validated: 524325
EndChar

StartChar: L
Encoding: 76 76 37
Width: 796
GlyphClass: 2
Flags: W
HStem: -15 16.9512<361.986 438.889> 798.004 16.985<355.031 444.691> 874.989 17.23<446.28 485.128>
VStem: 28 198<242.327 539.624> 570.892 198<239.752 537.008>
LayerCount: 2
Fore
SplineSet
493.927 874.989 m 1
 410.327 874.989 355.271 875.533 300.508 915.401 c 0
 260.665 944.405 265.938 986.481 284.031 1010.93 c 0
 317.926 1056.73 401.527 1033.02 401.527 976.19 c 0
 401.527 936.223 422.06 892.219 485.128 892.219 c 1
 493.927 874.989 l 1
399.928 798.004 m 1
 293.416 796.09 226 712 226 390 c 0
 226 91 317.932 1.95117 399.468 1.95117 c 0
 481.003 1.95117 570.892 88.1396 570.892 387.14 c 0
 570.892 709.14 506.438 796.09 399.928 798.004 c 1
399.595 -15 m 0
 203.432 -15 28 113 28 394 c 0
 28 692 254.272 814.989 399.928 814.989 c 0
 545.582 814.989 768.892 689.14 768.892 391.14 c 0
 768.892 110.14 595.503 -15 399.595 -15 c 0
EndSplineSet
Validated: 524321
EndChar

StartChar: M
Encoding: 77 77 38
Width: 796
GlyphClass: 2
Flags: W
HStem: -15 16.9512<361.986 438.889> 798.004 16.985<355.031 444.691> 874.989 17.23<298.728 337.576>
VStem: 28 198<242.327 539.624> 570.892 198<239.752 537.008>
LayerCount: 2
Fore
SplineSet
289.928 874.989 m 1
 373.529 874.989 428.584 875.533 483.348 915.401 c 0
 523.191 944.405 517.917 986.481 499.824 1010.93 c 0
 465.93 1056.73 382.328 1033.02 382.328 976.19 c 0
 382.328 936.223 361.795 892.219 298.728 892.219 c 1
 289.928 874.989 l 1
399.928 798.004 m 1
 293.416 796.09 226 712 226 390 c 0
 226 91 317.932 1.95117 399.468 1.95117 c 0
 481.003 1.95117 570.892 88.1396 570.892 387.14 c 0
 570.892 709.14 506.438 796.09 399.928 798.004 c 1
399.595 -15 m 0
 203.432 -15 28 113 28 394 c 0
 28 692 254.272 814.989 399.928 814.989 c 0
 545.582 814.989 768.892 689.14 768.892 391.14 c 0
 768.892 110.14 595.503 -15 399.595 -15 c 0
EndSplineSet
Validated: 524329
EndChar

StartChar: N
Encoding: 78 78 39
Width: 796
GlyphClass: 2
Flags: W
HStem: -15 16.9512<361.986 438.889> 798.004 16.985<355.031 444.691>
VStem: 28 198<242.327 539.624> 570.892 198<239.752 537.008>
LayerCount: 2
Fore
SplineSet
543.865 874.989 m 1
 572.865 874.989 l 1
 435.781 1029.99 l 1
 399.949 1029.99 l 1
 399.928 1029.99 l 1
 399.906 1029.99 l 1
 364.073 1029.99 l 1
 226.99 874.989 l 1
 255.99 874.989 l 1
 305.553 906.033 366.132 923.39 399.927 941.906 c 1
 433.723 923.39 494.302 906.033 543.865 874.989 c 1
399.928 798.004 m 1
 293.416 796.09 226 712 226 390 c 0
 226 91 317.932 1.95117 399.468 1.95117 c 0
 481.003 1.95117 570.892 88.1396 570.892 387.14 c 0
 570.892 709.14 506.438 796.09 399.928 798.004 c 1
399.595 -15 m 0
 203.432 -15 28 113 28 394 c 0
 28 692 254.272 814.989 399.928 814.989 c 0
 545.582 814.989 768.892 689.14 768.892 391.14 c 0
 768.892 110.14 595.503 -15 399.595 -15 c 0
EndSplineSet
Validated: 524297
EndChar

StartChar: O
Encoding: 79 79 40
Width: 796
GlyphClass: 2
Flags: W
HStem: -15 16.9512<361.986 438.889> 798.004 16.985<355.031 444.691>
VStem: 28 198<242.327 539.624> 570.892 198<239.752 537.008>
LayerCount: 2
Fore
SplineSet
543.44 1018.62 m 1
 559.999 983.544 541.283 962.668 516.843 951.131 c 0
 438.614 914.448 383.877 1060.21 298.12 1019.73 c 0
 247.084 995.64 224.282 938.731 248.035 888.411 c 1
 253.467 892.733 l 1
 235.574 930.35 264.465 946.71 278.482 953.328 c 0
 353.6 988.783 400.633 836.067 503.486 884.614 c 0
 552.895 907.936 577.08 964.109 549.931 1021.63 c 1
 543.44 1018.62 l 1
399.928 798.004 m 1
 293.416 796.09 226 712 226 390 c 0
 226 91 317.932 1.95117 399.468 1.95117 c 0
 481.003 1.95117 570.892 88.1396 570.892 387.14 c 0
 570.892 709.14 506.438 796.09 399.928 798.004 c 1
399.595 -15 m 0
 203.432 -15 28 113 28 394 c 0
 28 692 254.272 814.989 399.928 814.989 c 0
 545.582 814.989 768.892 689.14 768.892 391.14 c 0
 768.892 110.14 595.503 -15 399.595 -15 c 0
EndSplineSet
Validated: 524329
EndChar

StartChar: P
Encoding: 80 80 41
Width: 796
GlyphClass: 2
Flags: W
HStem: -15 16.9512<361.986 438.889> 798.004 16.985<355.031 444.691> 874.989 111.983<274.041 358.463 440.901 525.322>
VStem: 28 198<242.327 539.624> 263.386 106.224<886.289 975.565> 430.245 106.224<886.289 975.565> 570.892 198<239.752 537.008>
LayerCount: 2
Fore
SplineSet
263.386 931.302 m 0
 263.386 961.198 285.142 988.696 315.857 986.972 c 1
 346.573 986.972 369.61 961.377 369.61 931.302 c 0
 369.61 900.585 346.573 874.989 315.857 874.989 c 0
 285.142 874.989 263.386 900.585 263.386 931.302 c 0
430.245 931.302 m 0
 430.245 961.198 452.002 988.696 482.717 986.972 c 1
 513.433 986.972 536.469 961.377 536.469 931.302 c 0
 536.469 900.585 513.433 874.989 482.717 874.989 c 0
 452.002 874.989 430.245 900.585 430.245 931.302 c 0
399.928 798.004 m 1
 293.416 796.09 226 712 226 390 c 0
 226 91 317.932 1.95117 399.468 1.95117 c 0
 481.003 1.95117 570.892 88.1396 570.892 387.14 c 0
 570.892 709.14 506.438 796.09 399.928 798.004 c 1
399.595 -15 m 0
 203.432 -15 28 113 28 394 c 0
 28 692 254.272 814.989 399.928 814.989 c 0
 545.582 814.989 768.892 689.14 768.892 391.14 c 0
 768.892 110.14 595.503 -15 399.595 -15 c 0
EndSplineSet
Validated: 524321
EndChar

StartChar: Q
Encoding: 81 81 42
Width: 903
GlyphClass: 2
Flags: W
HStem: -15 25.0488<418.858 545.528> 792 8<17.0186 33.2044 362.894 378.018 608.268 621.536 869.804 883> 874.989 17.23<515.371 554.219>
VStem: 110.58 174.51<193.977 313.681 715 759.07> 736.529 16.489<229.234 313.681 660.042 695.662>
LayerCount: 2
Fore
SplineSet
563.018 874.989 m 1
 479.418 874.989 424.362 875.533 369.599 915.401 c 0
 329.756 944.405 335.029 986.481 353.122 1010.93 c 0
 387.017 1056.73 470.618 1033.02 470.618 976.19 c 0
 470.618 936.223 491.151 892.219 554.219 892.219 c 1
 563.018 874.989 l 1
486.329 10.0488 m 0
 359.459 10.0488 285.09 117 285.09 231 c 2
 285.018 715 l 2
 284.879 778.001 378.018 792 378.018 792 c 1
 378.018 800 l 1
 273.496 781.08 101.936 782.841 17.0186 800 c 1
 17.0186 792 l 1
 17.0186 792 109.931 778.002 110.019 715 c 2
 110.58 313.681 l 2
 110.836 134 243.974 -15 450.58 -15 c 0
 653.018 -15 753.018 125.25 753.018 313.681 c 2
 754.543 660.042 l 2
 754.543 764.375 883 791.875 883 791.875 c 1
 883 799.874 l 1
 741.972 769.979 608.268 799.874 608.268 799.874 c 1
 608.268 791.875 l 1
 608.268 791.875 736.726 764.375 736.726 660.042 c 2
 736.529 305 l 2
 736.529 83.25 582.58 10.0488 486.329 10.0488 c 0
EndSplineSet
Validated: 524329
EndChar

StartChar: R
Encoding: 82 82 43
Width: 903
GlyphClass: 2
Flags: W
HStem: -15 25.0488<418.858 545.528> 792 8<17.0186 33.2044 362.894 378.018 608.268 621.536 869.804 883> 874.989 17.23<387.818 426.666>
VStem: 110.58 174.51<193.977 313.681 715 759.07> 736.529 16.489<229.234 313.681 660.042 695.662>
LayerCount: 2
Fore
SplineSet
379.018 874.989 m 1
 462.619 874.989 517.674 875.533 572.438 915.401 c 0
 612.281 944.405 607.007 986.481 588.914 1010.93 c 0
 555.02 1056.73 471.418 1033.02 471.418 976.19 c 0
 471.418 936.223 450.885 892.219 387.818 892.219 c 1
 379.018 874.989 l 1
486.329 10.0488 m 0
 359.459 10.0488 285.09 117 285.09 231 c 2
 285.018 715 l 2
 284.879 778.001 378.018 792 378.018 792 c 1
 378.018 800 l 1
 273.496 781.08 101.936 782.841 17.0186 800 c 1
 17.0186 792 l 1
 17.0186 792 109.931 778.002 110.019 715 c 2
 110.58 313.681 l 2
 110.836 134 243.974 -15 450.58 -15 c 0
 653.018 -15 753.018 125.25 753.018 313.681 c 2
 754.543 660.042 l 2
 754.543 764.375 883 791.875 883 791.875 c 1
 883 799.874 l 1
 741.972 769.979 608.268 799.874 608.268 799.874 c 1
 608.268 791.875 l 1
 608.268 791.875 736.726 764.375 736.726 660.042 c 2
 736.529 305 l 2
 736.529 83.25 582.58 10.0488 486.329 10.0488 c 0
EndSplineSet
Validated: 524329
EndChar

StartChar: S
Encoding: 83 83 44
Width: 903
GlyphClass: 2
Flags: W
HStem: -15 25.0488<418.858 545.528> 792 8<17.0186 33.2044 362.894 378.018 608.268 621.536 869.804 883>
VStem: 110.58 174.51<193.977 313.681 715 759.07> 736.529 16.489<229.234 313.681 660.042 695.662>
LayerCount: 2
Fore
SplineSet
628.956 874.989 m 1
 657.956 874.989 l 1
 520.872 1029.99 l 1
 485.04 1029.99 l 1
 485.019 1029.99 l 1
 484.997 1029.99 l 1
 449.164 1029.99 l 1
 312.081 874.989 l 1
 341.081 874.989 l 1
 390.644 906.033 451.223 923.39 485.018 941.906 c 1
 518.814 923.39 579.393 906.033 628.956 874.989 c 1
486.329 10.0488 m 0
 359.459 10.0488 285.09 117 285.09 231 c 2
 285.018 715 l 2
 284.879 778.001 378.018 792 378.018 792 c 1
 378.018 800 l 1
 273.496 781.08 101.936 782.841 17.0186 800 c 1
 17.0186 792 l 1
 17.0186 792 109.931 778.002 110.019 715 c 2
 110.58 313.681 l 2
 110.836 134 243.974 -15 450.58 -15 c 0
 653.018 -15 753.018 125.25 753.018 313.681 c 2
 754.543 660.042 l 2
 754.543 764.375 883 791.875 883 791.875 c 1
 883 799.874 l 1
 741.972 769.979 608.268 799.874 608.268 799.874 c 1
 608.268 791.875 l 1
 608.268 791.875 736.726 764.375 736.726 660.042 c 2
 736.529 305 l 2
 736.529 83.25 582.58 10.0488 486.329 10.0488 c 0
EndSplineSet
Validated: 524329
EndChar

StartChar: T
Encoding: 84 84 45
Width: 903
GlyphClass: 2
Flags: W
HStem: -15 25.0488<418.858 545.528> 792 8<17.0186 33.2044 362.894 378.018 608.268 621.536 869.804 883> 874.989 111.983<350.132 434.554 516.992 601.413>
VStem: 110.58 174.51<193.977 313.681 715 759.07> 339.477 106.224<886.289 975.565> 506.336 106.224<886.289 975.565> 736.529 16.489<229.234 313.681 660.042 695.662>
LayerCount: 2
Fore
SplineSet
339.477 931.302 m 0
 339.477 961.198 361.233 988.696 391.948 986.972 c 1
 422.664 986.972 445.701 961.377 445.701 931.302 c 0
 445.701 900.585 422.664 874.989 391.948 874.989 c 0
 361.233 874.989 339.477 900.585 339.477 931.302 c 0
506.336 931.302 m 0
 506.336 961.198 528.093 988.696 558.808 986.972 c 1
 589.524 986.972 612.56 961.377 612.56 931.302 c 0
 612.56 900.585 589.524 874.989 558.808 874.989 c 0
 528.093 874.989 506.336 900.585 506.336 931.302 c 0
486.329 10.0488 m 0
 359.459 10.0488 285.09 117 285.09 231 c 2
 285.018 715 l 2
 284.879 778.001 378.018 792 378.018 792 c 1
 378.018 800 l 1
 273.496 781.08 101.936 782.841 17.0186 800 c 1
 17.0186 792 l 1
 17.0186 792 109.931 778.002 110.019 715 c 2
 110.58 313.681 l 2
 110.836 134 243.974 -15 450.58 -15 c 0
 653.018 -15 753.018 125.25 753.018 313.681 c 2
 754.543 660.042 l 2
 754.543 764.375 883 791.875 883 791.875 c 1
 883 799.874 l 1
 741.972 769.979 608.268 799.874 608.268 799.874 c 1
 608.268 791.875 l 1
 608.268 791.875 736.726 764.375 736.726 660.042 c 2
 736.529 305 l 2
 736.529 83.25 582.58 10.0488 486.329 10.0488 c 0
EndSplineSet
Validated: 524329
EndChar

StartChar: U
Encoding: 85 85 46
Width: 849
GlyphClass: 2
Flags: W
HStem: 1 7<214 226.932 559.336 574> 792 8<10 26.6511 354.882 370 584.5 596.855 819.443 838.5> 874.989 17.23<365.05 403.898>
VStem: 307 174<40.4903 388.462>
LayerCount: 2
Fore
SplineSet
356.25 874.989 m 1
 439.851 874.989 494.906 875.533 549.67 915.401 c 0
 589.513 944.405 584.239 986.481 566.146 1010.93 c 0
 532.252 1056.73 448.65 1033.02 448.65 976.19 c 0
 448.65 936.223 428.117 892.219 365.05 892.219 c 1
 356.25 874.989 l 1
307 388.462 m 1
 103 715 l 1
 75.8232 762.845 38 790.5 10 792 c 1
 10 800 l 1
 94.917 782.841 265.478 781.08 370 800 c 1
 370 792 l 1
 370 792 268.452 773.82 302 720.5 c 2
 474.669 446.062 l 1
 596.5 640 l 2
 683.52 778.521 584.5 792 584.5 792 c 1
 584.5 800 l 1
 672.5 789 757.5 789 838.5 800 c 1
 838.5 797 839.5 792 839.5 792 c 1
 794.5 792 673.066 726.314 610.5 627 c 2
 481 421.439 l 1
 481 85 l 2
 481 21 574 8 574 8 c 1
 574 1 l 1
 472.868 11.5596 302.205 10.8799 214 1 c 1
 214 8 l 1
 214 8 307 22 307 85 c 2
 307 388.462 l 1
EndSplineSet
Validated: 524329
EndChar

StartChar: V
Encoding: 86 86 47
Width: 514
GlyphClass: 2
Flags: W
HStem: -10 45<131.145 235.846 440.318 471.203> 274.138 18.3<284.486 306> 489 21<230.437 335.5> 570 17.23<304.353 343.201>
VStem: 24 149<283.819 369.922> 26 138<50.5949 156.049> 306 134<34.6318 274.138 284.374 458.683>
LayerCount: 2
Fore
SplineSet
352 570 m 1xf2
 268.4 570 213.344 570.544 158.581 610.412 c 0
 118.738 639.416 124.011 681.492 142.104 705.944 c 0
 175.999 751.745 259.6 728.034 259.6 671.201 c 0
 259.6 631.234 280.133 587.23 343.201 587.23 c 1
 352 570 l 1xf2
173 363 m 1xfa
 173 303 147 253 91 253 c 2
 89 253 l 2
 55 253 24 276 24 309 c 2
 24 311 l 2xfa
 24 334 37 361 63 393 c 0
 108 446 201 510 300 510 c 0
 371 510 415 482 433 430 c 0
 437 416 440 402 440 387 c 2
 440 62 l 2
 440 46 449 37 463 33 c 0
 464 33 466 32 467 32 c 0
 475 32 485 37 497 45 c 1
 504 40 l 1
 488 19 444 -10 404 -10 c 0
 346.532 -10 308.039 15.6162 306.079 65.9229 c 1
 272.791 19.626 199.569 -10 142 -10 c 0
 82 -10 26 32 26 91 c 2
 26 94 l 2xf6
 26 176 118 213 176 240 c 0
 213.354 257.053 262.578 275.425 306 292.438 c 1
 306 430 l 2
 306 463 301 488 267 489 c 1
 212 489 172 465 172 410 c 1
 173 363 l 1xfa
306 91.6846 m 1
 306 274.138 l 1
 228.058 248.57 164 224.244 164 132 c 2
 164 125 l 1xf6
 165 81 173 35 227 35 c 0
 252.734 35 288.739 59.3271 306 91.6846 c 1
EndSplineSet
Validated: 524321
EndChar

StartChar: W
Encoding: 87 87 48
Width: 514
GlyphClass: 2
Flags: W
HStem: -10 45<133.125 237.826 442.298 473.183> 274.138 18.3<286.466 307.98> 489 21<232.417 337.48> 570 17.229<153.78 192.628>
VStem: 25.9805 148.999<283.819 369.922> 27.9805 137.999<50.5949 156.049> 307.98 134<34.6318 274.138 284.374 458.683>
LayerCount: 2
Fore
SplineSet
144.98 570 m 1xf2
 228.581 570 283.636 570.544 338.4 610.412 c 0
 378.243 639.416 372.969 681.492 354.876 705.943 c 0
 320.982 751.745 237.38 728.033 237.38 671.201 c 0
 237.38 631.233 216.848 587.229 153.78 587.229 c 1
 144.98 570 l 1xf2
174.98 363 m 1xfa
 174.98 303 148.98 253 92.9805 253 c 2
 90.9805 253 l 2
 56.9805 253 25.9805 276 25.9805 309 c 2
 25.9805 311 l 2xfa
 25.9805 334 38.9805 361 64.9805 393 c 0
 109.98 446 202.98 510 301.98 510 c 0
 372.98 510 416.98 482 434.98 430 c 0
 438.98 416 441.98 402 441.98 387 c 2
 441.98 62 l 2
 441.98 46 450.98 37 464.98 33 c 0
 465.98 33 467.98 32 468.98 32 c 0
 476.98 32 486.98 37 498.98 45 c 1
 505.98 40 l 1
 489.98 19 445.98 -10 405.98 -10 c 0
 348.512 -10 310.02 15.6162 308.06 65.9229 c 1
 274.771 19.626 201.549 -10 143.98 -10 c 0
 83.9805 -10 27.9805 32 27.9805 91 c 2
 27.9805 94 l 2xf6
 27.9805 176 119.98 213 177.98 240 c 0
 215.334 257.053 264.559 275.425 307.98 292.438 c 1
 307.98 430 l 2
 307.98 463 302.98 488 268.98 489 c 1
 213.98 489 173.98 465 173.98 410 c 1
 174.98 363 l 1xfa
307.98 91.6846 m 1
 307.98 274.138 l 1
 230.038 248.57 165.98 224.244 165.98 132 c 2
 165.98 125 l 1xf6
 166.98 81 174.98 35 228.98 35 c 0
 254.714 35 290.719 59.3271 307.98 91.6846 c 1
EndSplineSet
Validated: 524329
EndChar

StartChar: X
Encoding: 88 88 49
Width: 514
GlyphClass: 2
Flags: W
HStem: -10 45<131.145 235.846 440.318 471.203> 274.138 18.3<284.486 306> 489 21<230.437 335.5>
VStem: 24 149<283.819 369.922> 26 138<50.5949 156.049> 306 134<34.6318 274.138 284.374 458.683>
LayerCount: 2
Fore
SplineSet
399.938 570 m 1xe4
 428.938 570 l 1
 291.854 725 l 1
 256.021 725 l 1
 256.001 724.998 l 1
 255.979 725 l 1
 220.146 725 l 1
 83.0625 570 l 1
 112.062 570 l 1
 161.626 601.044 222.204 618.401 256 636.917 c 1
 289.796 618.401 350.375 601.044 399.938 570 c 1xe4
173 363 m 1xf4
 173 303 147 253 91 253 c 2
 89 253 l 2
 55 253 24 276 24 309 c 2
 24 311 l 2xf4
 24 334 37 361 63 393 c 0
 108 446 201 510 300 510 c 0
 371 510 415 482 433 430 c 0
 437 416 440 402 440 387 c 2
 440 62 l 2
 440 46 449 37 463 33 c 0
 464 33 466 32 467 32 c 0
 475 32 485 37 497 45 c 1
 504 40 l 1
 488 19 444 -10 404 -10 c 0
 346.532 -10 308.039 15.6162 306.079 65.9229 c 1
 272.791 19.626 199.569 -10 142 -10 c 0
 82 -10 26 32 26 91 c 2
 26 94 l 2xec
 26 176 118 213 176 240 c 0
 213.354 257.053 262.578 275.425 306 292.438 c 1
 306 430 l 2
 306 463 301 488 267 489 c 1
 212 489 172 465 172 410 c 1
 173 363 l 1xf4
306 91.6846 m 1
 306 274.138 l 1
 228.058 248.57 164 224.244 164 132 c 2
 164 125 l 1xec
 165 81 173 35 227 35 c 0
 252.734 35 288.739 59.3271 306 91.6846 c 1
EndSplineSet
Validated: 524297
EndChar

StartChar: Y
Encoding: 89 89 50
Width: 514
GlyphClass: 2
Flags: W
HStem: -10 45<131.145 235.846 440.318 471.203> 274.138 18.3<284.486 306> 489 21<230.437 335.5>
VStem: 24 149<283.819 369.922> 26 138<50.5949 156.049> 306 134<34.6318 274.138 284.374 458.683>
LayerCount: 2
Fore
SplineSet
412.027 727.271 m 1xe4
 428.586 692.195 409.87 671.319 385.43 659.782 c 0
 307.201 623.099 252.464 768.858 166.707 728.381 c 0
 115.671 704.291 92.8691 647.382 116.622 597.062 c 1
 122.054 601.384 l 1
 104.161 639.001 133.052 655.361 147.069 661.979 c 0
 222.187 697.434 269.22 544.718 372.073 593.265 c 0
 421.482 616.587 445.667 672.76 418.518 730.279 c 1
 412.027 727.271 l 1xe4
173 363 m 1xf4
 173 303 147 253 91 253 c 2
 89 253 l 2
 55 253 24 276 24 309 c 2
 24 311 l 2xf4
 24 334 37 361 63 393 c 0
 108 446 201 510 300 510 c 0
 371 510 415 482 433 430 c 0
 437 416 440 402 440 387 c 2
 440 62 l 2
 440 46 449 37 463 33 c 0
 464 33 466 32 467 32 c 0
 475 32 485 37 497 45 c 1
 504 40 l 1
 488 19 444 -10 404 -10 c 0
 346.532 -10 308.039 15.6162 306.079 65.9229 c 1
 272.791 19.626 199.569 -10 142 -10 c 0
 82 -10 26 32 26 91 c 2
 26 94 l 2xec
 26 176 118 213 176 240 c 0
 213.354 257.053 262.578 275.425 306 292.438 c 1
 306 430 l 2
 306 463 301 488 267 489 c 1
 212 489 172 465 172 410 c 1
 173 363 l 1xf4
306 91.6846 m 1
 306 274.138 l 1
 228.058 248.57 164 224.244 164 132 c 2
 164 125 l 1xec
 165 81 173 35 227 35 c 0
 252.734 35 288.739 59.3271 306 91.6846 c 1
EndSplineSet
Validated: 524329
EndChar

StartChar: Z
Encoding: 90 90 51
Width: 514
GlyphClass: 2
Flags: W
HStem: -10 45<131.145 235.846 440.318 471.203> 274.138 18.3<284.486 306> 489 21<230.437 335.5> 570 17.23<304.353 343.201>
VStem: 24 149<283.819 369.922> 26 138<50.5949 156.049> 306 134<34.6318 274.138 284.374 458.683>
LayerCount: 2
Fore
SplineSet
352 570 m 1xf2
 268.4 570 213.344 570.544 158.581 610.412 c 0
 118.738 639.416 124.011 681.492 142.104 705.944 c 0
 175.999 751.745 259.6 728.034 259.6 671.201 c 0
 259.6 631.234 280.133 587.23 343.201 587.23 c 1
 352 570 l 1xf2
173 363 m 1xfa
 173 303 147 253 91 253 c 2
 89 253 l 2
 55 253 24 276 24 309 c 2
 24 311 l 2xfa
 24 334 37 361 63 393 c 0
 108 446 201 510 300 510 c 0
 371 510 415 482 433 430 c 0
 437 416 440 402 440 387 c 2
 440 62 l 2
 440 46 449 37 463 33 c 0
 464 33 466 32 467 32 c 0
 475 32 485 37 497 45 c 1
 504 40 l 1
 488 19 444 -10 404 -10 c 0
 346.532 -10 308.039 15.6162 306.079 65.9229 c 1
 272.791 19.626 199.569 -10 142 -10 c 0
 82 -10 26 32 26 91 c 2
 26 94 l 2xf6
 26 176 118 213 176 240 c 0
 213.354 257.053 262.578 275.425 306 292.438 c 1
 306 430 l 2
 306 463 301 488 267 489 c 1
 212 489 172 465 172 410 c 1
 173 363 l 1xfa
306 91.6846 m 1
 306 274.138 l 1
 228.058 248.57 164 224.244 164 132 c 2
 164 125 l 1xf6
 165 81 173 35 227 35 c 0
 252.734 35 288.739 59.3271 306 91.6846 c 1
EndSplineSet
Validated: 524321
EndChar

StartChar: asciicircum
Encoding: 94 94 52
Width: 514
GlyphClass: 2
Flags: W
HStem: -10 45<131.145 235.846 440.318 471.203> 274.138 18.3<284.486 306> 489 21<230.437 335.5> 570 111.982<132.114 216.536 298.973 383.395>
VStem: 24 149<283.819 369.922> 26 138<50.5949 156.049> 121.459 106.224<581.3 670.576> 288.317 106.224<581.3 670.576> 306 134<34.6318 274.138 284.374 458.683>
LayerCount: 2
Fore
SplineSet
121.459 626.312 m 0xf2
 121.459 656.209 143.215 683.707 173.93 681.982 c 1
 204.646 681.982 227.683 656.388 227.683 626.312 c 0
 227.683 595.596 204.646 570 173.93 570 c 0
 143.215 570 121.459 595.596 121.459 626.312 c 0xf2
288.317 626.312 m 0xf1
 288.317 656.209 310.074 683.707 340.789 681.982 c 1
 371.506 681.982 394.541 656.388 394.541 626.312 c 0
 394.541 595.596 371.506 570 340.789 570 c 0
 310.074 570 288.317 595.596 288.317 626.312 c 0xf1
173 363 m 1xf880
 173 303 147 253 91 253 c 2
 89 253 l 2
 55 253 24 276 24 309 c 2
 24 311 l 2xf880
 24 334 37 361 63 393 c 0
 108 446 201 510 300 510 c 0
 371 510 415 482 433 430 c 0
 437 416 440 402 440 387 c 2
 440 62 l 2
 440 46 449 37 463 33 c 0
 464 33 466 32 467 32 c 0
 475 32 485 37 497 45 c 1
 504 40 l 1
 488 19 444 -10 404 -10 c 0
 346.532 -10 308.039 15.6162 306.079 65.9229 c 1
 272.791 19.626 199.569 -10 142 -10 c 0
 82 -10 26 32 26 91 c 2
 26 94 l 2xf480
 26 176 118 213 176 240 c 0
 213.354 257.053 262.578 275.425 306 292.438 c 1
 306 430 l 2
 306 463 301 488 267 489 c 1
 212 489 172 465 172 410 c 1
 173 363 l 1xf880
306 91.6846 m 1
 306 274.138 l 1
 228.058 248.57 164 224.244 164 132 c 2
 164 125 l 1xf480
 165 81 173 35 227 35 c 0
 252.734 35 288.739 59.3271 306 91.6846 c 1
EndSplineSet
Validated: 524321
EndChar

StartChar: underscore
Encoding: 95 95 53
Width: 813
GlyphClass: 2
Flags: W
HStem: -11 100<547.563 658.035> -10.001 45<112.002 231.436> 288 17.999<444.101 645.95> 488.999 21<230.439 326.49 509.751 603.868>
VStem: 24.002 149<283.728 369.921> 26.002 138<50.5939 154.275> 303.002 141.099<210.365 273.182 282.797 288 305.999 428.75> 645.95 134.052<305.999 377.35>
LayerCount: 2
Fore
SplineSet
335.411 118.676 m 1xbb
 321.129 43.4141 213.762 -10.001 142.002 -10.001 c 0
 82.002 -10.001 26.002 31.999 26.002 90.999 c 1x77
 24.002 174.999 117.002 212.999 176.002 239.999 c 0
 212.7 256.752 260.854 274.778 303.707 291.539 c 1
 306.002 429.999 l 2
 306.549 462.994 301.002 487.999 267.002 488.999 c 1
 212.002 488.999 172.002 464.999 172.002 409.999 c 1
 173.002 362.999 l 1
 173.002 301.999 146.002 251.999 89.002 252.999 c 0
 54.002 252.999 23.002 276.999 24.002 310.999 c 0
 24.002 333.999 37.002 360.999 63.002 392.999 c 0
 108.002 445.999 201.002 509.999 300.002 509.999 c 0
 352.977 509.999 390.921 494.411 414.249 464.897 c 1
 455.999 493.476 507.036 510 563.002 510 c 0
 695.002 510 780.002 384 780.002 288 c 1
 646.002 288 l 1
 444.101 288 l 1
 456.234 188.01 518.11 89 629.001 89 c 0
 666.001 89 725.001 93 769.001 163 c 1
 779.001 162 l 1
 779.001 158.917 735.001 -11 562.001 -11 c 0
 461.93 -11 378.775 39.7471 335.411 118.676 c 1xbb
324.75 140.509 m 1
 310.702 173.146 303.002 209.755 303.002 248.999 c 0
 303.002 252.169 303.055 255.323 303.158 258.462 c 2
 303.402 273.182 l 1
 224.639 247.083 160.516 221.745 164.002 124.999 c 0
 165.002 80.999 173.002 34.999 227.002 34.999 c 0
 260.713 34.999 320.401 84.168 324.75 140.509 c 1
442.454 305.999 m 1
 645.95 305.999 l 1
 645.333 397.112 638.036 492.999 563.002 492.999 c 0
 476.511 492.999 436.542 401.759 442.454 305.999 c 1
EndSplineSet
Validated: 524321
EndChar

StartChar: a
Encoding: 97 97 54
Width: 532
GlyphClass: 2
Flags: W
HStem: -10 100<277.309 387.633> 493 17<254.592 322.581>
VStem: 285.022 13.956<-42.9889 -11.0908> 352 132<270.951 408.633>
LayerCount: 2
Fore
SplineSet
298.978 -3.96289 m 1
 285.022 -11.0908 l 1
 285.022 -62.1758 249.378 -78.8066 217.004 -78.8066 c 0
 170.97 -78.8066 151.763 -146.524 188.863 -173.979 c 0
 208.668 -188.635 248.81 -191.183 271.244 -160.633 c 0
 300.603 -120.651 298.978 -71.6787 298.978 -3.96289 c 1
352 368 m 1
 336 300 372 254 416 254 c 0
 446 254 484 268 484 330 c 0
 484 407 417 510 295 510 c 0
 148 510 34 397 33 249 c 1
 33 100 144 -10 292 -10 c 0
 463 -10 509 162 509 162 c 1
 499 163 l 1
 455 93 396 90 359 90 c 0
 135 90 111 493 293 493 c 1
 327 494 373 465 352 368 c 1
EndSplineSet
Validated: 524325
EndChar

StartChar: b
Encoding: 98 98 55
Width: 543
GlyphClass: 2
Flags: W
HStem: -11 100<277.66 388.034> 288 18<174.099 375.948> 493 17<252.57 324.528> 570 17.229<333.352 372.2>
VStem: 33 141.099<210.365 288 306 351.797> 375.948 134.052<306 377.35>
LayerCount: 2
Fore
SplineSet
381 570 m 1
 297.399 570 242.344 570.544 187.58 610.412 c 0
 147.737 639.416 153.011 681.492 171.104 705.943 c 0
 204.998 751.745 288.6 728.033 288.6 671.201 c 0
 288.6 631.233 309.133 587.229 372.2 587.229 c 1
 381 570 l 1
33 249 m 0
 33 396 146 510 293 510 c 0
 425 510 510 384 510 288 c 1
 376 288 l 1
 174.099 288 l 1
 186.233 188.01 248.109 89 359 89 c 0
 396 89 455 93 499 163 c 1
 509 162 l 1
 509 158.917 465 -11 292 -11 c 0
 144 -11 33 100 33 249 c 0
172.452 306 m 1
 375.948 306 l 1
 375.331 397.113 368.034 493 293 493 c 0
 206.509 493 166.541 401.76 172.452 306 c 1
EndSplineSet
Validated: 524321
EndChar

StartChar: c
Encoding: 99 99 56
Width: 543
GlyphClass: 2
Flags: W
HStem: -11 100<277.66 388.034> 288 18<174.099 375.948> 493 17<252.57 324.528> 570 17.229<193.8 232.648>
VStem: 33 141.099<210.365 288 306 351.797> 375.948 134.052<306 377.35>
LayerCount: 2
Fore
SplineSet
185 570 m 1
 268.601 570 323.656 570.544 378.42 610.412 c 0
 418.263 639.416 412.989 681.492 394.896 705.943 c 0
 361.002 751.745 277.4 728.033 277.4 671.201 c 0
 277.4 631.233 256.867 587.229 193.8 587.229 c 1
 185 570 l 1
33 249 m 0
 33 396 146 510 293 510 c 0
 425 510 510 384 510 288 c 1
 376 288 l 1
 174.099 288 l 1
 186.233 188.01 248.109 89 359 89 c 0
 396 89 455 93 499 163 c 1
 509 162 l 1
 509 158.917 465 -11 292 -11 c 0
 144 -11 33 100 33 249 c 0
172.452 306 m 1
 375.948 306 l 1
 375.331 397.113 368.034 493 293 493 c 0
 206.509 493 166.541 401.76 172.452 306 c 1
EndSplineSet
Validated: 524329
EndChar

StartChar: d
Encoding: 100 100 57
Width: 543
GlyphClass: 2
Flags: W
HStem: -11 100<277.66 388.034> 288 18<174.099 375.948> 493 17<252.57 324.528>
VStem: 33 141.099<210.365 288 306 351.797> 375.948 134.052<306 377.35>
LayerCount: 2
Fore
SplineSet
436.938 570 m 1
 465.938 570 l 1
 328.854 725 l 1
 293.021 725 l 1
 293 724.998 l 1
 292.979 725 l 1
 257.146 725 l 1
 120.062 570 l 1
 149.062 570 l 1
 198.626 601.044 259.204 618.401 293 636.917 c 1
 326.796 618.401 387.375 601.044 436.938 570 c 1
33 249 m 0
 33 396 146 510 293 510 c 0
 425 510 510 384 510 288 c 1
 376 288 l 1
 174.099 288 l 1
 186.233 188.01 248.109 89 359 89 c 0
 396 89 455 93 499 163 c 1
 509 162 l 1
 509 158.917 465 -11 292 -11 c 0
 144 -11 33 100 33 249 c 0
172.452 306 m 1
 375.948 306 l 1
 375.331 397.113 368.034 493 293 493 c 0
 206.509 493 166.541 401.76 172.452 306 c 1
EndSplineSet
Validated: 524329
EndChar

StartChar: e
Encoding: 101 101 58
Width: 543
GlyphClass: 2
Flags: W
HStem: -11 100<277.66 388.034> 288 18<174.099 375.948> 493 17<252.57 324.528> 570 111.982<160.114 244.536 326.973 411.395>
VStem: 33 141.099<210.365 288 306 351.797> 149.459 106.224<581.3 670.576> 316.317 106.224<581.3 670.576> 375.948 134.052<306 377.35>
LayerCount: 2
Fore
SplineSet
149.459 626.312 m 0xf4
 149.459 656.209 171.215 683.707 201.93 681.982 c 1
 232.646 681.982 255.683 656.388 255.683 626.312 c 0
 255.683 595.596 232.646 570 201.93 570 c 0
 171.215 570 149.459 595.596 149.459 626.312 c 0xf4
316.317 626.312 m 0xf2
 316.317 656.209 338.074 683.707 368.789 681.982 c 1
 399.506 681.982 422.541 656.388 422.541 626.312 c 0
 422.541 595.596 399.506 570 368.789 570 c 0
 338.074 570 316.317 595.596 316.317 626.312 c 0xf2
33 249 m 0xf9
 33 396 146 510 293 510 c 0
 425 510 510 384 510 288 c 1
 376 288 l 1
 174.099 288 l 1
 186.233 188.01 248.109 89 359 89 c 0
 396 89 455 93 499 163 c 1
 509 162 l 1
 509 158.917 465 -11 292 -11 c 0
 144 -11 33 100 33 249 c 0xf9
172.452 306 m 1
 375.948 306 l 1
 375.331 397.113 368.034 493 293 493 c 0
 206.509 493 166.541 401.76 172.452 306 c 1
EndSplineSet
Validated: 524321
EndChar

StartChar: f
Encoding: 102 102 59
Width: 301
GlyphClass: 2
Flags: W
HStem: 0 8<37 48.8312 278.944 290.999> 433 6<10 18.9637> 481 20G<191.499 230.999> 570 17.229<198.351 237.199>
VStem: 96 134.999<22.2129 393.474>
LayerCount: 2
Fore
SplineSet
10 439 m 1
 107 454 158.999 461 223.999 501 c 1
 230.999 500 l 1
 230.999 59 l 1
 229.999 33 254.999 17 275.999 12 c 2
 290.999 8 l 1
 290.999 0 l 1
 205.194 10.7275 121.135 10.7227 37 0 c 1
 37 2 37 5 36 8 c 1
 51 12 l 2
 69 16 97 33 96 54 c 1
 97 320 l 2
 97 383 61 420 10 433 c 1
 10 439 l 1
245.999 570 m 1
 162.398 570 107.343 570.544 52.5791 610.412 c 0
 12.7363 639.416 18.0098 681.492 36.1025 705.943 c 0
 69.9971 751.745 153.599 728.033 153.599 671.201 c 0
 153.599 631.233 174.132 587.229 237.199 587.229 c 1
 245.999 570 l 1
EndSplineSet
Validated: 524321
EndChar

StartChar: g
Encoding: 103 103 60
Width: 301
GlyphClass: 2
Flags: W
HStem: 0 8<37 48.8312 278.944 290.999> 433 6<10 18.9637> 481 20G<191.499 230.999> 570 17.229<23.7988 62.6466>
VStem: 96 134.999<22.2129 393.474>
LayerCount: 2
Fore
SplineSet
10 439 m 1
 107 454 158.999 461 223.999 501 c 1
 230.999 500 l 1
 230.999 59 l 1
 229.999 33 254.999 17 275.999 12 c 2
 290.999 8 l 1
 290.999 0 l 1
 205.194 10.7275 121.135 10.7227 37 0 c 1
 37 2 37 5 36 8 c 1
 51 12 l 2
 69 16 97 33 96 54 c 1
 97 320 l 2
 97 383 61 420 10 433 c 1
 10 439 l 1
14.999 570 m 1
 98.5996 570 153.655 570.544 208.419 610.412 c 0
 248.262 639.416 242.988 681.492 224.896 705.943 c 0
 191.001 751.745 107.399 728.033 107.399 671.201 c 0
 107.399 631.233 86.8662 587.229 23.7988 587.229 c 1
 14.999 570 l 1
EndSplineSet
Validated: 524329
EndChar

StartChar: h
Encoding: 104 104 61
Width: 301
GlyphClass: 2
Flags: W
HStem: 0 8<37 48.8312 278.944 290.999> 433 6<10 18.9637> 481 20G<191.499 230.999>
VStem: 96 134.999<22.2129 393.474>
LayerCount: 2
Fore
SplineSet
10 439 m 1
 107 454 158.999 461 223.999 501 c 1
 230.999 500 l 1
 230.999 59 l 1
 229.999 33 254.999 17 275.999 12 c 2
 290.999 8 l 1
 290.999 0 l 1
 205.194 10.7275 121.135 10.7227 37 0 c 1
 37 2 37 5 36 8 c 1
 51 12 l 2
 69 16 97 33 96 54 c 1
 97 320 l 2
 97 383 61 420 10 433 c 1
 10 439 l 1
293.458 589.947 m 1
 322.458 589.947 l 1
 185.374 744.947 l 1
 149.542 744.947 l 1
 149.521 744.945 l 1
 149.499 744.947 l 1
 113.666 744.947 l 1
 -23.417 589.947 l 1
 5.58301 589.947 l 1
 55.1465 620.991 115.725 638.349 149.521 656.864 c 1
 183.316 638.349 243.896 620.991 293.458 589.947 c 1
EndSplineSet
Validated: 524329
EndChar

StartChar: i
Encoding: 105 105 62
Width: 301
GlyphClass: 2
Flags: W
HStem: 0 8<37 48.8312 278.944 290.999> 433 6<10 18.9637> 481 20G<191.499 230.999> 570 111.982<23.1134 107.535 189.973 274.394>
VStem: 12.458 106.224<581.3 670.576> 96 134.999<22.2129 393.474> 179.317 106.224<581.3 670.576>
LayerCount: 2
Fore
SplineSet
10 439 m 1xf4
 107 454 158.999 461 223.999 501 c 1
 230.999 500 l 1
 230.999 59 l 1
 229.999 33 254.999 17 275.999 12 c 2
 290.999 8 l 1
 290.999 0 l 1
 205.194 10.7275 121.135 10.7227 37 0 c 1
 37 2 37 5 36 8 c 1
 51 12 l 2
 69 16 97 33 96 54 c 1
 97 320 l 2
 97 383 61 420 10 433 c 1
 10 439 l 1xf4
12.458 626.312 m 0xf8
 12.458 656.209 34.2139 683.707 64.9287 681.982 c 1
 95.6455 681.982 118.682 656.388 118.682 626.312 c 0
 118.682 595.596 95.6455 570 64.9287 570 c 0
 34.2139 570 12.458 595.596 12.458 626.312 c 0xf8
179.317 626.312 m 0xf2
 179.317 656.209 201.074 683.707 231.789 681.982 c 1
 262.505 681.982 285.541 656.388 285.541 626.312 c 0
 285.541 595.596 262.505 570 231.789 570 c 0
 201.074 570 179.317 595.596 179.317 626.312 c 0xf2
EndSplineSet
Validated: 524321
EndChar

StartChar: j
Encoding: 106 106 63
Width: 617
GlyphClass: 2
Flags: W
HStem: 0 8<39 51.6196 281.184 294 349 361.355 591.583 603> 433 6<13 21.9637> 480 20G<194.5 234>
VStem: 99 135<22.2129 391.806> 409 135<22.1807 420.469>
LayerCount: 2
Fore
SplineSet
452.013 715.197 m 1
 468.571 680.121 449.855 659.245 425.415 647.709 c 0
 347.187 611.025 292.449 756.784 206.692 716.308 c 0
 155.656 692.218 132.854 635.309 156.607 584.988 c 1
 162.039 589.311 l 1
 144.146 626.928 173.037 643.287 187.055 649.905 c 0
 262.173 685.36 309.205 532.645 412.059 581.191 c 0
 461.468 604.514 485.652 660.687 458.504 718.205 c 1
 452.013 715.197 l 1
13 439 m 1
 110 454 162 460 227 500 c 1
 234 499 l 1
 234 424.321 l 1
 461.519 591.393 543 488.618 543 365 c 2
 544 59 l 1
 543 46 548 35 559 27 c 0
 568 20 578 15 589 12 c 2
 604 8 l 1
 603 5 603 2 603 0 c 1
 521.999 11.3584 436.999 11.4258 349 0 c 1
 349 8 l 1
 364 12 l 2
 374 14 384 19 394 27 c 0
 404 35 409 44 409 54 c 2
 409 316 l 2
 409 524.855 282.848 434.588 234 391.806 c 1
 234 59 l 1
 233 33 258 17 279 12 c 2
 294 8 l 1
 294 0 l 1
 203.216 11.6455 104.252 9.75879 39 0 c 0
 38.9082 -0.0527344 39 8 39 8 c 1
 54 12 l 2
 72 16 100 33 99 54 c 1
 100 320 l 2
 100 383 64 420 13 433 c 1
 13 439 l 1
EndSplineSet
Validated: 524329
EndChar

StartChar: k
Encoding: 107 107 64
Width: 594
GlyphClass: 2
Flags: W
HStem: -10 19<251.803 340.466> 493 17<255.137 337.109> 570 17.229<366.352 405.2>
VStem: 29 162<144.467 354.996> 402 163<147.366 355.374>
LayerCount: 2
Fore
SplineSet
414 570 m 1
 330.399 570 275.344 570.544 220.58 610.412 c 0
 180.737 639.416 186.011 681.492 204.104 705.943 c 0
 237.998 751.745 321.6 728.033 321.6 671.201 c 0
 321.6 631.233 342.133 587.229 405.2 587.229 c 1
 414 570 l 1
29 251 m 0
 29 325 55 386 107 436 c 0
 159 485 222 510 296 510 c 0
 370 510 434 485 486 436 c 0
 538 386 564 325 565 251 c 1
 564 175 538 113 486 64 c 0
 434 14 370 -10 296 -10 c 0
 222 -10 159 14 107 64 c 0
 55 113 29 175 29 251 c 0
296 493 m 0
 193 493 191 382 191 265 c 2
 191 252 l 1
 191 239 l 2
 191 120 193 9 296 9 c 0
 400 9 402 119 402 239 c 2
 402 252 l 1
 402 265 l 2
 402 383 400 493 296 493 c 0
EndSplineSet
Validated: 524321
EndChar

StartChar: l
Encoding: 108 108 65
Width: 594
GlyphClass: 2
Flags: W
HStem: -10 19<251.803 340.466> 493 17<255.137 337.109> 570 17.229<196.8 235.648>
VStem: 29 162<144.467 354.996> 402 163<147.366 355.374>
LayerCount: 2
Fore
SplineSet
188 570 m 1
 271.601 570 326.656 570.544 381.42 610.412 c 0
 421.263 639.416 415.989 681.492 397.896 705.943 c 0
 364.002 751.745 280.4 728.033 280.4 671.201 c 0
 280.4 631.233 259.867 587.229 196.8 587.229 c 1
 188 570 l 1
29 251 m 0
 29 325 55 386 107 436 c 0
 159 485 222 510 296 510 c 0
 370 510 434 485 486 436 c 0
 538 386 564 325 565 251 c 1
 564 175 538 113 486 64 c 0
 434 14 370 -10 296 -10 c 0
 222 -10 159 14 107 64 c 0
 55 113 29 175 29 251 c 0
296 493 m 0
 193 493 191 382 191 265 c 2
 191 252 l 1
 191 239 l 2
 191 120 193 9 296 9 c 0
 400 9 402 119 402 239 c 2
 402 252 l 1
 402 265 l 2
 402 383 400 493 296 493 c 0
EndSplineSet
Validated: 524329
EndChar

StartChar: m
Encoding: 109 109 66
Width: 594
GlyphClass: 2
Flags: W
HStem: -10 19<251.803 340.466> 493 17<255.137 337.109>
VStem: 29 162<144.467 354.996> 402 163<147.366 355.374>
LayerCount: 2
Fore
SplineSet
439.459 589.947 m 1
 468.459 589.947 l 1
 331.375 744.947 l 1
 295.543 744.947 l 1
 295.522 744.945 l 1
 295.5 744.947 l 1
 259.667 744.947 l 1
 122.584 589.947 l 1
 151.584 589.947 l 1
 201.147 620.991 261.726 638.349 295.521 656.864 c 1
 329.317 638.349 389.896 620.991 439.459 589.947 c 1
29 251 m 0
 29 325 55 386 107 436 c 0
 159 485 222 510 296 510 c 0
 370 510 434 485 486 436 c 0
 538 386 564 325 565 251 c 1
 564 175 538 113 486 64 c 0
 434 14 370 -10 296 -10 c 0
 222 -10 159 14 107 64 c 0
 55 113 29 175 29 251 c 0
296 493 m 0
 193 493 191 382 191 265 c 2
 191 252 l 1
 191 239 l 2
 191 120 193 9 296 9 c 0
 400 9 402 119 402 239 c 2
 402 252 l 1
 402 265 l 2
 402 383 400 493 296 493 c 0
EndSplineSet
Validated: 524297
EndChar

StartChar: n
Encoding: 110 110 67
Width: 594
GlyphClass: 2
Flags: W
HStem: -10 19<251.803 340.466> 493 17<255.137 337.109>
VStem: 29 162<144.467 354.996> 402 163<147.366 355.374>
LayerCount: 2
Fore
SplineSet
439.513 713.631 m 1
 456.071 678.555 437.355 657.679 412.915 646.142 c 0
 334.687 609.459 279.949 755.218 194.192 714.74 c 0
 143.156 690.65 120.354 633.741 144.107 583.422 c 1
 149.539 587.743 l 1
 131.646 625.36 160.537 641.721 174.555 648.339 c 0
 249.673 683.794 296.705 531.077 399.559 579.625 c 0
 448.968 602.946 473.152 659.119 446.004 716.639 c 1
 439.513 713.631 l 1
29 251 m 0
 29 325 55 386 107 436 c 0
 159 485 222 510 296 510 c 0
 370 510 434 485 486 436 c 0
 538 386 564 325 565 251 c 1
 564 175 538 113 486 64 c 0
 434 14 370 -10 296 -10 c 0
 222 -10 159 14 107 64 c 0
 55 113 29 175 29 251 c 0
296 493 m 0
 193 493 191 382 191 265 c 2
 191 252 l 1
 191 239 l 2
 191 120 193 9 296 9 c 0
 400 9 402 119 402 239 c 2
 402 252 l 1
 402 265 l 2
 402 383 400 493 296 493 c 0
EndSplineSet
Validated: 524329
EndChar

StartChar: o
Encoding: 111 111 68
Width: 594
GlyphClass: 2
Flags: W
HStem: -10 19<251.803 340.466> 493 17<255.137 337.109> 570 111.982<168.114 252.536 334.973 419.395>
VStem: 29 162<144.467 354.996> 157.459 106.224<581.3 670.576> 324.317 106.224<581.3 670.576> 402 163<147.366 355.374>
LayerCount: 2
Fore
SplineSet
157.459 626.312 m 0xe8
 157.459 656.209 179.215 683.707 209.93 681.982 c 1
 240.646 681.982 263.683 656.388 263.683 626.312 c 0
 263.683 595.596 240.646 570 209.93 570 c 0
 179.215 570 157.459 595.596 157.459 626.312 c 0xe8
324.317 626.312 m 0xe4
 324.317 656.209 346.074 683.707 376.789 681.982 c 1
 407.506 681.982 430.541 656.388 430.541 626.312 c 0
 430.541 595.596 407.506 570 376.789 570 c 0
 346.074 570 324.317 595.596 324.317 626.312 c 0xe4
29 251 m 0xf2
 29 325 55 386 107 436 c 0
 159 485 222 510 296 510 c 0
 370 510 434 485 486 436 c 0
 538 386 564 325 565 251 c 1
 564 175 538 113 486 64 c 0
 434 14 370 -10 296 -10 c 0
 222 -10 159 14 107 64 c 0
 55 113 29 175 29 251 c 0xf2
296 493 m 0
 193 493 191 382 191 265 c 2
 191 252 l 1
 191 239 l 2
 191 120 193 9 296 9 c 0
 400 9 402 119 402 239 c 2
 402 252 l 1
 402 265 l 2
 402 383 400 493 296 493 c 0
EndSplineSet
Validated: 524321
EndChar

StartChar: p
Encoding: 112 112 69
Width: 540
GlyphClass: 2
Flags: W
HStem: 79.501 112<227.537 311.97> 241 76<65 471> 367.995 112<227.537 311.97>
VStem: 216.88 106.239<90.8031 180.242 379.297 468.736>
LayerCount: 2
Fore
SplineSet
65 241 m 1
 65 317 l 1
 471 317 l 1
 471 241 l 1
 65 241 l 1
216.88 424.315 m 0
 216.88 454.396 238.64 479.995 269.359 479.995 c 0
 300.079 479.995 323.119 454.396 323.119 424.315 c 0
 323.119 393.595 300.079 367.995 269.359 367.995 c 0
 238.64 367.995 216.88 393.595 216.88 424.315 c 0
216.88 135.82 m 0
 216.88 165.901 238.64 191.501 269.359 191.501 c 0
 300.079 191.501 323.119 165.901 323.119 135.82 c 0
 323.119 105.102 300.079 79.501 269.359 79.501 c 0
 238.64 79.501 216.88 105.102 216.88 135.82 c 0
EndSplineSet
Validated: 524289
EndChar

StartChar: q
Encoding: 113 113 70
Width: 621
GlyphClass: 2
Flags: W
HStem: -4 21G<409 424> 36 12<581.452 606.996> 480 20G<213.5 235 523.5 545> 570 17.229<382.352 421.2>
VStem: 101 134<80.4322 391.437> 409 136<65.4666 76.0215 91.0627 393.289> 607 1<38.0469 40.8594 43 44.907>
LayerCount: 2
Fore
SplineSet
430 570 m 1
 346.399 570 291.344 570.544 236.58 610.412 c 0
 196.737 639.416 202.011 681.492 220.104 705.943 c 0
 253.998 751.745 337.6 728.033 337.6 671.201 c 0
 337.6 631.233 358.133 587.229 421.2 587.229 c 1
 430 570 l 1
235 500 m 1
 235 185.679 l 2
 235 -20.9658 359.454 65.7686 409 108.486 c 1
 409 321 l 2
 409.07 352 401 377 385 396 c 0
 369 415 349 427 323 434 c 1
 323 440 l 1
 377 448 419 457 450 465 c 0
 481 472 510 484 537 500 c 1
 545 500 l 1
 545 109 l 2
 545 95 552 81 562 70 c 0
 572 60 582 52 592 48 c 0
 602 44 607 43 607 45 c 1
 608 43 608 42 608 41 c 0
 608 40 608 39 607 38 c 0
 607 37 606 36 606 36 c 1
 585 38 552 34 507 24 c 0
 463 14 432 4 416 -4 c 1
 409 0 l 1
 409 76.0215 l 1
 182.28 -89.2012 101.672 11.5918 101 136 c 2
 100 321 l 2
 99.8984 352 92 377 76 396 c 0
 60 415 39 427 13 434 c 1
 13 440 l 1
 67 448 109 457 140 465 c 0
 171 472 200 484 227 500 c 1
 235 500 l 1
EndSplineSet
Validated: 524321
EndChar

StartChar: r
Encoding: 114 114 71
Width: 621
GlyphClass: 2
Flags: W
HStem: -4 21G<409 424> 36 12<581.452 606.996> 480 20G<213.5 235 523.5 545> 570 17.229<200.8 239.648>
VStem: 101 134<80.4322 391.437> 409 136<65.4666 76.0215 91.0627 393.289> 607 1<38.0469 40.8594 43 44.907>
LayerCount: 2
Fore
SplineSet
192 570 m 1
 275.601 570 330.656 570.544 385.42 610.412 c 0
 425.263 639.416 419.989 681.492 401.896 705.943 c 0
 368.002 751.745 284.4 728.033 284.4 671.201 c 0
 284.4 631.233 263.867 587.229 200.8 587.229 c 1
 192 570 l 1
235 500 m 1
 235 185.679 l 2
 235 -20.9658 359.454 65.7686 409 108.486 c 1
 409 321 l 2
 409.07 352 401 377 385 396 c 0
 369 415 349 427 323 434 c 1
 323 440 l 1
 377 448 419 457 450 465 c 0
 481 472 510 484 537 500 c 1
 545 500 l 1
 545 109 l 2
 545 95 552 81 562 70 c 0
 572 60 582 52 592 48 c 0
 602 44 607 43 607 45 c 1
 608 43 608 42 608 41 c 0
 608 40 608 39 607 38 c 0
 607 37 606 36 606 36 c 1
 585 38 552 34 507 24 c 0
 463 14 432 4 416 -4 c 1
 409 0 l 1
 409 76.0215 l 1
 182.28 -89.2012 101.672 11.5918 101 136 c 2
 100 321 l 2
 99.8984 352 92 377 76 396 c 0
 60 415 39 427 13 434 c 1
 13 440 l 1
 67 448 109 457 140 465 c 0
 171 472 200 484 227 500 c 1
 235 500 l 1
EndSplineSet
Validated: 524329
EndChar

StartChar: s
Encoding: 115 115 72
Width: 621
GlyphClass: 2
Flags: W
HStem: -4 21G<409 424> 36 12<581.452 606.996> 480 20G<213.5 235 523.5 545>
VStem: 101 134<80.4322 391.437> 409 136<65.4666 76.0215 91.0627 393.289> 607 1<38.0469 40.8594 43 44.907>
LayerCount: 2
Fore
SplineSet
449.938 570 m 1
 478.938 570 l 1
 341.854 725 l 1
 306.021 725 l 1
 306 724.998 l 1
 305.979 725 l 1
 270.146 725 l 1
 133.062 570 l 1
 162.062 570 l 1
 211.626 601.044 272.204 618.401 306 636.917 c 1
 339.796 618.401 400.375 601.044 449.938 570 c 1
235 500 m 1
 235 185.679 l 2
 235 -20.9658 359.454 65.7686 409 108.486 c 1
 409 321 l 2
 409.07 352 401 377 385 396 c 0
 369 415 349 427 323 434 c 1
 323 440 l 1
 377 448 419 457 450 465 c 0
 481 472 510 484 537 500 c 1
 545 500 l 1
 545 109 l 2
 545 95 552 81 562 70 c 0
 572 60 582 52 592 48 c 0
 602 44 607 43 607 45 c 1
 608 43 608 42 608 41 c 0
 608 40 608 39 607 38 c 0
 607 37 606 36 606 36 c 1
 585 38 552 34 507 24 c 0
 463 14 432 4 416 -4 c 1
 409 0 l 1
 409 76.0215 l 1
 182.28 -89.2012 101.672 11.5918 101 136 c 2
 100 321 l 2
 99.8984 352 92 377 76 396 c 0
 60 415 39 427 13 434 c 1
 13 440 l 1
 67 448 109 457 140 465 c 0
 171 472 200 484 227 500 c 1
 235 500 l 1
EndSplineSet
Validated: 524329
EndChar

StartChar: t
Encoding: 116 116 73
Width: 621
GlyphClass: 2
Flags: W
HStem: -4 21G<409 424> 36 12<581.452 606.996> 480 20G<213.5 235 523.5 545> 570 111.982<182.114 266.536 348.973 433.395>
VStem: 101 134<80.4322 391.437> 171.459 106.224<581.3 670.576> 338.317 106.224<581.3 670.576> 409 136<65.4666 76.0215 91.0627 393.289> 607 1<38.0469 40.8594 43 44.907>
LayerCount: 2
Fore
SplineSet
171.459 626.312 m 0xf480
 171.459 656.209 193.215 683.707 223.93 681.982 c 1
 254.646 681.982 277.683 656.388 277.683 626.312 c 0
 277.683 595.596 254.646 570 223.93 570 c 0
 193.215 570 171.459 595.596 171.459 626.312 c 0xf480
338.317 626.312 m 0xf280
 338.317 656.209 360.074 683.707 390.789 681.982 c 1
 421.506 681.982 444.541 656.388 444.541 626.312 c 0
 444.541 595.596 421.506 570 390.789 570 c 0
 360.074 570 338.317 595.596 338.317 626.312 c 0xf280
235 500 m 1xf980
 235 185.679 l 2
 235 -20.9658 359.454 65.7686 409 108.486 c 1
 409 321 l 2
 409.07 352 401 377 385 396 c 0
 369 415 349 427 323 434 c 1
 323 440 l 1
 377 448 419 457 450 465 c 0
 481 472 510 484 537 500 c 1
 545 500 l 1
 545 109 l 2
 545 95 552 81 562 70 c 0
 572 60 582 52 592 48 c 0
 602 44 607 43 607 45 c 1
 608 43 608 42 608 41 c 0
 608 40 608 39 607 38 c 0
 607 37 606 36 606 36 c 1
 585 38 552 34 507 24 c 0
 463 14 432 4 416 -4 c 1
 409 0 l 1
 409 76.0215 l 1
 182.28 -89.2012 101.672 11.5918 101 136 c 2
 100 321 l 2
 99.8984 352 92 377 76 396 c 0
 60 415 39 427 13 434 c 1
 13 440 l 1
 67 448 109 457 140 465 c 0
 171 472 200 484 227 500 c 1
 235 500 l 1xf980
EndSplineSet
Validated: 524321
EndChar

StartChar: u
Encoding: 117 117 74
Width: 628
GlyphClass: 2
Flags: W
HStem: -138 81.5908<117.5 221.301> 487 13<237.019 249> 492 8<363 378.925 594.871 617> 570 17.229<212.3 251.148>
LayerCount: 2
Fore
SplineSet
203.5 570 m 1x90
 287.101 570 342.156 570.544 396.92 610.412 c 0
 436.763 639.416 431.489 681.492 413.396 705.943 c 0
 379.502 751.745 295.9 728.033 295.9 671.201 c 0
 295.9 631.233 275.367 587.229 212.3 587.229 c 1
 203.5 570 l 1x90
288.26 27.084 m 1
 433 319 l 1
 433 319 518 491 618 492 c 1
 618 492 617 497 617 500 c 1
 536 489 451 489 363 500 c 1
 363 492 l 1xb0
 363 492 484.119 478.9 413 327 c 2
 340.376 171.885 l 1
 237 442 l 2
 227.045 468.013 228 482 249 487 c 1xd0
 264 492 l 1
 264 500 l 1
 182 489 98 489 10 500 c 1
 10 492 l 1xb0
 25 487 l 1xd0
 42 483 61.1201 467.051 70 446 c 2
 257.769 0.905273 l 1
 247.575 -24.9912 231.148 -56.4092 211.454 -56.4092 c 0
 199.455 -56.4092 183.955 -51.25 178 -30 c 1
 178 -30 170.955 9 121 9 c 0
 93 9 56 -8 56 -55 c 0
 56 -112 99 -138 136 -138 c 0
 221.37 -138 269.218 -10.8701 269.865 -10.001 c 2
 269.872 -10.001 l 1
 287.43 25.4102 l 2
 287.705 25.9619 287.982 26.5195 288.261 27.083 c 2
 288.26 27.084 l 1
EndSplineSet
Validated: 524325
EndChar

StartChar: v
Encoding: 118 118 75
Width: 628
GlyphClass: 2
Flags: W
HStem: -138 81.5908<117.5 221.301> 487 13<237.019 249> 492 8<363 378.925 594.871 617> 570 111.983<187.614 272.036 354.473 438.895>
VStem: 176.959 106.224<581.3 670.576> 343.817 106.224<581.3 670.576>
LayerCount: 2
Fore
SplineSet
176.959 626.312 m 0x9c
 176.959 656.209 198.715 683.707 229.43 681.983 c 1
 260.146 681.983 283.183 656.388 283.183 626.312 c 0
 283.183 595.596 260.146 570 229.43 570 c 0
 198.715 570 176.959 595.596 176.959 626.312 c 0x9c
343.817 626.312 m 0
 343.817 656.209 365.574 683.707 396.289 681.983 c 1
 427.006 681.983 450.041 656.388 450.041 626.312 c 0
 450.041 595.596 427.006 570 396.289 570 c 0
 365.574 570 343.817 595.596 343.817 626.312 c 0
288.26 27.084 m 1
 433 319 l 1
 433 319 518 491 618 492 c 1
 618 492 617 497 617 500 c 1
 536 489 451 489 363 500 c 1
 363 492 l 1xbc
 363 492 484.119 478.9 413 327 c 2
 340.376 171.885 l 1
 237 442 l 2
 227.045 468.013 228 482 249 487 c 1xdc
 264 492 l 1
 264 500 l 1
 182 489 98 489 10 500 c 1
 10 492 l 1xbc
 25 487 l 1xdc
 42 483 61.1201 467.051 70 446 c 2
 257.769 0.905273 l 1
 247.575 -24.9912 231.148 -56.4092 211.454 -56.4092 c 0
 199.455 -56.4092 183.955 -51.25 178 -30 c 1
 178 -30 170.955 9 121 9 c 0
 93 9 56 -8 56 -55 c 0
 56 -112 99 -138 136 -138 c 0
 221.37 -138 269.218 -10.8701 269.865 -10.001 c 2
 269.872 -10.001 l 1
 287.43 25.4102 l 2
 287.705 25.9619 287.982 26.5195 288.261 27.083 c 2
 288.26 27.084 l 1
EndSplineSet
Validated: 524325
EndChar

StartChar: w
Encoding: 119 119 76
Width: 1245
GlyphClass: 2
Flags: W
HStem: -29.6211 20G<467.15 479.999> -15 16.9512<363.095 441.751> -0.000976562 16.9854<787.6 919.435> 389.911 16.088<776.999 833.563> 782.886 16.989<747.727 895.681> 798.004 16.985<355.031 447.751>
VStem: 28 198<242.327 539.624> 570.892 176.107<173.798 389.911 405.999 641.973> 983.999 9.33295<202.91 243.403 552.506 592.999>
LayerCount: 2
Fore
SplineSet
399.928 798.004 m 1x5780
 506.438 796.09 570.892 709.14 570.892 387.14 c 0
 570.892 88.1396 481.003 1.95117 399.468 1.95117 c 0
 317.932 1.95117 226 91 226 390 c 0
 226 712 293.416 796.09 399.928 798.004 c 1x5780
399.595 -15 m 1
 427.398 -16.2188 454.301 -14.415 479.999 -9.62109 c 1
 479.999 -10.001 l 1
 485.284 -8.71191 490.458 -7.4873 495.526 -6.3252 c 0
 669.291 33.5156 718.106 -0.000976562 832.499 -0.000976562 c 2
 1172 -0.000976562 l 1
 1214.34 282.992 l 1
 1205 282.992 l 1
 1205 282.992 1169 16.9844 832.499 16.9844 c 0
 806.999 16.9844 746.716 20.7422 746.999 84.999 c 2
 746.999 389.911 l 1
 776.999 389.911 l 1
 776.999 389.911 983.999 389.91 983.999 202.91 c 1
 993.332 202.91 l 1
 993.332 592.999 l 1
 983.999 592.999 l 1
 983.999 405.999 776.999 405.999 776.999 405.999 c 1
 746.999 405.999 l 1
 746.999 776.323 l 1
 753.654 777.983 777.604 782.886 828.381 782.886 c 0
 1042.32 782.886 1161 568 1161 568 c 1
 1170.4 568 l 1
 1093.17 771.5 l 1
 1093.17 771.5 961.5 799.875 828.381 799.875 c 1xbb80
 789.047 798.709 778.75 796.646 745.037 793.001 c 1
 745.037 792.886 l 1
 718.08 789.785 688.017 786.797 654 786.562 c 0
 592.979 786.536 530.972 790.372 488.278 801.363 c 1
 457.994 810.589 427.937 814.989 399.929 814.989 c 0
 254.272 814.989 28 692 28 394 c 0
 28 113 203.432 -15 399.595 -15 c 1
EndSplineSet
Validated: 524329
EndChar

StartChar: x
Encoding: 120 120 77
Width: 931
GlyphClass: 2
Flags: W
HStem: -11 100<665.66 776.034> -10 19<251.803 340.466> 288 18<562.099 763.948> 493 17<255.137 337.109 640.57 712.528>
VStem: 29 162<144.467 354.996> 402 160.099<188.01 288> 421 144<175 325> 763.948 134.052<306 377.35>
LayerCount: 2
Fore
SplineSet
421 249 m 0xbb
 421 396 534 510 681 510 c 0
 813 510 898 384 898 288 c 1
 764 288 l 1
 562.099 288 l 1xbd
 574.233 188.01 636.109 89 747 89 c 0
 784 89 843 93 887 163 c 1
 897 162 l 1
 897 158.917 853 -11 680 -11 c 0
 532 -11 421 100 421 249 c 0xbb
560.452 306 m 1
 763.948 306 l 1
 763.331 397.113 756.034 493 681 493 c 0
 594.509 493 554.541 401.76 560.452 306 c 1
29 251 m 0
 29 325 55 386 107 436 c 0
 159 485 222 510 296 510 c 0
 370 510 434 485 486 436 c 0
 538 386 564 325 565 251 c 1
 564 175 538 113 486 64 c 0
 434 14 370 -10 296 -10 c 0x7b
 222 -10 159 14 107 64 c 0
 55 113 29 175 29 251 c 0
296 493 m 0
 193 493 191 382 191 265 c 2
 191 252 l 1
 191 239 l 2
 191 120 193 9 296 9 c 0
 400 9 402 119 402 239 c 2
 402 252 l 1
 402 265 l 2x7d
 402 383 400 493 296 493 c 0
EndSplineSet
Validated: 524325
EndChar

StartChar: y
Encoding: 121 121 78
Width: 533
GlyphClass: 2
Flags: W
HStem: -19.6641 20G<271.314 272.23> 0 8<20.5 32.0741 511.639 523> 792.5 14.5<225.085 283.802>
VStem: 268.999 5.50101<0 0.65918> 328 135<22.1807 59 700 769.276>
LayerCount: 2
Fore
SplineSet
80.5 434 m 1x78
 80.5 54 l 2
 80.5 44 75.5 35 65.5 27 c 0
 55.5 19 45.5 14 35.5 12 c 2
 20.5 8 l 1
 20.5 0 l 1
 102.818 10.4668 184.82 10.7275 268.999 0.671875 c 1
 269 0 l 2
 269.926 0.113281 270.851 0.225586 271.776 0.335938 c 0
 272.684 0.225586 273.592 0.113281 274.5 0 c 2
 274.5 0.65918 l 1
 360.079 10.6992 442.278 10.4941 523 0 c 1
 523 8 l 1
 508 12 l 2
 497 15 487 20 478 27 c 0
 467 35 463 46 463 59 c 2
 463 799 l 1
 456 799 l 1
 429 783 426.626 783.316 407 775.167 c 0
 350 751.5 316.5 807.104 258.5 807 c 0
 130.5 807 105.5 555 24.5 443 c 1
 24.5 434 l 1
 80.5 434 l 1x78
213.5 434 m 1
 328.882 434 l 1
 328 54 l 2
 327.977 44 324 35 313 27 c 1
 304 19 294 14 283 12 c 2
 271.25 8.86621 l 1
 259.5 12 l 2
 248.5 15 238.5 20 229.5 27 c 0
 218.5 35 213.5 59 213.5 59 c 1
 213.5 434 l 1
328.989 480 m 1
 216.5 480 l 1
 216.5 542 180.5 628 180.5 720 c 1
 184.898 764.625 214.5 792.5 254.5 792.5 c 0
 274.333 792.5 329.5 779.852 329.5 700 c 2
 328.989 480 l 1
EndSplineSet
Validated: 524329
EndChar

StartChar: z
Encoding: 122 122 79
Width: 533
GlyphClass: 2
Flags: W
HStem: 0 8<20.501 32.3042 516.962 529> 481 20G<429.536 469> 792.5 14.5<224.316 283.266>
VStem: 80.501 132.999<27.3856 432.962> 274.001 0.5<0 0.0625> 334 135<22.2129 375.787>
LayerCount: 2
Fore
SplineSet
254.5 792.5 m 0
 214.5 792.5 184.898 764.625 180.5 720 c 1
 180.5 628 213.5 541.999 213.5 479.999 c 2
 213.668 439.049 l 1
 310.54 454.015 397.071 461.044 462 501 c 1
 469 500 l 1
 469 59 l 1
 468 33 493 17 514 12 c 2
 529 8 l 1
 529 -0 l 1
 443.365 10.7061 358.473 10.7227 274.501 0.0634766 c 1
 274.501 0 l 2
 274.417 0.0107422 274.332 0.0214844 274.248 0.0322266 c 0
 274.166 0.0214844 274.083 0.0107422 274.001 0 c 2
 274.001 0.0625 l 1
 188.067 10.7334 104.448 10.6738 20.501 0 c 1
 20.501 8 l 1
 35.501 12 l 2
 45.501 14 55.501 19 65.501 27 c 0
 75.501 35 80.501 44 80.501 54 c 2
 80.501 434.09 l 1
 24.501 434 l 1
 24.501 443 l 1
 105.501 555 130.501 807 258.501 807 c 0
 382.729 807 433.744 682 433.744 626.115 c 0
 433.744 562.113 386.247 535.115 346.744 535.115 c 0
 272.744 535.115 228 620.371 292.244 684.615 c 0
 337 729.371 313 792.5 254.5 792.5 c 0
213.5 432.962 m 1
 213.5 58.999 l 1
 213.5 58.999 218.5 34.999 229.5 26.999 c 0
 238.5 19.999 248.5 14.999 259.5 11.999 c 2
 274.25 8.06543 l 1
 289 11.999 l 2
 307 15.999 335 32.999 334 53.999 c 1
 334 319.999 l 2
 334 382.938 264.487 419.928 213.5 432.962 c 1
EndSplineSet
Validated: 524321
EndChar
