<?xml version="1.0" standalone="no"?>
<!DOCTYPE svg PUBLIC "-//W3C//DTD SVG 1.1//EN" "http://www.w3.org/Graphics/SVG/1.1/DTD/svg11.dtd" >
<svg xmlns="http://www.w3.org/2000/svg" xmlns:xlink="http://www.w3.org/1999/xlink" version="1.1">
<metadata>
Created by FontForge 20170924 at Thu Mar 12 10:57:39 2020
 By cedr,,,
by Luuse (contact@luuse.io), SIL Open Font License
</metadata>
<defs>
<font id="Hershey-Noailles-Times-Duplex-Regular" horiz-adv-x="578" >
  <font-face 
    font-family="Hershey-Noailles-Times"
    font-weight="400"
    font-stretch="normal"
    units-per-em="1100"
    panose-1="2 0 5 3 0 0 0 0 0 0"
    ascent="800"
    descent="-300"
    x-height="449"
    cap-height="652"
    bbox="-47.5 -204 920 900.5"
    underline-thickness="26.4"
    underline-position="0"
    stemh="43"
    stemv="73"
    unicode-range="U+0020-2026"
  />
<missing-glyph horiz-adv-x="550" 
d="M55 0v540h440v-540h-440zM110 55h330v430h-330v-430z" />
    <glyph glyph-name=".notdef" horiz-adv-x="550" 
d="M55 0v540h440v-540h-440zM110 55h330v430h-330v-430z" />
    <glyph glyph-name="space" unicode=" " horiz-adv-x="346" 
 />
    <glyph glyph-name="exclam" unicode="!" horiz-adv-x="289" 
d="M144 101h1c7 0 15 -5 18 -9l26 -26c3 -3 7 -9 7 -15s-4 -13 -7 -16l-28 -28c-3 -3 -10 -7 -16 -7s-12 4 -15 7l-30 28c-3 3 -6 10 -6 16s3 12 6 15l28 26c3 4 8 8 14 9h2zM145 652l1 -1h1h3c7 -1 13 -7 15 -14l29 -55c1 -2 2 -7 2 -10v-2l-30 -348
c-1 -11 -10 -20 -21 -20s-21 9 -22 20l-28 348v2c0 3 1 8 2 10l27 55c2 7 10 13 18 14h2z" />
    <glyph glyph-name="quotedbl" unicode="&#x22;" horiz-adv-x="520" 
d="M144 651h1c7 0 15 -5 18 -9l26 -26c3 -3 7 -11 7 -15c0 -2 0 -5 -1 -7l-59 -172v-2c0 -1 -1 -2 -1 -2l-1 -2l-1 -1v-1l-1 -2v-1h-1l-1 -1l-1 -1h-1v-1l-3 -1h-2c-1 0 -2 -1 -3 -1h-1v-1h-1h-1h-1h-2h-1l-1 1h-1h-1h-1l-1 1h-1l-1 1h-2l-1 1h-1v1l-1 1l-2 1l-1 2v1l-1 1v1
c-1 1 -2 4 -2 5s-1 4 -1 5l1 2v172c0 4 2 12 5 15l28 26c3 4 8 8 14 9h2z" />
    <glyph glyph-name="numbersign" unicode="#" horiz-adv-x="635" 
d="M254 348l-28 -130h128l29 130h-129zM493 768c12 0 21 -10 21 -22v-5l-77 -351h84c12 0 22 -8 22 -20s-10 -22 -22 -22h-94l-28 -130h93h1c12 0 21 -10 21 -22s-9 -22 -21 -22h-1h-103l-79 -360c-2 -10 -11 -18 -21 -18c-12 0 -22 10 -22 22c0 1 1 5 1 6l76 350h-128
l-78 -360c-2 -10 -12 -18 -22 -18c-12 0 -22 10 -22 22c0 1 1 5 1 6l77 350h-85c-12 0 -22 10 -22 22s10 22 22 22h93l29 130h-93c-12 0 -22 10 -22 22s10 20 22 20h103l78 360c2 10 12 18 22 18c12 0 21 -10 21 -22v-5l-77 -351h130l78 360c2 10 11 18 21 18h1z" />
    <glyph glyph-name="dollar" unicode="$" 
d="M370 290v-238l52 17l49 49v98l-50 48zM253 330v-286h73v262zM210 600l-54 -18l-47 -48v-40l48 -48l53 -27v181zM253 608v-204l73 -23v227h-73zM231 768h1c12 0 21 -10 21 -22v-95h73v95c0 12 10 22 22 22s22 -10 22 -22v-100l71 -24c2 -1 7 -4 9 -6l57 -57
c3 -3 7 -12 7 -16v-29c0 -4 -4 -13 -7 -16l-29 -28c-3 -3 -9 -7 -15 -7s-12 4 -15 7l-29 28c-3 3 -7 10 -7 16s4 12 7 15l28 29l-25 24l-52 18v-235l13 -4c1 0 2 -1 3 -1l58 -29c2 -1 5 -3 6 -4l28 -29c1 -1 4 -3 5 -5l27 -58c2 -3 4 -8 4 -11v-3v-112c0 -4 -4 -12 -7 -15
l-57 -59c-2 -2 -7 -3 -9 -4l-71 -24v-101v-1c0 -12 -10 -21 -22 -21s-22 9 -22 21v1v94h-73v-94v-1c0 -12 -9 -21 -21 -21s-22 9 -22 21v1v101l-72 24c-2 1 -6 2 -8 4l-58 59c-3 3 -7 11 -7 15v29c0 4 4 12 7 15l28 29c3 3 10 6 16 6s12 -3 15 -6l30 -29c3 -3 5 -9 5 -15
s-2 -13 -5 -16l-29 -27l24 -26l54 -17v292l-14 5c-1 0 -3 1 -4 1l-57 28c-2 1 -4 4 -5 5l-30 28c-1 1 -2 4 -3 6l-29 57c-2 3 -3 8 -3 11v3v55c0 4 4 13 7 16l58 57c2 2 6 5 8 6l72 24v100c0 12 9 22 21 22z" />
    <glyph glyph-name="percent" unicode="%" horiz-adv-x="694" 
d="M497 202l-47 -23l-23 -47v-43l45 -45h44l47 23l23 47v43l-45 45h-44zM492 246h1h2h55c4 0 12 -3 15 -6l59 -58c3 -3 5 -11 5 -15v-1v-57c0 -3 -1 -8 -2 -10l-29 -58c-2 -3 -7 -7 -10 -9l-57 -30c-2 -1 -7 -2 -10 -2h-58c-4 0 -12 4 -15 7l-59 58c-3 3 -5 10 -5 14v1v58
c0 3 1 7 2 9l29 59c2 3 7 6 10 8l55 29c1 1 4 2 6 2h1c1 0 4 1 5 1zM179 608l-47 -23l-23 -47v-44l45 -45h44l46 23l23 47v44l-45 45h-43zM231 651c3 0 9 -1 12 -3l55 -26l82 -28h80l81 28l55 26c3 2 9 3 12 3s8 -1 10 -2l2 -1l2 -1l2 -1l1 -2l1 -2v-1l1 -1l1 -2s1 -1 1 -2
s1 -4 1 -6c0 -4 -3 -12 -6 -15l-521 -607c-3 -4 -10 -8 -16 -8c-12 0 -22 10 -22 22c0 4 2 11 5 14l459 535l-59 -20c-2 -1 -5 -1 -7 -1h-87c-2 0 -4 0 -6 1l-59 20v-57c0 -3 -1 -8 -2 -10l-30 -57c-2 -3 -5 -8 -8 -10l-59 -29c-2 -1 -7 -2 -10 -2h-57c-4 0 -12 2 -15 5
l-58 59c-3 3 -7 11 -7 15v58c0 3 1 7 2 9l30 58c2 3 6 8 9 10l58 29c2 1 7 2 10 2h55h2z" />
    <glyph glyph-name="ampersand" unicode="&#x26;" horiz-adv-x="752" 
d="M256 321l-39 -26l-54 -54l-25 -51v-76l23 -47l47 -23h76l50 24l54 54l5 8l-121 169zM289 605l-41 -20l-24 -47v-47l26 -52l33 -45l47 46l24 51v47l-23 47zM288 651h1c3 0 8 -1 10 -2l59 -29c3 -2 6 -7 8 -10l30 -58c1 -2 2 -6 2 -9v-58c0 -3 -1 -8 -2 -10l-30 -58
c-1 -2 -2 -5 -3 -6l-54 -53l123 -170l11 18l57 143l2 1l28 58c1 2 4 5 5 6l28 28c3 3 12 7 16 7h29c4 0 13 -4 16 -7l28 -28c3 -3 7 -12 7 -16v-28c0 -4 -4 -13 -7 -16l-28 -30c-3 -3 -10 -5 -16 -5s-12 2 -15 5l-30 30c-2 2 -4 8 -5 11l-17 -34l-58 -144c0 -1 0 -2 -1 -3
l-22 -33l20 -28l54 -55l50 -24h14l17 15v21c0 12 10 22 22 22s22 -10 22 -22v-29c0 -4 -4 -13 -7 -16l-28 -28c-3 -3 -12 -7 -16 -7h-26h-2c-1 0 -5 1 -6 1h-2h-1l-86 30c-2 1 -7 2 -9 4l-56 57l-57 -57c-1 -1 -3 -2 -5 -3l-59 -30c-2 -1 -7 -2 -10 -2h-83h-2
c-1 0 -5 1 -6 1h-2h-1l-86 30c-4 1 -10 6 -12 10l-30 58c-1 2 -2 7 -2 10v87c0 3 1 8 2 10l30 57c1 3 4 7 6 9l87 57s0 1 1 1l42 28l-20 28c-1 1 -2 5 -2 6l-28 84v2h-1c-1 2 -2 5 -2 7v2v56c0 3 3 7 4 9l28 58c2 3 7 8 10 10l57 29c2 1 7 2 9 2z" />
    <glyph glyph-name="quotesingle" unicode="'" horiz-adv-x="289" 
d="M144 652h1c12 0 21 -10 21 -22v-172v-3v-5c0 -1 -1 -2 -1 -2c0 -1 -1 -1 -1 -1l-1 -3l-1 -2l-1 -1l-1 -2l-3 -1l-1 -1h-1l-1 -1h-1l-2 -2h-3h-2h-1h-1h-1h-1h-2l-1 2h-1h-2l-1 1h-1l-2 1l-1 2l-2 1l-1 1c-1 1 -3 4 -3 5c0 0 -1 1 -1 2v1c0 1 -1 1 -1 2v2l-28 172
c0 1 -1 3 -1 4c0 12 10 22 22 22h1c4 0 10 -3 13 -6c3 3 10 6 14 6z" />
    <glyph glyph-name="parenleft" unicode="(" horiz-adv-x="404" 
d="M318 768h1c12 0 21 -10 21 -22c0 -6 -4 -13 -7 -16l-55 -56l-55 -111l-28 -83l-29 -142v-111l29 -141l28 -85l55 -111l55 -55c3 -3 7 -9 7 -15c0 -12 -10 -22 -22 -22c-6 0 -13 3 -16 6l-56 56l-1 1l-1 3h-1v1h-1v1l-57 86c0 1 -1 1 -1 2l-59 116c-1 1 -2 5 -2 6l-28 144
v4v116v4l28 146c0 1 1 4 2 5l59 115c0 1 1 2 1 3l57 87h1c1 1 1 2 2 3v1h1l56 57c3 3 12 7 16 7z" />
    <glyph glyph-name="parenright" unicode=")" horiz-adv-x="404" 
d="M87 768c6 0 12 -4 15 -7l56 -57l3 -1l1 -1v-1l1 -1l58 -87c0 -1 1 -2 1 -3l57 -115c1 -1 3 -4 3 -5l29 -146v-4v-116v-4l-29 -144c0 -1 -2 -5 -3 -6l-57 -116c0 -1 -1 -1 -1 -2l-58 -87c-1 -1 -1 -3 -2 -4h-1v-1l-58 -56c-3 -3 -9 -6 -15 -6c-12 0 -22 10 -22 22
c0 6 4 12 7 15l54 55l57 111l27 85l29 141v111l-29 142l-27 83l-57 111l-54 56c-3 3 -7 10 -7 16c0 12 10 22 22 22z" />
    <glyph glyph-name="asterisk" unicode="*" horiz-adv-x="463" 
d="M231 478h1c12 0 21 -10 21 -22v-135l112 67c3 2 8 4 11 4c12 0 22 -10 22 -22c0 -7 -5 -16 -11 -19l-113 -68l113 -69c6 -3 11 -11 11 -18c0 -12 -10 -22 -22 -22c-3 0 -8 1 -11 3l-112 67v-135c0 -12 -9 -22 -21 -22s-22 10 -22 22v135l-112 -67c-3 -2 -8 -3 -11 -3
c-12 0 -22 10 -22 22c0 7 5 15 11 18l113 69l-113 68c-6 3 -11 12 -11 19c0 12 10 22 22 22c3 0 8 -2 11 -4l112 -67v135c0 12 9 22 21 22z" />
    <glyph glyph-name="plus" unicode="+" horiz-adv-x="752" 
d="M376 565c12 0 22 -10 22 -22v-239h239c12 0 22 -9 22 -21s-10 -22 -22 -22h-239v-239c0 -12 -10 -22 -22 -22s-22 10 -22 22v239h-238c-12 0 -22 10 -22 22s10 21 22 21h238v239c0 12 10 22 22 22z" />
    <glyph glyph-name="comma" unicode="," horiz-adv-x="231" 
d="M116 188c4 0 12 -3 15 -6l27 -27c4 -3 8 -11 8 -17v-3v-55v-1c0 -4 -2 -11 -5 -14l-59 -58c-3 -3 -9 -7 -15 -7c-12 0 -22 10 -22 22c0 6 4 12 7 15l50 51c-2 -1 -4 -1 -6 -1c-4 0 -13 4 -16 7l-28 28c-3 3 -7 10 -7 16s4 12 7 15l28 29c3 3 12 6 16 6z" />
    <glyph glyph-name="hyphen" unicode="-" horiz-adv-x="259" 
d="M29 275h203c12 0 22 -10 22 -22s-10 -21 -22 -21h-203c-12 0 -22 9 -22 21s10 22 22 22z" />
    <glyph glyph-name="period" unicode="." horiz-adv-x="231" 
d="M116 188c7 0 14 -5 17 -9l28 -26c3 -3 5 -9 5 -15s-2 -13 -5 -16l-30 -28c-3 -3 -9 -7 -15 -7s-13 4 -16 7l-28 28c-3 3 -7 10 -7 16s4 12 7 15l26 26c3 4 9 8 15 9h1h2z" />
    <glyph glyph-name="slash" unicode="/" horiz-adv-x="635" 
d="M579 768c12 0 22 -10 22 -22c0 -3 -2 -8 -3 -11l-521 -926c-3 -7 -12 -11 -19 -11c-12 0 -22 10 -22 22c0 3 1 8 2 10l522 926c3 7 12 12 19 12z" />
    <glyph glyph-name="zero" unicode="0" 
d="M265 608l-49 -25l-25 -24l-26 -52l-27 -140v-82l27 -140l26 -53l25 -24l49 -24h49l49 24l24 24l27 53l27 140v82l-27 140l-27 52l-24 24l-49 25h-49zM261 651h1h1h53h2h5c1 0 2 -1 3 -1h1l85 -28c4 -1 10 -6 12 -9l58 -87c1 -2 2 -6 2 -8l30 -144v-4v-87v-5l-30 -145
c0 -2 -1 -6 -2 -8l-58 -87c-2 -3 -8 -6 -12 -7l-85 -29v-1h-1h-2c-2 -1 -4 -1 -6 -1h-2h-52h-3c-1 0 -4 1 -5 1h-2h-1l-86 30c-4 1 -10 4 -12 7l-57 87c-1 2 -3 6 -3 8l-29 145c0 1 -1 4 -1 5v87c0 1 1 3 1 4l29 144c0 2 2 6 3 8l57 87c2 3 8 8 12 9l84 28h3l1 1h1h1h3h1z
" />
    <glyph glyph-name="one" unicode="1" 
d="M318 651c12 0 22 -9 22 -21v-586h94c12 0 22 -10 22 -22s-10 -22 -22 -22h-112h-4h-3h-22h-4h-3h-112c-12 0 -22 10 -22 22s10 22 22 22h93v505l-19 -21c-1 -1 -5 -3 -7 -4l-57 -29c-2 -1 -8 -3 -11 -3c-12 0 -22 10 -22 22c0 8 6 17 13 20l55 27l53 53l1 1l3 3l26 28
c3 3 12 5 16 5z" />
    <glyph glyph-name="two" unicode="2" 
d="M346 651h6c1 0 1 -1 2 -1h1l86 -28c2 -1 7 -4 9 -6l28 -29c1 -1 4 -3 5 -5l29 -58c1 -2 2 -7 2 -10v-58c0 -3 -1 -7 -2 -9l-29 -59c-1 -3 -6 -5 -8 -7l-87 -59c-1 -1 -3 -2 -4 -2l-143 -57l-54 -28l-52 -51l-18 -53h53h4c2 0 6 -1 8 -2h1l139 -56h78l50 25l21 20v48v1
c0 12 9 21 21 21s22 -9 22 -21v-1v-54v-3c0 -3 -2 -8 -4 -11l-27 -57c-1 -2 -4 -5 -5 -6l-28 -28c-3 -3 -12 -7 -16 -7h-116c-3 0 -8 1 -11 3l-140 84h-43l-15 -17v-48c0 -12 -10 -22 -22 -22s-22 10 -22 22v55v2v3v27c0 2 0 5 1 7l30 86c1 2 2 7 4 9l58 57c1 1 4 4 6 5
l58 28l1 1l114 57l80 55l24 47v48l-25 50l-23 24l-51 25h-107l-79 -26l-22 -23l-12 -24c3 -1 7 -4 9 -6l30 -29c3 -3 5 -9 5 -15s-2 -12 -5 -15l-30 -29c-3 -3 -9 -7 -15 -7s-13 4 -16 7l-28 29c-3 3 -7 11 -7 15v29c0 3 1 8 2 10l30 58c1 2 2 4 3 5l30 29c2 2 6 5 8 6
l86 28c2 1 6 1 8 1h112h2z" />
    <glyph glyph-name="three" unicode="3" 
d="M346 651h6c1 0 1 -1 2 -1h1l86 -28c4 -1 10 -8 12 -12l30 -58c1 -2 2 -6 2 -9v-87c0 -3 -1 -7 -2 -9l-30 -59c-2 -4 -8 -10 -12 -11l-37 -12l11 -5c2 -1 4 -4 5 -5l28 -26l3 -3l27 -28c1 -1 4 -3 5 -5l29 -59c1 -2 2 -7 2 -10v-86c0 -3 -1 -8 -2 -10l-29 -58
c-1 -2 -4 -4 -5 -5l-28 -30c-2 -2 -7 -3 -9 -4l-86 -29v-1h-1c-2 -1 -6 -1 -8 -1h-2h-112c-2 0 -6 0 -8 1l-86 30c-2 1 -6 2 -8 4l-30 30c-1 1 -2 3 -3 5l-30 58c-1 2 -2 7 -2 10v28v1c0 4 4 12 7 15l28 29c3 3 10 7 16 7s12 -4 15 -7l30 -29c3 -3 5 -10 5 -16
s-2 -12 -5 -15l-30 -29c-2 -2 -6 -4 -9 -5l12 -25l22 -23l79 -25h107l51 24l23 24l25 51v78l-25 78l-23 23l-51 26h-81c-12 0 -22 10 -22 22s10 20 22 20h81l47 25l23 46v77l-23 47l-47 23h-107l-79 -26l-22 -23l-12 -24c3 -1 7 -4 9 -6l30 -29c3 -3 5 -9 5 -15
s-2 -12 -5 -15l-30 -29c-3 -3 -9 -7 -15 -7s-13 4 -16 7l-28 29c-3 3 -7 11 -7 15v29c0 3 1 8 2 10l30 58c1 2 2 4 3 5l30 29c2 2 6 5 8 6l86 28c2 1 6 1 8 1h112h2z" />
    <glyph glyph-name="four" unicode="4" 
d="M326 524l-225 -306h225v306zM376 652c1 0 3 -1 4 -1h2h1v-1h1h1l1 -1l2 -1c6 -3 10 -11 10 -18v-3v-409h123c12 0 22 -10 22 -22s-10 -22 -22 -22h-123v-130h65c12 0 22 -10 22 -22s-10 -22 -22 -22h-83h-4h-3h-22h-3h-4h-83c-12 0 -22 10 -22 22s10 22 22 22h65v130
h-268c-12 0 -22 10 -22 22c0 4 3 9 5 12l317 433c3 6 11 11 18 11z" />
    <glyph glyph-name="five" unicode="5" 
d="M144 652h1c1 0 2 -1 3 -1h285h1h6c1 0 3 -2 4 -2c1 -1 5 -2 6 -3s2 -5 3 -6c1 -2 3 -6 3 -8v-2v-1c0 -1 -1 -2 -1 -3v-2c0 -1 -1 -1 -1 -2s-1 -3 -1 -3c-1 -1 -2 -3 -3 -4l-2 -2l-7 -4c-1 0 -1 -1 -2 -1h-1l-144 -28c-1 0 -4 -1 -5 -1h-132l-35 -172l8 7c2 2 6 4 8 5
l86 29c2 1 6 1 8 1h84h2h5c1 0 2 -1 3 -1h1l85 -29c2 -1 6 -3 8 -5l58 -59c2 -2 5 -5 6 -7l29 -87c1 -2 1 -6 1 -8v-57c0 -2 0 -5 -1 -7l-29 -87c-1 -2 -4 -6 -6 -8l-58 -59c-2 -2 -6 -3 -8 -4l-85 -29v-1h-1h-2c-2 -1 -4 -1 -6 -1h-2h-84c-2 0 -6 0 -8 1l-86 30
c-2 1 -6 2 -8 4l-30 30c-1 1 -2 3 -3 5l-30 58c-1 2 -2 7 -2 10v28v1c0 4 4 12 7 15l28 29c3 3 10 7 16 7s12 -4 15 -7l30 -29c3 -3 5 -10 5 -16s-2 -12 -5 -15l-30 -29c-2 -2 -6 -4 -9 -5l12 -25l22 -23l79 -25h79l49 24l52 52l26 79v51l-26 79l-52 52l-49 25h-79l-79 -26
l-52 -53h-1c-3 -4 -10 -9 -16 -9c-2 0 -6 1 -7 1s-1 1 -1 1l-2 1h-1l-1 1c-1 1 -2 1 -3 2l-2 3c-3 3 -5 9 -5 13c0 2 0 4 1 6l57 284c0 4 3 12 6 15l2 2l1 1c3 2 9 4 12 4z" />
    <glyph glyph-name="six" unicode="6" 
d="M293 376l-79 -26l-50 -51l-26 -78v-22l26 -79l52 -52l49 -24h49l49 24l52 52l26 79v22l-26 78l-52 52l-49 25h-21zM289 651h4h83c3 0 8 -1 10 -2l58 -29c3 -2 7 -7 9 -10l30 -58c1 -2 2 -6 2 -9v-29c0 -4 -4 -13 -7 -16l-28 -28c-3 -3 -10 -7 -16 -7s-12 4 -15 7l-30 28
c-3 3 -5 10 -5 16s2 12 5 15l30 30c2 2 6 4 9 5l-10 21l-47 23h-76l-51 -25l-53 -53l-26 -53l-27 -111v-32l49 51c2 2 7 3 9 4l87 30c2 1 4 1 6 1h27h2c1 0 4 -1 5 -1h3l1 -1l85 -29c2 -1 6 -2 8 -4l58 -58c2 -2 5 -7 6 -9l29 -87c1 -2 1 -5 1 -7v-28c0 -2 0 -5 -1 -7
l-29 -87c-1 -2 -4 -6 -6 -8l-58 -59c-2 -2 -6 -3 -8 -4l-85 -29v-1h-1h-2c-2 -1 -4 -1 -6 -1h-2h-52h-3c-1 0 -4 1 -5 1h-2h-1l-86 30c-2 1 -7 2 -9 4l-58 59c-2 2 -3 6 -4 8l-30 87c-1 2 -1 5 -1 7v174c0 1 1 3 1 4l29 117c0 1 1 3 2 4l28 57c1 2 4 6 5 7l57 57
c2 2 7 5 9 6l86 28h1c2 1 4 1 6 1z" />
    <glyph glyph-name="seven" unicode="7" 
d="M87 652c12 0 22 -10 22 -22v-35l49 51c3 3 12 5 16 5h58c3 0 8 -1 11 -3l140 -84h43l20 21l26 53c2 7 11 12 18 13h1h1h1h2h1h1h1l2 -1c1 0 3 -1 3 -1l1 -1l2 -1c4 -3 8 -11 8 -17v-2v-85c0 -2 0 -5 -1 -7l-28 -84c-1 -3 -3 -8 -5 -10l-115 -143l-26 -54l-28 -82v-141
c0 -12 -10 -22 -22 -22c-4 0 -11 3 -14 6c-3 -3 -10 -6 -14 -6c-12 0 -22 10 -22 22v144c0 2 0 6 1 8l28 87c0 1 3 1 3 2l28 58c1 2 2 5 3 6l142 141l27 79v2l-21 -21c-3 -3 -12 -7 -16 -7h-56h-2c-2 0 -4 0 -6 1h-2l-140 57h-49l-47 -23l-23 -47v-53v-1
c0 -12 -10 -21 -22 -21s-22 9 -22 21v1v56v2v2v114c0 12 10 22 22 22z" />
    <glyph glyph-name="eight" unicode="8" 
d="M236 348l-49 -26l-24 -24l-25 -49v-106l25 -51l24 -24l49 -24h106l51 24l23 24l25 51v106l-25 49l-23 24l-51 26h-106zM236 608l-46 -23l-24 -47v-77l24 -46l46 -25h106l47 25l23 46v77l-23 47l-47 23h-106zM232 651h1h1h110h2h6c1 0 1 -1 2 -1h1l86 -28
c4 -1 10 -8 12 -12l30 -58c1 -2 2 -6 2 -9v-87c0 -3 -1 -7 -2 -9l-30 -59c-2 -4 -8 -10 -12 -11l-25 -7l25 -9c2 -1 7 -4 9 -6l28 -28c1 -1 4 -4 5 -6l29 -58c1 -2 2 -7 2 -10v-115c0 -3 -1 -8 -2 -10l-29 -58c-1 -2 -4 -4 -5 -5l-28 -30c-2 -2 -7 -3 -9 -4l-86 -29v-1h-1
c-2 -1 -6 -1 -8 -1h-2h-110h-2c-1 0 -4 1 -5 1h-3h-1l-85 30c-2 1 -6 2 -8 4l-30 30c-1 1 -2 3 -3 5l-30 58c-1 2 -2 7 -2 10v115c0 3 1 8 2 10l30 58c1 2 2 5 3 6l30 28c2 2 6 5 8 6l25 9l-25 7c-4 1 -11 7 -13 11l-28 59c-1 2 -2 6 -2 9v87c0 3 1 7 2 9l28 58
c2 4 9 11 13 12l84 28h4l1 1h1h1h1h2z" />
    <glyph glyph-name="nine" unicode="9" 
d="M265 608l-49 -25l-52 -52l-26 -79v-21l26 -79l52 -52l49 -25h21l78 26l51 51l26 78v22l-26 79l-52 52l-49 25h-49zM261 651h2h53h2h5c1 0 2 -1 3 -1h1l85 -28c2 -1 6 -4 8 -6l58 -57c2 -2 5 -7 6 -9l29 -87c1 -2 1 -5 1 -7v-173v-6l-30 -115c0 -1 0 -4 -1 -5l-30 -58
c-1 -2 -2 -4 -3 -5l-58 -59c-2 -2 -7 -3 -9 -4l-85 -29l-1 -1h-1c-2 -1 -5 -1 -7 -1h-2h-85c-3 0 -8 1 -10 2l-57 30c-3 2 -8 6 -10 9l-28 58c-1 2 -2 7 -2 10v29c0 4 2 12 5 15l30 29c3 3 9 6 15 6s13 -3 16 -6l28 -29c3 -3 7 -9 7 -15s-4 -13 -7 -16l-28 -28
c-2 -2 -7 -5 -10 -6l10 -21l47 -23h77l49 24l53 54l27 52l27 111v32l-49 -50c-2 -2 -7 -4 -9 -5l-87 -29c-2 -1 -5 -1 -7 -1h-25h-3h-5c-1 0 -1 1 -2 1h-1l-86 29c-2 1 -7 3 -9 5l-58 57c-2 2 -3 7 -4 9l-30 87c-1 2 -1 5 -1 7v29c0 2 0 5 1 7l30 87c1 2 2 7 4 9l58 57
c2 2 7 5 9 6l85 28h2c2 1 5 1 7 1z" />
    <glyph glyph-name="colon" unicode=":" horiz-adv-x="231" 
d="M116 188c7 0 14 -5 17 -9l28 -26c3 -3 5 -9 5 -15s-2 -13 -5 -16l-30 -28c-3 -3 -9 -7 -15 -7s-13 4 -16 7l-28 28c-3 3 -7 10 -7 16s4 12 7 15l26 26c3 4 9 8 15 9h1h2zM116 392c7 0 14 -5 17 -9l28 -28c3 -3 5 -9 5 -15s-2 -13 -5 -16l-30 -28c-3 -3 -9 -7 -15 -7
s-13 4 -16 7l-28 28c-3 3 -7 10 -7 16s4 12 7 15l26 28c3 4 9 6 15 7l1 2h2z" />
    <glyph glyph-name="semicolon" unicode=";" horiz-adv-x="231" 
d="M116 188c4 0 12 -3 15 -6l27 -27c4 -3 8 -11 8 -17v-3v-55v-1c0 -4 -2 -11 -5 -14l-59 -58c-3 -3 -9 -7 -15 -7c-12 0 -22 10 -22 22c0 6 4 12 7 15l50 51c-2 -1 -4 -1 -6 -1c-4 0 -13 4 -16 7l-28 28c-3 3 -7 10 -7 16s4 12 7 15l28 29c3 3 12 6 16 6zM116 392
c7 0 14 -5 17 -9l28 -28c3 -3 5 -9 5 -15s-2 -13 -5 -16l-30 -28c-3 -3 -9 -7 -15 -7s-13 4 -16 7l-28 28c-3 3 -7 10 -7 16s4 12 7 15l26 28c3 4 9 6 15 7l1 2h2z" />
    <glyph glyph-name="less" unicode="&#x3c;" horiz-adv-x="694" 
d="M578 564h2c12 0 21 -9 21 -21c0 -7 -4 -16 -11 -19l-429 -241l429 -242c7 -3 11 -12 11 -19c0 -12 -10 -22 -22 -22c-3 0 -8 2 -10 3l-463 261c-7 3 -11 12 -11 19s4 15 11 18l463 261c2 1 6 2 9 2z" />
    <glyph glyph-name="equal" unicode="=" horiz-adv-x="752" 
d="M116 218h521c12 0 22 -10 22 -22s-10 -22 -22 -22h-521c-12 0 -22 10 -22 22s10 22 22 22zM116 390h521c12 0 22 -8 22 -20s-10 -22 -22 -22h-521c-12 0 -22 10 -22 22s10 20 22 20z" />
    <glyph glyph-name="greater" unicode="&#x3e;" horiz-adv-x="694" 
d="M117 564c3 0 7 -1 9 -2l464 -261c7 -3 11 -11 11 -18s-4 -16 -11 -19l-464 -261c-2 -1 -7 -3 -10 -3c-12 0 -21 10 -21 22c0 7 4 16 11 19l429 242l-429 241c-7 3 -12 11 -12 19c0 12 10 21 22 21h1z" />
    <glyph glyph-name="question" unicode="?" horiz-adv-x="520" 
d="M260 101h1c7 0 14 -5 17 -9l27 -26c3 -3 6 -9 6 -15s-3 -13 -6 -16l-29 -28c-3 -3 -9 -7 -15 -7s-13 4 -16 7l-28 28c-3 3 -7 10 -7 16s4 12 7 15l26 26c3 4 8 8 14 9h3zM288 651h1h5c1 0 1 -1 2 -1h1l86 -28c2 -1 7 -4 9 -6l28 -29c1 -1 4 -3 5 -5l28 -58
c1 -2 2 -7 2 -10v-58c0 -3 -1 -7 -2 -9l-28 -59c-1 -2 -4 -4 -5 -5l-28 -29c-1 -1 -4 -3 -6 -4l-56 -29c-1 0 -2 -1 -3 -1l-44 -22v-74c0 -12 -10 -22 -22 -22s-22 10 -22 22v87c0 8 5 17 12 20l55 28l53 52l25 50v48l-25 50l-25 24l-49 25h-77l-51 -25l-23 -24l-12 -24
c3 -1 7 -4 9 -6l30 -29c3 -3 5 -9 5 -15s-2 -12 -5 -15l-30 -29c-3 -3 -9 -7 -15 -7s-13 4 -16 7l-28 29c-3 3 -7 11 -7 15v29c0 3 1 8 2 10l30 58c1 2 2 4 3 5l30 29c1 1 3 3 5 4l57 29c2 1 7 2 10 2h84h2z" />
    <glyph glyph-name="at" unicode="@" horiz-adv-x="809" 
d="M356 463l-48 -47l-25 -79v-79l24 -50l21 -20h72l47 23l24 49l19 151l-14 29l-47 23h-73zM348 651h86c2 0 5 0 7 -1l87 -28c1 0 2 -2 3 -2l57 -28c2 -1 5 -4 6 -5l58 -58c1 -1 4 -3 5 -5l28 -59c0 -1 1 -1 1 -2l29 -87c1 -2 1 -4 1 -6v-59c0 -2 0 -4 -1 -6l-29 -87
c-1 -2 -3 -7 -5 -9l-57 -58c-3 -3 -12 -6 -16 -6h-55h-3c-3 0 -8 1 -11 3l-56 28c-1 1 -5 2 -6 3c-1 -1 -3 -2 -4 -3l-58 -29c-2 -1 -7 -2 -10 -2h-84h-2c-3 0 -9 1 -12 3l-56 28c-3 2 -8 7 -10 10l-29 58c-1 2 -2 6 -2 9v87c0 2 0 6 1 8l29 86c1 2 3 6 5 8l29 30
c1 1 3 2 5 3l58 29c3 2 8 3 11 3h3h83c3 0 8 -1 10 -2l54 -28l1 10c1 11 11 20 22 20c4 0 12 -2 15 -5c3 3 10 5 14 5c12 0 22 -10 22 -22v-3l-30 -230v-47l17 -17h39l49 48l26 79v50l-27 83l-27 54l-53 52l-53 27l-82 27h-80l-83 -27l-52 -27l-53 -52l-27 -54l-27 -83v-79
l27 -82l27 -53l53 -53l52 -26l83 -28h80l82 28l53 26l27 26c3 3 9 7 15 7c12 0 21 -10 21 -22c0 -6 -2 -12 -5 -15l-30 -29c-1 -1 -4 -4 -6 -5l-57 -28c-1 0 -2 -1 -3 -1l-87 -30c-2 -1 -5 -1 -7 -1h-86c-2 0 -5 0 -7 1l-87 30c-1 0 -2 1 -3 1l-59 28c-2 1 -4 4 -5 5l-57 57
c-1 1 -4 4 -5 6l-28 58c0 1 -1 2 -1 3l-30 87c-1 2 -1 5 -1 7v87c0 2 0 4 1 6l30 87c0 1 1 1 1 2l28 59c1 2 4 4 5 5l57 58c1 1 3 4 5 5l59 28c1 0 2 2 3 2l87 28c2 1 5 1 7 1z" />
    <glyph glyph-name="A" unicode="A" 
d="M275 518l-100 -300h200zM288 652h1l1 -1h3h2c8 -2 15 -9 16 -17l197 -590h42c12 0 22 -10 22 -22s-10 -22 -22 -22h-54h-4h-4h-22h-3h-3h-84c-12 0 -22 10 -22 22s10 22 22 22h57l-44 130h-228l-44 -130h85c12 0 22 -10 22 -22s-10 -22 -22 -22h-112h-3h-3h-55
c-12 0 -22 10 -22 22s10 22 22 22h43l51 155c0 2 1 5 2 7l143 429c1 7 9 14 16 16h1h2h1v1z" />
    <glyph glyph-name="B" unicode="B" horiz-adv-x="635" 
d="M196 319v-275h204l50 24l24 24l25 51v76l-25 51l-24 24l-50 25h-204zM196 608v-246h204l50 25l24 24l25 50v48l-25 50l-24 24l-50 25h-204zM144 652h1c1 0 2 -1 3 -1h22c1 0 3 1 4 1s2 -1 3 -1h226h2h5c1 0 1 -1 2 -1h2l85 -28c2 -1 6 -4 8 -6l30 -29c1 -1 2 -3 3 -5
l30 -58c1 -2 2 -7 2 -10v-58c0 -3 -1 -7 -2 -9l-30 -59c-1 -2 -2 -4 -3 -5l-30 -29c-2 -2 -6 -4 -8 -5l-25 -9l25 -8c2 -1 6 -3 8 -5l30 -29c1 -1 2 -3 3 -5l30 -59c1 -2 2 -7 2 -10v-86c0 -3 -1 -8 -2 -10l-30 -58c-1 -2 -2 -4 -3 -5l-30 -30c-2 -2 -6 -3 -8 -4l-85 -29v-1
h-2h-1c-2 -1 -4 -1 -6 -1h-2h-226h-3h-4h-22h-3h-4h-83h-1c-12 0 -21 10 -21 22s9 22 21 22h1h65v564h-65h-1c-12 0 -21 10 -21 22s9 21 21 21h1h83c1 0 2 1 3 1z" />
    <glyph glyph-name="C" unicode="C" 
d="M289 651h4h55c2 0 4 0 6 -1l87 -28c2 -1 7 -4 9 -6l33 -33l17 54c2 8 12 14 21 14c12 0 21 -9 21 -21v-174c0 -12 -9 -22 -21 -22c-9 0 -19 7 -21 15l-27 82l-51 51l-78 26h-49l-51 -25l-53 -53l-26 -54l-27 -81v-138l27 -82l26 -53l53 -54l51 -24h49l78 25l52 53l28 54
c3 7 11 13 19 13c12 0 22 -10 22 -22c0 -3 -2 -8 -3 -10l-28 -58c-1 -2 -4 -4 -5 -5l-57 -59c-2 -2 -7 -3 -9 -4l-87 -30c-2 -1 -4 -1 -6 -1h-55h-3c-1 0 -4 1 -5 1h-2h-1l-86 30c-2 1 -7 2 -9 4l-57 59c-1 1 -4 3 -5 5l-28 58c0 1 -1 2 -1 3l-30 86c-1 2 -1 5 -1 7v145
c0 2 0 5 1 7l30 87c0 1 1 2 1 3l28 57c1 2 4 6 5 7l57 57c2 2 7 5 9 6l86 28h1c2 1 4 1 6 1z" />
    <glyph glyph-name="D" unicode="D" horiz-adv-x="635" 
d="M196 608v-564h146l51 24l53 54l26 53l27 82v138l-27 81l-26 54l-53 53l-51 25h-146zM144 652h1c1 0 2 -1 3 -1h22c1 0 3 1 4 1s2 -1 3 -1h167h2h6c1 0 1 -1 2 -1h1l86 -28c2 -1 7 -4 9 -6l57 -57c1 -1 4 -5 5 -7l28 -57c0 -1 1 -2 1 -3l30 -87c1 -2 1 -5 1 -7v-145
c0 -2 0 -5 -1 -7l-30 -86c0 -1 -1 -2 -1 -3l-28 -58c-1 -2 -4 -4 -5 -5l-57 -59c-2 -2 -7 -3 -9 -4l-86 -29v-1h-1c-2 -1 -6 -1 -8 -1h-2h-167h-3h-4h-22h-3h-4h-83h-1c-12 0 -21 10 -21 22s9 22 21 22h1h65v564h-65h-1c-12 0 -21 10 -21 22s9 21 21 21h1h83c1 0 2 1 3 1z
" />
    <glyph glyph-name="E" unicode="E" 
d="M144 652h1c1 0 2 -1 3 -1h22c1 0 3 1 4 1s2 -1 3 -1h311c1 0 3 1 4 1s3 -1 4 -1h25c12 0 21 -9 21 -21v-174c0 -12 -9 -22 -21 -22c-10 0 -21 8 -22 18l-25 156h-278v-246h130v94c0 12 10 22 22 22s22 -10 22 -22v-112v-4v-3v-113c0 -12 -10 -22 -22 -22s-22 10 -22 22
v95h-130v-275h278l25 155c1 10 12 19 22 19c12 0 21 -10 21 -22v-174c0 -12 -9 -22 -21 -22h-25h-4h-4h-311h-3h-4h-22h-3h-4h-83h-1c-12 0 -21 10 -21 22s9 22 21 22h1h65v564h-65h-1c-12 0 -21 10 -21 22s9 21 21 21h1h83c1 0 2 1 3 1z" />
    <glyph glyph-name="F" unicode="F" horiz-adv-x="520" 
d="M144 652h1c1 0 2 -1 3 -1h22c1 0 3 1 4 1s2 -1 3 -1h311c1 0 3 1 4 1s3 -1 4 -1h25c12 0 21 -9 21 -21v-174c0 -12 -9 -22 -21 -22c-10 0 -21 8 -22 18l-25 156h-278v-246h130v94c0 12 10 22 22 22s22 -10 22 -22v-112v-4v-3v-113c0 -12 -10 -22 -22 -22s-22 10 -22 22
v95h-130v-275h65c12 0 22 -10 22 -22s-10 -22 -22 -22h-84h-3h-4h-22h-3h-4h-83h-1c-12 0 -21 10 -21 22s9 22 21 22h1h65v564h-65h-1c-12 0 -21 10 -21 22s9 21 21 21h1h83c1 0 2 1 3 1z" />
    <glyph glyph-name="G" unicode="G" horiz-adv-x="694" 
d="M289 651h4h55c2 0 4 0 6 -1l87 -28c2 -1 7 -4 9 -6l33 -33l17 54c2 8 12 14 21 14c12 0 21 -9 21 -21v-174c0 -12 -9 -22 -21 -22c-9 0 -19 7 -21 15l-27 82l-51 51l-78 26h-49l-51 -25l-53 -53l-26 -54l-27 -81v-138l27 -82l26 -53l53 -54l51 -24h49l78 25l49 49v114
h-66c-12 0 -22 9 -22 21s10 22 22 22h83h4h4h21h4h4h83c12 0 22 -10 22 -22s-10 -21 -22 -21h-66v-210c0 -12 -9 -22 -21 -22c-4 0 -11 3 -14 6c-3 -3 -11 -6 -15 -6c-12 0 -21 10 -21 22v34l-21 -21c-2 -2 -7 -3 -9 -4l-87 -30c-2 -1 -4 -1 -6 -1h-55h-3c-1 0 -4 1 -5 1h-2
h-1l-86 30c-2 1 -7 2 -9 4l-57 59c-1 1 -4 3 -5 5l-28 58c0 1 -1 2 -1 3l-30 86c-1 2 -1 5 -1 7v145c0 2 0 5 1 7l30 87c0 1 1 2 1 3l28 57c1 2 4 6 5 7l57 57c2 2 7 5 9 6l86 28h1c2 1 4 1 6 1z" />
    <glyph glyph-name="H" unicode="H" horiz-adv-x="694" 
d="M144 652h1c1 0 2 -1 3 -1h22c1 0 3 1 4 1s2 -1 3 -1h84c12 0 22 -9 22 -21s-10 -22 -22 -22h-65v-246h303v246h-65h-1c-12 0 -21 10 -21 22s9 21 21 21h1h83c1 0 3 1 4 1s3 -1 4 -1h22c1 0 2 1 3 1s2 -1 3 -1h84c12 0 22 -9 22 -21s-10 -22 -22 -22h-65v-564h65
c12 0 22 -10 22 -22s-10 -22 -22 -22h-84h-3h-3h-22h-4h-4h-83h-1c-12 0 -21 10 -21 22s9 22 21 22h1h65v275h-303v-275h65c12 0 22 -10 22 -22s-10 -22 -22 -22h-84h-3h-4h-22h-3h-4h-83h-1c-12 0 -21 10 -21 22s9 22 21 22h1h65v564h-65h-1c-12 0 -21 10 -21 22
s9 21 21 21h1h83c1 0 2 1 3 1z" />
    <glyph glyph-name="I" unicode="I" horiz-adv-x="346" 
d="M144 652h1c1 0 2 -1 3 -1h22c1 0 3 1 4 1s2 -1 3 -1h84c12 0 22 -9 22 -21s-10 -22 -22 -22h-65v-564h65c12 0 22 -10 22 -22s-10 -22 -22 -22h-84h-3h-4h-22h-3h-4h-83h-1c-12 0 -21 10 -21 22s9 22 21 22h1h65v564h-65h-1c-12 0 -21 10 -21 22s9 21 21 21h1h83
c1 0 2 1 3 1z" />
    <glyph glyph-name="J" unicode="J" horiz-adv-x="463" 
d="M261 652c1 0 2 -1 3 -1h22c1 0 2 1 3 1s3 -1 4 -1h83c12 0 22 -9 22 -21s-10 -22 -22 -22h-65v-470c0 -2 0 -5 -1 -7l-28 -87c-1 -4 -7 -10 -11 -12l-58 -29c-3 -2 -8 -3 -11 -3h-3h-54c-3 0 -8 1 -10 2l-58 30c-3 2 -8 6 -10 9l-29 58c-1 2 -2 7 -2 10v57v1
c0 4 4 12 7 15l29 29c3 3 9 7 15 7s12 -4 15 -7l29 -29c3 -3 7 -10 7 -16s-4 -12 -7 -15l-29 -29c-3 -3 -9 -6 -15 -6c-2 0 -6 0 -8 1v-3l24 -47l47 -23h44l18 19l27 78v467h-65c-12 0 -22 10 -22 22s10 21 22 21h83c1 0 3 1 4 1z" />
    <glyph glyph-name="K" unicode="K" 
d="M144 652h1c1 0 2 -1 3 -1h22c1 0 3 1 4 1s2 -1 3 -1h84c12 0 22 -9 22 -21s-10 -22 -22 -22h-65v-302l76 77l4 4l221 221h-63h-1c-12 0 -21 10 -21 22s9 21 21 21h1h113h3h3h55c12 0 22 -9 22 -21s-10 -22 -22 -22h-49l-225 -224c1 -1 3 -1 3 -2l225 -338h46
c12 0 22 -10 22 -22s-10 -22 -22 -22h-55h-3h-3h-22h-4h-3h-84h-1c-12 0 -21 10 -21 22s9 22 21 22h1h47l-195 292l-90 -92v-200h65c12 0 22 -10 22 -22s-10 -22 -22 -22h-84h-3h-4h-22h-3h-4h-83h-1c-12 0 -21 10 -21 22s9 22 21 22h1h65v564h-65h-1c-12 0 -21 10 -21 22
s9 21 21 21h1h83c1 0 2 1 3 1z" />
    <glyph glyph-name="L" unicode="L" horiz-adv-x="548" 
d="M144 652h1c1 0 2 -1 3 -1h22c1 0 3 1 4 1s2 -1 3 -1h84c12 0 22 -9 22 -21s-10 -22 -22 -22h-65v-564h248l27 155c1 10 11 19 21 19c12 0 22 -10 22 -22v-174c0 -12 -10 -22 -22 -22h-26h-3h-3h-283h-3h-4h-22h-3h-4h-83h-1c-12 0 -21 10 -21 22s9 22 21 22h1h65v564h-65
h-1c-12 0 -21 10 -21 22s9 21 21 21h1h83c1 0 2 1 3 1z" />
    <glyph glyph-name="M" unicode="M" horiz-adv-x="752" 
d="M144 652l2 -1h2h22c1 0 3 1 4 1c3 0 9 -2 12 -4l1 -1l1 -1c3 -3 7 -8 8 -12l166 -500l166 500c1 3 5 9 7 11v1l1 1l2 1c2 1 6 3 8 3c1 0 3 1 4 1l2 -1h1h22c1 0 3 1 4 1s3 -1 4 -1h83h1c12 0 21 -9 21 -21s-9 -22 -21 -22h-1h-65v-564h65h1c12 0 21 -10 21 -22
s-9 -22 -21 -22h-1h-83h-4h-4h-22h-3h-3h-84c-12 0 -22 10 -22 22s10 22 22 22h65v452l-160 -478c-1 -7 -8 -15 -15 -17c-1 0 -1 -1 -2 -1h-1h-1h-1h-2h-2c-1 0 -1 1 -2 1c-8 2 -15 9 -16 17l-160 478v-452h66c12 0 22 -10 22 -22s-10 -22 -22 -22h-84h-3h-4h-83h-1
c-12 0 -21 10 -21 22s9 22 21 22h1h65v564h-65h-1c-12 0 -21 10 -21 22s9 21 21 21h1h83c1 0 2 1 3 1z" />
    <glyph glyph-name="N" unicode="N" horiz-adv-x="694" 
d="M166 601v-8c1 0 3 1 4 1zM144 652h1c1 0 2 -1 3 -1h22h4c3 0 8 -1 10 -2h1l1 -1c3 -2 7 -7 8 -10l305 -483v453h-65h-1c-12 0 -21 10 -21 22s9 21 21 21h1h83c1 0 3 1 4 1s3 -1 4 -1h83c12 0 22 -9 22 -21s-10 -22 -22 -22h-66v-526c0 -1 1 -2 1 -3s-1 -1 -1 -2v-53
c0 -1 1 -1 1 -2c0 -7 -3 -16 -9 -19l-3 -1h-1l-1 -1h-2l-2 -1h-4h-1h-2c-7 1 -13 6 -16 12l-336 530v-498h66c12 0 22 -10 22 -22s-10 -22 -22 -22h-84h-3h-4h-83h-1c-12 0 -21 10 -21 22s9 22 21 22h1h65v564h-65h-1c-12 0 -21 10 -21 22s9 21 21 21h1h83c1 0 2 1 3 1z" />
    <glyph glyph-name="O" unicode="O" horiz-adv-x="635" 
d="M295 608l-51 -25l-53 -53l-26 -53l-27 -111v-81l27 -111l26 -52l53 -54l51 -24h47l51 24l53 54l26 52l27 111v81l-27 111l-26 53l-53 53l-51 25h-47zM289 651h1h3h51h2h6c1 0 1 -1 2 -1h1l86 -28c2 -1 7 -4 9 -6l57 -57c1 -1 4 -5 5 -7l28 -57c1 -1 2 -3 2 -4l29 -117
c0 -1 1 -3 1 -4v-87c0 -1 -1 -5 -1 -6l-29 -115c0 -1 -1 -4 -2 -5l-28 -58c-1 -2 -4 -4 -5 -5l-57 -59c-2 -2 -7 -3 -9 -4l-86 -29v-1h-1c-2 -1 -6 -1 -8 -1h-2h-51h-3c-1 0 -4 1 -5 1h-2h-1l-86 30c-2 1 -7 2 -9 4l-57 59c-1 1 -4 3 -5 5l-28 58c-1 1 -2 4 -2 5l-29 115
c0 1 -1 5 -1 6v87c0 1 1 3 1 4l29 117c0 1 1 3 2 4l28 57c1 2 4 6 5 7l57 57c2 2 7 5 9 6l84 28h3l1 1h1h1h2h1z" />
    <glyph glyph-name="P" unicode="P" horiz-adv-x="635" 
d="M196 608v-275h204l50 26l24 23l25 50v77l-25 50l-24 24l-50 25h-204zM144 652h1c1 0 2 -1 3 -1h22c1 0 3 1 4 1s2 -1 3 -1h226h2h5c1 0 1 -1 2 -1h2l85 -28c2 -1 6 -4 8 -6l30 -29c1 -1 2 -3 3 -5l30 -58c1 -2 2 -7 2 -10v-87c0 -3 -1 -8 -2 -10l-30 -57
c-1 -2 -2 -5 -3 -6l-30 -30c-2 -2 -6 -3 -8 -4l-85 -28l-2 -2h-1c-2 -1 -4 -1 -6 -1h-2h-207v-245h65c12 0 22 -10 22 -22s-10 -22 -22 -22h-84h-3h-4h-22h-3h-4h-83h-1c-12 0 -21 10 -21 22s9 22 21 22h1h65v564h-65h-1c-12 0 -21 10 -21 22s9 21 21 21h1h83c1 0 2 1 3 1z
" />
    <glyph glyph-name="Q" unicode="Q" horiz-adv-x="635" 
d="M295 174l-47 -23l-24 -48v-14l20 -21l51 -24h47l47 23l-5 35l-24 49l-46 23h-19zM295 608l-51 -25l-53 -53l-26 -53l-27 -111v-81l27 -111l23 -45l24 47c2 3 7 8 10 10l57 28c2 1 7 4 10 4h29c3 0 8 -3 10 -4l58 -28c3 -2 8 -7 10 -10l28 -56c1 -1 2 -2 2 -3v-1
c0 -1 1 -1 1 -2l2 -10l17 18l26 52l27 111v81l-27 111l-26 53l-53 53l-51 25h-47zM289 651h1h3h51h2h6c1 0 1 -1 2 -1h1l86 -28c2 -1 7 -4 9 -6l57 -57c1 -1 4 -5 5 -7l28 -57c1 -1 2 -3 2 -4l29 -117c0 -1 1 -3 1 -4v-87c0 -1 -1 -5 -1 -6l-29 -115c0 -1 -1 -4 -2 -5
l-28 -58c-1 -2 -4 -4 -5 -5l-57 -59c-1 -1 -2 -1 -3 -2l7 -33l27 -52l21 -21h11l15 17v20v1c0 12 10 21 22 21s22 -9 22 -21v-1v-26v-3c0 -3 -1 -8 -3 -11l-29 -57c-3 -7 -11 -11 -19 -11h-58c-4 0 -12 2 -15 5l-29 30c-3 3 -7 8 -7 12l-15 112l-42 -13v-1h-1
c-2 -1 -6 -1 -8 -1h-2h-51h-3c-1 0 -4 1 -5 1h-2h-1l-86 30c-2 1 -7 2 -9 4l-57 59c-1 1 -4 3 -5 5l-28 58c-1 1 -2 4 -2 5l-29 115c0 1 -1 5 -1 6v87c0 1 1 3 1 4l29 117c0 1 1 3 2 4l28 57c1 2 4 6 5 7l57 57c2 2 7 5 9 6l84 28h3l1 1h1h1h2h1z" />
    <glyph glyph-name="R" unicode="R" horiz-adv-x="635" 
d="M196 608v-246h120h2h2h80l50 25l24 24l25 50v48l-25 50l-24 24l-50 25h-204zM144 652h1c1 0 2 -1 3 -1h22c1 0 3 1 4 1s2 -1 3 -1h226h2h5c1 0 1 -1 2 -1h2l85 -28c2 -1 6 -4 8 -6l30 -29c1 -1 2 -3 3 -5l30 -58c1 -2 2 -7 2 -10v-58c0 -3 -1 -7 -2 -9l-30 -59
c-1 -2 -2 -4 -3 -5l-30 -29c-2 -2 -6 -4 -8 -5l-85 -29h-2h-1c-2 -1 -4 -1 -6 -1h-2h-4l21 -21c1 -1 5 -6 6 -8l84 -198l20 -19h11l17 16v20c0 12 9 22 21 22s22 -10 22 -22v-27v-2c0 -3 -2 -9 -4 -12l-27 -56c-3 -7 -12 -12 -20 -12h-58c-4 0 -13 4 -16 7l-28 28
c-2 2 -5 7 -6 10l-57 200l-25 50l-46 24h-118v-275h65c12 0 22 -10 22 -22s-10 -22 -22 -22h-84h-3h-4h-22h-3h-4h-83h-1c-12 0 -21 10 -21 22s9 22 21 22h1h65v564h-65h-1c-12 0 -21 10 -21 22s9 21 21 21h1h83c1 0 2 1 3 1z" />
    <glyph glyph-name="S" unicode="S" 
d="M232 651h86c2 0 6 0 8 -1l86 -28c2 -1 6 -4 8 -6l33 -33l19 54c2 8 11 14 20 14c12 0 22 -9 22 -21v-174c0 -12 -10 -22 -22 -22c-9 0 -18 7 -20 15l-28 82l-50 51l-79 26h-80l-79 -26l-47 -48v-40l48 -48l54 -28l172 -57c1 0 2 -1 3 -1l58 -29c2 -1 5 -3 6 -4l28 -29
c1 -1 4 -3 5 -5l27 -58c2 -3 4 -8 4 -11v-3v-112c0 -4 -4 -12 -7 -15l-57 -59c-2 -2 -7 -3 -9 -4l-87 -30c-2 -1 -4 -1 -6 -1h-87c-2 0 -5 0 -7 1l-87 30c-2 1 -7 2 -9 4l-33 33l-17 -53c-2 -8 -12 -15 -21 -15c-12 0 -22 10 -22 22v174c0 12 10 21 22 21c9 0 19 -7 21 -15
l27 -82l51 -51l78 -25h80l78 25l49 49v98l-50 48l-53 28l-172 57c-1 0 -3 1 -4 1l-57 28c-2 1 -4 4 -5 5l-30 28c-1 1 -2 4 -3 6l-29 57c-2 3 -3 8 -3 11v3v55c0 4 4 13 7 16l58 57c2 2 6 5 8 6l86 28c2 1 6 1 8 1z" />
    <glyph glyph-name="T" unicode="T" 
d="M86 652h1c1 0 2 -1 3 -1h167c1 0 3 1 4 1s2 -1 3 -1h22c1 0 2 1 3 1s3 -1 4 -1h167c1 0 2 1 3 1s2 -1 3 -1h26c12 0 22 -9 22 -21v-174c0 -12 -10 -22 -22 -22c-10 0 -20 8 -21 18l-27 156h-133v-564h65c12 0 22 -10 22 -22s-10 -22 -22 -22h-83h-4h-3h-22h-3h-4h-83
c-12 0 -22 10 -22 22s10 22 22 22h65v564h-133l-27 -156c-1 -10 -11 -18 -21 -18c-12 0 -22 10 -22 22v174c0 12 10 21 22 21h26c1 0 1 1 2 1z" />
    <glyph glyph-name="U" unicode="U" horiz-adv-x="694" 
d="M144 652h1c1 0 2 -1 3 -1h22c1 0 3 1 4 1s2 -1 3 -1h84c12 0 22 -9 22 -21s-10 -22 -22 -22h-65v-409l25 -79l53 -52l49 -24h50l78 25l51 51l26 79v409h-65c-12 0 -22 10 -22 22s10 21 22 21h84c1 0 2 1 3 1s2 -1 3 -1h84c12 0 22 -9 22 -21s-10 -22 -22 -22h-65v-412
c0 -2 0 -5 -1 -7l-30 -87c-1 -2 -2 -6 -4 -8l-59 -59c-2 -2 -6 -3 -8 -4l-87 -30c-2 -1 -5 -1 -7 -1h-55h-2c-1 0 -4 1 -5 1h-3h-1l-86 30c-2 1 -5 2 -7 4l-59 59c-2 2 -4 6 -5 8l-29 87c-1 2 -1 5 -1 7v412h-65h-1c-12 0 -21 10 -21 22s9 21 21 21h1h83c1 0 2 1 3 1z" />
    <glyph glyph-name="V" unicode="V" 
d="M86 652h1c1 0 2 -1 3 -1h22c1 0 3 1 4 1s2 -1 3 -1h83c12 0 22 -9 22 -21s-10 -22 -22 -22h-56l158 -474l158 474h-86c-12 0 -22 10 -22 22s10 21 22 21h112c1 0 3 1 4 1s3 -1 4 -1h54c12 0 22 -9 22 -21s-10 -22 -22 -22h-42l-197 -590c-1 -7 -8 -15 -15 -17
c-1 0 -1 -1 -2 -1h-2h-2h-1h-1h-2c-1 0 -1 1 -2 1c-8 2 -15 9 -16 17l-196 590h-43c-12 0 -22 10 -22 22s10 21 22 21h55c1 0 1 1 2 1z" />
    <glyph glyph-name="W" unicode="W" horiz-adv-x="694" 
d="M462 145l1 -7l1 7h-1h-1zM230 145l2 -7l1 7h-1h-2zM116 652c1 0 2 -1 3 -1h22c1 0 3 1 4 1s2 -1 3 -1h84c12 0 22 -9 22 -21s-10 -22 -22 -22h-62l75 -398l81 422c0 1 1 4 1 5c2 6 8 13 15 14h1h1c1 0 1 1 2 1h2l1 -1h1h2h1c1 0 1 -1 2 -1s3 -1 3 -1l2 -1c1 0 1 -1 2 -1
c3 3 10 4 14 4c10 0 19 -7 21 -17l80 -424l75 398h-60c-12 0 -22 10 -22 22s10 21 22 21h83c1 0 3 1 4 1s3 -1 4 -1h83h1c12 0 21 -9 21 -21s-9 -22 -21 -22h-1h-69l-112 -588c0 -1 -1 -5 -1 -6c-2 -6 -8 -12 -15 -13l-1 -1h-2h-1h-1h-1h-1h-2h-1c-1 0 -2 1 -3 1h-2
c-1 0 -1 1 -1 1l-2 1l-3 4c-3 3 -7 9 -7 13l-93 494l-95 -494c0 -1 -1 -5 -1 -6c-2 -6 -9 -12 -16 -13v-1h-1h-1h-1h-1h-2h-1h-1l-2 1h-3c-1 0 -2 1 -2 1l-2 1l-3 4c-3 3 -6 9 -6 13l-112 588h-69c-12 0 -22 10 -22 22s10 21 22 21h83c1 0 3 1 4 1z" />
    <glyph glyph-name="X" unicode="X" 
d="M85 651h2h3h22h4h3h83c12 0 22 -9 22 -21s-10 -22 -22 -22h-47l143 -231l153 231h-75c-12 0 -22 10 -22 22s10 21 22 21h114h3h3h54c12 0 22 -9 22 -21s-10 -22 -22 -22h-46l-182 -271l182 -293h46c12 0 22 -10 22 -22s-10 -22 -22 -22h-55h-2h-3h-24h-3h-3h-84
c-12 0 -22 10 -22 22s10 22 22 22h49l-143 230l-154 -230h74c12 0 22 -10 22 -22s-10 -22 -22 -22h-112h-3h-3h-55c-12 0 -22 10 -22 22s10 22 22 22h46l181 271l-181 293h-46c-12 0 -22 10 -22 22s10 21 22 21h55h1z" />
    <glyph glyph-name="Y" unicode="Y" horiz-adv-x="635" 
d="M87 652c1 0 2 -1 3 -1h22h4h3h83c12 0 22 -9 22 -21s-10 -22 -22 -22h-47l163 -256l164 256h-77c-12 0 -22 10 -22 22s10 21 22 21h113h3h4h54h1c12 0 21 -9 21 -21s-9 -22 -21 -22h-1h-45l-194 -303v-261h65h1c12 0 21 -10 21 -22s-9 -22 -21 -22h-1h-83h-4h-3h-22h-4
h-3h-84c-12 0 -22 10 -22 22s10 22 22 22h65v261l-192 303h-46c-12 0 -22 10 -22 22s10 21 22 21h55c1 0 2 1 3 1z" />
    <glyph glyph-name="Z" unicode="Z" 
d="M114 652h2c1 0 3 -1 4 -1h340h3h3h22c1 0 3 1 4 1c7 0 15 -4 18 -10l2 -2v-1c1 -2 2 -7 2 -9c0 -4 -2 -11 -5 -14l-354 -572h289l27 155c1 10 11 19 21 19c12 0 22 -10 22 -22v-174c0 -12 -10 -22 -22 -22h-26h-3h-3h-341h-3h-4h-22h-3c-7 0 -15 3 -18 9l-1 1v1l-1 1
c-1 2 -2 8 -2 10c0 4 2 11 5 14l355 572h-291l-26 -156c-1 -10 -11 -18 -21 -18c-12 0 -22 10 -22 22v174c0 12 10 21 22 21h25c1 0 1 1 2 1z" />
    <glyph glyph-name="bracketleft" unicode="[" horiz-adv-x="404" 
d="M116 768h4h21h4h3h170h1c12 0 21 -10 21 -22s-9 -22 -21 -22h-1h-152v-884h152h1c12 0 21 -8 21 -20s-9 -22 -21 -22h-1h-170h-3h-4h-21h-4c-4 0 -12 2 -15 5h-1v1l-1 1c-3 3 -5 11 -5 15c0 1 1 2 1 3v919c0 1 -1 3 -1 4c0 4 3 12 6 15l1 1c3 3 11 6 15 6z" />
    <glyph glyph-name="backslash" unicode="\" horiz-adv-x="404" 
d="M-1 651h1c7 0 16 -4 19 -11l405 -694c2 -3 3 -8 3 -11c0 -12 -9 -22 -21 -22c-7 0 -17 5 -20 11l-405 695c-2 3 -3 8 -3 11c0 11 10 21 21 21z" />
    <glyph glyph-name="bracketright" unicode="]" horiz-adv-x="404" 
d="M261 768h3h22h3c4 0 13 -4 16 -7l1 -1c3 -3 5 -10 5 -14v-4v-919v-3c0 -4 -2 -13 -5 -16h-1l-1 -1v-1c-3 -3 -11 -4 -15 -4h-3h-22h-3h-4h-170c-12 0 -22 10 -22 22s10 20 22 20h152v884h-152c-12 0 -22 10 -22 22s10 22 22 22h170h4z" />
    <glyph glyph-name="asciicircum" unicode="^" horiz-adv-x="635" 
d="M318 623c4 0 11 -3 14 -6l173 -144h1l2 -2v-1l2 -1v-1l2 -2l1 -1v-1v-1v-1l1 -1v-2v-3v-1v-3v-2l-1 -2l-1 -2l-2 -2l-1 -2l-1 -1l-2 -2h-1v-1l-2 -1c-1 0 -4 -1 -5 -1l-2 -2h-3h-1h-2h-2h-2v2c-1 0 -3 0 -4 1l-1 1h-1l-162 108l-161 -107v-1h-1l-1 -1h-1
c-1 0 -3 -3 -4 -3h-5h-1h-3c-1 0 -4 2 -5 2l-1 1h-1h-1v1l-2 1l-1 1l-2 2l-2 1l-1 3c0 1 -1 2 -1 3s-1 1 -1 2v1v1v3v2v2c0 2 1 5 2 6s2 3 3 4l3 3l174 144c3 3 9 6 13 6z" />
    <glyph glyph-name="underscore" unicode="_" 
d="M0 -130h579h1c12 0 21 -10 21 -22s-9 -22 -21 -22h-1h-579c-12 0 -22 10 -22 22s10 22 22 22z" />
    <glyph glyph-name="grave" unicode="`" horiz-adv-x="346" 
d="M116 651h2c7 0 13 -4 16 -10l142 -170l3 -3c1 -1 3 -4 3 -5v-2c0 -1 1 -1 1 -2v-3v-1v-1v-1v-1h-1v-2v-2c0 -1 -2 -3 -3 -4l-1 -2h-1l-1 -1l-1 -2l-2 -1c-1 0 -1 -1 -2 -1l-1 -1h-2c-1 0 -2 -2 -3 -2h-2h-2h-5c-1 0 -1 2 -2 2h-2l-2 1c-1 1 -3 1 -4 2v1l-173 144
c-4 3 -8 11 -8 17c0 4 4 12 7 15l26 26c3 4 12 9 18 9z" />
    <glyph glyph-name="a" unicode="a" horiz-adv-x="607" 
d="M384 262c-1 0 -3 -1 -4 -1l-171 -29l-48 -24l-23 -46v-48l23 -47l47 -23h76l50 24l50 50v144zM202 449h116c3 0 8 -1 10 -2l58 -29c2 -1 5 -3 6 -4l26 -27c2 -2 7 -7 8 -10l27 -56c1 -2 2 -7 2 -10v-197l26 -50l21 -20h19c12 0 22 -10 22 -22s-10 -22 -22 -22h-26h-2
c-3 0 -9 1 -12 3l-56 29c-3 2 -8 6 -10 9l-16 31l-36 -37c-1 -1 -3 -2 -5 -3l-59 -30c-2 -1 -7 -2 -10 -2h-83h-2c-1 0 -5 1 -6 1h-2h-1l-86 30c-4 1 -10 6 -12 10l-30 58c-1 2 -2 7 -2 10v57c0 3 1 8 2 10l30 58c2 4 8 10 12 11l86 29h1h1c1 0 3 1 4 1l165 27l18 18v41
l-21 20l-49 25h-106l-46 -23c2 -3 4 -9 4 -13v-30c0 -12 -9 -21 -21 -21h-29c-12 0 -21 9 -21 21v30c0 4 2 12 5 15l30 29c1 1 3 3 5 4l57 29c2 1 7 2 10 2z" />
    <glyph glyph-name="b" unicode="b" 
d="M295 406l-51 -25l-48 -50v-213l48 -50l51 -24h47l51 24l51 52l27 79v51l-27 79l-51 52l-51 25h-47zM144 652h1c1 0 2 -1 3 -1h22c1 0 3 1 4 1c4 0 12 -3 15 -6l1 -2c3 -3 6 -10 6 -14v-4v-233l21 21c1 1 3 3 5 4l57 29c2 1 7 2 10 2h55h2h6c1 0 1 -1 2 -1h1l86 -29
c2 -1 7 -3 9 -5l57 -59c2 -2 5 -5 6 -7l28 -87c1 -2 1 -6 1 -8v-57c0 -2 0 -5 -1 -7l-28 -87c-1 -2 -4 -6 -6 -8l-57 -59c-2 -2 -7 -3 -9 -4l-86 -29v-1h-1c-2 -1 -6 -1 -8 -1h-2h-55c-3 0 -8 1 -10 2l-57 30c-2 1 -4 2 -5 3l-21 21v-34c0 -12 -10 -22 -22 -22
c-4 0 -11 3 -14 6c-3 -3 -11 -6 -15 -6c-12 0 -22 10 -22 22v586h-65h-1c-12 0 -21 10 -21 22s9 21 21 21h1h83c1 0 2 1 3 1z" />
    <glyph glyph-name="c" unicode="c" horiz-adv-x="520" 
d="M261 449h2h85c3 0 8 -1 10 -2l57 -29c2 -1 4 -3 5 -4l58 -59c3 -3 7 -11 7 -15v-29c0 -4 -4 -12 -7 -15l-28 -29c-3 -3 -10 -6 -16 -6s-12 3 -15 6l-30 29c-3 3 -5 9 -5 15s2 13 5 16l29 28l-25 26l-51 25h-77l-49 -25l-52 -52l-26 -79v-51l26 -79l52 -52l49 -24h50
l79 25l54 55c3 3 9 7 15 7c12 0 22 -10 22 -22c0 -6 -4 -12 -7 -15l-58 -59c-2 -2 -6 -3 -8 -4l-86 -30c-2 -1 -6 -1 -8 -1h-54h-3c-1 0 -4 1 -5 1h-2h-1l-86 30c-2 1 -7 2 -9 4l-58 59c-2 2 -3 6 -4 8l-30 87c-1 2 -1 5 -1 7v57c0 2 0 6 1 8l30 87c1 2 2 5 4 7l58 59
c2 2 7 4 9 5l85 29h2c2 1 5 1 7 1z" />
    <glyph glyph-name="d" unicode="d" horiz-adv-x="635" 
d="M265 406l-49 -25l-52 -52l-26 -79v-51l26 -79l52 -52l49 -24h49l49 24l49 50v213l-49 50l-49 25h-49zM433 652h1c1 0 3 -1 4 -1h22c1 0 2 1 3 1c4 0 12 -3 15 -6l2 -2c3 -3 5 -10 5 -14v-4v-582h65c12 0 22 -10 22 -22s-10 -22 -22 -22h-84h-3h-3h-22h-4
c-4 0 -12 3 -15 6v1l-2 1c-3 3 -5 10 -5 14v3v31l-20 -21c-1 -1 -4 -2 -6 -3l-58 -30c-2 -1 -7 -2 -10 -2h-54h-3c-1 0 -4 1 -5 1h-2h-1l-86 30c-2 1 -7 2 -9 4l-58 59c-2 2 -3 6 -4 8l-30 87c-1 2 -1 5 -1 7v57c0 2 0 6 1 8l30 87c1 2 2 5 4 7l58 59c2 2 7 4 9 5l85 29h2
c2 1 5 1 7 1h2h55c3 0 8 -1 10 -2l58 -29c2 -1 5 -3 6 -4l20 -21v215h-64c-12 0 -22 10 -22 22s10 21 22 21h82c1 0 2 1 3 1z" />
    <glyph glyph-name="e" unicode="e" horiz-adv-x="491" 
d="M236 406l-49 -25l-52 -52l-18 -54h267v61l-24 46l-46 24h-78zM232 449h2h84c3 0 8 -1 10 -2l55 -28c2 -1 7 -3 9 -5l1 -2l27 -27c1 -1 4 -3 5 -5l28 -59c1 -2 2 -7 2 -10v-58c0 -12 -9 -21 -21 -21h-25c-1 0 -3 -1 -4 -1s-2 1 -3 1h-293v-33l26 -79l52 -52l49 -24h50
l78 25l55 55c3 3 9 7 15 7c12 0 21 -10 21 -22c0 -6 -2 -12 -5 -15l-58 -59c-2 -2 -7 -3 -9 -4l-87 -30c-2 -1 -5 -1 -7 -1h-55h-2c-1 0 -4 1 -5 1h-3h-1l-85 30c-2 1 -6 2 -8 4l-58 59c-2 2 -5 6 -6 8l-29 87c-1 2 -1 5 -1 7v57c0 2 0 6 1 8l29 87c1 2 4 5 6 7l58 59
c2 2 6 4 8 5l85 29h1h2c2 1 4 1 6 1z" />
    <glyph glyph-name="f" unicode="f" horiz-adv-x="346" 
d="M231 651h3h55c4 0 13 -2 16 -5l28 -30c3 -3 7 -11 7 -15v-29c0 -4 -4 -12 -7 -15l-28 -29c-3 -3 -10 -7 -16 -7s-12 4 -15 7l-29 29c-3 3 -6 9 -6 15s3 12 6 15l21 21h-25l-21 -20l-24 -50v-89h93c12 0 22 -10 22 -22s-10 -21 -22 -21h-93v-362h65c12 0 22 -10 22 -22
s-10 -22 -22 -22h-84h-3h-4h-22h-3h-4h-83h-1c-12 0 -21 10 -21 22s9 22 21 22h1h65v362h-65h-1c-12 0 -21 9 -21 21s9 22 21 22h1h65v94c0 3 1 7 2 9l29 58c2 3 7 8 10 10l56 29c2 2 8 2 11 2z" />
    <glyph glyph-name="g" unicode="g" 
d="M145 -11l-43 -14l-23 -45v-19l23 -45l75 -26h167l75 26l22 45v15l-19 19l-78 26h-142c-2 0 -4 0 -6 1zM236 406l-46 -24l-24 -46v-106l24 -47l46 -23h48l47 23l23 47v106l-23 46l-47 24h-48zM232 449h2h55c3 0 8 -1 10 -2l55 -28c2 -1 7 -3 9 -5v-2l13 -12l12 11
c2 2 6 7 9 8l56 28c2 1 7 2 10 2c12 0 22 -10 22 -22v-29c0 -12 -10 -22 -22 -22h-48l-12 -11l22 -44c1 -2 2 -7 2 -10v-58c0 -3 -1 -7 -2 -9l-29 -58c-1 -2 -3 -5 -4 -6l-29 -28v-1c-2 -2 -7 -4 -9 -5l-55 -27c-2 -1 -7 -3 -10 -3h-57c-3 0 -8 2 -10 3l-55 27
c-2 1 -7 3 -9 5v1h-1l-12 13l-11 -11l-25 -51v-14l19 -20l78 -25h142c2 0 4 0 6 -1l87 -30c4 -1 10 -7 12 -11l29 -56c2 -3 3 -8 3 -11v-3v-26c0 -3 -1 -7 -2 -9l-30 -59c-2 -4 -8 -10 -12 -11l-87 -28c-2 -1 -4 -1 -6 -1h-174c-2 0 -5 0 -7 1l-87 28c-4 1 -11 7 -13 11
l-29 59c-1 2 -2 6 -2 9v29c0 3 1 8 2 10l29 57c2 4 9 10 13 11l14 5l-26 50c-2 3 -3 9 -3 12v2v27c0 3 1 8 2 10l30 57c1 2 2 5 3 6l19 18l-22 44c-1 2 -2 6 -2 9v58c0 3 1 8 2 10l28 59c1 2 4 4 5 5l27 27l1 2c2 2 7 4 9 5l52 27c1 1 5 2 7 2h1l1 1h4z" />
    <glyph glyph-name="h" unicode="h" horiz-adv-x="635" 
d="M144 652h1c1 0 2 -1 3 -1h22c1 0 3 1 4 1c4 0 12 -3 15 -6l1 -2c3 -3 6 -10 6 -14v-4v-233l21 21c2 2 5 4 7 5l87 29c2 1 5 1 7 1h55h3h5c1 0 1 -1 2 -1h1l86 -29c4 -1 11 -7 13 -11l29 -58c1 -2 2 -7 2 -10v-296h65h1c12 0 21 -10 21 -22s-9 -22 -21 -22h-1h-83h-4h-4
h-22h-3h-3h-84c-12 0 -22 10 -22 22s10 22 22 22h65v292l-23 46l-47 24h-49l-79 -26l-47 -49v-287h65c12 0 22 -10 22 -22s-10 -22 -22 -22h-84h-3h-4h-22h-3h-4h-83h-1c-12 0 -21 10 -21 22s9 22 21 22h1h65v564h-65h-1c-12 0 -21 10 -21 22s9 21 21 21h1h83c1 0 2 1 3 1z
" />
    <glyph glyph-name="i" unicode="i" horiz-adv-x="346" 
d="M144 449h1h3h22h4c4 0 12 -3 15 -6l1 -2c3 -3 6 -10 6 -14v-3v-380h65c12 0 22 -10 22 -22s-10 -22 -22 -22h-84h-3h-4h-22h-3h-4h-83h-1c-12 0 -21 10 -21 22s9 22 21 22h1h65v362h-65h-1c-12 0 -21 9 -21 21s9 22 21 22h1h83h3zM144 651h1c7 0 15 -5 18 -9l26 -26
c3 -3 7 -9 7 -15s-4 -13 -7 -16l-28 -28c-3 -3 -10 -7 -16 -7s-12 4 -15 7l-30 28c-3 3 -6 10 -6 16s3 12 6 15l28 26c3 4 8 8 14 9h2z" />
    <glyph glyph-name="j" unicode="j" horiz-adv-x="346" 
d="M174 449h3h22h3c4 0 13 -3 16 -6l1 -2c3 -3 5 -10 5 -14v-3v-518c0 -3 -1 -7 -2 -9l-28 -59c-2 -3 -7 -8 -10 -10l-58 -27c-3 -2 -7 -3 -10 -3h-4h-54c-4 0 -12 3 -15 6l-30 29c-3 3 -5 11 -5 15v29c0 4 2 12 5 15l30 30c3 3 9 5 15 5s13 -2 16 -5l28 -30
c3 -3 7 -9 7 -15s-4 -13 -7 -16l-21 -21h26l19 21l26 50v495h-65c-12 0 -22 9 -22 21s10 22 22 22h83h4zM173 651h1c7 0 14 -5 17 -9l27 -26c3 -3 6 -9 6 -15s-3 -13 -6 -16l-29 -28c-3 -3 -9 -7 -15 -7s-13 4 -16 7l-28 28c-3 3 -7 10 -7 16s4 12 7 15l26 26c3 4 10 8 16 9
h1z" />
    <glyph glyph-name="k" unicode="k" 
d="M144 652h1c1 0 2 -1 3 -1h22c1 0 3 1 4 1c4 0 12 -3 15 -6l1 -2c3 -3 6 -10 6 -14v-4v-436l76 76c1 1 3 5 4 6l134 134h-34c-12 0 -22 9 -22 21s10 22 22 22h84h3h3h84c12 0 22 -10 22 -22s-10 -21 -22 -21h-78l-138 -138l2 -2l167 -222h47c12 0 22 -10 22 -22
s-10 -22 -22 -22h-54h-3h-5h-22h-3h-3h-84c-12 0 -22 10 -22 22s10 22 22 22h44l-133 176l-91 -91v-85h65c12 0 22 -10 22 -22s-10 -22 -22 -22h-84h-3h-4h-22h-3h-4h-83h-1c-12 0 -21 10 -21 22s9 22 21 22h1h65v564h-65h-1c-12 0 -21 10 -21 22s9 21 21 21h1h83
c1 0 2 1 3 1z" />
    <glyph glyph-name="l" unicode="l" horiz-adv-x="346" 
d="M144 652h1c1 0 2 -1 3 -1h22c1 0 3 1 4 1c4 0 12 -3 15 -6l1 -2c3 -3 6 -10 6 -14v-4v-582h65c12 0 22 -10 22 -22s-10 -22 -22 -22h-84h-3h-4h-22h-3h-4h-83h-1c-12 0 -21 10 -21 22s9 22 21 22h1h65v564h-65h-1c-12 0 -21 10 -21 22s9 21 21 21h1h83c1 0 2 1 3 1z" />
    <glyph glyph-name="m" unicode="m" horiz-adv-x="983" 
d="M144 449h1h3h22h4c4 0 12 -3 15 -6l1 -2c3 -3 6 -10 6 -14v-3v-31l21 21c2 2 5 4 7 5l87 29c2 1 5 1 7 1h55h3h5c1 0 1 -1 2 -1h1l86 -29c4 -1 11 -7 13 -11l15 -31l37 37c2 2 6 4 8 5l87 29c2 1 5 1 7 1h55h2h6c1 0 1 -1 2 -1h1l86 -29c4 -1 10 -7 12 -11l28 -58
c1 -2 4 -7 4 -10v-296h65c12 0 22 -10 22 -22s-10 -22 -22 -22h-84h-3h-4h-22h-3h-4h-83h-1c-12 0 -21 10 -21 22s9 22 21 22h1h65v292l-23 46l-47 24h-50l-78 -26l-48 -49v-287h65h1c12 0 21 -10 21 -22s-9 -22 -21 -22h-1h-83h-4h-4h-22h-3h-3h-84c-12 0 -22 10 -22 22
s10 22 22 22h65v292l-23 46l-47 24h-49l-79 -26l-47 -49v-287h65c12 0 22 -10 22 -22s-10 -22 -22 -22h-84h-3h-4h-22h-3h-4h-83h-1c-12 0 -21 10 -21 22s9 22 21 22h1h65v362h-65h-1c-12 0 -21 9 -21 21s9 22 21 22h1h83h3z" />
    <glyph glyph-name="n" unicode="n" horiz-adv-x="635" 
d="M144 449h1h3h22h4c4 0 12 -3 15 -6l1 -2c3 -3 6 -10 6 -14v-3v-31l21 21c2 2 5 4 7 5l87 29c2 1 5 1 7 1h55h3h5c1 0 1 -1 2 -1h1l86 -29c4 -1 11 -7 13 -11l29 -58c1 -2 2 -7 2 -10v-296h65h1c12 0 21 -10 21 -22s-9 -22 -21 -22h-1h-83h-4h-4h-22h-3h-3h-84
c-12 0 -22 10 -22 22s10 22 22 22h65v292l-23 46l-47 24h-49l-79 -26l-47 -49v-287h65c12 0 22 -10 22 -22s-10 -22 -22 -22h-84h-3h-4h-22h-3h-4h-83h-1c-12 0 -21 10 -21 22s9 22 21 22h1h65v362h-65h-1c-12 0 -21 9 -21 21s9 22 21 22h1h83h3z" />
    <glyph glyph-name="o" unicode="o" 
d="M265 406l-49 -25l-52 -52l-26 -79v-51l26 -79l52 -52l49 -24h49l49 24l52 52l26 79v51l-26 79l-52 52l-49 25h-49zM261 449h1h1h53h2h5c1 0 2 -1 3 -1h1l85 -29c2 -1 6 -3 8 -5l58 -59c2 -2 5 -5 6 -7l29 -87c1 -2 1 -6 1 -8v-57c0 -2 0 -5 -1 -7l-29 -87
c-1 -2 -4 -6 -6 -8l-58 -59c-2 -2 -6 -3 -8 -4l-85 -29v-1h-1h-2c-2 -1 -4 -1 -6 -1h-2h-52h-3c-1 0 -4 1 -5 1h-2h-1l-86 30c-2 1 -7 2 -9 4l-58 59c-2 2 -3 6 -4 8l-30 87c-1 2 -1 5 -1 7v57c0 2 0 6 1 8l30 87c1 2 2 5 4 7l58 59c2 2 7 4 9 5l84 28c1 0 2 1 3 1h1l1 1h1
h3h1z" />
    <glyph glyph-name="p" unicode="p" 
d="M295 406l-51 -25l-48 -50v-213l48 -50l51 -24h47l51 24l51 52l27 79v51l-27 79l-51 52l-51 25h-47zM144 449h1h3h22h4c4 0 12 -3 15 -6l1 -2c3 -3 6 -10 6 -14v-3v-31l21 21c1 1 3 3 5 4l57 29c2 1 7 2 10 2h55h2h6c1 0 1 -1 2 -1h1l86 -29c2 -1 7 -3 9 -5l57 -59
c2 -2 5 -5 6 -7l28 -87c1 -2 1 -6 1 -8v-57c0 -2 0 -5 -1 -7l-28 -87c-1 -2 -4 -6 -6 -8l-57 -59c-2 -2 -7 -3 -9 -4l-86 -29v-1h-1c-2 -1 -6 -1 -8 -1h-2h-55c-3 0 -8 1 -10 2l-57 30c-2 1 -4 2 -5 3l-21 21v-216h65c12 0 22 -8 22 -20s-10 -22 -22 -22h-84h-3h-4h-22h-3
h-4h-83h-1c-12 0 -21 10 -21 22s9 20 21 20h1h65v566h-65h-1c-12 0 -21 9 -21 21s9 22 21 22h1h83h3z" />
    <glyph glyph-name="q" unicode="q" 
d="M265 406l-49 -25l-52 -52l-26 -79v-51l26 -79l52 -52l49 -24h49l49 24l49 50v213l-49 50l-49 25h-49zM433 449h1c4 0 12 -3 15 -6c3 3 10 6 14 6c12 0 22 -9 22 -21v-1v-587h65c12 0 22 -8 22 -20s-10 -22 -22 -22h-84h-3h-3h-22h-4h-4h-82c-12 0 -22 10 -22 22
s10 20 22 20h64v216l-20 -21c-1 -1 -4 -2 -6 -3l-58 -30c-2 -1 -7 -2 -10 -2h-54h-3c-1 0 -4 1 -5 1h-2h-1l-86 30c-2 1 -7 2 -9 4l-58 59c-2 2 -3 6 -4 8l-30 87c-1 2 -1 5 -1 7v57c0 2 0 6 1 8l30 87c1 2 2 5 4 7l58 59c2 2 7 4 9 5l85 29h2c2 1 5 1 7 1h2h55
c3 0 8 -1 10 -2l58 -29c2 -1 5 -3 6 -4l20 -21v34v1c0 12 9 21 21 21z" />
    <glyph glyph-name="r" unicode="r" horiz-adv-x="463" 
d="M144 449h1h3h22h4c4 0 12 -3 15 -6l1 -2c3 -3 6 -10 6 -14v-3v-60l49 50c1 1 4 3 6 4l58 29c2 1 6 2 9 2h87c4 0 12 -4 15 -7l30 -28c3 -3 5 -12 5 -16v-28c0 -4 -2 -13 -5 -16l-30 -30c-3 -3 -9 -5 -15 -5s-13 2 -16 5l-28 30c-3 3 -7 10 -7 16s4 12 7 15l21 21h-59
l-49 -25l-53 -52l-25 -79v-206h65c12 0 22 -10 22 -22s-10 -22 -22 -22h-84h-3h-4h-22h-3h-4h-83h-1c-12 0 -21 10 -21 22s9 22 21 22h1h65v362h-65h-1c-12 0 -21 9 -21 21s9 22 21 22h1h83h3z" />
    <glyph glyph-name="s" unicode="s" horiz-adv-x="491" 
d="M174 449h115c3 0 8 -1 10 -2l59 -29c2 -1 4 -3 5 -4l8 -8l15 31c3 7 11 12 19 12c12 0 22 -10 22 -22v-116c0 -12 -10 -22 -22 -22c-8 0 -16 5 -19 12l-27 55l-25 25l-50 25h-105l-50 -25l-20 -20v-11l20 -21l54 -27l144 -58h1l58 -30c2 -1 5 -2 6 -3l28 -29
c3 -3 7 -11 7 -15v-1v-25v-3v-4v-54v-1c0 -4 -4 -11 -7 -14l-28 -30c-1 -1 -4 -2 -6 -3l-58 -30c-2 -1 -7 -2 -10 -2h-116c-3 0 -8 1 -10 2l-57 30c-2 1 -4 2 -5 3l-8 8l-15 -31c-3 -7 -12 -12 -20 -12c-12 0 -22 10 -22 22v116c0 12 10 22 22 22c8 0 17 -6 20 -13l27 -55
l23 -24l51 -24h106l49 24l21 21v40l-21 19l-54 28l-143 57l-2 1l-58 29c-2 1 -5 3 -6 4l-28 29c-3 3 -7 11 -7 15v27v2v3v27c0 4 4 12 7 15l28 29c1 1 4 3 6 4l58 29c2 1 7 2 10 2z" />
    <glyph glyph-name="t" unicode="t" horiz-adv-x="463" 
d="M144 652h1c4 0 12 -3 15 -6c3 3 10 6 14 6c12 0 22 -10 22 -22v-181h93c12 0 22 -10 22 -22s-10 -21 -22 -21h-93v-265l25 -78l20 -19h43l47 23l25 52c3 7 12 12 20 12c12 0 22 -9 22 -21c0 -3 -1 -9 -2 -11l-30 -58c-2 -3 -5 -7 -8 -9l-59 -30c-2 -1 -7 -2 -10 -2h-55
h-2c-3 0 -9 1 -12 3l-56 29c-4 2 -10 8 -11 12l-29 87c-1 2 -1 5 -1 7v268h-65h-1c-12 0 -21 9 -21 21s9 22 21 22h1h65v181c0 12 9 22 21 22z" />
    <glyph glyph-name="u" unicode="u" horiz-adv-x="635" 
d="M144 449h1h3h22h4c4 0 12 -3 15 -6l1 -2c3 -3 6 -10 6 -14v-3v-310l23 -47l46 -23h50l79 25l47 49v288h-65c-12 0 -22 9 -22 21s10 22 22 22h84h3h3h22h4c4 0 12 -3 15 -6l2 -2c3 -3 5 -10 5 -14v-3v-380h65h1c12 0 21 -10 21 -22s-9 -22 -21 -22h-1h-83h-4h-4h-22h-3
c-4 0 -12 3 -15 6v1l-1 1c-3 3 -6 10 -6 14v3v31l-21 -21c-2 -2 -6 -3 -8 -4l-86 -30c-2 -1 -6 -1 -8 -1h-54h-3c-1 0 -4 1 -5 1h-2h-1l-86 30c-4 1 -11 6 -13 10l-29 58c-1 2 -2 7 -2 10v297h-65h-1c-12 0 -21 9 -21 21s9 22 21 22h1h83h3z" />
    <glyph glyph-name="v" unicode="v" horiz-adv-x="520" 
d="M86 449h1h3h22h4h3h83c12 0 22 -10 22 -22s-10 -21 -22 -21h-54l125 -299l129 299h-84c-12 0 -22 9 -22 21s10 22 22 22h113h3h4h54h1c12 0 21 -10 21 -22s-9 -21 -21 -21h-1h-43l-167 -391c-2 -7 -9 -14 -17 -15h-2h-1h-1h-3h-2c-8 1 -14 7 -16 15l-167 391h-44
c-12 0 -22 9 -22 21s10 22 22 22h55h2z" />
    <glyph glyph-name="w" unicode="w" horiz-adv-x="694" 
d="M116 449h3h22h4h3h84c12 0 22 -10 22 -22s-10 -21 -22 -21h-59l71 -261l82 286c1 8 7 15 14 17l2 1h1h1h2h2h1h1h2c3 -1 8 -4 10 -6c3 3 10 6 14 6c9 0 19 -7 21 -16l79 -288l74 261h-58c-12 0 -22 9 -22 21s10 22 22 22h83h4h4h83h1c12 0 21 -10 21 -22s-9 -21 -21 -21
h-1h-71l-110 -387c-1 -8 -8 -16 -15 -18l-1 -1h-1h-2h-2h-2h-1h-2c-8 1 -16 10 -17 18l-94 331l-95 -330c-1 -8 -7 -16 -14 -18l-3 -1h-1h-1h-1h-1h-1h-1h-1h-1c-8 1 -17 10 -18 18l-111 388h-70c-12 0 -22 9 -22 21s10 22 22 22h83h4z" />
    <glyph glyph-name="x" unicode="x" 
d="M116 449h3h23h2h3h85c12 0 22 -10 22 -22s-10 -21 -22 -21h-43l109 -139l118 139h-68c-12 0 -22 9 -22 21s10 22 22 22h112h3h3h55c12 0 22 -10 22 -22s-10 -21 -22 -21h-48l-147 -173l148 -189h47c12 0 22 -10 22 -22s-10 -22 -22 -22h-55h-3h-3h-22h-4h-3h-83
c-12 0 -22 10 -22 22s10 22 22 22h41l-107 138l-119 -138h69c12 0 22 -10 22 -22s-10 -22 -22 -22h-113h-3h-4h-54h-1c-12 0 -21 10 -21 22s9 22 21 22h1h48l148 173l-148 189h-48h-1c-12 0 -21 9 -21 21s9 22 21 22h1h54h4z" />
    <glyph glyph-name="y" unicode="y" horiz-adv-x="520" 
d="M116 449h3h22h3h3h85c12 0 22 -10 22 -22s-10 -21 -22 -21h-55l125 -299l128 299h-82c-12 0 -22 9 -22 21s10 22 22 22h112h3h3h55c12 0 22 -10 22 -22s-10 -21 -22 -21h-44l-167 -391l-3 -6l-56 -112c-1 -2 -2 -5 -3 -6l-59 -58c-1 -1 -3 -4 -5 -5l-59 -28
c-2 -1 -6 -2 -9 -2h-29c-4 0 -12 3 -15 6l-29 29c-3 3 -7 9 -7 15s4 13 7 16l29 28c3 3 9 7 15 7s12 -4 15 -7l29 -28c2 -2 4 -7 5 -10l25 12l52 53l52 104l-164 383h-43h-1c-12 0 -21 9 -21 21s9 22 21 22h1h54h4z" />
    <glyph glyph-name="z" unicode="z" horiz-adv-x="520" 
d="M117 449h2h284h3h3h22h3c7 0 15 -3 18 -9c1 -1 2 -3 2 -4l1 -2c1 -2 1 -5 1 -7c0 -6 -3 -13 -6 -16l-289 -367h227l26 99c2 9 10 17 20 17c12 0 21 -10 21 -22v-116c0 -12 -9 -22 -21 -22h-25h-4h-3h-283h-3h-4h-22h-3c-7 0 -15 3 -18 9l-1 2h-1v2l-1 1c-1 2 -1 6 -1 8
c0 6 4 12 7 15l289 369h-228l-25 -100c-2 -9 -11 -17 -21 -17c-12 0 -22 10 -22 22v116c0 12 10 22 22 22h25h4h1z" />
    <glyph glyph-name="braceleft" unicode="{" horiz-adv-x="404" 
d="M261 768c12 0 22 -10 22 -22c0 -8 -5 -17 -12 -20l-52 -25l-23 -48v-47l24 -50l28 -27c1 -1 2 -3 3 -5l28 -59c1 -2 4 -6 4 -9v-58c0 -3 -3 -8 -4 -10l-28 -57c-2 -3 -7 -8 -10 -10l-56 -28c-1 0 -2 -1 -3 -1l-18 -9l18 -9c1 0 2 -1 3 -2l56 -28c3 -2 8 -7 10 -10l28 -58
c1 -2 4 -7 4 -10v-57c0 -3 -3 -8 -4 -10l-28 -58c-1 -2 -2 -5 -3 -6l-28 -26l-24 -50v-48l23 -46l52 -27c7 -3 12 -12 12 -20c0 -12 -9 -20 -21 -20c-3 0 -9 1 -11 2l-55 27c-2 1 -7 4 -9 6v1l-29 27c-1 1 -3 4 -4 6l-29 58c-1 2 -2 7 -2 10v58c0 3 1 7 2 9l29 58
c1 2 3 5 4 6l27 26l25 51v44l-49 48l-55 28c-7 3 -11 12 -11 20s4 15 11 18l55 28l49 49v44l-25 50l-27 26c-1 1 -3 4 -4 6l-29 58c-1 2 -2 7 -2 10v58c0 3 1 7 2 9l29 58c1 2 3 5 4 6l29 29c2 2 7 4 9 5l55 27c2 1 7 4 10 4z" />
    <glyph glyph-name="bar" unicode="|" horiz-adv-x="231" 
d="M116 768c12 0 22 -10 22 -22v-926v-2c0 -12 -10 -20 -22 -20s-21 8 -21 20v2v926c0 12 9 22 21 22z" />
    <glyph glyph-name="braceright" unicode="}" horiz-adv-x="404" 
d="M144 768c3 0 8 -3 10 -4l55 -27h1c2 -1 6 -3 8 -5h1l29 -29c1 -1 2 -4 3 -6l28 -58c1 -2 4 -6 4 -9v-58c0 -3 -3 -8 -4 -10l-28 -58c-1 -2 -2 -5 -3 -6l-28 -26l-24 -50v-44l48 -49l55 -28c7 -3 12 -10 12 -18s-5 -17 -12 -20l-55 -28l-48 -48v-44l24 -51l28 -26
c1 -1 2 -4 3 -6l28 -58c1 -2 4 -6 4 -9v-58c0 -3 -3 -8 -4 -10l-28 -58c-1 -2 -2 -5 -3 -6l-29 -27l-1 -1c-2 -2 -6 -5 -8 -6l-56 -27c-2 -1 -7 -2 -10 -2c-12 0 -22 8 -22 20c0 8 6 17 13 20l52 27l23 46v48l-25 50l-27 26c-1 1 -3 4 -4 6l-29 58c-1 2 -2 7 -2 10v57
c0 3 1 8 2 10l29 58c2 3 7 8 10 10l56 28c1 0 2 2 3 2l18 9l-17 7c-1 0 -3 2 -4 3l-56 28c-3 2 -8 7 -10 10l-29 57c-1 2 -2 7 -2 10v58c0 3 1 7 2 9l29 59c1 2 3 4 4 5l27 27l25 50v47l-23 48l-52 25c-7 3 -12 12 -12 20c0 12 9 22 21 22z" />
    <glyph glyph-name="asciitilde" unicode="~" horiz-adv-x="694" 
d="M607 392h1c12 0 21 -10 21 -22v-55v-3v-5c0 -1 -1 -1 -1 -2v-1l-28 -86c-1 -4 -8 -11 -12 -13l-57 -29c-2 -1 -7 -2 -10 -2h-58c-3 0 -8 1 -10 2l-57 29c-1 0 -2 1 -3 2l-115 86l-51 26h-48l-47 -24l-23 -46v-53c0 -12 -10 -22 -22 -22s-22 10 -22 22v55v2c0 1 1 4 1 5v3
l1 1l29 86c1 4 6 10 10 12l58 28c2 1 7 2 10 2h58c3 0 7 -1 9 -2l58 -28c1 0 2 -1 3 -2l115 -86l52 -26h47l47 24l23 47v53c0 12 9 22 21 22z" />
    <glyph glyph-name="uni007F" horiz-adv-x="463" 
d="M0 652c4 0 11 -3 14 -6c3 3 11 5 15 5h29c4 0 12 -2 15 -5c3 3 10 5 14 5h29c4 0 11 -2 14 -5c3 3 11 5 15 5h29c4 0 11 -2 14 -5c3 3 10 5 14 5h30c4 0 11 -2 14 -5c3 3 11 5 15 5h28c4 0 12 -2 15 -5c3 3 10 5 14 5h30c4 0 11 -2 14 -5c3 3 10 5 14 5h29
c4 0 12 -2 15 -5c3 3 10 5 14 5h29c12 0 22 -9 22 -21v-608c0 -12 -10 -22 -22 -22c-4 0 -11 3 -14 6c-3 -3 -11 -6 -15 -6h-29c-4 0 -12 3 -15 6c-3 -3 -10 -6 -14 -6h-28c-4 0 -12 3 -15 6c-3 -3 -11 -6 -15 -6h-29c-4 0 -11 3 -14 6c-3 -3 -10 -6 -14 -6h-29
c-4 0 -12 3 -15 6c-3 -3 -11 -6 -15 -6h-28c-4 0 -11 3 -14 6c-3 -3 -11 -6 -15 -6h-29c-4 0 -12 3 -15 6c-3 -3 -10 -6 -14 -6h-29c-4 0 -12 3 -15 6c-3 -3 -10 -6 -14 -6h-29c-12 0 -22 10 -22 22v608c0 12 10 22 22 22z" />
    <glyph glyph-name="dieresis" unicode="&#xa8;" horiz-adv-x="433" 
d="M318 594h1c4 0 11 -4 14 -7l30 -28c3 -3 7 -10 7 -16s-4 -12 -7 -15l-30 -30c-3 -3 -9 -6 -15 -6s-13 3 -16 6l-28 30c-3 3 -7 9 -7 15s4 13 7 16l28 28c3 3 12 7 16 7zM116 594c4 0 12 -4 15 -7l30 -28c3 -3 5 -10 5 -16s-2 -12 -5 -15l-30 -30c-3 -3 -9 -6 -15 -6
s-13 3 -16 6l-28 30c-3 3 -7 9 -7 15s4 13 7 16l28 28c3 3 12 7 16 7z" />
    <glyph glyph-name="copyright" unicode="&#xa9;" horiz-adv-x="694" 
d="M494 376l19 -58c1 -2 1 -5 1 -7v-115c0 -2 0 -5 -1 -7l-19 -58l6 15l28 82v51l-28 82zM405 507c4 0 10 -2 13 -4l86 -57c2 -2 7 -6 8 -9l28 -57c0 -1 1 -3 1 -4l30 -87c1 -2 1 -4 1 -6v-59c0 -2 0 -4 -1 -6l-30 -87c0 -1 -1 -2 -1 -3l-28 -58c-1 -3 -6 -6 -8 -8l-86 -58
l-1 -1c-3 -2 -9 -3 -12 -3h-2h-85c-3 0 -7 1 -9 2l-58 30c-2 1 -5 2 -6 3l-58 59c-1 1 -2 3 -3 5l-30 58c-1 2 -2 7 -2 10c0 12 10 22 22 22c8 0 17 -6 20 -13l26 -54l54 -54l49 -24h73l20 20l27 53l28 82v109l-28 81l-27 54l-20 20h-73l-49 -25l-53 -52l-26 -81
c-2 -8 -12 -16 -21 -16c-12 0 -22 10 -22 22v174c0 12 10 22 22 22c9 0 19 -7 21 -15l17 -53l33 33c1 1 4 2 6 3l58 30c2 1 6 2 9 2h85h2zM293 579l-82 -27l-54 -27l-53 -53l-26 -53l-27 -110v-81l27 -111l26 -53l81 -80l108 -27h110l107 27l80 80l26 53l29 111v81l-29 110
l-26 53l-53 53l-53 27l-82 27h-109zM289 623h116c2 0 5 0 7 -1l85 -29h2v-1h1h2l1 -1l57 -29c2 -1 4 -2 5 -3l59 -59c1 -1 2 -3 3 -5l30 -58c1 -1 1 -4 1 -5l28 -115c0 -1 2 -5 2 -6v-87c0 -1 -2 -4 -2 -5l-28 -116c0 -1 0 -3 -1 -4l-30 -58c-1 -2 -2 -5 -3 -6l-87 -87
c-2 -2 -8 -4 -11 -5l-116 -29c-1 0 -4 -1 -5 -1h-116c-1 0 -4 1 -5 1l-116 29c-3 1 -8 3 -10 5l-86 87c-1 1 -4 4 -5 6l-29 58c-1 1 -2 3 -2 4l-28 116v5v87v6l28 115c0 1 1 4 2 5l29 58c1 2 4 4 5 5l58 59c1 1 3 2 5 3l57 30c1 0 3 1 4 1l87 29c2 1 4 1 6 1z" />
    <glyph glyph-name="guillemotleft" unicode="&#xab;" horiz-adv-x="404" 
d="M376 449h2h3h1h1v-1h1h1l1 -1l2 -1l2 -2l2 -1l1 -2h1c1 -1 2 -2 2 -3v-1v-1l1 -2c0 -1 1 -1 1 -2v-1v-2v-1v-3v-1v-2c0 -1 -1 0 -1 -1s-1 -1 -1 -2v-2c0 -1 -2 -2 -3 -3v-2l-133 -159l133 -159l1 -2l1 -2l1 -1l1 -2v-1v-1h1v-3v-3v-1v-1v-1l-1 -2v-2l-1 -2v-1l-1 -1
l-1 -2l-2 -1l-2 -2h-1l-4 -4h-2v-1h-2h-3h-2h-2c-2 0 -4 0 -6 1h-1c-1 0 -2 3 -3 3l-1 1l-2 1v1l-174 173c-3 3 -7 9 -7 15s4 12 7 15l174 174l1 1l3 4h2c1 0 4 2 5 2h1h3zM202 449h3h2h1h1v-1h2l1 -1h1l1 -1l3 -2l1 -1l1 -2h1c1 -1 2 -2 2 -3v-1l1 -1v-2c0 -1 1 -1 1 -2v-1
v-2v-1v-3v-1v-2c0 -1 -1 0 -1 -1v-2l-1 -2c0 -1 -1 -2 -2 -3h-1v-2l-133 -159l133 -159l1 -2l1 -2l1 -1l1 -2v-1l1 -1v-3v-3v-1v-1v-1l-1 -2v-2l-1 -2v-1l-1 -1l-1 -2l-1 -1l-2 -2h-1c-1 -1 -4 -3 -5 -4h-2v-1h-2h-2h-1h-2h-2h-1h-2l-2 1h-1l-2 1l-2 2l-1 1l-2 1v1l-174 173
c-3 3 -5 9 -5 15s2 12 5 15l174 174l1 1l3 4h1h2c1 0 3 2 4 2h1h3z" />
    <glyph glyph-name="acute" unicode="&#xb4;" horiz-adv-x="346" 
d="M231 651h1c6 0 14 -3 17 -7l27 -28c3 -3 7 -11 7 -15c0 -6 -5 -14 -9 -17l-173 -144c-1 -1 -2 -1 -3 -2s-3 -2 -4 -2s-2 -2 -3 -2h-2h-1h-1h-1h-2h-2h-2l-1 2c-1 0 -2 1 -3 2h-1l-2 1l-1 1l-2 2h-1l-1 1v3h-1v2l-1 1c0 1 -1 1 -1 2v1v2v1v5c0 1 1 1 1 2s1 1 1 2l1 2
c1 1 1 3 2 4l142 171c3 6 12 10 19 10z" />
    <glyph glyph-name="cedilla" unicode="&#xb8;" horiz-adv-x="144" 
d="M116 44h1c12 0 21 -10 21 -22c0 -6 -4 -12 -7 -15l-28 -29l28 -28c3 -3 7 -9 7 -15s-4 -12 -7 -15l-29 -29c-3 -3 -11 -7 -15 -7h-29h-1c-12 0 -21 10 -21 22s9 21 21 21h1h20l7 8l-7 8h-20c-12 0 -22 9 -22 21c0 6 4 12 7 15l57 58c3 3 12 7 16 7z" />
    <glyph glyph-name="guillemotright" unicode="&#xbb;" horiz-adv-x="404" 
d="M29 449h2h2l2 -1h2c1 0 3 -1 4 -2l2 -2v-1l1 -1l174 -174c3 -3 6 -9 6 -15s-3 -12 -6 -15l-173 -173h-1v-1h-1l-3 -4l-3 -1c-1 0 -2 -1 -3 -1h-1h-3h-1h-1h-3h-2c-1 0 -3 2 -4 2l-1 2h-2l-1 1l-1 1h-1l-1 2c-1 1 -2 2 -2 3l-1 3c0 1 -1 2 -1 3v1v1l-1 1v1c0 1 1 1 1 2v3
v2c0 1 1 2 1 2l1 2c0 1 1 3 2 4l133 159l-133 159v2l-1 1l-1 1v1l-1 1v1l-1 1v2v3c0 1 -1 2 -1 3v1l1 1v1v2c0 1 1 3 1 4h1v2h1l1 2l1 1l1 1v1l2 2l2 1h1l1 1h1h1h1l1 1h2h3z" />
    <glyph glyph-name="Agrave" unicode="&#xc0;" 
d="M131.4 875.8h2c6 0 12 -4 15 -9l129 -155l3 -3c1 -1 2 -3 2 -4v-2c0 -1 1 -1 1 -2v-2v-1v-1v-1v-1h-1v-2v-2c0 -1 -1 -2 -2 -3l-1 -2h-1l-1 -1l-1 -2l-2 -1c-1 0 -1 -1 -2 -1l-1 -1h-1c-1 0 -2 -1 -3 -1h-2h-2h-4c-1 0 -1 1 -2 1h-2l-2 1c-1 1 -2 1 -3 2v1l-158 131
c-4 3 -7 10 -7 15c0 4 3 11 6 14l24 24c3 4 11 8 16 8zM250 471l-91 -273h182zM262 593h1l1 -1h2h2c7 -2 14 -9 15 -16l179 -536h38c11 0 20 -9 20 -20s-9 -20 -20 -20h-49h-4h-3h-20h-3h-3h-76c-11 0 -20 9 -20 20s9 20 20 20h52l-40 118h-208l-40 -118h78
c11 0 20 -9 20 -20s-9 -20 -20 -20h-102h-3h-3h-50c-11 0 -20 9 -20 20s9 20 20 20h39l47 141c0 2 1 4 2 6l130 390c1 6 8 13 14 15h1h2h1v1z" />
    <glyph glyph-name="Aacute" unicode="&#xc1;" 
d="M414.05 875.8h1c5 0 12 -3 15 -7l25 -25c3 -3 6 -10 6 -14c0 -5 -4 -12 -8 -15l-157 -131c-1 -1 -2 -1 -3 -2s-3 -2 -4 -2s-1 -1 -2 -1h-2h-1h-1h-1h-2h-1h-2l-1 1c-1 0 -2 1 -3 2h-1l-2 1l-1 1l-1 2h-1l-1 1v2h-1v2l-1 1c0 1 -1 1 -1 2v1v2v1v4c0 1 1 1 1 2s1 1 1 2l1 2
c1 1 1 2 2 3l129 156c3 5 11 9 17 9zM250 471l-91 -273h182zM262 593h1l1 -1h2h2c7 -2 14 -9 15 -16l179 -536h38c11 0 20 -9 20 -20s-9 -20 -20 -20h-49h-4h-3h-20h-3h-3h-76c-11 0 -20 9 -20 20s9 20 20 20h52l-40 118h-208l-40 -118h78c11 0 20 -9 20 -20s-9 -20 -20 -20
h-102h-3h-3h-50c-11 0 -20 9 -20 20s9 20 20 20h39l47 141c0 2 1 4 2 6l130 390c1 6 8 13 14 15h1h2h1v1z" />
    <glyph glyph-name="Acircumflex" unicode="&#xc2;" 
d="M259.3 849.8c4 0 10 -2 13 -5l157 -131h1l2 -2v-1l2 -1v-1l1 -1l1 -1v-1v-1v-1l1 -1v-2v-2v-1v-3v-2l-1 -2l-1 -2l-1 -1l-1 -2l-1 -1l-2 -2h-1v-1l-2 -1c-1 0 -3 -1 -4 -1l-2 -1h-3h-1h-2h-1h-2v1c-1 0 -3 0 -4 1l-1 1h-1l-147 98l-146 -97v-1h-1l-1 -1h-1
c-1 0 -3 -2 -4 -2h-4h-1h-3c-1 0 -3 1 -4 1l-1 1h-1h-1v1l-2 1l-1 1l-2 2l-1 1l-1 2c0 1 -1 2 -1 3s-1 1 -1 2v1v1v3v1v2c0 2 1 5 2 6s1 2 2 3l3 3l158 131c3 3 8 5 12 5zM250 471l-91 -273h182zM262 593h1l1 -1h2h2c7 -2 14 -9 15 -16l179 -536h38c11 0 20 -9 20 -20
s-9 -20 -20 -20h-49h-4h-3h-20h-3h-3h-76c-11 0 -20 9 -20 20s9 20 20 20h52l-40 118h-208l-40 -118h78c11 0 20 -9 20 -20s-9 -20 -20 -20h-102h-3h-3h-50c-11 0 -20 9 -20 20s9 20 20 20h39l47 141c0 2 1 4 2 6l130 390c1 6 8 13 14 15h1h2h1v1z" />
    <glyph glyph-name="Atilde" unicode="&#xc3;" 
d="M493.7 900.5h1c11 0 19 -9 19 -20v-50v-2v-5c0 -1 -1 -1 -1 -2v-1l-26 -78c-1 -4 -6 -10 -10 -12l-52 -26c-2 -1 -6 -2 -9 -2h-53c-3 0 -7 1 -9 2l-52 26c-1 0 -2 1 -3 2l-104 78l-47 24h-43l-43 -22l-21 -42v-48c0 -11 -9 -20 -20 -20s-20 9 -20 20v50v2c0 1 1 4 1 5v2
l1 1l26 78c1 4 5 9 9 11l53 26c2 1 6 2 9 2h53c3 0 6 -1 8 -2l53 -26c1 0 2 -1 3 -2l104 -78l47 -23h43l43 21l21 43v48c0 11 8 20 19 20zM250 471l-91 -273h182zM262 593h1l1 -1h2h2c7 -2 14 -9 15 -16l179 -536h38c11 0 20 -9 20 -20s-9 -20 -20 -20h-49h-4h-3h-20h-3h-3
h-76c-11 0 -20 9 -20 20s9 20 20 20h52l-40 118h-208l-40 -118h78c11 0 20 -9 20 -20s-9 -20 -20 -20h-102h-3h-3h-50c-11 0 -20 9 -20 20s9 20 20 20h39l47 141c0 2 1 4 2 6l130 390c1 6 8 13 14 15h1h2h1v1z" />
    <glyph glyph-name="Adieresis" unicode="&#xc4;" 
d="M360.5 766.6h1c4 0 10 -3 13 -6l27 -26c3 -3 6 -9 6 -14s-3 -11 -6 -14l-27 -27c-3 -3 -9 -6 -14 -6s-11 3 -14 6l-26 27c-3 3 -6 9 -6 14s3 11 6 14l26 26c3 3 10 6 14 6zM176.5 766.6c4 0 11 -3 14 -6l27 -26c3 -3 5 -9 5 -14s-2 -11 -5 -14l-27 -27
c-3 -3 -9 -6 -14 -6s-11 3 -14 6l-26 27c-3 3 -6 9 -6 14s3 11 6 14l26 26c3 3 10 6 14 6zM250 471l-91 -273h182zM262 593h1l1 -1h2h2c7 -2 14 -9 15 -16l179 -536h38c11 0 20 -9 20 -20s-9 -20 -20 -20h-49h-4h-3h-20h-3h-3h-76c-11 0 -20 9 -20 20s9 20 20 20h52l-40 118
h-208l-40 -118h78c11 0 20 -9 20 -20s-9 -20 -20 -20h-102h-3h-3h-50c-11 0 -20 9 -20 20s9 20 20 20h39l47 141c0 2 1 4 2 6l130 390c1 6 8 13 14 15h1h2h1v1z" />
    <glyph glyph-name="Ccedilla" unicode="&#xc7;" 
d="M312.9 1.31641h1c11 0 19 -9 19 -20c0 -5 -3 -11 -6 -14l-25 -26l25 -25c3 -3 6 -9 6 -14s-3 -11 -6 -14l-26 -26c-3 -3 -10 -6 -14 -6h-26h-1c-11 0 -19 9 -19 20s8 19 19 19h1h18l6 7l-6 7h-18c-11 0 -20 8 -20 19c0 5 3 11 6 14l52 53c3 3 10 6 14 6zM263 592h3h50
c2 0 4 0 6 -1l79 -26c2 -1 6 -3 8 -5l30 -30l16 49c2 7 11 13 19 13c11 0 19 -8 19 -19v-158c0 -11 -8 -20 -19 -20c-8 0 -17 6 -19 13l-25 75l-46 46l-71 24h-45l-46 -23l-48 -48l-24 -49l-25 -74v-125l25 -75l24 -48l48 -49l46 -22h45l71 23l47 48l25 49c3 6 11 12 18 12
c11 0 20 -9 20 -20c0 -3 -2 -7 -3 -9l-26 -53c-1 -2 -3 -4 -4 -5l-52 -53c-2 -2 -6 -3 -8 -4l-79 -27c-2 -1 -4 -1 -6 -1h-50h-2c-1 0 -4 1 -5 1h-2h-1l-78 27c-2 1 -6 2 -8 4l-52 53c-1 1 -3 3 -4 5l-26 53c0 1 -1 1 -1 2l-27 79c-1 2 -1 4 -1 6v132c0 2 0 4 1 6l27 79
c0 1 1 2 1 3l26 52c1 2 3 5 4 6l52 52c2 2 6 4 8 5l78 26h1c2 1 4 1 6 1z" />
    <glyph glyph-name="Egrave" unicode="&#xc8;" 
d="M160.55 875.8h2c6 0 12 -4 15 -9l129 -155l3 -3c1 -1 2 -3 2 -4v-2c0 -1 1 -1 1 -2v-2v-1v-1v-1v-1h-1v-2v-2c0 -1 -1 -2 -2 -3l-1 -2h-1l-1 -1l-1 -2l-2 -1c-1 0 -1 -1 -2 -1l-1 -1h-1c-1 0 -2 -1 -3 -1h-2h-2h-4c-1 0 -1 1 -2 1h-2l-2 1c-1 1 -2 1 -3 2v1l-158 131
c-4 3 -7 10 -7 15c0 4 3 11 6 14l24 24c3 4 11 8 16 8zM131 593h1c1 0 2 -1 3 -1h20c1 0 2 1 3 1s2 -1 3 -1h283c1 0 2 1 3 1s3 -1 4 -1h23c11 0 19 -8 19 -19v-158c0 -11 -8 -20 -19 -20c-9 0 -19 7 -20 16l-23 142h-253v-224h118v86c0 11 9 20 20 20s20 -9 20 -20v-102v-4
v-3v-102c0 -11 -9 -20 -20 -20s-20 9 -20 20v86h-118v-250h253l23 141c1 9 11 17 20 17c11 0 19 -9 19 -20v-158c0 -11 -8 -20 -19 -20h-23h-4h-3h-283h-3h-3h-20h-3h-4h-75h-1c-11 0 -19 9 -19 20s8 20 19 20h1h59v513h-59h-1c-11 0 -19 9 -19 20s8 19 19 19h1h75
c1 0 2 1 3 1z" />
    <glyph glyph-name="Eacute" unicode="&#xc9;" 
d="M443.2 875.8h1c5 0 12 -3 15 -7l25 -25c3 -3 6 -10 6 -14c0 -5 -4 -12 -8 -15l-157 -131c-1 -1 -2 -1 -3 -2s-3 -2 -4 -2s-1 -1 -2 -1h-2h-1h-1h-1h-2h-1h-2l-1 1c-1 0 -2 1 -3 2h-1l-2 1l-1 1l-1 2h-1l-1 1v2h-1v2l-1 1c0 1 -1 1 -1 2v1v2v1v4c0 1 1 1 1 2s1 1 1 2l1 2
c1 1 1 2 2 3l129 156c3 5 11 9 17 9zM131 593h1c1 0 2 -1 3 -1h20c1 0 2 1 3 1s2 -1 3 -1h283c1 0 2 1 3 1s3 -1 4 -1h23c11 0 19 -8 19 -19v-158c0 -11 -8 -20 -19 -20c-9 0 -19 7 -20 16l-23 142h-253v-224h118v86c0 11 9 20 20 20s20 -9 20 -20v-102v-4v-3v-102
c0 -11 -9 -20 -20 -20s-20 9 -20 20v86h-118v-250h253l23 141c1 9 11 17 20 17c11 0 19 -9 19 -20v-158c0 -11 -8 -20 -19 -20h-23h-4h-3h-283h-3h-3h-20h-3h-4h-75h-1c-11 0 -19 9 -19 20s8 20 19 20h1h59v513h-59h-1c-11 0 -19 9 -19 20s8 19 19 19h1h75c1 0 2 1 3 1z" />
    <glyph glyph-name="Ecircumflex" unicode="&#xca;" 
d="M288.45 849.8c4 0 10 -2 13 -5l157 -131h1l2 -2v-1l2 -1v-1l1 -1l1 -1v-1v-1v-1l1 -1v-2v-2v-1v-3v-2l-1 -2l-1 -2l-1 -1l-1 -2l-1 -1l-2 -2h-1v-1l-2 -1c-1 0 -3 -1 -4 -1l-2 -1h-3h-1h-2h-1h-2v1c-1 0 -3 0 -4 1l-1 1h-1l-147 98l-146 -97v-1h-1l-1 -1h-1
c-1 0 -3 -2 -4 -2h-4h-1h-3c-1 0 -3 1 -4 1l-1 1h-1h-1v1l-2 1l-1 1l-2 2l-1 1l-1 2c0 1 -1 2 -1 3s-1 1 -1 2v1v1v3v1v2c0 2 1 5 2 6s1 2 2 3l3 3l158 131c3 3 8 5 12 5zM131 593h1c1 0 2 -1 3 -1h20c1 0 2 1 3 1s2 -1 3 -1h283c1 0 2 1 3 1s3 -1 4 -1h23
c11 0 19 -8 19 -19v-158c0 -11 -8 -20 -19 -20c-9 0 -19 7 -20 16l-23 142h-253v-224h118v86c0 11 9 20 20 20s20 -9 20 -20v-102v-4v-3v-102c0 -11 -9 -20 -20 -20s-20 9 -20 20v86h-118v-250h253l23 141c1 9 11 17 20 17c11 0 19 -9 19 -20v-158c0 -11 -8 -20 -19 -20h-23
h-4h-3h-283h-3h-3h-20h-3h-4h-75h-1c-11 0 -19 9 -19 20s8 20 19 20h1h59v513h-59h-1c-11 0 -19 9 -19 20s8 19 19 19h1h75c1 0 2 1 3 1z" />
    <glyph glyph-name="Edieresis" unicode="&#xcb;" 
d="M389.65 766.6h1c4 0 10 -3 13 -6l27 -26c3 -3 6 -9 6 -14s-3 -11 -6 -14l-27 -27c-3 -3 -9 -6 -14 -6s-11 3 -14 6l-26 27c-3 3 -6 9 -6 14s3 11 6 14l26 26c3 3 10 6 14 6zM205.65 766.6c4 0 11 -3 14 -6l27 -26c3 -3 5 -9 5 -14s-2 -11 -5 -14l-27 -27
c-3 -3 -9 -6 -14 -6s-11 3 -14 6l-26 27c-3 3 -6 9 -6 14s3 11 6 14l26 26c3 3 10 6 14 6zM131 593h1c1 0 2 -1 3 -1h20c1 0 2 1 3 1s2 -1 3 -1h283c1 0 2 1 3 1s3 -1 4 -1h23c11 0 19 -8 19 -19v-158c0 -11 -8 -20 -19 -20c-9 0 -19 7 -20 16l-23 142h-253v-224h118v86
c0 11 9 20 20 20s20 -9 20 -20v-102v-4v-3v-102c0 -11 -9 -20 -20 -20s-20 9 -20 20v86h-118v-250h253l23 141c1 9 11 17 20 17c11 0 19 -9 19 -20v-158c0 -11 -8 -20 -19 -20h-23h-4h-3h-283h-3h-3h-20h-3h-4h-75h-1c-11 0 -19 9 -19 20s8 20 19 20h1h59v513h-59h-1
c-11 0 -19 9 -19 20s8 19 19 19h1h75c1 0 2 1 3 1z" />
    <glyph glyph-name="Igrave" unicode="&#xcc;" horiz-adv-x="346" 
d="M1.59961 875.8h2c6 0 12 -4 15 -9l129 -155l3 -3c1 -1 2 -3 2 -4v-2c0 -1 1 -1 1 -2v-2v-1v-1v-1v-1h-1v-2v-2c0 -1 -1 -2 -2 -3l-1 -2h-1l-1 -1l-1 -2l-2 -1c-1 0 -1 -1 -2 -1l-1 -1h-1c-1 0 -2 -1 -3 -1h-2h-2h-4c-1 0 -1 1 -2 1h-2l-2 1c-1 1 -2 1 -3 2v1l-158 131
c-4 3 -7 10 -7 15c0 4 3 11 6 14l24 24c3 4 11 8 16 8zM131 593h1c1 0 2 -1 3 -1h20c1 0 2 1 3 1s2 -1 3 -1h76c11 0 20 -8 20 -19s-9 -20 -20 -20h-59v-513h59c11 0 20 -9 20 -20s-9 -20 -20 -20h-76h-3h-3h-20h-3h-4h-75h-1c-11 0 -19 9 -19 20s8 20 19 20h1h59v513h-59
h-1c-11 0 -19 9 -19 20s8 19 19 19h1h75c1 0 2 1 3 1z" />
    <glyph glyph-name="Iacute" unicode="&#xcd;" horiz-adv-x="346" 
d="M284.25 875.8h1c5 0 12 -3 15 -7l25 -25c3 -3 6 -10 6 -14c0 -5 -4 -12 -8 -15l-157 -131c-1 -1 -2 -1 -3 -2s-3 -2 -4 -2s-1 -1 -2 -1h-2h-1h-1h-1h-2h-1h-2l-1 1c-1 0 -2 1 -3 2h-1l-2 1l-1 1l-1 2h-1l-1 1v2h-1v2l-1 1c0 1 -1 1 -1 2v1v2v1v4c0 1 1 1 1 2s1 1 1 2l1 2
c1 1 1 2 2 3l129 156c3 5 11 9 17 9zM131 593h1c1 0 2 -1 3 -1h20c1 0 2 1 3 1s2 -1 3 -1h76c11 0 20 -8 20 -19s-9 -20 -20 -20h-59v-513h59c11 0 20 -9 20 -20s-9 -20 -20 -20h-76h-3h-3h-20h-3h-4h-75h-1c-11 0 -19 9 -19 20s8 20 19 20h1h59v513h-59h-1
c-11 0 -19 9 -19 20s8 19 19 19h1h75c1 0 2 1 3 1z" />
    <glyph glyph-name="Icircumflex" unicode="&#xce;" horiz-adv-x="346" 
d="M129.5 849.8c4 0 10 -2 13 -5l157 -131h1l2 -2v-1l2 -1v-1l1 -1l1 -1v-1v-1v-1l1 -1v-2v-2v-1v-3v-2l-1 -2l-1 -2l-1 -1l-1 -2l-1 -1l-2 -2h-1v-1l-2 -1c-1 0 -3 -1 -4 -1l-2 -1h-3h-1h-2h-1h-2v1c-1 0 -3 0 -4 1l-1 1h-1l-147 98l-146 -97v-1h-1l-1 -1h-1
c-1 0 -3 -2 -4 -2h-4h-1h-3c-1 0 -3 1 -4 1l-1 1h-1h-1v1l-2 1l-1 1l-2 2l-1 1l-1 2c0 1 -1 2 -1 3s-1 1 -1 2v1v1v3v1v2c0 2 1 5 2 6s1 2 2 3l3 3l158 131c3 3 8 5 12 5zM131 593h1c1 0 2 -1 3 -1h20c1 0 2 1 3 1s2 -1 3 -1h76c11 0 20 -8 20 -19s-9 -20 -20 -20h-59v-513
h59c11 0 20 -9 20 -20s-9 -20 -20 -20h-76h-3h-3h-20h-3h-4h-75h-1c-11 0 -19 9 -19 20s8 20 19 20h1h59v513h-59h-1c-11 0 -19 9 -19 20s8 19 19 19h1h75c1 0 2 1 3 1z" />
    <glyph glyph-name="Idieresis" unicode="&#xcf;" horiz-adv-x="346" 
d="M230.7 766.6h1c4 0 10 -3 13 -6l27 -26c3 -3 6 -9 6 -14s-3 -11 -6 -14l-27 -27c-3 -3 -9 -6 -14 -6s-11 3 -14 6l-26 27c-3 3 -6 9 -6 14s3 11 6 14l26 26c3 3 10 6 14 6zM46.7002 766.6c4 0 11 -3 14 -6l27 -26c3 -3 5 -9 5 -14s-2 -11 -5 -14l-27 -27
c-3 -3 -9 -6 -14 -6s-11 3 -14 6l-26 27c-3 3 -6 9 -6 14s3 11 6 14l26 26c3 3 10 6 14 6zM131 593h1c1 0 2 -1 3 -1h20c1 0 2 1 3 1s2 -1 3 -1h76c11 0 20 -8 20 -19s-9 -20 -20 -20h-59v-513h59c11 0 20 -9 20 -20s-9 -20 -20 -20h-76h-3h-3h-20h-3h-4h-75h-1
c-11 0 -19 9 -19 20s8 20 19 20h1h59v513h-59h-1c-11 0 -19 9 -19 20s8 19 19 19h1h75c1 0 2 1 3 1z" />
    <glyph glyph-name="Ograve" unicode="&#xd2;" horiz-adv-x="635" 
d="M160.55 874.7h2c6 0 12 -4 15 -9l129 -155l3 -3c1 -1 2 -3 2 -4v-2c0 -1 1 -1 1 -2v-2v-1v-1v-1v-1h-1v-2v-2c0 -1 -1 -2 -2 -3l-1 -2h-1l-1 -1l-1 -2l-2 -1c-1 0 -1 -1 -2 -1l-1 -1h-1c-1 0 -2 -1 -3 -1h-2h-2h-4c-1 0 -1 1 -2 1h-2l-2 1c-1 1 -2 1 -3 2v1l-158 131
c-4 3 -7 10 -7 15c0 4 3 11 6 14l24 24c3 4 11 8 16 8zM268 553l-46 -23l-48 -48l-24 -48l-25 -101v-74l25 -101l24 -47l48 -49l46 -22h43l46 22l48 49l24 47l25 101v74l-25 101l-24 48l-48 48l-46 23h-43zM263 592h1h2h47h2h5c1 0 1 -1 2 -1h1l78 -26c2 -1 6 -3 8 -5
l52 -52c1 -1 3 -4 4 -6l26 -52c1 -1 2 -3 2 -4l26 -106c0 -1 1 -3 1 -4v-79c0 -1 -1 -4 -1 -5l-26 -105c0 -1 -1 -3 -2 -4l-26 -53c-1 -2 -3 -4 -4 -5l-52 -53c-2 -2 -6 -3 -8 -4l-78 -26v-1h-1c-2 -1 -5 -1 -7 -1h-2h-47h-2c-1 0 -4 1 -5 1h-2h-1l-78 27c-2 1 -6 2 -8 4
l-52 53c-1 1 -3 3 -4 5l-26 53c-1 1 -2 3 -2 4l-26 105c0 1 -1 4 -1 5v79c0 1 1 3 1 4l26 106c0 1 1 3 2 4l26 52c1 2 3 5 4 6l52 52c2 2 6 4 8 5l77 26h2l1 1h1h1h2h1z" />
    <glyph glyph-name="Oacute" unicode="&#xd3;" horiz-adv-x="635" 
d="M443.2 874.7h1c5 0 12 -3 15 -7l25 -25c3 -3 6 -10 6 -14c0 -5 -4 -12 -8 -15l-157 -131c-1 -1 -2 -1 -3 -2s-3 -2 -4 -2s-1 -1 -2 -1h-2h-1h-1h-1h-2h-1h-2l-1 1c-1 0 -2 1 -3 2h-1l-2 1l-1 1l-1 2h-1l-1 1v2h-1v2l-1 1c0 1 -1 1 -1 2v1v2v1v4c0 1 1 1 1 2s1 1 1 2l1 2
c1 1 1 2 2 3l129 156c3 5 11 9 17 9zM268 553l-46 -23l-48 -48l-24 -48l-25 -101v-74l25 -101l24 -47l48 -49l46 -22h43l46 22l48 49l24 47l25 101v74l-25 101l-24 48l-48 48l-46 23h-43zM263 592h1h2h47h2h5c1 0 1 -1 2 -1h1l78 -26c2 -1 6 -3 8 -5l52 -52c1 -1 3 -4 4 -6
l26 -52c1 -1 2 -3 2 -4l26 -106c0 -1 1 -3 1 -4v-79c0 -1 -1 -4 -1 -5l-26 -105c0 -1 -1 -3 -2 -4l-26 -53c-1 -2 -3 -4 -4 -5l-52 -53c-2 -2 -6 -3 -8 -4l-78 -26v-1h-1c-2 -1 -5 -1 -7 -1h-2h-47h-2c-1 0 -4 1 -5 1h-2h-1l-78 27c-2 1 -6 2 -8 4l-52 53c-1 1 -3 3 -4 5
l-26 53c-1 1 -2 3 -2 4l-26 105c0 1 -1 4 -1 5v79c0 1 1 3 1 4l26 106c0 1 1 3 2 4l26 52c1 2 3 5 4 6l52 52c2 2 6 4 8 5l77 26h2l1 1h1h1h2h1z" />
    <glyph glyph-name="Ocircumflex" unicode="&#xd4;" horiz-adv-x="635" 
d="M288.45 848.7c4 0 10 -2 13 -5l157 -131h1l2 -2v-1l2 -1v-1l1 -1l1 -1v-1v-1v-1l1 -1v-2v-2v-1v-3v-2l-1 -2l-1 -2l-1 -1l-1 -2l-1 -1l-2 -2h-1v-1l-2 -1c-1 0 -3 -1 -4 -1l-2 -1h-3h-1h-2h-1h-2v1c-1 0 -3 0 -4 1l-1 1h-1l-147 98l-146 -97v-1h-1l-1 -1h-1
c-1 0 -3 -2 -4 -2h-4h-1h-3c-1 0 -3 1 -4 1l-1 1h-1h-1v1l-2 1l-1 1l-2 2l-1 1l-1 2c0 1 -1 2 -1 3s-1 1 -1 2v1v1v3v1v2c0 2 1 5 2 6s1 2 2 3l3 3l158 131c3 3 8 5 12 5zM268 553l-46 -23l-48 -48l-24 -48l-25 -101v-74l25 -101l24 -47l48 -49l46 -22h43l46 22l48 49l24 47
l25 101v74l-25 101l-24 48l-48 48l-46 23h-43zM263 592h1h2h47h2h5c1 0 1 -1 2 -1h1l78 -26c2 -1 6 -3 8 -5l52 -52c1 -1 3 -4 4 -6l26 -52c1 -1 2 -3 2 -4l26 -106c0 -1 1 -3 1 -4v-79c0 -1 -1 -4 -1 -5l-26 -105c0 -1 -1 -3 -2 -4l-26 -53c-1 -2 -3 -4 -4 -5l-52 -53
c-2 -2 -6 -3 -8 -4l-78 -26v-1h-1c-2 -1 -5 -1 -7 -1h-2h-47h-2c-1 0 -4 1 -5 1h-2h-1l-78 27c-2 1 -6 2 -8 4l-52 53c-1 1 -3 3 -4 5l-26 53c-1 1 -2 3 -2 4l-26 105c0 1 -1 4 -1 5v79c0 1 1 3 1 4l26 106c0 1 1 3 2 4l26 52c1 2 3 5 4 6l52 52c2 2 6 4 8 5l77 26h2l1 1h1
h1h2h1z" />
    <glyph glyph-name="Otilde" unicode="&#xd5;" horiz-adv-x="635" 
d="M522.85 899.4h1c11 0 19 -9 19 -20v-50v-2v-5c0 -1 -1 -1 -1 -2v-1l-26 -78c-1 -4 -6 -10 -10 -12l-52 -26c-2 -1 -6 -2 -9 -2h-53c-3 0 -7 1 -9 2l-52 26c-1 0 -2 1 -3 2l-104 78l-47 24h-43l-43 -22l-21 -42v-48c0 -11 -9 -20 -20 -20s-20 9 -20 20v50v2c0 1 1 4 1 5v2
l1 1l26 78c1 4 5 9 9 11l53 26c2 1 6 2 9 2h53c3 0 6 -1 8 -2l53 -26c1 0 2 -1 3 -2l104 -78l47 -23h43l43 21l21 43v48c0 11 8 20 19 20zM268 553l-46 -23l-48 -48l-24 -48l-25 -101v-74l25 -101l24 -47l48 -49l46 -22h43l46 22l48 49l24 47l25 101v74l-25 101l-24 48
l-48 48l-46 23h-43zM263 592h1h2h47h2h5c1 0 1 -1 2 -1h1l78 -26c2 -1 6 -3 8 -5l52 -52c1 -1 3 -4 4 -6l26 -52c1 -1 2 -3 2 -4l26 -106c0 -1 1 -3 1 -4v-79c0 -1 -1 -4 -1 -5l-26 -105c0 -1 -1 -3 -2 -4l-26 -53c-1 -2 -3 -4 -4 -5l-52 -53c-2 -2 -6 -3 -8 -4l-78 -26v-1
h-1c-2 -1 -5 -1 -7 -1h-2h-47h-2c-1 0 -4 1 -5 1h-2h-1l-78 27c-2 1 -6 2 -8 4l-52 53c-1 1 -3 3 -4 5l-26 53c-1 1 -2 3 -2 4l-26 105c0 1 -1 4 -1 5v79c0 1 1 3 1 4l26 106c0 1 1 3 2 4l26 52c1 2 3 5 4 6l52 52c2 2 6 4 8 5l77 26h2l1 1h1h1h2h1z" />
    <glyph glyph-name="Odieresis" unicode="&#xd6;" horiz-adv-x="635" 
d="M389.65 765.5h1c4 0 10 -3 13 -6l27 -26c3 -3 6 -9 6 -14s-3 -11 -6 -14l-27 -27c-3 -3 -9 -6 -14 -6s-11 3 -14 6l-26 27c-3 3 -6 9 -6 14s3 11 6 14l26 26c3 3 10 6 14 6zM205.65 765.5c4 0 11 -3 14 -6l27 -26c3 -3 5 -9 5 -14s-2 -11 -5 -14l-27 -27
c-3 -3 -9 -6 -14 -6s-11 3 -14 6l-26 27c-3 3 -6 9 -6 14s3 11 6 14l26 26c3 3 10 6 14 6zM268 553l-46 -23l-48 -48l-24 -48l-25 -101v-74l25 -101l24 -47l48 -49l46 -22h43l46 22l48 49l24 47l25 101v74l-25 101l-24 48l-48 48l-46 23h-43zM263 592h1h2h47h2h5
c1 0 1 -1 2 -1h1l78 -26c2 -1 6 -3 8 -5l52 -52c1 -1 3 -4 4 -6l26 -52c1 -1 2 -3 2 -4l26 -106c0 -1 1 -3 1 -4v-79c0 -1 -1 -4 -1 -5l-26 -105c0 -1 -1 -3 -2 -4l-26 -53c-1 -2 -3 -4 -4 -5l-52 -53c-2 -2 -6 -3 -8 -4l-78 -26v-1h-1c-2 -1 -5 -1 -7 -1h-2h-47h-2
c-1 0 -4 1 -5 1h-2h-1l-78 27c-2 1 -6 2 -8 4l-52 53c-1 1 -3 3 -4 5l-26 53c-1 1 -2 3 -2 4l-26 105c0 1 -1 4 -1 5v79c0 1 1 3 1 4l26 106c0 1 1 3 2 4l26 52c1 2 3 5 4 6l52 52c2 2 6 4 8 5l77 26h2l1 1h1h1h2h1z" />
    <glyph glyph-name="Ugrave" unicode="&#xd9;" horiz-adv-x="694" 
d="M189.7 875.8h2c6 0 12 -4 15 -9l129 -155l3 -3c1 -1 2 -3 2 -4v-2c0 -1 1 -1 1 -2v-2v-1v-1v-1v-1h-1v-2v-2c0 -1 -1 -2 -2 -3l-1 -2h-1l-1 -1l-1 -2l-2 -1c-1 0 -1 -1 -2 -1l-1 -1h-1c-1 0 -2 -1 -3 -1h-2h-2h-4c-1 0 -1 1 -2 1h-2l-2 1c-1 1 -2 1 -3 2v1l-158 131
c-4 3 -7 10 -7 15c0 4 3 11 6 14l24 24c3 4 11 8 16 8zM131 593h1c1 0 2 -1 3 -1h20c1 0 2 1 3 1s2 -1 3 -1h76c11 0 20 -8 20 -19s-9 -20 -20 -20h-59v-372l23 -72l48 -47l45 -22h45l71 23l46 46l24 72v372h-59c-11 0 -20 9 -20 20s9 19 20 19h76c1 0 2 1 3 1s2 -1 3 -1h76
c11 0 20 -8 20 -19s-9 -20 -20 -20h-59v-375c0 -2 0 -4 -1 -6l-27 -79c-1 -2 -2 -6 -4 -8l-53 -53c-2 -2 -6 -3 -8 -4l-79 -27c-2 -1 -4 -1 -6 -1h-50h-2c-1 0 -4 1 -5 1h-2h-1l-78 27c-2 1 -5 2 -7 4l-53 53c-2 2 -4 6 -5 8l-26 79c-1 2 -1 4 -1 6v375h-59h-1
c-11 0 -19 9 -19 20s8 19 19 19h1h75c1 0 2 1 3 1z" />
    <glyph glyph-name="Uacute" unicode="&#xda;" horiz-adv-x="694" 
d="M472.35 875.8h1c5 0 12 -3 15 -7l25 -25c3 -3 6 -10 6 -14c0 -5 -4 -12 -8 -15l-157 -131c-1 -1 -2 -1 -3 -2s-3 -2 -4 -2s-1 -1 -2 -1h-2h-1h-1h-1h-2h-1h-2l-1 1c-1 0 -2 1 -3 2h-1l-2 1l-1 1l-1 2h-1l-1 1v2h-1v2l-1 1c0 1 -1 1 -1 2v1v2v1v4c0 1 1 1 1 2s1 1 1 2l1 2
c1 1 1 2 2 3l129 156c3 5 11 9 17 9zM131 593h1c1 0 2 -1 3 -1h20c1 0 2 1 3 1s2 -1 3 -1h76c11 0 20 -8 20 -19s-9 -20 -20 -20h-59v-372l23 -72l48 -47l45 -22h45l71 23l46 46l24 72v372h-59c-11 0 -20 9 -20 20s9 19 20 19h76c1 0 2 1 3 1s2 -1 3 -1h76
c11 0 20 -8 20 -19s-9 -20 -20 -20h-59v-375c0 -2 0 -4 -1 -6l-27 -79c-1 -2 -2 -6 -4 -8l-53 -53c-2 -2 -6 -3 -8 -4l-79 -27c-2 -1 -4 -1 -6 -1h-50h-2c-1 0 -4 1 -5 1h-2h-1l-78 27c-2 1 -5 2 -7 4l-53 53c-2 2 -4 6 -5 8l-26 79c-1 2 -1 4 -1 6v375h-59h-1
c-11 0 -19 9 -19 20s8 19 19 19h1h75c1 0 2 1 3 1z" />
    <glyph glyph-name="Ucircumflex" unicode="&#xdb;" horiz-adv-x="694" 
d="M317.6 849.8c4 0 10 -2 13 -5l157 -131h1l2 -2v-1l2 -1v-1l1 -1l1 -1v-1v-1v-1l1 -1v-2v-2v-1v-3v-2l-1 -2l-1 -2l-1 -1l-1 -2l-1 -1l-2 -2h-1v-1l-2 -1c-1 0 -3 -1 -4 -1l-2 -1h-3h-1h-2h-1h-2v1c-1 0 -3 0 -4 1l-1 1h-1l-147 98l-146 -97v-1h-1l-1 -1h-1
c-1 0 -3 -2 -4 -2h-4h-1h-3c-1 0 -3 1 -4 1l-1 1h-1h-1v1l-2 1l-1 1l-2 2l-1 1l-1 2c0 1 -1 2 -1 3s-1 1 -1 2v1v1v3v1v2c0 2 1 5 2 6s1 2 2 3l3 3l158 131c3 3 8 5 12 5zM131 593h1c1 0 2 -1 3 -1h20c1 0 2 1 3 1s2 -1 3 -1h76c11 0 20 -8 20 -19s-9 -20 -20 -20h-59v-372
l23 -72l48 -47l45 -22h45l71 23l46 46l24 72v372h-59c-11 0 -20 9 -20 20s9 19 20 19h76c1 0 2 1 3 1s2 -1 3 -1h76c11 0 20 -8 20 -19s-9 -20 -20 -20h-59v-375c0 -2 0 -4 -1 -6l-27 -79c-1 -2 -2 -6 -4 -8l-53 -53c-2 -2 -6 -3 -8 -4l-79 -27c-2 -1 -4 -1 -6 -1h-50h-2
c-1 0 -4 1 -5 1h-2h-1l-78 27c-2 1 -5 2 -7 4l-53 53c-2 2 -4 6 -5 8l-26 79c-1 2 -1 4 -1 6v375h-59h-1c-11 0 -19 9 -19 20s8 19 19 19h1h75c1 0 2 1 3 1z" />
    <glyph glyph-name="Udieresis" unicode="&#xdc;" horiz-adv-x="694" 
d="M418.8 766.6h1c4 0 10 -3 13 -6l27 -26c3 -3 6 -9 6 -14s-3 -11 -6 -14l-27 -27c-3 -3 -9 -6 -14 -6s-11 3 -14 6l-26 27c-3 3 -6 9 -6 14s3 11 6 14l26 26c3 3 10 6 14 6zM234.8 766.6c4 0 11 -3 14 -6l27 -26c3 -3 5 -9 5 -14s-2 -11 -5 -14l-27 -27
c-3 -3 -9 -6 -14 -6s-11 3 -14 6l-26 27c-3 3 -6 9 -6 14s3 11 6 14l26 26c3 3 10 6 14 6zM131 593h1c1 0 2 -1 3 -1h20c1 0 2 1 3 1s2 -1 3 -1h76c11 0 20 -8 20 -19s-9 -20 -20 -20h-59v-372l23 -72l48 -47l45 -22h45l71 23l46 46l24 72v372h-59c-11 0 -20 9 -20 20
s9 19 20 19h76c1 0 2 1 3 1s2 -1 3 -1h76c11 0 20 -8 20 -19s-9 -20 -20 -20h-59v-375c0 -2 0 -4 -1 -6l-27 -79c-1 -2 -2 -6 -4 -8l-53 -53c-2 -2 -6 -3 -8 -4l-79 -27c-2 -1 -4 -1 -6 -1h-50h-2c-1 0 -4 1 -5 1h-2h-1l-78 27c-2 1 -5 2 -7 4l-53 53c-2 2 -4 6 -5 8l-26 79
c-1 2 -1 4 -1 6v375h-59h-1c-11 0 -19 9 -19 20s8 19 19 19h1h75c1 0 2 1 3 1z" />
    <glyph glyph-name="agrave" unicode="&#xe0;" horiz-adv-x="607" 
d="M178.7 672.3h2c6 0 12 -4 15 -9l129 -155l3 -3c1 -1 2 -3 2 -4v-2c0 -1 1 -1 1 -2v-2v-1v-1v-1v-1h-1v-2v-2c0 -1 -1 -2 -2 -3l-1 -2h-1l-1 -1l-1 -2l-2 -1c-1 0 -1 -1 -2 -1l-1 -1h-1c-1 0 -2 -1 -3 -1h-2h-2h-4c-1 0 -1 1 -2 1h-2l-2 1c-1 1 -2 1 -3 2v1l-158 131
c-4 3 -7 10 -7 15c0 4 3 11 6 14l24 24c3 4 11 8 16 8zM349 238c-1 0 -3 -1 -4 -1l-155 -26l-44 -22l-21 -42v-43l21 -43l43 -21h69l46 22l45 45v131zM184 408h105c3 0 7 -1 9 -2l53 -26c2 -1 4 -3 5 -4l24 -24c2 -2 6 -6 7 -9l25 -51c1 -2 2 -6 2 -9v-179l23 -46l19 -18h18
c11 0 20 -9 20 -20s-9 -20 -20 -20h-24h-2c-3 0 -8 1 -11 3l-51 26c-3 2 -7 5 -9 8l-14 28l-33 -33c-1 -1 -3 -2 -5 -3l-53 -27c-2 -1 -6 -2 -9 -2h-76h-2c-1 0 -4 1 -5 1h-2h-1l-78 27c-4 1 -9 5 -11 9l-27 53c-1 2 -2 6 -2 9v52c0 3 1 7 2 9l27 53c2 4 7 9 11 10l78 26h1
h1c1 0 3 1 4 1l150 25l16 16v37l-19 18l-45 23h-96l-42 -21c2 -3 4 -8 4 -12v-27c0 -11 -8 -19 -19 -19h-27c-11 0 -19 8 -19 19v27c0 4 2 11 5 14l27 26c1 1 3 3 5 4l52 26c2 1 6 2 9 2z" />
    <glyph glyph-name="aacute" unicode="&#xe1;" horiz-adv-x="607" 
d="M284.25 671.2h1c5 0 12 -3 15 -7l25 -25c3 -3 6 -10 6 -14c0 -5 -4 -12 -8 -15l-157 -131c-1 -1 -2 -1 -3 -2s-3 -2 -4 -2s-1 -1 -2 -1h-2h-1h-1h-1h-2h-1h-2l-1 1c-1 0 -2 1 -3 2h-1l-2 1l-1 1l-1 2h-1l-1 1v2h-1v2l-1 1c0 1 -1 1 -1 2v1v2v1v4c0 1 1 1 1 2s1 1 1 2l1 2
c1 1 1 2 2 3l129 156c3 5 11 9 17 9zM349 238c-1 0 -3 -1 -4 -1l-155 -26l-44 -22l-21 -42v-43l21 -43l43 -21h69l46 22l45 45v131zM184 408h105c3 0 7 -1 9 -2l53 -26c2 -1 4 -3 5 -4l24 -24c2 -2 6 -6 7 -9l25 -51c1 -2 2 -6 2 -9v-179l23 -46l19 -18h18
c11 0 20 -9 20 -20s-9 -20 -20 -20h-24h-2c-3 0 -8 1 -11 3l-51 26c-3 2 -7 5 -9 8l-14 28l-33 -33c-1 -1 -3 -2 -5 -3l-53 -27c-2 -1 -6 -2 -9 -2h-76h-2c-1 0 -4 1 -5 1h-2h-1l-78 27c-4 1 -9 5 -11 9l-27 53c-1 2 -2 6 -2 9v52c0 3 1 7 2 9l27 53c2 4 7 9 11 10l78 26h1
h1c1 0 3 1 4 1l150 25l16 16v37l-19 18l-45 23h-96l-42 -21c2 -3 4 -8 4 -12v-27c0 -11 -8 -19 -19 -19h-27c-11 0 -19 8 -19 19v27c0 4 2 11 5 14l27 26c1 1 3 3 5 4l52 26c2 1 6 2 9 2z" />
    <glyph glyph-name="acircumflex" unicode="&#xe2;" horiz-adv-x="607" 
d="M230.7 646.3c4 0 10 -2 13 -5l157 -131h1l2 -2v-1l2 -1v-1l1 -1l1 -1v-1v-1v-1l1 -1v-2v-2v-1v-3v-2l-1 -2l-1 -2l-1 -1l-1 -2l-1 -1l-2 -2h-1v-1l-2 -1c-1 0 -3 -1 -4 -1l-2 -1h-3h-1h-2h-1h-2v1c-1 0 -3 0 -4 1l-1 1h-1l-147 98l-146 -97v-1h-1l-1 -1h-1
c-1 0 -3 -2 -4 -2h-4h-1h-3c-1 0 -3 1 -4 1l-1 1h-1h-1v1l-2 1l-1 1l-2 2l-1 1l-1 2c0 1 -1 2 -1 3s-1 1 -1 2v1v1v3v1v2c0 2 1 5 2 6s1 2 2 3l3 3l158 131c3 3 8 5 12 5zM349 238c-1 0 -3 -1 -4 -1l-155 -26l-44 -22l-21 -42v-43l21 -43l43 -21h69l46 22l45 45v131z
M184 408h105c3 0 7 -1 9 -2l53 -26c2 -1 4 -3 5 -4l24 -24c2 -2 6 -6 7 -9l25 -51c1 -2 2 -6 2 -9v-179l23 -46l19 -18h18c11 0 20 -9 20 -20s-9 -20 -20 -20h-24h-2c-3 0 -8 1 -11 3l-51 26c-3 2 -7 5 -9 8l-14 28l-33 -33c-1 -1 -3 -2 -5 -3l-53 -27c-2 -1 -6 -2 -9 -2
h-76h-2c-1 0 -4 1 -5 1h-2h-1l-78 27c-4 1 -9 5 -11 9l-27 53c-1 2 -2 6 -2 9v52c0 3 1 7 2 9l27 53c2 4 7 9 11 10l78 26h1h1c1 0 3 1 4 1l150 25l16 16v37l-19 18l-45 23h-96l-42 -21c2 -3 4 -8 4 -12v-27c0 -11 -8 -19 -19 -19h-27c-11 0 -19 8 -19 19v27c0 4 2 11 5 14
l27 26c1 1 3 3 5 4l52 26c2 1 6 2 9 2z" />
    <glyph glyph-name="atilde" unicode="&#xe3;" horiz-adv-x="607" 
d="M465.1 697h1c11 0 19 -9 19 -20v-50v-2v-5c0 -1 -1 -1 -1 -2v-1l-26 -78c-1 -4 -6 -10 -10 -12l-52 -26c-2 -1 -6 -2 -9 -2h-53c-3 0 -7 1 -9 2l-52 26c-1 0 -2 1 -3 2l-104 78l-47 24h-43l-43 -22l-21 -42v-48c0 -11 -9 -20 -20 -20s-20 9 -20 20v50v2c0 1 1 4 1 5v2
l1 1l26 78c1 4 5 9 9 11l53 26c2 1 6 2 9 2h53c3 0 6 -1 8 -2l53 -26c1 0 2 -1 3 -2l104 -78l47 -23h43l43 21l21 43v48c0 11 8 20 19 20zM349 238c-1 0 -3 -1 -4 -1l-155 -26l-44 -22l-21 -42v-43l21 -43l43 -21h69l46 22l45 45v131zM184 408h105c3 0 7 -1 9 -2l53 -26
c2 -1 4 -3 5 -4l24 -24c2 -2 6 -6 7 -9l25 -51c1 -2 2 -6 2 -9v-179l23 -46l19 -18h18c11 0 20 -9 20 -20s-9 -20 -20 -20h-24h-2c-3 0 -8 1 -11 3l-51 26c-3 2 -7 5 -9 8l-14 28l-33 -33c-1 -1 -3 -2 -5 -3l-53 -27c-2 -1 -6 -2 -9 -2h-76h-2c-1 0 -4 1 -5 1h-2h-1l-78 27
c-4 1 -9 5 -11 9l-27 53c-1 2 -2 6 -2 9v52c0 3 1 7 2 9l27 53c2 4 7 9 11 10l78 26h1h1c1 0 3 1 4 1l150 25l16 16v37l-19 18l-45 23h-96l-42 -21c2 -3 4 -8 4 -12v-27c0 -11 -8 -19 -19 -19h-27c-11 0 -19 8 -19 19v27c0 4 2 11 5 14l27 26c1 1 3 3 5 4l52 26c2 1 6 2 9 2
z" />
    <glyph glyph-name="ccedilla" unicode="&#xe7;" horiz-adv-x="520" 
d="M283.75 1.31641h1c11 0 19 -9 19 -20c0 -5 -3 -11 -6 -14l-25 -26l25 -25c3 -3 6 -9 6 -14s-3 -11 -6 -14l-26 -26c-3 -3 -10 -6 -14 -6h-26h-1c-11 0 -19 9 -19 20s8 19 19 19h1h18l6 7l-6 7h-18c-11 0 -20 8 -20 19c0 5 3 11 6 14l52 53c3 3 10 6 14 6zM237 408h2h77
c3 0 7 -1 9 -2l52 -26c2 -1 4 -3 5 -4l53 -53c3 -3 6 -10 6 -14v-26c0 -4 -3 -11 -6 -14l-26 -26c-3 -3 -9 -6 -14 -6s-11 3 -14 6l-27 26c-3 3 -5 9 -5 14s2 11 5 14l26 26l-23 23l-46 23h-70l-45 -23l-47 -47l-24 -72v-46l24 -72l47 -47l45 -22h45l72 23l49 50
c3 3 9 6 14 6c11 0 20 -9 20 -20c0 -5 -3 -11 -6 -14l-53 -53c-2 -2 -5 -3 -7 -4l-79 -27c-2 -1 -5 -1 -7 -1h-49h-3c-1 0 -3 1 -4 1h-2h-1l-78 27c-2 1 -6 2 -8 4l-53 53c-2 2 -3 6 -4 8l-27 79c-1 2 -1 4 -1 6v52c0 2 0 5 1 7l27 79c1 2 2 5 4 7l53 53c2 2 6 4 8 5l77 26
h2c2 1 4 1 6 1z" />
    <glyph glyph-name="egrave" unicode="&#xe8;" horiz-adv-x="491" 
d="M205.65 672.3h2c6 0 12 -4 15 -9l129 -155l3 -3c1 -1 2 -3 2 -4v-2c0 -1 1 -1 1 -2v-2v-1v-1v-1v-1h-1v-2v-2c0 -1 -1 -2 -2 -3l-1 -2h-1l-1 -1l-1 -2l-2 -1c-1 0 -1 -1 -2 -1l-1 -1h-1c-1 0 -2 -1 -3 -1h-2h-2h-4c-1 0 -1 1 -2 1h-2l-2 1c-1 1 -2 1 -3 2v1l-158 131
c-4 3 -7 10 -7 15c0 4 3 11 6 14l24 24c3 4 11 8 16 8zM215 369l-45 -23l-47 -47l-17 -49h243v55l-22 42l-42 22h-70zM211 408h2h76c3 0 7 -1 9 -2l50 -25c2 -1 6 -3 8 -5l1 -1l25 -25c1 -1 3 -3 4 -5l26 -53c1 -2 2 -6 2 -9v-53c0 -11 -8 -19 -19 -19h-23c-1 0 -3 -1 -4 -1
s-2 1 -3 1h-266v-30l24 -72l47 -47l45 -22h45l71 23l50 50c3 3 9 6 14 6c11 0 19 -9 19 -20c0 -5 -2 -11 -5 -14l-53 -53c-2 -2 -6 -3 -8 -4l-79 -27c-2 -1 -4 -1 -6 -1h-50h-2c-1 0 -4 1 -5 1h-2h-1l-78 27c-2 1 -5 2 -7 4l-53 53c-2 2 -4 6 -5 8l-26 79c-1 2 -1 4 -1 6v52
c0 2 0 5 1 7l26 79c1 2 3 5 5 7l53 53c2 2 5 4 7 5l78 26h1h1c2 1 4 1 6 1z" />
    <glyph glyph-name="eacute" unicode="&#xe9;" horiz-adv-x="491" 
d="M310.1 672.3h1c5 0 12 -3 15 -7l25 -25c3 -3 6 -10 6 -14c0 -5 -4 -12 -8 -15l-157 -131c-1 -1 -2 -1 -3 -2s-3 -2 -4 -2s-1 -1 -2 -1h-2h-1h-1h-1h-2h-1h-2l-1 1c-1 0 -2 1 -3 2h-1l-2 1l-1 1l-1 2h-1l-1 1v2h-1v2l-1 1c0 1 -1 1 -1 2v1v2v1v4c0 1 1 1 1 2s1 1 1 2l1 2
c1 1 1 2 2 3l129 156c3 5 11 9 17 9zM215 369l-45 -23l-47 -47l-17 -49h243v55l-22 42l-42 22h-70zM211 408h2h76c3 0 7 -1 9 -2l50 -25c2 -1 6 -3 8 -5l1 -1l25 -25c1 -1 3 -3 4 -5l26 -53c1 -2 2 -6 2 -9v-53c0 -11 -8 -19 -19 -19h-23c-1 0 -3 -1 -4 -1s-2 1 -3 1h-266
v-30l24 -72l47 -47l45 -22h45l71 23l50 50c3 3 9 6 14 6c11 0 19 -9 19 -20c0 -5 -2 -11 -5 -14l-53 -53c-2 -2 -6 -3 -8 -4l-79 -27c-2 -1 -4 -1 -6 -1h-50h-2c-1 0 -4 1 -5 1h-2h-1l-78 27c-2 1 -5 2 -7 4l-53 53c-2 2 -4 6 -5 8l-26 79c-1 2 -1 4 -1 6v52c0 2 0 5 1 7
l26 79c1 2 3 5 5 7l53 53c2 2 5 4 7 5l78 26h1h1c2 1 4 1 6 1z" />
    <glyph glyph-name="ecircumflex" unicode="&#xea;" horiz-adv-x="491" 
d="M245.55 646.3c4 0 10 -2 13 -5l157 -131h1l2 -2v-1l2 -1v-1l1 -1l1 -1v-1v-1v-1l1 -1v-2v-2v-1v-3v-2l-1 -2l-1 -2l-1 -1l-1 -2l-1 -1l-2 -2h-1v-1l-2 -1c-1 0 -3 -1 -4 -1l-2 -1h-3h-1h-2h-1h-2v1c-1 0 -3 0 -4 1l-1 1h-1l-147 98l-146 -97v-1h-1l-1 -1h-1
c-1 0 -3 -2 -4 -2h-4h-1h-3c-1 0 -3 1 -4 1l-1 1h-1h-1v1l-2 1l-1 1l-2 2l-1 1l-1 2c0 1 -1 2 -1 3s-1 1 -1 2v1v1v3v1v2c0 2 1 5 2 6s1 2 2 3l3 3l158 131c3 3 8 5 12 5zM215 369l-45 -23l-47 -47l-17 -49h243v55l-22 42l-42 22h-70zM211 408h2h76c3 0 7 -1 9 -2l50 -25
c2 -1 6 -3 8 -5l1 -1l25 -25c1 -1 3 -3 4 -5l26 -53c1 -2 2 -6 2 -9v-53c0 -11 -8 -19 -19 -19h-23c-1 0 -3 -1 -4 -1s-2 1 -3 1h-266v-30l24 -72l47 -47l45 -22h45l71 23l50 50c3 3 9 6 14 6c11 0 19 -9 19 -20c0 -5 -2 -11 -5 -14l-53 -53c-2 -2 -6 -3 -8 -4l-79 -27
c-2 -1 -4 -1 -6 -1h-50h-2c-1 0 -4 1 -5 1h-2h-1l-78 27c-2 1 -5 2 -7 4l-53 53c-2 2 -4 6 -5 8l-26 79c-1 2 -1 4 -1 6v52c0 2 0 5 1 7l26 79c1 2 3 5 5 7l53 53c2 2 5 4 7 5l78 26h1h1c2 1 4 1 6 1z" />
    <glyph glyph-name="edieresis" unicode="&#xeb;" horiz-adv-x="491" 
d="M346.75 563.1h1c4 0 10 -3 13 -6l27 -26c3 -3 6 -9 6 -14s-3 -11 -6 -14l-27 -27c-3 -3 -9 -6 -14 -6s-11 3 -14 6l-26 27c-3 3 -6 9 -6 14s3 11 6 14l26 26c3 3 10 6 14 6zM162.75 563.1c4 0 11 -3 14 -6l27 -26c3 -3 5 -9 5 -14s-2 -11 -5 -14l-27 -27
c-3 -3 -9 -6 -14 -6s-11 3 -14 6l-26 27c-3 3 -6 9 -6 14s3 11 6 14l26 26c3 3 10 6 14 6zM215 369l-45 -23l-47 -47l-17 -49h243v55l-22 42l-42 22h-70zM211 408h2h76c3 0 7 -1 9 -2l50 -25c2 -1 6 -3 8 -5l1 -1l25 -25c1 -1 3 -3 4 -5l26 -53c1 -2 2 -6 2 -9v-53
c0 -11 -8 -19 -19 -19h-23c-1 0 -3 -1 -4 -1s-2 1 -3 1h-266v-30l24 -72l47 -47l45 -22h45l71 23l50 50c3 3 9 6 14 6c11 0 19 -9 19 -20c0 -5 -2 -11 -5 -14l-53 -53c-2 -2 -6 -3 -8 -4l-79 -27c-2 -1 -4 -1 -6 -1h-50h-2c-1 0 -4 1 -5 1h-2h-1l-78 27c-2 1 -5 2 -7 4
l-53 53c-2 2 -4 6 -5 8l-26 79c-1 2 -1 4 -1 6v52c0 2 0 5 1 7l26 79c1 2 3 5 5 7l53 53c2 2 5 4 7 5l78 26h1h1c2 1 4 1 6 1z" />
    <glyph glyph-name="igrave" unicode="&#xec;" horiz-adv-x="346" 
d="M144 449h1h3h22h4c4 0 12 -3 15 -6l1 -2c3 -3 6 -10 6 -14v-3v-380h65c12 0 22 -10 22 -22s-10 -22 -22 -22h-84h-3h-4h-22h-3h-4h-83h-1c-12 0 -21 10 -21 22s9 22 21 22h1h65v362h-65h-1c-12 0 -21 9 -21 21s9 22 21 22h1h83h3zM67.5996 707.5h2c6 0 12 -4 15 -9
l129 -155l3 -3c1 -1 2 -3 2 -4v-2c0 -1 1 -1 1 -2v-2v-1v-1v-1v-1h-1v-2v-2c0 -1 -1 -2 -2 -3l-1 -2h-1l-1 -1l-1 -2l-2 -1c-1 0 -1 -1 -2 -1l-1 -1h-1c-1 0 -2 -1 -3 -1h-2h-2h-4c-1 0 -1 1 -2 1h-2l-2 1c-1 1 -2 1 -3 2v1l-158 131c-4 3 -7 10 -7 15c0 4 3 11 6 14l24 24
c3 4 11 8 16 8z" />
    <glyph glyph-name="iacute" unicode="&#xed;" horiz-adv-x="346" 
d="M144 449h1h3h22h4c4 0 12 -3 15 -6l1 -2c3 -3 6 -10 6 -14v-3v-380h65c12 0 22 -10 22 -22s-10 -22 -22 -22h-84h-3h-4h-22h-3h-4h-83h-1c-12 0 -21 10 -21 22s9 22 21 22h1h65v362h-65h-1c-12 0 -21 9 -21 21s9 22 21 22h1h83h3zM191.85 707.5h1c5 0 12 -3 15 -7l25 -25
c3 -3 6 -10 6 -14c0 -5 -4 -12 -8 -15l-157 -131c-1 -1 -2 -1 -3 -2s-3 -2 -4 -2s-1 -1 -2 -1h-2h-1h-1h-1h-2h-1h-2l-1 1c-1 0 -2 1 -3 2h-1l-2 1l-1 1l-1 2h-1l-1 1v2h-1v2l-1 1c0 1 -1 1 -1 2v1v2v1v4c0 1 1 1 1 2s1 1 1 2l1 2c1 1 1 2 2 3l129 156c3 5 11 9 17 9z" />
    <glyph glyph-name="icircumflex" unicode="&#xee;" horiz-adv-x="346" 
d="M144 449h1h3h22h4c4 0 12 -3 15 -6l1 -2c3 -3 6 -10 6 -14v-3v-380h65c12 0 22 -10 22 -22s-10 -22 -22 -22h-84h-3h-4h-22h-3h-4h-83h-1c-12 0 -21 10 -21 22s9 22 21 22h1h65v362h-65h-1c-12 0 -21 9 -21 21s9 22 21 22h1h83h3zM136.1 681.5c4 0 10 -2 13 -5l157 -131
h1l2 -2v-1l2 -1v-1l1 -1l1 -1v-1v-1v-1l1 -1v-2v-2v-1v-3v-2l-1 -2l-1 -2l-1 -1l-1 -2l-1 -1l-2 -2h-1v-1l-2 -1c-1 0 -3 -1 -4 -1l-2 -1h-3h-1h-2h-1h-2v1c-1 0 -3 0 -4 1l-1 1h-1l-147 98l-146 -97v-1h-1l-1 -1h-1c-1 0 -3 -2 -4 -2h-4h-1h-3c-1 0 -3 1 -4 1l-1 1h-1h-1v1
l-2 1l-1 1l-2 2l-1 1l-1 2c0 1 -1 2 -1 3s-1 1 -1 2v1v1v3v1v2c0 2 1 5 2 6s1 2 2 3l3 3l158 131c3 3 8 5 12 5z" />
    <glyph glyph-name="idieresis" unicode="&#xef;" horiz-adv-x="346" 
d="M144 449h1h3h22h4c4 0 12 -3 15 -6l1 -2c3 -3 6 -10 6 -14v-3v-380h65c12 0 22 -10 22 -22s-10 -22 -22 -22h-84h-3h-4h-22h-3h-4h-83h-1c-12 0 -21 10 -21 22s9 22 21 22h1h65v362h-65h-1c-12 0 -21 9 -21 21s9 22 21 22h1h83h3zM238.4 598.3h1c4 0 10 -3 13 -6l27 -26
c3 -3 6 -9 6 -14s-3 -11 -6 -14l-27 -27c-3 -3 -9 -6 -14 -6s-11 3 -14 6l-26 27c-3 3 -6 9 -6 14s3 11 6 14l26 26c3 3 10 6 14 6zM54.4004 598.3c4 0 11 -3 14 -6l27 -26c3 -3 5 -9 5 -14s-2 -11 -5 -14l-27 -27c-3 -3 -9 -6 -14 -6s-11 3 -14 6l-26 27c-3 3 -6 9 -6 14
s3 11 6 14l26 26c3 3 10 6 14 6z" />
    <glyph glyph-name="ograve" unicode="&#xf2;" 
d="M209.5 672.3h2c6 0 12 -4 15 -9l129 -155l3 -3c1 -1 2 -3 2 -4v-2c0 -1 1 -1 1 -2v-2v-1v-1v-1v-1h-1v-2v-2c0 -1 -1 -2 -2 -3l-1 -2h-1l-1 -1l-1 -2l-2 -1c-1 0 -1 -1 -2 -1l-1 -1h-1c-1 0 -2 -1 -3 -1h-2h-2h-4c-1 0 -1 1 -2 1h-2l-2 1c-1 1 -2 1 -3 2v1l-158 131
c-4 3 -7 10 -7 15c0 4 3 11 6 14l24 24c3 4 11 8 16 8zM241 369l-45 -23l-47 -47l-24 -72v-46l24 -72l47 -47l45 -22h44l45 22l47 47l24 72v46l-24 72l-47 47l-45 23h-44zM237 408h1h1h48h2h5c1 0 1 -1 2 -1h1l78 -26c2 -1 5 -3 7 -5l53 -53c2 -2 4 -5 5 -7l26 -79
c1 -2 1 -5 1 -7v-52c0 -2 0 -4 -1 -6l-26 -79c-1 -2 -3 -6 -5 -8l-53 -53c-2 -2 -5 -3 -7 -4l-78 -26v-1h-1h-1c-2 -1 -4 -1 -6 -1h-2h-47h-3c-1 0 -3 1 -4 1h-2h-1l-78 27c-2 1 -6 2 -8 4l-53 53c-2 2 -3 6 -4 8l-27 79c-1 2 -1 4 -1 6v52c0 2 0 5 1 7l27 79c1 2 2 5 4 7
l53 53c2 2 6 4 8 5l76 25c1 0 2 1 3 1h1l1 1h1h2h1z" />
    <glyph glyph-name="oacute" unicode="&#xf3;" 
d="M338.15 672.3h1c5 0 12 -3 15 -7l25 -25c3 -3 6 -10 6 -14c0 -5 -4 -12 -8 -15l-157 -131c-1 -1 -2 -1 -3 -2s-3 -2 -4 -2s-1 -1 -2 -1h-2h-1h-1h-1h-2h-1h-2l-1 1c-1 0 -2 1 -3 2h-1l-2 1l-1 1l-1 2h-1l-1 1v2h-1v2l-1 1c0 1 -1 1 -1 2v1v2v1v4c0 1 1 1 1 2s1 1 1 2l1 2
c1 1 1 2 2 3l129 156c3 5 11 9 17 9zM241 369l-45 -23l-47 -47l-24 -72v-46l24 -72l47 -47l45 -22h44l45 22l47 47l24 72v46l-24 72l-47 47l-45 23h-44zM237 408h1h1h48h2h5c1 0 1 -1 2 -1h1l78 -26c2 -1 5 -3 7 -5l53 -53c2 -2 4 -5 5 -7l26 -79c1 -2 1 -5 1 -7v-52
c0 -2 0 -4 -1 -6l-26 -79c-1 -2 -3 -6 -5 -8l-53 -53c-2 -2 -5 -3 -7 -4l-78 -26v-1h-1h-1c-2 -1 -4 -1 -6 -1h-2h-47h-3c-1 0 -3 1 -4 1h-2h-1l-78 27c-2 1 -6 2 -8 4l-53 53c-2 2 -3 6 -4 8l-27 79c-1 2 -1 4 -1 6v52c0 2 0 5 1 7l27 79c1 2 2 5 4 7l53 53c2 2 6 4 8 5
l76 25c1 0 2 1 3 1h1l1 1h1h2h1z" />
    <glyph glyph-name="ocircumflex" unicode="&#xf4;" 
d="M260.4 646.3c4 0 10 -2 13 -5l157 -131h1l2 -2v-1l2 -1v-1l1 -1l1 -1v-1v-1v-1l1 -1v-2v-2v-1v-3v-2l-1 -2l-1 -2l-1 -1l-1 -2l-1 -1l-2 -2h-1v-1l-2 -1c-1 0 -3 -1 -4 -1l-2 -1h-3h-1h-2h-1h-2v1c-1 0 -3 0 -4 1l-1 1h-1l-147 98l-146 -97v-1h-1l-1 -1h-1
c-1 0 -3 -2 -4 -2h-4h-1h-3c-1 0 -3 1 -4 1l-1 1h-1h-1v1l-2 1l-1 1l-2 2l-1 1l-1 2c0 1 -1 2 -1 3s-1 1 -1 2v1v1v3v1v2c0 2 1 5 2 6s1 2 2 3l3 3l158 131c3 3 8 5 12 5zM241 369l-45 -23l-47 -47l-24 -72v-46l24 -72l47 -47l45 -22h44l45 22l47 47l24 72v46l-24 72l-47 47
l-45 23h-44zM237 408h1h1h48h2h5c1 0 1 -1 2 -1h1l78 -26c2 -1 5 -3 7 -5l53 -53c2 -2 4 -5 5 -7l26 -79c1 -2 1 -5 1 -7v-52c0 -2 0 -4 -1 -6l-26 -79c-1 -2 -3 -6 -5 -8l-53 -53c-2 -2 -5 -3 -7 -4l-78 -26v-1h-1h-1c-2 -1 -4 -1 -6 -1h-2h-47h-3c-1 0 -3 1 -4 1h-2h-1
l-78 27c-2 1 -6 2 -8 4l-53 53c-2 2 -3 6 -4 8l-27 79c-1 2 -1 4 -1 6v52c0 2 0 5 1 7l27 79c1 2 2 5 4 7l53 53c2 2 6 4 8 5l76 25c1 0 2 1 3 1h1l1 1h1h2h1z" />
    <glyph glyph-name="ugrave" unicode="&#xf9;" horiz-adv-x="635" 
d="M117.1 672.3h2c6 0 12 -4 15 -9l129 -155l3 -3c1 -1 2 -3 2 -4v-2c0 -1 1 -1 1 -2v-2v-1v-1v-1v-1h-1v-2v-2c0 -1 -1 -2 -2 -3l-1 -2h-1l-1 -1l-1 -2l-2 -1c-1 0 -1 -1 -2 -1l-1 -1h-1c-1 0 -2 -1 -3 -1h-2h-2h-4c-1 0 -1 1 -2 1h-2l-2 1c-1 1 -2 1 -3 2v1l-158 131
c-4 3 -7 10 -7 15c0 4 3 11 6 14l24 24c3 4 11 8 16 8zM131 408h1h3h20h3c4 0 11 -2 14 -5l1 -2c3 -3 5 -9 5 -13v-3v-281l21 -43l42 -21h45l72 23l43 44v262h-59c-11 0 -20 8 -20 19s9 20 20 20h76h3h3h20h3c4 0 11 -2 14 -5l2 -2c3 -3 4 -9 4 -13v-3v-345h59h1
c11 0 19 -9 19 -20s-8 -20 -19 -20h-1h-75h-4h-3h-20h-3c-4 0 -11 2 -14 5v1l-1 1c-3 3 -5 9 -5 13v3v28l-19 -19c-2 -2 -5 -3 -7 -4l-79 -27c-2 -1 -5 -1 -7 -1h-49h-3c-1 0 -3 1 -4 1h-2h-1l-78 27c-4 1 -10 5 -12 9l-26 53c-1 2 -2 6 -2 9v270h-59h-1c-11 0 -19 8 -19 19
s8 20 19 20h1h75h3z" />
    <glyph glyph-name="uacute" unicode="&#xfa;" horiz-adv-x="635" 
d="M399.75 672.3h1c5 0 12 -3 15 -7l25 -25c3 -3 6 -10 6 -14c0 -5 -4 -12 -8 -15l-157 -131c-1 -1 -2 -1 -3 -2s-3 -2 -4 -2s-1 -1 -2 -1h-2h-1h-1h-1h-2h-1h-2l-1 1c-1 0 -2 1 -3 2h-1l-2 1l-1 1l-1 2h-1l-1 1v2h-1v2l-1 1c0 1 -1 1 -1 2v1v2v1v4c0 1 1 1 1 2s1 1 1 2l1 2
c1 1 1 2 2 3l129 156c3 5 11 9 17 9zM131 408h1h3h20h3c4 0 11 -2 14 -5l1 -2c3 -3 5 -9 5 -13v-3v-281l21 -43l42 -21h45l72 23l43 44v262h-59c-11 0 -20 8 -20 19s9 20 20 20h76h3h3h20h3c4 0 11 -2 14 -5l2 -2c3 -3 4 -9 4 -13v-3v-345h59h1c11 0 19 -9 19 -20
s-8 -20 -19 -20h-1h-75h-4h-3h-20h-3c-4 0 -11 2 -14 5v1l-1 1c-3 3 -5 9 -5 13v3v28l-19 -19c-2 -2 -5 -3 -7 -4l-79 -27c-2 -1 -5 -1 -7 -1h-49h-3c-1 0 -3 1 -4 1h-2h-1l-78 27c-4 1 -10 5 -12 9l-26 53c-1 2 -2 6 -2 9v270h-59h-1c-11 0 -19 8 -19 19s8 20 19 20h1h75h3
z" />
    <glyph glyph-name="ucircumflex" unicode="&#xfb;" horiz-adv-x="635" 
d="M245 646.3c4 0 10 -2 13 -5l157 -131h1l2 -2v-1l2 -1v-1l1 -1l1 -1v-1v-1v-1l1 -1v-2v-2v-1v-3v-2l-1 -2l-1 -2l-1 -1l-1 -2l-1 -1l-2 -2h-1v-1l-2 -1c-1 0 -3 -1 -4 -1l-2 -1h-3h-1h-2h-1h-2v1c-1 0 -3 0 -4 1l-1 1h-1l-147 98l-146 -97v-1h-1l-1 -1h-1
c-1 0 -3 -2 -4 -2h-4h-1h-3c-1 0 -3 1 -4 1l-1 1h-1h-1v1l-2 1l-1 1l-2 2l-1 1l-1 2c0 1 -1 2 -1 3s-1 1 -1 2v1v1v3v1v2c0 2 1 5 2 6s1 2 2 3l3 3l158 131c3 3 8 5 12 5zM131 408h1h3h20h3c4 0 11 -2 14 -5l1 -2c3 -3 5 -9 5 -13v-3v-281l21 -43l42 -21h45l72 23l43 44v262
h-59c-11 0 -20 8 -20 19s9 20 20 20h76h3h3h20h3c4 0 11 -2 14 -5l2 -2c3 -3 4 -9 4 -13v-3v-345h59h1c11 0 19 -9 19 -20s-8 -20 -19 -20h-1h-75h-4h-3h-20h-3c-4 0 -11 2 -14 5v1l-1 1c-3 3 -5 9 -5 13v3v28l-19 -19c-2 -2 -5 -3 -7 -4l-79 -27c-2 -1 -5 -1 -7 -1h-49h-3
c-1 0 -3 1 -4 1h-2h-1l-78 27c-4 1 -10 5 -12 9l-26 53c-1 2 -2 6 -2 9v270h-59h-1c-11 0 -19 8 -19 19s8 20 19 20h1h75h3z" />
    <glyph glyph-name="udieresis" unicode="&#xfc;" horiz-adv-x="635" 
d="M346.2 563.1h1c4 0 10 -3 13 -6l27 -26c3 -3 6 -9 6 -14s-3 -11 -6 -14l-27 -27c-3 -3 -9 -6 -14 -6s-11 3 -14 6l-26 27c-3 3 -6 9 -6 14s3 11 6 14l26 26c3 3 10 6 14 6zM162.2 563.1c4 0 11 -3 14 -6l27 -26c3 -3 5 -9 5 -14s-2 -11 -5 -14l-27 -27
c-3 -3 -9 -6 -14 -6s-11 3 -14 6l-26 27c-3 3 -6 9 -6 14s3 11 6 14l26 26c3 3 10 6 14 6zM131 408h1h3h20h3c4 0 11 -2 14 -5l1 -2c3 -3 5 -9 5 -13v-3v-281l21 -43l42 -21h45l72 23l43 44v262h-59c-11 0 -20 8 -20 19s9 20 20 20h76h3h3h20h3c4 0 11 -2 14 -5l2 -2
c3 -3 4 -9 4 -13v-3v-345h59h1c11 0 19 -9 19 -20s-8 -20 -19 -20h-1h-75h-4h-3h-20h-3c-4 0 -11 2 -14 5v1l-1 1c-3 3 -5 9 -5 13v3v28l-19 -19c-2 -2 -5 -3 -7 -4l-79 -27c-2 -1 -5 -1 -7 -1h-49h-3c-1 0 -3 1 -4 1h-2h-1l-78 27c-4 1 -10 5 -12 9l-26 53c-1 2 -2 6 -2 9
v270h-59h-1c-11 0 -19 8 -19 19s8 20 19 20h1h75h3z" />
    <glyph glyph-name="glyph10" unicode="&#x153;" horiz-adv-x="867" 
d="M613 406l-50 -25l-51 -52l-19 -54h267v61l-23 46l-47 24h-77zM236 406l-49 -25l-52 -52l-26 -79v-51l26 -79l52 -52l49 -24h49l49 24l52 52l26 79v51l-26 79l-52 52l-49 25h-49zM232 449h1h1h52h3h5c1 0 1 -1 2 -1h1l86 -29c2 -1 7 -3 9 -5l57 -58l57 58c2 2 6 4 8 5
l86 29h2c2 1 4 1 6 1h2h85c3 0 7 -1 9 -2l55 -28h1c2 -1 6 -3 8 -5h1v-2l29 -27c1 -1 2 -3 3 -5l28 -59c1 -2 4 -7 4 -10v-58c0 -12 -10 -21 -22 -21h-26c-1 0 -2 -1 -3 -1s-3 1 -4 1h-293v-33l27 -79l51 -52l50 -24h49l79 25l54 55c3 3 10 7 16 7c12 0 22 -10 22 -22
c0 -6 -4 -12 -7 -15l-58 -59c-2 -2 -7 -3 -9 -4l-87 -30c-2 -1 -4 -1 -6 -1h-56h-2c-1 0 -4 1 -5 1h-2h-1l-86 30c-2 1 -6 2 -8 4l-57 57l-57 -57c-2 -2 -7 -3 -9 -4l-85 -29l-2 -1c-2 -1 -5 -1 -7 -1h-2h-53h-2c-1 0 -4 1 -5 1h-3h-1l-85 30c-2 1 -6 2 -8 4l-58 59
c-2 2 -5 6 -6 8l-29 87c-1 2 -1 5 -1 7v57c0 2 0 6 1 8l29 87c1 2 4 5 6 7l58 59c2 2 6 4 8 5l84 28c1 0 3 1 4 1h1l1 1h1h1h2z" />
    <glyph glyph-name="glyph21" unicode="&#x152;" horiz-adv-x="867" 
d="M265 608l-49 -25l-53 -53l-27 -53l-27 -111v-81l27 -111l27 -52l53 -54l49 -24h53h66v564h-66h-53zM405 652c1 0 3 -1 4 -1h21c1 0 3 1 4 1s3 -1 4 -1h311c1 0 2 1 3 1s3 -1 4 -1h26c12 0 21 -9 21 -21v-174c0 -12 -9 -22 -21 -22c-10 0 -21 8 -22 18l-26 156h-279v-246
h131v94c0 12 10 22 22 22s21 -10 21 -22v-112c0 -1 1 -3 1 -4s-1 -2 -1 -3v-113c0 -12 -9 -22 -21 -22s-22 10 -22 22v95h-131v-275h279l26 155c1 10 12 19 22 19c12 0 21 -10 21 -22v-174c0 -12 -9 -22 -21 -22h-26h-4h-3h-311h-4h-4h-21h-4h-3h-84h-54h-3c-1 0 -4 1 -5 1
h-2h-1l-86 30c-2 1 -7 2 -9 4l-58 59c-1 1 -2 3 -3 5l-30 58c-1 1 -1 4 -1 5l-30 115v6v87v4l30 117c0 1 0 3 1 4l30 57c1 2 2 6 3 7l58 57c2 2 7 5 9 6l84 28h3l1 1h1h1h3h1h1h1h55h84c1 0 2 1 3 1z" />
    <glyph glyph-name="glyph23" unicode="&#x201c;" horiz-adv-x="433" 
d="M348 651c12 0 22 -9 22 -21c0 -8 -5 -17 -12 -20l-50 -24l-12 -48l2 -2h20h1c4 0 11 -4 14 -7l30 -29c3 -3 7 -11 7 -15v-29c0 -4 -4 -12 -7 -15l-30 -30c-3 -3 -10 -5 -14 -5h-1h-29c-4 0 -12 2 -15 5l-29 30c-3 3 -6 11 -6 15v26v3v2v53v3c0 4 2 10 4 13l27 53
c2 4 7 11 13 13l55 27c2 1 7 2 10 2zM174 651c12 0 22 -9 22 -21c0 -8 -5 -17 -12 -20l-50 -24l-12 -48l2 -2h21c4 0 13 -4 16 -7l28 -29c3 -3 7 -11 7 -15v-29c0 -4 -4 -12 -7 -15l-28 -30c-3 -3 -12 -5 -16 -5h-29c-4 0 -13 2 -16 5l-28 30c-3 3 -7 11 -7 15v26v3v2v53v3
c0 4 2 10 4 13l27 53c2 4 7 11 13 13l55 27c2 1 7 2 10 2z" />
    <glyph glyph-name="glyph24" unicode="&#x2019;" horiz-adv-x="202" 
d="M116 594c4 0 12 -4 15 -7l27 -26c4 -3 8 -12 8 -18v-3v-55c0 -4 -2 -12 -5 -15l-59 -59c-3 -3 -9 -5 -15 -5c-12 0 -22 9 -22 21c0 6 4 12 7 15l50 51c-2 -1 -4 0 -6 0c-4 0 -13 2 -16 5l-28 30c-3 3 -7 9 -7 15s4 13 7 16l28 28c3 3 12 7 16 7z" />
    <glyph glyph-name="glyph38" unicode="&#x201d;" horiz-adv-x="433" 
d="M289 651h29h1c4 0 11 -2 14 -5l30 -30c3 -3 7 -11 7 -15v-26v-3v-3v-52v-3c0 -4 -3 -9 -5 -12l-26 -54c-2 -4 -7 -10 -13 -12l-55 -28c-2 -1 -8 -3 -11 -3c-12 0 -22 10 -22 22c0 8 6 17 13 20l49 24l11 48l-2 2h-20c-4 0 -12 4 -15 7l-29 29c-3 3 -6 11 -6 15v29
c0 4 3 12 6 15l29 30c3 3 11 5 15 5zM116 651h29c4 0 13 -2 16 -5l28 -30c3 -3 7 -11 7 -15v-26v-3v-3v-52v-3c0 -4 -3 -9 -5 -12l-26 -54c-2 -4 -7 -10 -13 -12l-55 -28c-2 -1 -8 -3 -11 -3c-12 0 -22 10 -22 22c0 8 6 17 13 20l49 24l12 48l-3 2h-19c-4 0 -13 4 -16 7
l-28 29c-3 3 -7 11 -7 15v29c0 4 4 12 7 15l28 30c3 3 12 5 16 5z" />
    <glyph glyph-name="glyph39" unicode="&#x2010;" horiz-adv-x="752" 
d="M116 275h521c12 0 22 -10 22 -22s-10 -21 -22 -21h-521c-12 0 -22 9 -22 21s10 22 22 22z" />
    <glyph glyph-name="glyph54" unicode="&#x2014;" 
d="M0 275h579h1c12 0 21 -10 21 -22s-9 -21 -21 -21h-1h-579c-12 0 -22 9 -22 21s10 22 22 22z" />
    <glyph glyph-name="glyph72" unicode="&#x2026;" horiz-adv-x="404" 
d="M87 188c7 0 14 -5 17 -9l27 -26c3 -3 7 -9 7 -15s-4 -13 -7 -16l-29 -28c-3 -3 -9 -7 -15 -7s-12 4 -15 7l-29 28c-3 3 -7 10 -7 16s4 12 7 15l26 26c3 4 10 8 16 9h1h1z" />
    <glyph glyph-name="glyph97" unicode="&#x2018;" horiz-adv-x="202" 
d="M144 594h1c12 0 22 -10 22 -22c0 -6 -3 -12 -6 -15l-52 -51c2 1 5 1 7 1c4 0 12 -4 15 -7l30 -28c3 -3 5 -10 5 -16s-2 -12 -5 -15l-30 -30c-3 -3 -9 -5 -15 -5s-13 2 -16 5l-26 28c-4 3 -9 10 -9 16v4v55c0 4 4 12 7 15l58 58c3 3 10 7 14 7z" />
    <glyph glyph-name="glyph107" unicode="&#x2013;" horiz-adv-x="404" 
d="M58 275h290c12 0 22 -10 22 -22s-10 -21 -22 -21h-290h-1c-12 0 -21 9 -21 21s9 22 21 22h1z" />
    <glyph glyph-name="glyph154" unicode="&#x15e;" 
d="M213.9 1.31641h1c11 0 19 -9 19 -20c0 -5 -3 -11 -6 -14l-25 -26l25 -25c3 -3 6 -9 6 -14s-3 -11 -6 -14l-26 -26c-3 -3 -10 -6 -14 -6h-26h-1c-11 0 -19 9 -19 20s8 19 19 19h1h18l6 7l-6 7h-18c-11 0 -20 8 -20 19c0 5 3 11 6 14l52 53c3 3 10 6 14 6zM211 592h78
c2 0 5 0 7 -1l79 -26c2 -1 5 -3 7 -5l30 -30l17 49c2 7 10 13 18 13c11 0 20 -8 20 -19v-158c0 -11 -9 -20 -20 -20c-8 0 -16 6 -18 13l-25 75l-46 46l-72 24h-72l-72 -24l-43 -44v-36l44 -44l49 -25l156 -52c1 0 2 -1 3 -1l53 -26c2 -1 4 -3 5 -4l26 -26c1 -1 3 -3 4 -5
l25 -52c2 -3 3 -7 3 -10v-3v-102c0 -4 -3 -11 -6 -14l-52 -53c-2 -2 -6 -3 -8 -4l-79 -27c-2 -1 -4 -1 -6 -1h-79c-2 0 -4 0 -6 1l-79 27c-2 1 -6 2 -8 4l-30 30l-16 -48c-2 -7 -11 -14 -19 -14c-11 0 -20 9 -20 20v158c0 11 9 19 20 19c8 0 17 -6 19 -13l25 -75l46 -46
l71 -23h73l71 23l44 44v89l-45 44l-48 25l-157 52c-1 0 -2 1 -3 1l-52 26c-2 1 -4 3 -5 4l-27 26c-1 1 -2 3 -3 5l-26 52c-2 3 -3 7 -3 10v3v50c0 4 3 11 6 14l53 52c2 2 5 4 7 5l79 26c2 1 5 1 7 1z" />
    <glyph glyph-name="glyph155" unicode="&#x15f;" horiz-adv-x="491" 
d="M199.05 1.31641h1c11 0 19 -9 19 -20c0 -5 -3 -11 -6 -14l-25 -26l25 -25c3 -3 6 -9 6 -14s-3 -11 -6 -14l-26 -26c-3 -3 -10 -6 -14 -6h-26h-1c-11 0 -19 9 -19 20s8 19 19 19h1h18l6 7l-6 7h-18c-11 0 -20 8 -20 19c0 5 3 11 6 14l52 53c3 3 10 6 14 6zM158 408h105
c3 0 7 -1 9 -2l53 -26c2 -1 4 -3 5 -4l7 -7l14 28c3 6 10 11 17 11c11 0 20 -9 20 -20v-105c0 -11 -9 -20 -20 -20c-7 0 -14 5 -17 11l-25 50l-22 22l-46 23h-95l-46 -23l-18 -18v-10l18 -19l49 -24l131 -53h1l53 -27c2 -1 4 -2 5 -3l26 -27c3 -3 6 -9 6 -13v-1v-23v-3v-3
v-49v-1c0 -4 -3 -10 -6 -13l-26 -27c-1 -1 -3 -2 -5 -3l-53 -27c-2 -1 -6 -2 -9 -2h-105c-3 0 -7 1 -9 2l-52 27c-2 1 -4 2 -5 3l-7 7l-14 -28c-3 -6 -11 -11 -18 -11c-11 0 -20 9 -20 20v105c0 11 9 20 20 20c7 0 15 -5 18 -11l25 -50l21 -22l46 -22h96l45 22l19 19v36
l-19 18l-49 25l-130 52l-2 1l-53 26c-2 1 -4 3 -5 4l-26 26c-3 3 -6 10 -6 14v24v2v3v24c0 4 3 11 6 14l26 26c1 1 3 3 5 4l53 26c2 1 6 2 9 2z" />
    <glyph glyph-name="glyph157" unicode="&#x2009;" horiz-adv-x="115" 
 />
  </font>
</defs>
</svg>
