<?xml version="1.0" standalone="no"?>
<!DOCTYPE svg PUBLIC "-//W3C//DTD SVG 1.1//EN" "http://www.w3.org/Graphics/SVG/1.1/DTD/svg11.dtd" >
<svg xmlns="http://www.w3.org/2000/svg" xmlns:xlink="http://www.w3.org/1999/xlink" version="1.1">
<metadata>
Created by FontForge 20220308 at Fri Feb 17 12:16:08 2023
 By antoine
by Luuse (contact@luuse.io), SIL Open Font License
</metadata>
<defs>
<font id="Hershey-Noailles-HelpMe-Light" horiz-adv-x="463" >
  <font-face 
    font-family="Hershey-Noailles-HelpMe"
    font-weight="200"
    font-stretch="normal"
    units-per-em="1100"
    panose-1="2 0 3 3 0 0 0 0 0 0"
    ascent="800"
    descent="-300"
    x-height="434"
    cap-height="579"
    bbox="-105.65 -232 767 813.9"
    underline-thickness="53.9"
    underline-position="-108.9"
    stemh="29"
    stemv="29"
    unicode-range="U+0020-2026"
  />
<missing-glyph horiz-adv-x="550" 
d="M55 0v540h440v-540h-440zM110 55h330v430h-330v-430z" />
    <glyph glyph-name=".notdef" horiz-adv-x="550" 
d="M55 0v540h440v-540h-440zM110 55h330v430h-330v-430z" />
    <glyph glyph-name="space" unicode=" " horiz-adv-x="259" 
 />
    <glyph glyph-name="exclam" unicode="!" horiz-adv-x="289" 
d="M145 52l-9 -9l9 -8l8 8zM144 87h1h2c3 -1 7 -5 9 -7h1l27 -26c2 -2 4 -8 4 -11s-2 -8 -4 -10l-29 -29c-2 -2 -7 -4 -10 -4s-9 2 -11 4l-28 29c-2 2 -5 7 -5 10s3 9 5 11l27 26c2 2 6 5 9 6l1 1h1zM144 637h1c8 0 15 -6 15 -14v-406c0 -8 -7 -15 -15 -15s-15 7 -15 15v406
c0 8 6 14 14 14z" />
    <glyph glyph-name="quotedbl" unicode="&#x22;" 
d="M348 637c8 0 14 -6 14 -14v-204c0 -8 -6 -14 -14 -14s-15 6 -15 14v204c0 8 7 14 15 14zM116 637c8 0 14 -6 14 -14v-204c0 -8 -6 -14 -14 -14s-15 6 -15 14v204c0 8 7 14 15 14z" />
    <glyph glyph-name="numbersign" unicode="#" horiz-adv-x="635" 
d="M248 348l-32 -146h144l32 146h-144zM493 752c8 0 14 -6 14 -14c0 -1 -1 -2 -1 -3l-78 -359h93c8 0 15 -6 15 -14s-7 -14 -15 -14h-100l-32 -146h103h1c8 0 14 -6 14 -14s-6 -14 -14 -14h-1h-108l-80 -365c-1 -7 -8 -13 -15 -13c-8 0 -14 7 -14 15v4l79 359h-144l-80 -365
c-1 -7 -7 -13 -14 -13c-8 0 -15 7 -15 15v4l79 359h-93c-8 0 -14 6 -14 14s6 14 14 14h100l31 146h-102c-8 0 -15 6 -15 14s7 14 15 14h108l81 365c1 7 7 11 14 11c8 0 14 -6 14 -14c0 -1 -1 -2 -1 -3l-78 -359h144l80 365c1 7 7 11 14 11h1z" />
    <glyph glyph-name="dollar" unicode="$" horiz-adv-x="578" 
d="M362 284v-250l65 22l24 24l26 53v52l-26 53l-24 24zM246 294v-265h87v260h-72c-1 0 -4 1 -5 1zM217 541l-34 -17l-27 -27l-26 -51v-24l26 -52l26 -25l35 -12v208zM246 550v-227l17 -5h70v232h-87zM231 695h1c8 0 14 -7 14 -15v-101h87v101c0 8 7 14 15 14s14 -6 14 -14
v-106l77 -25c2 -1 4 -2 5 -3l29 -29c2 -2 4 -8 4 -11c0 -8 -6 -14 -14 -14c-3 0 -8 2 -10 4l-26 26l-65 22v-229l77 -27c2 -1 4 -2 5 -3l29 -29c1 -1 2 -3 3 -4l29 -57c1 -2 2 -5 2 -7v-58c0 -2 -1 -5 -2 -7l-29 -57c-1 -1 -2 -3 -3 -4l-29 -29c-1 -1 -3 -2 -5 -3l-77 -27
v-104v-1c0 -8 -6 -15 -14 -15s-15 7 -15 15v1v101h-87v-101v-1c0 -8 -6 -15 -14 -15s-15 7 -15 15v1v107l-50 24l-3 3l-58 58c-2 2 -5 7 -5 10c0 8 7 15 15 15c3 0 8 -3 10 -5l57 -56l34 -18v265l-48 17c-2 1 -4 2 -5 3l-30 29c-1 1 -1 3 -2 4l-30 57c-1 2 -1 5 -1 7v30
c0 2 0 3 1 5l30 59c1 1 1 3 2 4l30 29c1 1 2 1 3 2l50 25v107c0 8 6 15 14 15z" />
    <glyph glyph-name="percent" unicode="%" horiz-adv-x="694" 
d="M495 202l-49 -25l-26 -51v-48l50 -49h48l50 25l25 50v49l-49 49h-49zM492 231h2h56c3 0 8 -2 10 -4l58 -58c2 -2 5 -8 5 -11v-57c0 -2 -2 -4 -3 -6l-28 -59c-1 -2 -5 -5 -7 -6l-57 -29c-2 -1 -5 -1 -7 -1h-58c-3 0 -8 2 -10 4l-58 58c-2 2 -5 8 -5 11v57c0 2 2 4 3 6
l28 59c1 2 5 5 7 6l56 28c1 1 3 2 4 2h2h2zM177 607l-51 -25l-25 -51v-48l50 -50h48l51 26l25 50v49l-49 49h-49zM231 637c2 0 6 -1 8 -2l56 -29l83 -27h83l83 27l57 29c2 1 5 2 7 2c1 0 4 -1 5 -1s3 -1 4 -2l1 -2l1 -1c0 -1 1 -1 1 -2l2 -1v-1v-1c0 -1 1 -1 1 -2v-1
c0 -3 -3 -9 -5 -11l-520 -608c-2 -3 -8 -4 -11 -4c-8 0 -14 6 -14 14c0 3 1 7 3 9l475 556l-83 -29h-5h-87h-4l-73 24c2 -2 5 -7 5 -10v-58c0 -2 -1 -5 -2 -7l-28 -57c-1 -2 -5 -5 -7 -6l-58 -29c-2 -1 -5 -2 -7 -2h-57c-3 0 -9 2 -11 4l-57 59c-2 2 -4 6 -4 9v59
c0 2 0 3 1 5l28 59c1 2 5 5 7 6l58 29c2 1 5 2 7 2h56h1z" />
    <glyph glyph-name="ampersand" unicode="&#x26;" horiz-adv-x="665" 
d="M235 297l-27 -7l-55 -27l-25 -25l-27 -53v-52l27 -53l25 -25l53 -26h80l53 26l55 55l4 7l-90 90l-1 1zM264 550l-51 -25l-25 -51v-52l26 -52l32 -40l68 16l51 27l25 49v52l-25 51l-50 25h-51zM261 579h57c2 0 4 0 6 -1l59 -30c2 -1 5 -5 6 -7l29 -57c1 -2 2 -5 2 -7v-58
c0 -2 -1 -5 -2 -7l-29 -57c-1 -2 -4 -5 -6 -6l-59 -29c-1 0 -1 -1 -2 -1l-56 -14l63 -78l86 -86l36 55l57 86l29 57c1 1 2 3 3 4l29 29c2 2 7 4 10 4c8 0 15 -6 15 -14c0 -3 -2 -9 -4 -11l-28 -27l-28 -56v-2l-59 -87l-39 -59l8 -9l56 -56l57 -27c4 -2 8 -8 8 -14
c0 -8 -7 -14 -15 -14c-2 0 -5 0 -7 1l-57 29c-1 1 -3 2 -4 3l-58 58l-5 5l-2 -2c0 -1 0 -2 -1 -3l-58 -58l-4 -3l-58 -29c-2 -1 -5 -1 -7 -1h-87c-2 0 -4 0 -6 1l-57 29c-1 1 -4 2 -5 3l-28 29l-4 4l-28 57c-1 2 -1 5 -1 7v58c0 2 0 5 1 7l28 57l4 4l28 29c1 1 4 2 5 3
l57 29c1 0 2 1 3 1l17 4l-25 30c0 1 -2 2 -2 3l-28 57c-1 2 -1 5 -1 7v58c0 2 0 5 1 7l28 57c1 2 5 6 7 7l58 30c2 1 5 1 7 1z" />
    <glyph glyph-name="quotesingle" unicode="'" horiz-adv-x="289" 
d="M144 637h1c8 0 15 -6 15 -14v-146c0 -8 -7 -14 -15 -14s-15 6 -15 14v146c0 8 6 14 14 14z" />
    <glyph glyph-name="parenleft" unicode="(" horiz-adv-x="404" 
d="M318 752h1c8 0 14 -6 14 -14c0 -3 -2 -9 -4 -11l-57 -56l-56 -85l-58 -113l-28 -142v-113l28 -141l58 -113l56 -85l57 -57c2 -2 4 -7 4 -10c0 -8 -6 -16 -14 -16c-3 0 -9 3 -11 5l-57 58c-1 1 -2 1 -2 2l-59 87l-1 1l-57 117c0 1 -1 2 -1 3l-30 145v3v115v4l30 145
c0 1 1 2 1 3l57 116l1 2l59 86c0 1 1 1 2 2l57 58c2 2 7 4 10 4z" />
    <glyph glyph-name="parenright" unicode=")" horiz-adv-x="404" 
d="M87 752c3 0 8 -2 10 -4l58 -58c1 -1 2 -1 2 -2l57 -86l2 -2l58 -116c0 -1 1 -2 1 -3l29 -145v-4v-115v-3l-29 -145c0 -1 -1 -2 -1 -3l-58 -117l-2 -1l-57 -87c0 -1 -1 -1 -2 -2l-58 -58c-2 -2 -7 -5 -10 -5c-8 0 -14 7 -14 15c0 3 2 9 4 11l56 57l57 85l56 113l29 141
v113l-29 142l-56 113l-57 85l-56 56c-2 2 -4 8 -4 11c0 8 6 14 14 14z" />
    <glyph glyph-name="asterisk" unicode="*" 
d="M231 463h1c8 0 14 -6 14 -14v-149l122 74c2 1 6 2 8 2c8 0 14 -6 14 -14c0 -4 -2 -11 -6 -13l-124 -74l124 -75c4 -2 6 -8 6 -12c0 -8 -6 -14 -14 -14c-2 0 -6 0 -8 1l-122 74v-148c0 -8 -6 -14 -14 -14s-15 6 -15 14v148l-122 -74c-2 -1 -6 -1 -8 -1c-8 0 -14 6 -14 14
c0 4 2 10 6 12l125 75l-125 74c-4 2 -6 9 -6 13c0 8 6 14 14 14c2 0 6 -1 8 -2l122 -74v149c0 8 6 14 14 14z" />
    <glyph glyph-name="plus" unicode="+" horiz-adv-x="752" 
d="M376 550c8 0 14 -6 14 -14v-247h247c8 0 14 -6 14 -14s-6 -14 -14 -14h-247v-247c0 -8 -6 -14 -14 -14s-14 6 -14 14v247h-246c-8 0 -15 6 -15 14s7 14 15 14h246v247c0 8 6 14 14 14z" />
    <glyph glyph-name="comma" unicode="," horiz-adv-x="231" 
d="M116 139l-8 -9l8 -9l8 9zM116 174c3 0 8 -3 10 -5l27 -27c3 -2 7 -8 7 -12v-1v-56c0 -3 -3 -9 -5 -11l-58 -58c-2 -2 -7 -4 -10 -4c-8 0 -14 6 -14 14c0 3 2 8 4 10l53 54v17l-4 -4c-2 -2 -7 -4 -10 -4s-8 2 -10 4l-29 29c-2 2 -4 7 -4 10s2 8 4 10l29 29c2 2 7 5 10 5z
" />
    <glyph glyph-name="hyphen" unicode="-" horiz-adv-x="259" 
d="M29 261h203c8 0 14 -8 14 -16s-6 -14 -14 -14h-203c-8 0 -15 6 -15 14s7 16 15 16z" />
    <glyph glyph-name="period" unicode="." horiz-adv-x="231" 
d="M116 139l-8 -9l8 -9l8 9zM116 174h1h2c3 -1 7 -5 9 -7l27 -27c2 -2 5 -7 5 -10s-3 -8 -5 -10l-29 -29c-2 -2 -7 -4 -10 -4s-8 2 -10 4l-29 29c-2 2 -4 7 -4 10s2 8 4 10l26 27c2 2 6 5 9 6l2 1h2z" />
    <glyph glyph-name="slash" unicode="/" horiz-adv-x="635" 
d="M579 752c8 0 15 -6 15 -14c0 -2 -1 -6 -2 -8l-522 -926c-2 -4 -8 -6 -12 -6c-8 0 -15 6 -15 14c0 2 1 4 2 6l521 927c2 4 9 7 13 7z" />
    <glyph glyph-name="zero" unicode="0" horiz-adv-x="578" 
d="M263 550l-80 -26l-54 -82l-28 -111v-83l28 -112l54 -81l80 -26h53l80 26l54 81l27 112v83l-27 111l-54 82l-80 26h-53zM260 579h1h1h56c1 0 4 -1 5 -1l87 -29c2 -1 6 -4 7 -6l58 -87c1 -1 2 -3 2 -4l29 -115c0 -1 1 -4 1 -5v-87c0 -1 -1 -2 -1 -3l-29 -116
c0 -1 -1 -3 -2 -4l-58 -87c-1 -2 -5 -4 -7 -5l-87 -30h-5h-57h-5l-87 30c-2 1 -6 3 -7 5l-59 87c-1 1 -1 3 -1 4l-29 116v3v87v5l29 115c0 1 0 3 1 4l59 87c1 2 5 5 7 6l86 29c1 0 2 1 3 1h2z" />
    <glyph glyph-name="one" unicode="1" horiz-adv-x="346" 
d="M231 579h1c8 0 14 -7 14 -15v-550c0 -8 -6 -14 -14 -14s-15 6 -15 14v520l-121 -97c-2 -2 -6 -4 -9 -4c-8 0 -14 8 -14 16c0 3 2 9 5 11l144 115c2 2 7 4 9 4z" />
    <glyph glyph-name="two" unicode="2" 
d="M202 579h59c2 0 4 0 6 -1l57 -30c1 -1 4 -1 5 -2l29 -29c1 -1 2 -3 3 -4l28 -59c1 -2 1 -3 1 -5v-59c0 -2 0 -4 -1 -6l-28 -57c0 -1 -1 -3 -2 -4l-241 -294h258c8 0 14 -7 14 -15s-6 -14 -14 -14h-289c-8 0 -14 6 -14 14c0 3 1 7 3 9l260 318l26 53v52l-26 51l-26 27
l-53 26h-51l-53 -26l-25 -27l-27 -51v-27c0 -8 -6 -14 -14 -14s-14 6 -14 14v30c0 2 0 3 1 5l28 59l4 4l28 29c1 1 4 1 5 2l57 30c2 1 4 1 6 1z" />
    <glyph glyph-name="three" unicode="3" 
d="M145 579h87c2 0 4 0 6 -1l58 -30c1 -1 2 -1 3 -2l30 -29c1 -1 1 -3 2 -4l30 -59c1 -2 1 -3 1 -5v-30c0 -2 0 -5 -1 -7l-30 -57c-1 -2 -2 -4 -4 -5l-63 -42l59 -20c2 -1 5 -2 6 -3l29 -29c1 -1 2 -3 3 -4l28 -57c1 -2 1 -5 1 -7v-58c0 -2 0 -5 -1 -7l-28 -57
c-1 -1 -2 -3 -3 -4l-29 -29c-1 -1 -4 -2 -5 -3l-57 -29c-2 -1 -4 -1 -6 -1h-116c-2 0 -4 0 -6 1l-59 29l-3 3l-30 29c-2 2 -4 8 -4 11c0 8 6 14 14 14c3 0 9 -3 11 -5l28 -27l52 -26h109l53 26l26 25l26 53v52l-26 53l-26 24l-81 27h-55c-8 0 -14 7 -14 15s6 14 14 14h54
l79 54l26 50v24l-26 51l-27 27l-52 26h-80l-52 -26l-28 -28c-2 -2 -8 -4 -11 -4c-8 0 -14 6 -14 14c0 3 2 9 4 11l30 29c1 1 2 1 3 2l59 30c2 1 4 1 6 1z" />
    <glyph glyph-name="four" unicode="4" 
d="M260 579h1c8 0 14 -7 14 -15c0 -2 0 -4 -1 -6l-173 -345v-11h145v102c0 8 7 14 15 14s14 -6 14 -14v-102h130h1c8 0 14 -6 14 -14s-6 -14 -14 -14h-1h-130v-160c0 -8 -6 -14 -14 -14s-15 6 -15 14v160h-159c-8 0 -14 6 -14 14v29c0 2 0 4 1 6l174 348c2 4 8 8 12 8z" />
    <glyph glyph-name="five" unicode="5" 
d="M87 579h261c8 0 14 -7 14 -15s-6 -14 -14 -14h-247v-211l5 4c1 1 2 1 3 2l58 29c2 1 5 2 7 2h87c2 0 4 -1 6 -2l57 -29c1 -1 4 -1 5 -2l29 -29l3 -4l28 -58c1 -2 1 -5 1 -7v-115c0 -2 0 -5 -1 -7l-28 -57c-1 -1 -2 -3 -3 -4l-29 -29c-1 -1 -4 -2 -5 -3l-57 -29
c-2 -1 -4 -1 -6 -1h-87c-2 0 -5 0 -7 1l-58 29l-3 3l-29 29c-2 2 -4 8 -4 11c0 8 6 14 14 14c3 0 8 -3 10 -5l27 -27l53 -26h80l53 26l26 25l26 53v109l-26 53l-26 26l-53 27h-80l-53 -27l-27 -27c-2 -2 -7 -5 -10 -5c-8 0 -14 7 -14 15v260c0 8 6 15 14 15z" />
    <glyph glyph-name="six" unicode="6" horiz-adv-x="578" 
d="M264 376l-53 -26l-25 -26l-55 -108l26 -107l54 -54l53 -26h51l52 26l54 54l28 81v24l-28 82l-54 54l-52 26h-51zM289 579h59c2 0 4 0 6 -1l57 -30c1 -1 4 -1 5 -2l28 -29c2 -2 5 -8 5 -11c0 -8 -7 -14 -15 -14c-3 0 -8 2 -10 4l-27 28l-53 26h-52l-80 -26l-54 -82
l-28 -82v-82l31 61c1 1 2 3 3 4l28 29c1 1 3 1 4 2l58 30c2 1 5 1 7 1h57c2 0 4 0 6 -1l59 -30c1 -1 2 -1 3 -2l58 -58c1 -1 3 -4 4 -6l29 -87v-4v-29v-4l-29 -87c-1 -2 -3 -5 -4 -6l-58 -58l-3 -3l-59 -29c-2 -1 -4 -1 -6 -1h-57c-2 0 -5 0 -7 1l-58 29l-4 3l-58 58
c-1 1 -3 5 -3 7l-29 113c0 1 -1 5 -1 6v1v144c0 1 1 3 1 4l29 87c0 1 1 2 2 3l57 87c1 2 6 5 8 6l87 29c1 0 3 1 4 1z" />
    <glyph glyph-name="seven" unicode="7" horiz-adv-x="578" 
d="M463 579c3 0 9 -2 11 -5l1 -1v-1l1 -1v-1h1v-6c0 -3 -1 -6 -3 -8l-200 -345l-57 -201c-1 -7 -8 -11 -15 -11c-8 0 -14 6 -14 14c0 1 1 4 1 5l57 203c0 1 2 2 2 3l190 326h-351c-8 0 -14 6 -14 14s6 15 14 15h374h2z" />
    <glyph glyph-name="eight" unicode="8" horiz-adv-x="491" 
d="M205 289l-82 -27l-24 -24l-26 -53v-52l26 -53l24 -24l82 -27h82l81 27l26 24l26 53v52l-26 53l-26 24l-81 27h-82zM206 550l-53 -26l-25 -27l-27 -51v-24l27 -52l25 -26l53 -26h80l53 26l25 26l26 52v24l-26 51l-25 27l-53 26h-80zM202 579h87c2 0 5 0 7 -1l58 -30
c1 -1 3 -1 4 -2l28 -29c1 -1 2 -3 3 -4l29 -59c1 -2 2 -3 2 -5v-30c0 -2 -1 -5 -2 -7l-29 -57c-1 -1 -2 -3 -3 -4l-28 -29c-1 -1 -3 -1 -4 -2l-27 -13l54 -19c2 -1 4 -2 5 -3l30 -29c1 -1 1 -3 2 -4l30 -57c1 -2 1 -5 1 -7v-58c0 -2 0 -5 -1 -7l-30 -57c-1 -1 -1 -3 -2 -4
l-30 -29c-1 -1 -3 -2 -5 -3l-87 -30h-5h-87h-4l-87 30c-2 1 -4 2 -5 3l-29 29c-1 1 -2 3 -3 4l-29 57c-1 2 -2 5 -2 7v58c0 2 1 5 2 7l29 57c1 1 2 3 3 4l29 29c1 1 3 2 5 3l54 19l-26 13c-1 1 -4 1 -5 2l-28 29l-4 4l-28 57c-1 2 -1 5 -1 7v30c0 2 0 3 1 5l28 59l4 4l28 29
c1 1 4 1 5 2l57 30c2 1 4 1 6 1z" />
    <glyph glyph-name="nine" unicode="9" horiz-adv-x="578" 
d="M264 550l-53 -26l-54 -54l-27 -82v-24l27 -81l54 -54l53 -27h51l52 27l27 25l54 109l-27 107l-54 54l-52 26h-51zM261 579h57c2 0 4 0 6 -1l59 -30c1 -1 2 -1 3 -2l58 -59c1 -1 4 -4 4 -6l28 -114c0 -1 1 -4 1 -5v-2v-143v-5l-29 -87c0 -1 0 -2 -1 -3l-59 -87
c-1 -2 -5 -4 -7 -5l-87 -30h-5h-57c-2 0 -4 0 -6 1l-59 29l-3 3l-30 29c-2 2 -4 8 -4 11c0 8 6 14 14 14c3 0 9 -3 11 -5l28 -27l52 -26h52l80 26l54 81l28 83v81l-31 -60c-1 -1 -1 -4 -2 -5l-30 -28l-3 -3l-59 -29c-2 -1 -4 -1 -6 -1h-57c-2 0 -5 0 -7 1l-58 29l-4 3
l-58 57c-1 1 -2 5 -3 7l-29 87c0 1 -1 3 -1 4v28c0 1 1 4 1 5l29 87c1 2 2 4 3 5l58 59c1 1 3 1 4 2l58 30c2 1 5 1 7 1z" />
    <glyph glyph-name="colon" unicode=":" horiz-adv-x="231" 
d="M116 139l-8 -9l8 -9l8 9zM116 174h1h2c3 -1 7 -5 9 -7l27 -27c2 -2 5 -7 5 -10s-3 -8 -5 -10l-29 -29c-2 -2 -7 -4 -10 -4s-8 2 -10 4l-29 29c-2 2 -4 7 -4 10s2 8 4 10l26 27c2 2 6 5 9 6l2 1h2zM116 341l-8 -9l8 -8l8 8zM116 376h1h2c3 -1 7 -4 9 -6l27 -27
c2 -2 5 -8 5 -11s-3 -8 -5 -10l-29 -28c-2 -2 -7 -5 -10 -5s-8 3 -10 5l-29 28c-2 2 -4 7 -4 10s2 9 4 11l26 27c2 2 6 5 9 6h2h2z" />
    <glyph glyph-name="semicolon" unicode=";" horiz-adv-x="231" 
d="M116 139l-8 -9l8 -9l8 9zM116 174c3 0 8 -3 10 -5l27 -27c3 -2 7 -8 7 -12v-1v-56c0 -3 -3 -9 -5 -11l-58 -58c-2 -2 -7 -4 -10 -4c-8 0 -14 6 -14 14c0 3 2 8 4 10l53 54v17l-4 -4c-2 -2 -7 -4 -10 -4s-8 2 -10 4l-29 29c-2 2 -4 7 -4 10s2 8 4 10l29 29c2 2 7 5 10 5z
M116 341l-8 -9l8 -8l8 8zM116 376h1h2c3 -1 7 -4 9 -6l27 -27c2 -2 5 -8 5 -11s-3 -8 -5 -10l-29 -28c-2 -2 -7 -5 -10 -5s-8 3 -10 5l-29 28c-2 2 -4 7 -4 10s2 9 4 11l26 27c2 2 6 5 9 6h2h2z" />
    <glyph glyph-name="less" unicode="&#x3c;" horiz-adv-x="694" 
d="M579 550h1c8 0 14 -6 14 -14c0 -4 -4 -12 -8 -14l-441 -247l441 -249c4 -2 7 -8 7 -12c0 -8 -6 -14 -14 -14c-2 0 -5 0 -7 1l-463 261c-4 2 -8 9 -8 13s4 10 8 12l463 261c1 1 5 2 7 2z" />
    <glyph glyph-name="equal" unicode="=" horiz-adv-x="752" 
d="M116 202h521c8 0 14 -6 14 -14s-6 -14 -14 -14h-521c-8 0 -15 6 -15 14s7 14 15 14zM116 376h521c8 0 14 -6 14 -14s-6 -14 -14 -14h-521c-8 0 -15 6 -15 14s7 14 15 14z" />
    <glyph glyph-name="greater" unicode="&#x3e;" horiz-adv-x="694" 
d="M114 550h2c2 0 5 -1 7 -2l463 -261c4 -2 7 -8 7 -12s-3 -11 -7 -13l-463 -261c-2 -1 -5 -1 -7 -1c-8 0 -15 6 -15 14c0 4 4 10 8 12l440 249l-440 247c-4 2 -8 10 -8 14c0 8 5 14 13 14z" />
    <glyph glyph-name="question" unicode="?" horiz-adv-x="520" 
d="M261 52l-9 -9l9 -8l9 8zM261 87h2c3 -1 8 -5 10 -7l26 -26c2 -2 5 -8 5 -11s-3 -8 -5 -10l-28 -29c-2 -2 -7 -4 -10 -4s-8 2 -10 4l-30 29c-2 2 -4 7 -4 10s2 9 4 11l28 26c2 2 5 5 8 6l1 1h3zM202 637h116c2 0 4 -1 6 -2l59 -29c1 -1 2 -1 3 -2l30 -30c1 -1 1 -2 2 -3
l30 -58c1 -2 1 -5 1 -7v-57c0 -2 0 -5 -1 -7l-30 -58c-1 -1 -1 -2 -2 -3l-30 -30c-1 -1 -2 -1 -3 -2l-108 -54v-78c0 -8 -6 -15 -14 -15s-15 7 -15 15v87c0 4 4 11 8 13l113 56l27 26l26 53v51l-26 53l-27 25l-52 26h-109l-53 -26l-25 -25l-27 -53v-26c0 -8 -6 -14 -14 -14
s-14 6 -14 14v29c0 2 0 5 1 7l28 58l4 3l28 30c1 1 4 1 5 2l57 29c2 1 4 2 6 2z" />
    <glyph glyph-name="at" unicode="@" horiz-adv-x="781" 
d="M322 289l-50 -25l-26 -51v-22l26 -50l50 -25h52l81 27l53 52l7 37c-1 1 -4 2 -5 3l-26 27l-81 27h-81zM348 579h86c1 0 4 -1 5 -1l87 -29l2 -1l57 -29c1 -1 4 -1 5 -2l57 -58c1 -1 2 -4 3 -5l29 -57l1 -2l28 -87c0 -1 2 -3 2 -4v-59c0 -1 -2 -3 -2 -4l-28 -87
c-1 -2 -3 -5 -4 -6l-58 -57c-2 -2 -7 -4 -10 -4h-58c-6 0 -11 4 -13 10l-22 64l-42 -41c-1 -1 -3 -2 -5 -3l-87 -30h-5h-58c-2 0 -4 0 -6 1l-58 29c-2 1 -5 4 -6 6l-29 59c-1 2 -2 4 -2 6v29c0 2 1 4 2 6l29 59c1 2 4 5 6 6l58 29c2 1 4 1 6 1h87h5l87 -30c2 -1 5 -2 6 -3
l18 -20l14 66l-26 51l-25 26l-53 25h-80l-53 -25l-27 -27c-2 -2 -7 -5 -10 -5c-8 0 -15 6 -15 14c0 3 3 8 5 10l28 30c1 1 3 1 4 2l58 29c2 1 5 2 7 2h86c2 0 5 -1 7 -2l57 -29c1 -1 4 -1 5 -2l28 -30l3 -3l28 -56c1 -1 2 -3 2 -4v-1v-2v-1v-1v-4l-28 -139l25 -73h41l51 51
l27 82v52l-28 84l-27 55l-54 54l-55 27l-84 29h-82l-84 -29l-55 -27l-55 -54l-27 -55l-28 -84v-82l28 -84l27 -55l55 -54l55 -27l84 -29h82l84 29l55 27l26 28c2 2 8 4 11 4c8 0 15 -7 15 -15c0 -3 -3 -8 -5 -10l-28 -29c-1 -1 -4 -2 -5 -3l-57 -29l-2 -1l-87 -28
c-1 0 -4 -1 -5 -1h-86c-1 0 -4 1 -5 1l-87 28l-2 1l-58 29l-4 3l-58 58c-1 1 -1 3 -2 4l-30 57v2l-29 87v5v87v4l29 87v2l30 57c1 1 1 4 2 5l58 58c1 1 3 1 4 2l58 29l2 1l87 29c1 0 4 1 5 1z" />
    <glyph glyph-name="A" unicode="A" 
d="M232 522l-108 -291h215zM231 579h1h1h1h1c1 0 2 -1 3 -1l1 -2c3 -2 5 -5 6 -8l203 -549c1 -1 1 -4 1 -5c0 -8 -7 -15 -15 -15c-6 0 -12 4 -14 10l-70 193h-2h-232h-3l-70 -193c-2 -6 -8 -10 -14 -10c-8 0 -15 7 -15 15c0 1 0 4 1 5l203 549c1 3 5 8 8 10h1l1 1h1h2z" />
    <glyph glyph-name="B" unicode="B" horiz-adv-x="548" 
d="M130 289v-260h215l82 27l24 24l26 53v52l-26 53l-24 24l-82 27h-215zM130 550v-232h215l79 26l25 50v52l-27 51l-25 25l-81 28h-186zM116 579h2h200c1 0 4 -1 5 -1l87 -29c2 -1 5 -2 6 -3l28 -29l4 -4l28 -59c1 -2 1 -3 1 -5v-59c0 -2 0 -4 -1 -6l-28 -57
c-1 -3 -6 -7 -9 -8l-46 -15l46 -16c2 -1 4 -2 5 -3l29 -29c1 -1 2 -3 3 -4l29 -57c1 -2 2 -5 2 -7v-58c0 -2 -1 -5 -2 -7l-29 -57c-1 -1 -2 -3 -3 -4l-29 -29c-1 -1 -3 -2 -5 -3l-87 -30h-4h-230h-2c-3 0 -7 0 -9 2v1h-1l-2 1c-2 2 -3 7 -3 10v2v285v3v2v256v2c0 3 1 7 3 9
l2 1v1h1c2 2 6 4 9 4z" />
    <glyph glyph-name="C" unicode="C" horiz-adv-x="548" 
d="M261 579h87c2 0 4 0 6 -1l57 -30c1 -1 4 -1 5 -2l28 -29l4 -4l28 -59c1 -2 1 -4 1 -6c0 -8 -6 -15 -14 -15c-6 0 -11 5 -13 9l-28 55l-25 27l-53 26h-80l-53 -26l-55 -55l-27 -55l-28 -84v-81l28 -84l27 -55l55 -55l53 -26h80l53 26l25 25l28 56c2 4 7 9 13 9
c8 0 14 -6 14 -14c0 -2 0 -6 -1 -8l-28 -57l-4 -4l-28 -29c-1 -1 -4 -2 -5 -3l-57 -29c-2 -1 -4 -1 -6 -1h-87c-2 0 -5 0 -7 1l-58 29l-4 3l-58 58c-1 1 -1 3 -2 4l-30 58v1l-29 87v4v87v6l29 86v2l30 58c1 1 1 2 2 3l58 59c1 1 3 1 4 2l58 30c2 1 5 1 7 1z" />
    <glyph glyph-name="D" unicode="D" horiz-adv-x="578" 
d="M130 550v-521h157l81 27l54 54l28 55l27 84v81l-27 84l-28 55l-54 53l-81 28h-157zM116 579h2h171c1 0 4 -1 5 -1l87 -29c2 -1 4 -2 5 -3l58 -59l4 -3l28 -58l1 -2l29 -86c0 -1 1 -5 1 -6v-87c0 -1 -1 -3 -1 -4l-29 -87l-1 -1l-28 -58l-4 -4l-58 -58c-1 -1 -3 -2 -5 -3
l-87 -30h-5h-171h-2c-3 0 -7 0 -9 2v1h-1l-2 1c-2 2 -3 7 -3 10v2v546v2c0 3 1 7 3 9l2 1v1h1c2 2 6 4 9 4z" />
    <glyph glyph-name="E" unicode="E" horiz-adv-x="520" 
d="M116 579h2h287h1c8 0 14 -7 14 -15s-6 -14 -14 -14h-1h-275v-232h218c8 0 14 -6 14 -14s-6 -15 -14 -15h-218v-260h304c8 0 15 -7 15 -15s-7 -14 -15 -14h-316h-2c-3 0 -7 0 -9 2v1h-1l-2 1c-2 2 -3 7 -3 10v2v285v3v2v256v2c0 3 1 7 3 9l2 1v1h1c2 2 6 4 9 4z" />
    <glyph glyph-name="F" unicode="F" 
d="M116 579h2h287h1c8 0 14 -7 14 -15s-6 -14 -14 -14h-1h-275v-232h218c8 0 14 -6 14 -14s-6 -15 -14 -15h-218v-275c0 -8 -6 -14 -14 -14s-15 6 -15 14v287v3v2v256v2c0 3 1 7 3 9l2 1v1h1c2 2 6 4 9 4z" />
    <glyph glyph-name="G" unicode="G" horiz-adv-x="635" 
d="M261 579h115c2 0 5 0 7 -1l58 -30c1 -1 2 -1 3 -2l59 -59c1 -1 1 -2 2 -3l29 -58c1 -2 2 -5 2 -7c0 -8 -7 -14 -15 -14c-6 0 -11 3 -13 7l-27 57l-55 55l-53 26h-109l-53 -26l-55 -55l-27 -55l-28 -84v-81l28 -84l27 -55l55 -55l53 -26h109l53 26l55 55l26 53v68h-131
c-8 0 -14 6 -14 14s6 16 14 16h143h2c3 0 7 -2 9 -4l1 -1l1 -1c2 -2 4 -7 4 -10v-2v-85c0 -2 -1 -3 -2 -5l-29 -58c-1 -1 -1 -3 -2 -4l-59 -58l-3 -3l-58 -29c-2 -1 -5 -1 -7 -1h-115c-2 0 -5 0 -7 1l-58 29l-4 3l-58 58c-1 1 -1 3 -2 4l-30 58v1l-29 87v4v87v6l29 86v2
l30 58c1 1 1 2 2 3l58 59c1 1 3 1 4 2l58 30c2 1 5 1 7 1z" />
    <glyph glyph-name="H" unicode="H" horiz-adv-x="635" 
d="M116 579c8 0 14 -7 14 -15v-246h347v246c0 8 7 15 15 15s15 -7 15 -15v-258v-2v-3v-287c0 -8 -7 -14 -15 -14s-15 6 -15 14v275h-347v-275c0 -8 -6 -14 -14 -14s-15 6 -15 14v287v3v2v258c0 8 7 15 15 15z" />
    <glyph glyph-name="I" unicode="I" horiz-adv-x="231" 
d="M116 579c8 0 14 -7 14 -15v-550c0 -8 -6 -14 -14 -14s-15 6 -15 14v550c0 8 7 15 15 15z" />
    <glyph glyph-name="J" unicode="J" 
d="M348 579c8 0 14 -7 14 -15v-406c0 -1 -1 -3 -1 -4l-29 -87c-1 -2 -2 -4 -3 -5l-30 -29l-3 -3l-58 -29c-2 -1 -4 -1 -6 -1h-58c-2 0 -5 0 -7 1l-58 29l-3 3l-29 29c-1 1 -2 3 -3 4l-29 57c-1 2 -2 5 -2 7v58c0 8 7 14 15 14s15 -6 15 -14v-55l26 -53l25 -25l53 -26h51
l52 26l26 25l27 82v402c0 8 7 15 15 15z" />
    <glyph glyph-name="K" unicode="K" horiz-adv-x="520" 
d="M116 579c8 0 14 -7 14 -15v-312l119 118c1 1 2 3 3 4l201 200c2 2 7 5 10 5c8 0 14 -7 14 -15c0 -3 -2 -8 -4 -10l-194 -194l225 -338c1 -2 3 -6 3 -8c0 -8 -7 -14 -15 -14c-4 0 -10 4 -12 7l-222 332l-128 -128v-197c0 -8 -6 -14 -14 -14s-15 6 -15 14v200v3v2v345
c0 8 7 15 15 15z" />
    <glyph glyph-name="L" unicode="L" horiz-adv-x="433" 
d="M87 579c8 0 14 -7 14 -15v-535h275c8 0 14 -7 14 -15s-6 -14 -14 -14h-287h-2c-3 0 -7 0 -9 2v1h-1l-1 1c-2 2 -3 7 -3 10v2v548c0 8 6 15 14 15z" />
    <glyph glyph-name="M" unicode="M" horiz-adv-x="635" 
d="M116 579h2h1h1v-1h2l1 -2h1l1 -1l4 -4c0 -1 1 -2 1 -3l188 -512l189 512c0 1 1 4 2 5c0 1 2 1 3 2c1 0 1 1 2 1v2h1h1l1 1h2h1h1h1h2h1l1 -1h1h1v-2h1l1 -1h1v-1c1 -1 3 -3 4 -5l1 -1v-4v-1v-549c0 -8 -7 -14 -15 -14s-14 6 -14 14v469l-175 -472c-1 -3 -5 -8 -8 -10
l-1 -1h-1h-1h-3h-1h-1h-1c-1 0 -2 1 -3 1h-1c-3 2 -5 7 -6 10l-175 472v-469c0 -8 -6 -14 -14 -14s-15 6 -15 14v549v1v1c0 2 2 6 3 8c0 1 2 2 3 2v1h1l1 2h1h1l1 1h1h1h2z" />
    <glyph glyph-name="N" unicode="N" horiz-adv-x="607" 
d="M116 579h3h1c3 -1 8 -5 9 -8l348 -511v504c0 8 7 15 15 15s15 -7 15 -15v-549v-1c0 -3 -3 -9 -5 -11l-2 -1c-1 0 -1 -1 -2 -1l-1 -1h-1h-1h-3h-2h-2c-3 1 -7 5 -8 8l-350 509v-503c0 -8 -6 -14 -14 -14s-15 6 -15 14v549v1c0 3 4 9 6 11l1 1c1 0 1 2 2 2l1 1h1h4z" />
    <glyph glyph-name="O" unicode="O" horiz-adv-x="607" 
d="M264 550l-53 -26l-55 -55l-27 -55l-28 -84v-81l28 -84l27 -55l55 -55l53 -26h80l53 26l54 55l27 55l29 84v81l-29 84l-27 55l-54 55l-53 26h-80zM261 579h2h85c2 0 4 0 6 -1l57 -30c1 -1 4 -1 5 -2l57 -59l3 -3l29 -58l1 -2l29 -86c0 -1 1 -5 1 -6v-87c0 -1 -1 -3 -1 -4
l-29 -87l-1 -1l-29 -58l-3 -4l-57 -58c-1 -1 -4 -2 -5 -3l-57 -29c-2 -1 -4 -1 -6 -1h-87c-2 0 -5 0 -7 1l-58 29l-4 3l-58 58c-1 1 -1 3 -2 4l-30 58v1l-29 87v4v87v6l29 86v2l30 58c1 1 1 2 2 3l58 59c1 1 3 1 4 2l56 28h1c1 1 2 3 3 3h1h4z" />
    <glyph glyph-name="P" unicode="P" horiz-adv-x="520" 
d="M130 550v-289h186l81 26l25 25l27 53v81l-27 51l-25 25l-81 28h-186zM116 579h2h200c1 0 4 -1 5 -1l87 -29c2 -1 5 -2 6 -3l28 -29l4 -4l28 -59c1 -2 1 -3 1 -5v-87c0 -2 0 -5 -1 -7l-28 -58l-4 -3l-28 -30c-1 -1 -4 -2 -6 -3l-87 -29c-1 0 -4 -1 -5 -1h-188v-217
c0 -8 -6 -14 -14 -14s-15 6 -15 14v229v2v4v313v2c0 3 1 7 3 9l2 1v1h1c2 2 6 4 9 4z" />
    <glyph glyph-name="Q" unicode="Q" horiz-adv-x="607" 
d="M264 550l-53 -26l-55 -55l-27 -55l-28 -84v-81l28 -84l27 -55l55 -55l53 -26h80l37 18l-73 73c-2 2 -4 7 -4 10c0 8 6 14 14 14c3 0 9 -2 11 -4l76 -76l46 46l27 55l29 84v81l-29 84l-27 55l-54 55l-53 26h-80zM261 579h2h85c2 0 4 0 6 -1l57 -30c1 -1 4 -1 5 -2l57 -59
l3 -3l29 -58l1 -2l29 -86c0 -1 1 -5 1 -6v-87c0 -1 -1 -3 -1 -4l-29 -87l-1 -1l-29 -58l-3 -4l-47 -48l77 -76c2 -2 4 -8 4 -11c0 -8 -6 -14 -14 -14c-3 0 -9 2 -11 4l-79 79l-49 -24c-2 -1 -4 -1 -6 -1h-87c-2 0 -5 0 -7 1l-58 29l-4 3l-58 58c-1 1 -1 3 -2 4l-30 58v1
l-29 87v4v87v6l29 86v2l30 58c1 1 1 2 2 3l58 59c1 1 3 1 4 2l56 28h1c1 1 2 3 3 3h1h4z" />
    <glyph glyph-name="R" unicode="R" horiz-adv-x="520" 
d="M130 550v-289h128h3h1h54l81 26l25 25l27 53v81l-27 51l-25 25l-81 28h-186zM116 579h2h200c1 0 4 -1 5 -1l87 -29c2 -1 5 -2 6 -3l28 -29l4 -4l28 -59c1 -2 1 -3 1 -5v-87c0 -2 0 -5 -1 -7l-28 -58l-4 -3l-28 -30c-1 -1 -4 -2 -6 -3l-87 -29c-1 0 -4 -1 -5 -1h-25
l181 -207c2 -2 3 -7 3 -10c0 -8 -6 -14 -14 -14c-3 0 -9 2 -11 4l-198 227h-124v-217c0 -8 -6 -14 -14 -14s-15 6 -15 14v229v2v4v313v2c0 3 1 7 3 9l2 1v1h1c2 2 6 4 9 4z" />
    <glyph glyph-name="S" unicode="S" horiz-adv-x="578" 
d="M232 579h116c1 0 3 -1 4 -1l87 -29c2 -1 4 -2 5 -3l29 -29c2 -2 4 -8 4 -11c0 -8 -6 -14 -14 -14c-3 0 -8 2 -10 4l-26 26l-82 28h-110l-52 -26l-27 -27l-26 -51v-24l26 -52l26 -25l81 -27h85h4l87 -30c2 -1 4 -2 5 -3l29 -29c1 -1 2 -3 3 -4l29 -57c1 -2 2 -5 2 -7v-58
c0 -2 -1 -5 -2 -7l-29 -57c-1 -1 -2 -3 -3 -4l-29 -29c-1 -1 -3 -2 -5 -3l-87 -30h-4h-116c-2 0 -4 0 -6 1l-59 29l-3 3l-58 58c-2 2 -5 7 -5 10c0 8 7 15 15 15c3 0 8 -3 10 -5l57 -56l52 -26h110l82 27l24 24l26 53v52l-26 53l-24 24l-82 27h-84c-1 0 -4 1 -5 1l-87 29
c-2 1 -4 2 -5 3l-30 29c-1 1 -1 3 -2 4l-30 57c-1 2 -1 5 -1 7v30c0 2 0 3 1 5l30 59c1 1 1 3 2 4l30 29c1 1 2 1 3 2l59 30c2 1 4 1 6 1z" />
    <glyph glyph-name="T" unicode="T" 
d="M231 579h3h200c8 0 15 -7 15 -15s-7 -14 -15 -14h-188v-536c0 -8 -6 -14 -14 -14s-15 6 -15 14v536h-188c-8 0 -15 6 -15 14s7 15 15 15h200h2z" />
    <glyph glyph-name="U" unicode="U" horiz-adv-x="635" 
d="M116 579c8 0 14 -7 14 -15v-374l27 -81l53 -53l82 -27h53l82 27l53 53l27 81v374c0 8 6 15 14 15s15 -7 15 -15v-376c0 -1 -1 -3 -1 -4l-29 -87c-1 -2 -2 -5 -3 -6l-59 -58c-1 -1 -3 -2 -5 -3l-87 -30h-4h-59h-4l-87 30c-2 1 -5 2 -6 3l-58 58c-1 1 -2 4 -3 6l-29 87
c0 1 -1 3 -1 4v376c0 8 7 15 15 15z" />
    <glyph glyph-name="V" unicode="V" 
d="M433 579h1c8 0 15 -7 15 -15c0 -1 0 -4 -1 -5l-203 -548c-1 -3 -4 -8 -7 -10l-2 -1h-1h-1h-2h-1h-1h-1h-1c-1 0 -1 1 -2 1h-2c-3 2 -5 7 -6 10l-203 548c0 1 -1 4 -1 5c0 8 6 15 14 15h1c6 0 12 -4 14 -10l189 -513l188 513c2 6 7 10 13 10z" />
    <glyph glyph-name="W" unicode="W" horiz-adv-x="694" 
d="M58 579c7 0 13 -5 14 -11l130 -496l131 494c1 3 4 8 7 10l1 2h1l1 1h3h2h1h2c1 0 2 -2 3 -3s3 -1 4 -2c1 -2 4 -6 4 -8l130 -494l131 496c1 6 7 11 14 11c8 0 14 -7 14 -15v-3l-145 -549c-1 -3 -4 -8 -7 -10l-1 -1l-1 -1h-1h-3h-1h-1h-3c-1 0 -2 0 -3 1l-3 3
c-1 2 -5 6 -5 8l-129 495l-131 -495c-1 -3 -4 -8 -7 -10l-1 -1l-1 -1h-1h-3h-2h-1h-2c-1 0 -2 0 -3 1l-4 3c-1 2 -4 6 -4 8l-144 549c0 1 -1 2 -1 3c0 8 6 15 14 15h1z" />
    <glyph glyph-name="X" unicode="X" horiz-adv-x="578" 
d="M86 579h1c4 0 10 -3 12 -6l190 -259l192 259c2 3 7 6 11 6c8 0 15 -7 15 -15c0 -2 -2 -6 -3 -8l-196 -267l196 -266c1 -2 3 -7 3 -9c0 -8 -7 -14 -15 -14c-4 0 -9 3 -11 6l-192 259l-190 -259c-2 -3 -8 -6 -12 -6c-8 0 -14 6 -14 14c0 2 1 7 2 9l197 266l-197 267
c-1 2 -2 6 -2 8c0 8 5 15 13 15z" />
    <glyph glyph-name="Y" unicode="Y" horiz-adv-x="404" 
d="M29 579c4 0 11 -4 13 -8l160 -295l162 295c2 4 8 8 12 8c8 0 14 -7 14 -15c0 -2 0 -4 -1 -6l-172 -316v-228c0 -8 -7 -14 -15 -14s-14 6 -14 14v228l-172 316c-1 2 -2 4 -2 6c0 8 7 15 15 15z" />
    <glyph glyph-name="Z" unicode="Z" horiz-adv-x="578" 
d="M493 579c2 0 7 -2 9 -4c1 0 1 0 1 -1l1 -1l1 -1v-1l1 -1v-1c0 -1 1 -4 1 -5c0 -3 -2 -8 -4 -10l-387 -525h376h1c8 0 14 -7 14 -15s-6 -14 -14 -14h-1h-403h-2c-3 0 -7 0 -9 2c-1 0 -2 1 -2 2l-1 2l-1 1v1v1h-1v1v4c0 3 1 8 3 10l387 526h-376c-8 0 -14 6 -14 14
s6 15 14 15h404h2z" />
    <glyph glyph-name="bracketleft" unicode="[" horiz-adv-x="404" 
d="M116 752h2h200h1c8 0 14 -6 14 -14s-6 -14 -14 -14h-1h-188v-898h188h1c8 0 14 -6 14 -14s-6 -14 -14 -14h-1h-200c-1 0 -1 -2 -2 -2c-3 0 -7 2 -9 4l-1 1l-2 1c-2 2 -3 7 -3 10v2v922v2c0 3 1 7 3 9l2 1v1h1c2 2 6 3 9 3z" />
    <glyph glyph-name="backslash" unicode="\" horiz-adv-x="404" 
d="M-1 637h1c4 0 10 -4 12 -8l406 -694c1 -2 2 -6 2 -8c0 -8 -6 -15 -14 -15c-4 0 -11 4 -13 8l-405 695c-1 2 -2 6 -2 8c0 8 5 14 13 14z" />
    <glyph glyph-name="bracketright" unicode="]" horiz-adv-x="404" 
d="M289 752c3 0 7 -1 9 -3l1 -1l1 -1c2 -2 4 -6 4 -9v-2v-922v-2c0 -3 -1 -8 -3 -10l-1 -1h-1c-2 -2 -7 -5 -10 -5c-1 0 -1 2 -2 2h-200c-8 0 -14 6 -14 14s6 14 14 14h188v898h-188c-8 0 -14 6 -14 14s6 14 14 14h200h2z" />
    <glyph glyph-name="asciicircum" unicode="^" 
d="M231 521h1c1 0 1 -1 2 -1c3 -1 7 -3 9 -5h1l172 -172c2 -2 4 -8 4 -11c0 -8 -6 -14 -14 -14c-3 0 -9 2 -11 4l-163 164l-164 -164c-2 -2 -8 -4 -11 -4c-8 0 -14 6 -14 14c0 3 2 9 4 11l173 172c2 2 6 4 9 5h1z" />
    <glyph glyph-name="underscore" unicode="_" horiz-adv-x="578" 
d="M0 -145h579c8 0 15 -7 15 -15s-7 -14 -15 -14h-579c-8 0 -14 6 -14 14s6 15 14 15z" />
    <glyph glyph-name="grave" unicode="`" horiz-adv-x="346" 
d="M87 607c3 0 7 -1 9 -3l174 -144c3 -2 5 -8 5 -11c0 -8 -6 -16 -14 -16c-3 0 -8 3 -10 5l-173 144c-3 2 -5 8 -5 11c0 8 6 14 14 14z" />
    <glyph glyph-name="a" unicode="a" horiz-adv-x="491" 
d="M177 231l-51 -25l-25 -51v-22l27 -53l25 -25l53 -26h52l82 27l50 51v72l-48 25l-84 27h-81zM202 433h87c2 0 5 0 7 -1l58 -28l4 -4l28 -28l3 -4l28 -56l1 -1c1 -1 1 -2 1 -3v-1v-1c0 -1 1 -1 1 -2v-3v-111v-2v-2v-83v-2v-2v-85c0 -8 -7 -14 -15 -14s-15 6 -15 14v52
l-32 -33c-1 -1 -4 -2 -6 -3l-87 -30h-4h-59c-2 0 -4 0 -6 1l-57 29c-1 1 -4 2 -5 3l-28 29l-4 4l-28 57c-1 2 -1 5 -1 7v28c0 2 0 5 1 7l28 58c1 2 5 6 7 7l58 28c2 1 5 3 7 3h87c1 0 3 -1 4 -1l87 -29l2 -1l36 -19v89l-26 53l-25 25l-53 27h-80l-53 -27l-27 -27
c-2 -2 -7 -5 -10 -5c-8 0 -15 8 -15 16c0 3 3 8 5 10l28 28c1 1 4 3 5 4l57 28c2 1 4 1 6 1z" />
    <glyph glyph-name="b" unicode="b" horiz-adv-x="548" 
d="M264 405l-53 -27l-26 -26l-55 -81v-80l56 -111l25 -25l53 -26h51l52 26l54 54l28 81v53l-28 81l-54 54l-52 27h-51zM116 666c8 0 14 -7 14 -15v-329l32 48c0 1 1 1 2 2l28 28l4 4l58 28c2 1 5 1 7 1h57c2 0 4 0 6 -1l59 -28l3 -4l58 -57c1 -1 3 -3 4 -5l29 -87v-6v-57v-4
l-29 -87c-1 -2 -3 -5 -4 -6l-58 -58l-3 -3l-59 -29c-2 -1 -4 -1 -6 -1h-57c-2 0 -5 0 -7 1l-58 29l-4 3l-28 29c-1 1 -2 3 -3 4l-31 60v-112c0 -8 -6 -14 -14 -14s-15 6 -15 14v173v1v1v84v2v1v375c0 8 7 15 15 15z" />
    <glyph glyph-name="c" unicode="c" 
d="M232 433h57c2 0 5 0 7 -1l58 -28l4 -4l28 -28c2 -2 4 -7 4 -10c0 -8 -6 -16 -14 -16c-3 0 -8 3 -10 5l-27 27l-53 27h-51l-52 -27l-54 -54l-28 -81v-53l28 -81l54 -54l52 -26h51l53 26l27 27c2 2 7 5 10 5c8 0 14 -6 14 -14c0 -3 -2 -9 -4 -11l-28 -29l-4 -3l-58 -29
c-2 -1 -5 -1 -7 -1h-57c-2 0 -4 0 -6 1l-59 29l-3 3l-58 58c-1 1 -3 4 -4 6l-29 87v4v57v6l29 87c1 2 3 4 4 5l58 57l3 4l59 28c2 1 4 1 6 1z" />
    <glyph glyph-name="d" unicode="d" horiz-adv-x="548" 
d="M235 405l-52 -27l-54 -54l-28 -81v-53l28 -81l54 -54l52 -26h51l53 26l25 25l56 111v80l-55 81l-26 26l-53 27h-51zM434 666c8 0 15 -7 15 -15v-375v-1v-2v-83v-2v-1v-173c0 -8 -7 -14 -15 -14s-14 6 -14 14v112l-31 -60c-1 -1 -2 -3 -3 -4l-28 -29l-4 -3l-58 -29
c-2 -1 -5 -1 -7 -1h-57c-2 0 -4 0 -6 1l-59 29l-3 3l-58 58c-1 1 -3 4 -4 6l-29 87v4v57v6l29 87c1 2 3 4 4 5l58 57l3 4l59 28c2 1 4 1 6 1h57c2 0 5 0 7 -1l58 -28l4 -4l28 -28c1 -1 2 -1 2 -2l32 -48v329c0 8 6 15 14 15z" />
    <glyph glyph-name="e" unicode="e" horiz-adv-x="491" 
d="M235 405l-52 -27l-54 -54l-28 -81v-12h289v44v25l-26 53l-25 25l-53 27h-51zM232 433h57c2 0 5 0 7 -1l58 -28l4 -4l28 -28l3 -4l29 -58c1 -2 2 -4 2 -6v-29v-58c0 -8 -7 -15 -15 -15h-304v-12l28 -81l54 -54l52 -26h51l53 26l27 27c2 2 7 5 10 5c8 0 14 -6 14 -14
c0 -3 -2 -9 -4 -11l-28 -29l-4 -3l-58 -29c-2 -1 -5 -1 -7 -1h-57c-2 0 -4 0 -6 1l-59 29l-3 3l-58 58c-1 1 -3 4 -4 6l-29 87v4v26v3v2v26v6l29 87c1 2 3 4 4 5l58 57l3 4l59 28c2 1 4 1 6 1z" />
    <glyph glyph-name="f" unicode="f" horiz-adv-x="259" 
d="M174 666h58c3 0 8 -3 10 -5l29 -29c2 -2 4 -7 4 -10c0 -8 -6 -15 -14 -15c-3 0 -8 3 -10 5l-25 25h-49l-49 -25l-27 -80v-99h73c8 0 14 -6 14 -14s-6 -14 -14 -14h-73v-391c0 -8 -6 -14 -14 -14s-14 6 -14 14v391h-44c-8 0 -15 6 -15 14s7 14 15 14h44v103v4l29 87
c1 3 4 7 7 8l58 29c2 1 5 2 7 2z" />
    <glyph glyph-name="g" unicode="g" horiz-adv-x="548" 
d="M235 405l-52 -27l-54 -54l-28 -81v-53l28 -81l54 -54l52 -26h51l53 26l26 26l55 82v108l-55 81l-26 26l-53 27h-51zM434 434c8 0 15 -6 15 -14v-1v-143v-1v-2v-112v-1v-3v-230c0 -1 -1 -3 -1 -4l-29 -87c-1 -2 -2 -4 -3 -5l-30 -30c-1 -1 -3 -2 -5 -3l-87 -29
c-1 0 -4 -1 -5 -1h-57c-2 0 -4 1 -6 2l-59 29c-4 2 -9 7 -9 13c0 8 7 14 15 14c2 0 5 -1 7 -2l55 -26h52l81 26l25 24l27 82v181l-32 -47c0 -1 -1 -1 -2 -2l-28 -29l-4 -3l-58 -29c-2 -1 -5 -1 -7 -1h-57c-2 0 -4 0 -6 1l-59 29l-3 3l-58 58c-1 1 -3 4 -4 6l-29 87v4v57v6
l29 87c1 2 3 4 4 5l58 57l3 4l59 28c2 1 4 1 6 1h57c2 0 5 0 7 -1l58 -28l4 -4l28 -28c1 -1 2 -1 2 -2l32 -48v97v1c0 8 6 14 14 14z" />
    <glyph glyph-name="h" unicode="h" horiz-adv-x="520" 
d="M116 666c8 0 14 -7 14 -15v-329l32 48c0 1 1 1 2 2l28 28l4 4l58 28c2 1 5 1 7 1h57c2 0 4 0 6 -1l59 -28l3 -4l30 -28c1 -1 2 -4 3 -6l29 -87c0 -1 1 -3 1 -4v-261c0 -8 -7 -14 -15 -14s-14 6 -14 14v259l-27 81l-26 24l-52 27h-51l-53 -27l-26 -26l-55 -81v-257
c0 -8 -6 -14 -14 -14s-15 6 -15 14v259v2v1v375c0 8 7 15 15 15z" />
    <glyph glyph-name="i" unicode="i" horiz-adv-x="172" 
d="M87 434c8 0 14 -6 14 -14v-1v-405c0 -8 -6 -14 -14 -14s-14 6 -14 14v405v1c0 8 6 14 14 14zM87 630l-9 -7l9 -9l9 9zM87 666c3 0 8 -3 10 -5l29 -29c2 -2 4 -6 4 -9s-2 -9 -4 -11l-29 -29c-2 -2 -7 -4 -10 -4s-8 2 -10 4l-27 27c-2 2 -5 6 -6 9l-1 1v3c0 1 1 1 1 2
c1 3 4 7 6 9v1l27 26c2 2 7 5 10 5z" />
    <glyph glyph-name="j" unicode="j" horiz-adv-x="259" 
d="M174 434c8 0 14 -6 14 -14v-1v-520c0 -1 -1 -5 -1 -6l-29 -85c-1 -3 -4 -8 -7 -9l-57 -29c-2 -1 -5 -2 -7 -2h-58c-3 0 -8 2 -10 4l-29 29c-2 2 -4 8 -4 11c0 8 6 14 14 14c3 0 8 -2 10 -4l25 -24h49l49 24l27 79v518v1c0 8 6 14 14 14zM174 630l-9 -7l9 -9l9 9zM174 666
c3 0 8 -3 10 -5l29 -29c2 -2 4 -6 4 -9s-2 -9 -4 -11l-29 -29c-2 -2 -7 -4 -10 -4s-8 2 -10 4l-28 27c-2 2 -4 6 -5 9l-1 1v3c0 1 1 1 1 2c1 3 3 7 5 9v1l28 26c2 2 7 5 10 5z" />
    <glyph glyph-name="k" unicode="k" horiz-adv-x="433" 
d="M87 666c8 0 14 -7 14 -15v-486l89 89l4 3l143 143c2 2 8 5 11 5c8 0 14 -7 14 -15c0 -3 -2 -7 -4 -9l-136 -137l166 -221c1 -2 2 -7 2 -9c0 -8 -6 -14 -14 -14c-4 0 -9 3 -11 6l-164 217l-100 -99v-110c0 -8 -6 -14 -14 -14s-14 6 -14 14v114v2v2v519c0 8 6 15 14 15z
" />
    <glyph glyph-name="l" unicode="l" horiz-adv-x="231" 
d="M116 666c8 0 14 -7 14 -15v-637c0 -8 -6 -14 -14 -14s-15 6 -15 14v637c0 8 7 15 15 15z" />
    <glyph glyph-name="m" unicode="m" horiz-adv-x="839" 
d="M116 434c8 0 14 -6 14 -14v-1v-97l32 48c0 1 1 1 2 2l28 28l4 4l58 28c2 1 5 1 7 1h57c2 0 4 0 6 -1l59 -28l3 -4l30 -28c1 -1 2 -4 3 -6l20 -59l41 63c0 1 1 1 2 2l28 28c1 1 4 3 5 4l57 28c2 1 5 1 7 1h58c2 0 5 0 7 -1l57 -28l4 -4l29 -28c1 -1 2 -4 3 -6l30 -87v-4
v-261c0 -8 -7 -14 -15 -14s-14 6 -14 14v259l-27 81l-25 24l-52 27h-52l-53 -27l-25 -26l-55 -81v-257c0 -8 -7 -14 -15 -14s-14 6 -14 14v259l-27 81l-26 24l-52 27h-51l-53 -27l-26 -26l-55 -81v-257c0 -8 -6 -14 -14 -14s-15 6 -15 14v259v2v1v143v1c0 8 7 14 15 14z" />
    <glyph glyph-name="n" unicode="n" horiz-adv-x="520" 
d="M116 434c8 0 14 -6 14 -14v-1v-97l32 48c0 1 1 1 2 2l28 28l4 4l58 28c2 1 5 1 7 1h57c2 0 4 0 6 -1l59 -28l3 -4l30 -28c1 -1 2 -4 3 -6l29 -87c0 -1 1 -3 1 -4v-261c0 -8 -7 -14 -15 -14s-14 6 -14 14v259l-27 81l-26 24l-52 27h-51l-53 -27l-26 -26l-55 -81v-257
c0 -8 -6 -14 -14 -14s-15 6 -15 14v259v2v1v143v1c0 8 7 14 15 14z" />
    <glyph glyph-name="o" unicode="o" horiz-adv-x="520" 
d="M235 405l-52 -27l-54 -54l-28 -81v-53l28 -81l54 -54l52 -26h51l53 26l54 54l27 81v53l-27 81l-54 54l-53 27h-51zM232 434l1 -1h56c2 0 5 0 7 -1l58 -28l4 -4l58 -57c1 -1 2 -3 3 -5l29 -87c0 -1 1 -5 1 -6v-57c0 -1 -1 -3 -1 -4l-29 -87c-1 -2 -2 -5 -3 -6l-58 -58
l-4 -3l-58 -29c-2 -1 -5 -1 -7 -1h-57c-2 0 -4 0 -6 1l-59 29l-3 3l-58 58c-1 1 -3 4 -4 6l-29 87v4v57v6l29 87c1 2 3 4 4 5l58 57l3 4l56 27c1 1 4 2 5 2h1c1 0 2 1 3 1z" />
    <glyph glyph-name="p" unicode="p" horiz-adv-x="548" 
d="M264 405l-53 -27l-26 -26l-55 -81v-108l55 -82l26 -26l53 -26h51l52 26l54 54l28 81v53l-28 81l-54 54l-52 27h-51zM116 434c8 0 14 -6 14 -14v-1v-97l32 48c0 1 1 1 2 2l28 28l4 4l58 28c2 1 5 1 7 1h57c2 0 4 0 6 -1l59 -28l3 -4l58 -57c1 -1 3 -3 4 -5l29 -87v-6v-57
v-4l-29 -87c-1 -2 -3 -5 -4 -6l-58 -58l-3 -3l-59 -29c-2 -1 -4 -1 -6 -1h-57c-2 0 -5 0 -7 1l-58 29l-4 3l-28 29c-1 1 -2 1 -2 2l-32 47v-329c0 -8 -6 -14 -14 -14s-15 6 -15 14v375v1v3v112v2v1v143v1c0 8 7 14 15 14z" />
    <glyph glyph-name="q" unicode="q" horiz-adv-x="548" 
d="M235 405l-52 -27l-54 -54l-28 -81v-53l28 -81l54 -54l52 -26h51l53 26l26 26l55 82v108l-55 81l-26 26l-53 27h-51zM434 434c8 0 15 -6 15 -14v-1v-143v-1v-2v-112v-1v-3v-375c0 -8 -7 -14 -15 -14s-14 6 -14 14v329l-32 -47c0 -1 -1 -1 -2 -2l-28 -29l-4 -3l-58 -29
c-2 -1 -5 -1 -7 -1h-57c-2 0 -4 0 -6 1l-59 29l-3 3l-58 58c-1 1 -3 4 -4 6l-29 87v4v57v6l29 87c1 2 3 4 4 5l58 57l3 4l59 28c2 1 4 1 6 1h57c2 0 5 0 7 -1l58 -28l4 -4l28 -28c1 -1 2 -1 2 -2l32 -48v97v1c0 8 6 14 14 14z" />
    <glyph glyph-name="r" unicode="r" horiz-adv-x="317" 
d="M87 434c8 0 14 -6 14 -14v-1v-83l31 61c1 2 5 6 7 7l57 28c2 1 4 1 6 1h59c3 0 8 -1 10 -3l28 -30c2 -2 5 -7 5 -10c0 -8 -7 -14 -15 -14c-3 0 -8 3 -10 5l-25 24h-48l-51 -25l-54 -108v-258c0 -8 -6 -14 -14 -14s-14 6 -14 14v259v2v1v143v1c0 8 6 14 14 14z" />
    <glyph glyph-name="s" unicode="s" 
d="M174 433h87c2 0 4 0 6 -1l57 -28c1 -1 4 -3 5 -4l29 -28c2 -2 4 -7 4 -10c0 -8 -6 -16 -14 -16c-3 0 -9 3 -11 5l-27 27l-53 27h-80l-51 -25l-25 -51v-22l25 -50l79 -26h27h29h4l87 -30c3 -1 8 -3 9 -6l28 -59c1 -2 1 -4 1 -6v-29c0 -2 0 -4 -1 -6l-28 -59
c-1 -2 -5 -5 -7 -6l-58 -29c-2 -1 -5 -1 -7 -1h-115c-2 0 -5 0 -7 1l-58 29l-3 3l-29 29c-2 2 -4 8 -4 11c0 8 6 14 14 14c3 0 8 -3 10 -5l27 -27l53 -26h109l51 25l25 50v22l-25 50l-79 26h-26h-30c-1 0 -3 2 -4 2l-87 28c-3 1 -8 5 -9 8l-28 57c-1 2 -1 5 -1 7v28
c0 2 0 5 1 7l28 58c1 2 5 6 7 7l58 28c2 1 5 1 7 1z" />
    <glyph glyph-name="t" unicode="t" horiz-adv-x="346" 
d="M116 579c8 0 14 -7 14 -15v-131h72c8 0 16 -6 16 -14s-8 -14 -16 -14h-72v-273l26 -78l50 -25h48l25 25c2 2 7 4 10 4c8 0 15 -7 15 -15c0 -3 -3 -8 -5 -10l-28 -29c-2 -2 -7 -4 -10 -4h-59c-2 0 -4 0 -6 1l-57 29c-3 1 -7 5 -8 8l-29 87c0 1 -1 4 -1 5v275h-43h-1
c-8 0 -14 6 -14 14s6 14 14 14h1h43v131c0 8 7 15 15 15z" />
    <glyph glyph-name="u" unicode="u" horiz-adv-x="491" 
d="M87 434c8 0 14 -6 14 -14v-1v-257l28 -82l24 -25l53 -26h51l53 26l27 26l53 82v256c0 8 7 15 15 15s15 -7 15 -15v-258v-1v-3v-143c0 -8 -7 -14 -15 -14s-15 6 -15 14v97l-30 -47c0 -1 -1 -1 -2 -2l-29 -29c-1 -1 -4 -2 -5 -3l-57 -29c-2 -1 -4 -1 -6 -1h-59
c-2 0 -4 0 -6 1l-57 29c-1 1 -4 2 -5 3l-28 29c-1 1 -3 3 -4 5l-29 87v4v261v1c0 8 6 14 14 14z" />
    <glyph glyph-name="v" unicode="v" 
d="M406 434c8 0 14 -6 14 -14c0 -2 -1 -5 -2 -6l-173 -404c-1 -4 -6 -9 -10 -10h-1h-1h-1h-1h-1c-6 1 -11 4 -12 10l-173 404c-1 1 -2 3 -2 5c0 8 6 15 14 15h1c6 0 12 -4 14 -8l160 -375l160 375c2 6 8 8 14 8z" />
    <glyph glyph-name="w" unicode="w" horiz-adv-x="635" 
d="M550 434c8 0 14 -6 14 -14v-4l-115 -404c-1 -3 -5 -9 -8 -11c-1 0 -1 -1 -2 -1h-2h-1h-2h-1h-1h-1h-1l-1 1c-1 1 -4 2 -5 3c-2 2 -4 6 -4 8l-102 354l-101 -354c-1 -3 -4 -9 -7 -11c-1 0 -1 -1 -2 -1h-3h-1h-2h-1h-1h-2l-1 1c-1 1 -4 2 -5 3c-2 2 -4 6 -4 8l-115 404v4
c0 8 6 14 14 14c7 0 13 -4 14 -10l101 -357l102 355c1 3 4 8 7 10c1 0 2 1 3 1s2 1 3 1h1h1h1l1 -1h1h2c1 -1 4 -2 5 -3c2 -2 4 -7 4 -9l101 -354l102 357c1 7 7 10 14 10z" />
    <glyph glyph-name="x" unicode="x" horiz-adv-x="491" 
d="M406 434c8 0 14 -6 14 -14c0 -3 -1 -8 -3 -10l-153 -193l153 -194c2 -2 3 -7 3 -10c0 -8 -6 -14 -14 -14c-4 0 -10 4 -12 7l-148 188l-148 -188c-2 -3 -7 -7 -11 -7c-8 0 -15 6 -15 14c0 3 2 8 4 10l152 194l-152 193c-2 2 -3 6 -3 9c0 8 6 15 14 15c3 0 9 -3 11 -6
l148 -188l148 188c2 3 8 6 12 6z" />
    <glyph glyph-name="y" unicode="y" 
d="M406 434c8 0 14 -6 14 -14c0 -2 -1 -5 -2 -6l-173 -404c0 -1 -1 -1 -1 -2l-86 -230c-2 -6 -7 -10 -13 -10c-8 0 -15 6 -15 14c0 1 1 5 1 6l85 226l-171 400c-1 1 -2 3 -2 5c0 8 6 15 14 15h1c6 0 12 -4 14 -8l160 -375l160 375c2 6 8 8 14 8z" />
    <glyph glyph-name="z" unicode="z" horiz-adv-x="520" 
d="M405 434h1c4 0 9 -3 11 -6l1 -1l1 -1v-1c0 -1 1 -5 1 -6c0 -3 -2 -8 -4 -10l-299 -380h288h1c8 0 14 -7 14 -15s-6 -14 -14 -14h-1h-316h-2c-4 0 -10 3 -12 6l-1 1v1l-1 2v4c0 3 2 9 4 11l298 380h-288c-8 0 -14 6 -14 14s6 14 14 14h317z" />
    <glyph glyph-name="braceleft" unicode="{" horiz-adv-x="404" 
d="M261 752c8 0 14 -6 14 -14c0 -6 -4 -11 -8 -13l-56 -28l-25 -26l-26 -53v-50l26 -53l27 -28l3 -3l28 -58c1 -2 2 -5 2 -7v-57c0 -3 -2 -9 -4 -11l-57 -56v-1l-2 -2h-1c-1 0 -2 -2 -3 -2l-31 -15l31 -15l3 -2v-1c1 0 2 -1 2 -1l1 -1l1 -1l56 -56c2 -2 4 -7 4 -10v-58
c0 -2 -1 -5 -2 -7l-28 -57c-1 -1 -2 -3 -3 -4l-27 -28l-26 -53v-50l26 -53l25 -25l56 -29c4 -2 8 -7 8 -13c0 -8 -6 -15 -14 -15c-2 0 -5 2 -7 3l-58 28l-4 4l-28 28l-3 3l-29 59c-1 2 -2 4 -2 6v59c0 2 1 3 2 5l29 59c1 1 2 3 3 4l26 26l27 53v49l-52 52l-56 28
c-4 2 -8 9 -8 13s4 11 8 13l56 28l52 51v49l-27 53l-26 27l-3 3l-29 59c-1 2 -2 4 -2 6v59c0 2 1 3 2 5l29 58l3 4l28 29c1 1 3 2 4 3l58 29c2 1 5 1 7 1z" />
    <glyph glyph-name="bar" unicode="|" horiz-adv-x="231" 
d="M116 752c8 0 14 -6 14 -14v-926c0 -8 -6 -16 -14 -16s-15 8 -15 16v926c0 8 7 14 15 14z" />
    <glyph glyph-name="braceright" unicode="}" horiz-adv-x="404" 
d="M144 752c2 0 5 0 7 -1l58 -29c1 -1 3 -2 4 -3l29 -29c1 -1 1 -3 2 -4l30 -58c1 -2 1 -3 1 -5v-59c0 -2 0 -4 -1 -6l-30 -59c-1 -1 -1 -2 -2 -3l-28 -27l-26 -53v-49l52 -51l56 -28c4 -2 8 -9 8 -13s-4 -11 -8 -13l-56 -28l-52 -52v-49l26 -53l28 -26c1 -1 1 -3 2 -4
l30 -59c1 -2 1 -3 1 -5v-59c0 -2 0 -4 -1 -6l-30 -59c-1 -1 -1 -2 -2 -3l-29 -28l-4 -4l-58 -28c-2 -1 -5 -3 -7 -3c-8 0 -14 7 -14 15c0 6 5 11 9 13l55 29l26 25l26 53v50l-26 53l-28 28c-1 1 -2 3 -3 4l-28 57c-1 2 -1 5 -1 7v58c0 3 2 8 4 10l56 57c1 1 2 1 3 2l1 1
c1 0 2 2 3 2l30 15l-30 15l-3 2h-1c-1 0 -2 2 -2 2l-1 1l-56 56c-2 2 -4 8 -4 11v57c0 2 0 5 1 7l28 58l3 3l28 28l26 53v50l-26 53l-26 26l-55 28c-4 2 -9 7 -9 13c0 8 6 14 14 14z" />
    <glyph glyph-name="asciitilde" unicode="~" horiz-adv-x="694" 
d="M607 376h1c8 0 15 -6 15 -14v-56v-2c0 -1 -1 -3 -1 -4v-2c0 -1 -2 -1 -2 -2l-28 -56c-1 -2 -5 -6 -7 -7l-57 -29c-2 -1 -5 -2 -7 -2h-58c-2 0 -5 1 -7 2l-57 29c-1 0 -1 1 -2 1l-115 86l-54 28h-51l-49 -26l-27 -79v-55c0 -8 -6 -15 -14 -15s-14 7 -14 15v57v6l29 87
c1 3 4 6 7 7l58 29c2 1 5 2 7 2h58c2 0 4 -1 6 -2l58 -29c1 0 1 -1 2 -1l114 -86l54 -27h52l50 25l25 51v55c0 8 6 14 14 14z" />
    <glyph glyph-name="uni007F" 
d="M0 637c8 0 14 -6 14 -14c0 8 7 14 15 14h29c8 0 15 -6 15 -14c0 8 6 14 14 14h29c8 0 14 -6 14 -14c0 8 7 14 15 14h29c8 0 14 -6 14 -14c0 8 6 14 14 14h30c8 0 14 -6 14 -14c0 8 7 14 15 14h28c8 0 15 -6 15 -14c0 8 6 14 14 14h30c8 0 14 -6 14 -14c0 8 6 14 14 14h29
c8 0 15 -6 15 -14c0 8 6 14 14 14h29c8 0 14 -6 14 -14v-609c0 -8 -6 -14 -14 -14s-14 6 -14 14c0 -8 -7 -14 -15 -14h-29c-8 0 -15 6 -15 14c0 -8 -6 -14 -14 -14h-28c-8 0 -15 6 -15 14c0 -8 -7 -14 -15 -14h-29c-8 0 -14 6 -14 14c0 -8 -6 -14 -14 -14h-29
c-8 0 -15 6 -15 14c0 -8 -7 -14 -15 -14h-28c-8 0 -14 6 -14 14c0 -8 -7 -14 -15 -14h-29c-8 0 -15 6 -15 14c0 -8 -6 -14 -14 -14h-29c-8 0 -15 6 -15 14c0 -8 -6 -14 -14 -14h-29c-8 0 -14 6 -14 14v609c0 8 6 14 14 14z" />
    <glyph glyph-name="dieresis" unicode="&#xa8;" horiz-adv-x="433" 
d="M318 543l-8 -7l8 -9l9 9zM116 543l-8 -7l8 -9l8 9zM318 579c3 0 9 -3 11 -5l29 -28c2 -2 4 -7 4 -10s-2 -9 -4 -11l-29 -29c-2 -2 -8 -4 -11 -4s-8 2 -10 4l-29 29c-2 2 -4 8 -4 11s2 8 4 10l29 28c2 2 7 5 10 5zM116 579c3 0 8 -3 10 -5l29 -28c2 -2 5 -7 5 -10
s-3 -9 -5 -11l-29 -29c-2 -2 -7 -4 -10 -4s-8 2 -10 4l-29 29c-2 2 -4 8 -4 11s2 8 4 10l29 28c2 2 7 5 10 5z" />
    <glyph glyph-name="copyright" unicode="&#xa9;" horiz-adv-x="694" 
d="M318 463h58c2 0 5 -1 7 -2l58 -29c2 -1 5 -2 6 -4l57 -87c1 -2 3 -7 3 -9v-144c0 -2 -2 -7 -3 -9l-57 -85c-1 -2 -4 -5 -6 -6l-58 -29c-2 -1 -5 -2 -7 -2h-58c-2 0 -4 1 -6 2l-58 29l-3 3l-30 29c-2 2 -4 7 -4 10c0 8 6 14 14 14c3 0 9 -2 11 -4l28 -27l52 -26h51l52 25
l52 80v136l-52 80l-52 25h-51l-50 -25l-28 -53c-2 -4 -7 -9 -13 -9c-8 0 -14 7 -14 15c0 2 1 5 2 7l29 58c1 2 4 5 6 6l58 29c2 1 4 2 6 2zM292 550l-82 -28l-54 -53l-26 -54l-29 -114v-82l29 -113l26 -54l54 -54l82 -28h111l81 28l54 54l27 54l28 113v82l-28 114l-27 54
l-54 53l-81 28h-111zM404 579h1h1h1h1c1 0 2 -1 3 -1l86 -29c2 -1 5 -2 6 -3l57 -59l3 -3l29 -58c0 -1 1 -1 1 -2l29 -117c0 -1 1 -2 1 -3v-87c0 -1 -1 -3 -1 -4l-29 -115c0 -1 -1 -2 -1 -3l-29 -59l-3 -3l-57 -58c-1 -1 -4 -3 -6 -4l-87 -28c-1 0 -4 -1 -5 -1h-116
c-1 0 -3 1 -4 1l-87 28c-2 1 -5 3 -6 4l-58 58c-1 1 -1 2 -2 3l-30 59v3l-29 115v4v87v3l29 117v2l30 58c1 1 1 2 2 3l58 59c1 1 4 2 6 3l87 29c1 0 3 1 4 1h115z" />
    <glyph glyph-name="guillemotleft" unicode="&#xab;" horiz-adv-x="404" 
d="M376 434c8 0 14 -7 14 -15c0 -3 -2 -8 -4 -10l-163 -164l163 -163c2 -2 4 -7 4 -10c0 -8 -6 -15 -14 -15c-3 0 -8 3 -10 5l-174 173c-2 2 -4 7 -4 10s2 9 4 11l174 174c2 2 7 4 10 4zM202 434c8 0 15 -7 15 -15c0 -3 -2 -8 -4 -10l-163 -164l163 -163c2 -2 5 -7 5 -10
c0 -8 -8 -15 -16 -15c-3 0 -8 3 -10 5l-173 173c-2 2 -5 7 -5 10s3 9 5 11l173 174c2 2 7 4 10 4z" />
    <glyph glyph-name="acute" unicode="&#xb4;" horiz-adv-x="346" 
d="M260 607h1c8 0 14 -6 14 -14c0 -3 -2 -9 -5 -11l-174 -144c-2 -2 -6 -5 -9 -5c-8 0 -14 8 -14 16c0 3 2 9 5 11l173 144c2 2 6 3 9 3z" />
    <glyph glyph-name="cedilla" unicode="&#xb8;" horiz-adv-x="144" 
d="M116 29c8 0 15 -7 15 -15c0 -3 -3 -8 -5 -10l-34 -34c1 -1 4 -2 5 -3l29 -30c2 -2 4 -7 4 -10s-2 -7 -4 -9l-29 -30c-2 -2 -7 -5 -10 -5h-29h-1c-8 0 -14 8 -14 16s6 14 14 14h1h22l16 14l-16 15h-22c-8 0 -15 6 -15 14c0 3 2 9 4 11l59 57c2 2 7 5 10 5z" />
    <glyph glyph-name="guillemotright" unicode="&#xbb;" horiz-adv-x="404" 
d="M202 434c3 0 9 -2 11 -4l173 -174c2 -2 4 -8 4 -11s-2 -8 -4 -10l-173 -173c-2 -2 -8 -5 -11 -5c-8 0 -14 7 -14 15c0 3 2 8 4 10l163 163l-163 164c-2 2 -4 7 -4 10c0 8 6 15 14 15zM29 434c3 0 9 -2 11 -4l173 -174c2 -2 4 -8 4 -11s-2 -8 -4 -10l-173 -173
c-2 -2 -8 -5 -11 -5c-8 0 -15 7 -15 15c0 3 3 8 5 10l164 163l-164 164c-2 2 -5 7 -5 10c0 8 7 15 15 15z" />
    <glyph glyph-name="Agrave" unicode="&#xc0;" 
d="M120.8 763.2c3 0 6 -1 8 -3l158 -131c3 -2 5 -7 5 -10c0 -7 -6 -14 -13 -14c-3 0 -7 2 -9 4l-157 131c-3 2 -5 7 -5 10c0 7 6 13 13 13zM211 475l-98 -265h195zM210 526h1h1h1h1c1 0 1 -1 2 -1l1 -1c3 -2 5 -5 6 -8l184 -499c1 -1 1 -3 1 -4c0 -7 -6 -14 -13 -14
c-5 0 -11 4 -13 9l-64 176h-2h-211h-2l-64 -176c-2 -5 -8 -9 -13 -9c-7 0 -13 7 -13 14c0 1 0 3 1 4l184 499c1 3 4 7 7 9h1l1 1h1h2z" />
    <glyph glyph-name="Aacute" unicode="&#xc1;" 
d="M310.25 763.2h1c7 0 13 -6 13 -13c0 -3 -2 -8 -5 -10l-158 -131c-2 -2 -5 -4 -8 -4c-7 0 -13 7 -13 14c0 3 2 8 5 10l157 131c2 2 5 3 8 3zM211 475l-98 -265h195zM210 526h1h1h1h1c1 0 1 -1 2 -1l1 -1c3 -2 5 -5 6 -8l184 -499c1 -1 1 -3 1 -4c0 -7 -6 -14 -13 -14
c-5 0 -11 4 -13 9l-64 176h-2h-211h-2l-64 -176c-2 -5 -8 -9 -13 -9c-7 0 -13 7 -13 14c0 1 0 3 1 4l184 499c1 3 4 7 7 9h1l1 1h1h2z" />
    <glyph glyph-name="Acircumflex" unicode="&#xc2;" 
d="M210 800.7h1c1 0 1 -1 2 -1c3 -1 6 -3 8 -5h1l156 -156c2 -2 4 -7 4 -10c0 -7 -6 -13 -13 -13c-3 0 -8 2 -10 4l-148 149l-149 -149c-2 -2 -7 -4 -10 -4c-7 0 -13 6 -13 13c0 3 2 8 4 10l157 156c2 2 5 4 8 5h1zM211 475l-98 -265h195zM210 526h1h1h1h1c1 0 1 -1 2 -1
l1 -1c3 -2 5 -5 6 -8l184 -499c1 -1 1 -3 1 -4c0 -7 -6 -14 -13 -14c-5 0 -11 4 -13 9l-64 176h-2h-211h-2l-64 -176c-2 -5 -8 -9 -13 -9c-7 0 -13 7 -13 14c0 1 0 3 1 4l184 499c1 3 4 7 7 9h1l1 1h1h2z" />
    <glyph glyph-name="Atilde" unicode="&#xc3;" 
d="M435.95 813.9h1c7 0 13 -6 13 -13v-51v-2c0 -1 -1 -2 -1 -3v-2c0 -1 -1 -1 -1 -2l-26 -51c-1 -2 -4 -5 -6 -6l-52 -27c-2 -1 -4 -1 -6 -1h-53c-2 0 -4 0 -6 1l-52 27c-1 0 -1 1 -2 1l-105 78l-49 25h-46l-45 -23l-24 -72v-50c0 -7 -6 -14 -13 -14s-13 7 -13 14v52v5
l27 79c1 3 3 6 6 7l53 26c2 1 4 2 6 2h53c2 0 3 -1 5 -2l53 -26c1 0 1 -1 2 -1l104 -78l49 -25h47l45 23l23 46v50c0 7 6 13 13 13zM211 475l-98 -265h195zM210 526h1h1h1h1c1 0 1 -1 2 -1l1 -1c3 -2 5 -5 6 -8l184 -499c1 -1 1 -3 1 -4c0 -7 -6 -14 -13 -14
c-5 0 -11 4 -13 9l-64 176h-2h-211h-2l-64 -176c-2 -5 -8 -9 -13 -9c-7 0 -13 7 -13 14c0 1 0 3 1 4l184 499c1 3 4 7 7 9h1l1 1h1h2z" />
    <glyph glyph-name="Adieresis" unicode="&#xc4;" 
d="M303.3 646.9l-7 -7l7 -8l8 8zM119.3 646.9l-7 -7l7 -8l8 8zM303.3 678.9c3 0 8 -2 10 -4l26 -26c2 -2 4 -6 4 -9s-2 -8 -4 -10l-26 -26c-2 -2 -7 -4 -10 -4s-7 2 -9 4l-26 26c-2 2 -4 7 -4 10s2 7 4 9l26 26c2 2 6 4 9 4zM119.3 678.9c3 0 8 -2 10 -4l26 -26
c2 -2 4 -6 4 -9s-2 -8 -4 -10l-26 -26c-2 -2 -7 -4 -10 -4s-7 2 -9 4l-26 26c-2 2 -4 7 -4 10s2 7 4 9l26 26c2 2 6 4 9 4zM211 475l-98 -265h195zM210 526h1h1h1h1c1 0 1 -1 2 -1l1 -1c3 -2 5 -5 6 -8l184 -499c1 -1 1 -3 1 -4c0 -7 -6 -14 -13 -14c-5 0 -11 4 -13 9
l-64 176h-2h-211h-2l-64 -176c-2 -5 -8 -9 -13 -9c-7 0 -13 7 -13 14c0 1 0 3 1 4l184 499c1 3 4 7 7 9h1l1 1h1h2z" />
    <glyph glyph-name="Ccedilla" unicode="&#xc7;" horiz-adv-x="548" 
d="M295.3 2.24023c7 0 14 -6 14 -13c0 -3 -2 -7 -4 -9l-31 -31c1 -1 3 -2 4 -3l27 -27c2 -2 3 -6 3 -9s-1 -7 -3 -9l-27 -27c-2 -2 -6 -4 -9 -4h-26h-1c-7 0 -13 7 -13 14s6 13 13 13h1h20l14 13l-14 13h-20c-7 0 -14 6 -14 13c0 3 2 8 4 10l53 52c2 2 6 4 9 4zM237 526h79
c2 0 4 0 6 -1l52 -27c1 -1 3 -1 4 -2l26 -26c1 -1 2 -3 3 -4l26 -53c1 -2 1 -4 1 -6c0 -7 -6 -13 -13 -13c-5 0 -10 4 -12 8l-25 50l-23 24l-48 24h-73l-48 -24l-50 -50l-25 -50l-25 -76v-74l25 -76l25 -50l50 -50l48 -24h73l48 24l23 23l25 51c2 4 7 8 12 8
c7 0 13 -6 13 -13c0 -2 0 -5 -1 -7l-26 -52c-1 -1 -2 -3 -3 -4l-26 -26c-1 -1 -3 -2 -4 -3l-52 -26c-2 -1 -4 -1 -6 -1h-79c-2 0 -4 0 -6 1l-53 26l-3 3l-53 53c-1 1 -1 2 -2 3l-27 53v1l-27 79v4v79v5l27 78v2l27 53c1 1 1 2 2 3l53 53c1 1 2 1 3 2l53 27c2 1 4 1 6 1z" />
    <glyph glyph-name="Egrave" unicode="&#xc8;" horiz-adv-x="520" 
d="M127.95 763.2c3 0 6 -1 8 -3l158 -131c3 -2 5 -7 5 -10c0 -7 -6 -14 -13 -14c-3 0 -7 2 -9 4l-157 131c-3 2 -5 7 -5 10c0 7 6 13 13 13zM105 526h2h261h1c7 0 13 -6 13 -13s-6 -13 -13 -13h-1h-250v-211h198c7 0 13 -6 13 -13s-6 -13 -13 -13h-198v-237h277
c7 0 13 -6 13 -13s-6 -13 -13 -13h-288h-2c-3 0 -6 0 -8 2v1h-1l-1 1c-2 2 -3 6 -3 9v2v259v2v2v233v2c0 3 1 6 3 8l1 1v1h1c2 2 5 3 8 3z" />
    <glyph glyph-name="Eacute" unicode="&#xc9;" horiz-adv-x="520" 
d="M350.4 763.2h1c7 0 13 -6 13 -13c0 -3 -2 -8 -5 -10l-158 -131c-2 -2 -5 -4 -8 -4c-7 0 -13 7 -13 14c0 3 2 8 5 10l157 131c2 2 5 3 8 3zM105 526h2h261h1c7 0 13 -6 13 -13s-6 -13 -13 -13h-1h-250v-211h198c7 0 13 -6 13 -13s-6 -13 -13 -13h-198v-237h277
c7 0 13 -6 13 -13s-6 -13 -13 -13h-288h-2c-3 0 -6 0 -8 2v1h-1l-1 1c-2 2 -3 6 -3 9v2v259v2v2v233v2c0 3 1 6 3 8l1 1v1h1c2 2 5 3 8 3z" />
    <glyph glyph-name="Ecircumflex" unicode="&#xca;" horiz-adv-x="520" 
d="M239.15 800.7h1c1 0 1 -1 2 -1c3 -1 6 -3 8 -5h1l156 -156c2 -2 4 -7 4 -10c0 -7 -6 -13 -13 -13c-3 0 -8 2 -10 4l-148 149l-149 -149c-2 -2 -7 -4 -10 -4c-7 0 -13 6 -13 13c0 3 2 8 4 10l157 156c2 2 5 4 8 5h1zM105 526h2h261h1c7 0 13 -6 13 -13s-6 -13 -13 -13h-1
h-250v-211h198c7 0 13 -6 13 -13s-6 -13 -13 -13h-198v-237h277c7 0 13 -6 13 -13s-6 -13 -13 -13h-288h-2c-3 0 -6 0 -8 2v1h-1l-1 1c-2 2 -3 6 -3 9v2v259v2v2v233v2c0 3 1 6 3 8l1 1v1h1c2 2 5 3 8 3z" />
    <glyph glyph-name="Edieresis" unicode="&#xcb;" horiz-adv-x="520" 
d="M332.45 646.9l-7 -7l7 -8l8 8zM148.45 646.9l-7 -7l7 -8l8 8zM332.45 678.9c3 0 8 -2 10 -4l26 -26c2 -2 4 -6 4 -9s-2 -8 -4 -10l-26 -26c-2 -2 -7 -4 -10 -4s-7 2 -9 4l-26 26c-2 2 -4 7 -4 10s2 7 4 9l26 26c2 2 6 4 9 4zM148.45 678.9c3 0 8 -2 10 -4l26 -26
c2 -2 4 -6 4 -9s-2 -8 -4 -10l-26 -26c-2 -2 -7 -4 -10 -4s-7 2 -9 4l-26 26c-2 2 -4 7 -4 10s2 7 4 9l26 26c2 2 6 4 9 4zM105 526h2h261h1c7 0 13 -6 13 -13s-6 -13 -13 -13h-1h-250v-211h198c7 0 13 -6 13 -13s-6 -13 -13 -13h-198v-237h277c7 0 13 -6 13 -13
s-6 -13 -13 -13h-288h-2c-3 0 -6 0 -8 2v1h-1l-1 1c-2 2 -3 6 -3 9v2v259v2v2v233v2c0 3 1 6 3 8l1 1v1h1c2 2 5 3 8 3z" />
    <glyph glyph-name="Igrave" unicode="&#xcc;" horiz-adv-x="231" 
d="M15.75 763.2c3 0 6 -1 8 -3l158 -131c3 -2 5 -7 5 -10c0 -7 -6 -14 -13 -14c-3 0 -7 2 -9 4l-157 131c-3 2 -5 7 -5 10c0 7 6 13 13 13zM105 526c7 0 13 -6 13 -13v-500c0 -7 -6 -13 -13 -13s-13 6 -13 13v500c0 7 6 13 13 13z" />
    <glyph glyph-name="Iacute" unicode="&#xcd;" horiz-adv-x="231" 
d="M183.2 763.2h1c7 0 13 -6 13 -13c0 -3 -2 -8 -5 -10l-158 -131c-2 -2 -5 -4 -8 -4c-7 0 -13 7 -13 14c0 3 2 8 5 10l157 131c2 2 5 3 8 3zM105 526c7 0 13 -6 13 -13v-500c0 -7 -6 -13 -13 -13s-13 6 -13 13v500c0 7 6 13 13 13z" />
    <glyph glyph-name="Icircumflex" unicode="&#xce;" horiz-adv-x="231" 
d="M93.9502 800.7h1c1 0 1 -1 2 -1c3 -1 6 -3 8 -5h1l156 -156c2 -2 4 -7 4 -10c0 -7 -6 -13 -13 -13c-3 0 -8 2 -10 4l-148 149l-149 -149c-2 -2 -7 -4 -10 -4c-7 0 -13 6 -13 13c0 3 2 8 4 10l157 156c2 2 5 4 8 5h1zM105 526c7 0 13 -6 13 -13v-500c0 -7 -6 -13 -13 -13
s-13 6 -13 13v500c0 7 6 13 13 13z" />
    <glyph glyph-name="Idieresis" unicode="&#xcf;" horiz-adv-x="231" 
d="M187.25 646.9l-7 -7l7 -8l8 8zM3.25 646.9l-7 -7l7 -8l8 8zM187.25 678.9c3 0 8 -2 10 -4l26 -26c2 -2 4 -6 4 -9s-2 -8 -4 -10l-26 -26c-2 -2 -7 -4 -10 -4s-7 2 -9 4l-26 26c-2 2 -4 7 -4 10s2 7 4 9l26 26c2 2 6 4 9 4zM3.25 678.9c3 0 8 -2 10 -4l26 -26
c2 -2 4 -6 4 -9s-2 -8 -4 -10l-26 -26c-2 -2 -7 -4 -10 -4s-7 2 -9 4l-26 26c-2 2 -4 7 -4 10s2 7 4 9l26 26c2 2 6 4 9 4zM105 526c7 0 13 -6 13 -13v-500c0 -7 -6 -13 -13 -13s-13 6 -13 13v500c0 7 6 13 13 13z" />
    <glyph glyph-name="Ograve" unicode="&#xd2;" horiz-adv-x="607" 
d="M169.2 763.2c3 0 6 -1 8 -3l158 -131c3 -2 5 -7 5 -10c0 -7 -6 -14 -13 -14c-3 0 -7 2 -9 4l-157 131c-3 2 -5 7 -5 10c0 7 6 13 13 13zM240 500l-48 -24l-50 -50l-25 -50l-25 -76v-74l25 -76l25 -50l50 -50l48 -24h73l48 24l49 50l25 50l26 76v74l-26 76l-25 50l-49 50
l-48 24h-73zM237 526h2h77c2 0 4 0 6 -1l52 -27c1 -1 3 -1 4 -2l52 -53l3 -3l26 -53l1 -2l26 -78c0 -1 1 -4 1 -5v-79c0 -1 -1 -3 -1 -4l-26 -79l-1 -1l-26 -53l-3 -3l-52 -53c-1 -1 -3 -2 -4 -3l-52 -26c-2 -1 -4 -1 -6 -1h-79c-2 0 -4 0 -6 1l-53 26l-3 3l-53 53
c-1 1 -1 2 -2 3l-27 53v1l-27 79v4v79v5l27 78v2l27 53c1 1 1 2 2 3l53 53c1 1 2 1 3 2l51 26h1c1 1 2 2 3 2h1h3z" />
    <glyph glyph-name="Oacute" unicode="&#xd3;" horiz-adv-x="607" 
d="M380.65 763.2h1c7 0 13 -6 13 -13c0 -3 -2 -8 -5 -10l-158 -131c-2 -2 -5 -4 -8 -4c-7 0 -13 7 -13 14c0 3 2 8 5 10l157 131c2 2 5 3 8 3zM240 500l-48 -24l-50 -50l-25 -50l-25 -76v-74l25 -76l25 -50l50 -50l48 -24h73l48 24l49 50l25 50l26 76v74l-26 76l-25 50
l-49 50l-48 24h-73zM237 526h2h77c2 0 4 0 6 -1l52 -27c1 -1 3 -1 4 -2l52 -53l3 -3l26 -53l1 -2l26 -78c0 -1 1 -4 1 -5v-79c0 -1 -1 -3 -1 -4l-26 -79l-1 -1l-26 -53l-3 -3l-52 -53c-1 -1 -3 -2 -4 -3l-52 -26c-2 -1 -4 -1 -6 -1h-79c-2 0 -4 0 -6 1l-53 26l-3 3l-53 53
c-1 1 -1 2 -2 3l-27 53v1l-27 79v4v79v5l27 78v2l27 53c1 1 1 2 2 3l53 53c1 1 2 1 3 2l51 26h1c1 1 2 2 3 2h1h3z" />
    <glyph glyph-name="Ocircumflex" unicode="&#xd4;" horiz-adv-x="607" 
d="M280.4 800.7h1c1 0 1 -1 2 -1c3 -1 6 -3 8 -5h1l156 -156c2 -2 4 -7 4 -10c0 -7 -6 -13 -13 -13c-3 0 -8 2 -10 4l-148 149l-149 -149c-2 -2 -7 -4 -10 -4c-7 0 -13 6 -13 13c0 3 2 8 4 10l157 156c2 2 5 4 8 5h1zM240 500l-48 -24l-50 -50l-25 -50l-25 -76v-74l25 -76
l25 -50l50 -50l48 -24h73l48 24l49 50l25 50l26 76v74l-26 76l-25 50l-49 50l-48 24h-73zM237 526h2h77c2 0 4 0 6 -1l52 -27c1 -1 3 -1 4 -2l52 -53l3 -3l26 -53l1 -2l26 -78c0 -1 1 -4 1 -5v-79c0 -1 -1 -3 -1 -4l-26 -79l-1 -1l-26 -53l-3 -3l-52 -53c-1 -1 -3 -2 -4 -3
l-52 -26c-2 -1 -4 -1 -6 -1h-79c-2 0 -4 0 -6 1l-53 26l-3 3l-53 53c-1 1 -1 2 -2 3l-27 53v1l-27 79v4v79v5l27 78v2l27 53c1 1 1 2 2 3l53 53c1 1 2 1 3 2l51 26h1c1 1 2 2 3 2h1h3z" />
    <glyph glyph-name="Otilde" unicode="&#xd5;" horiz-adv-x="607" 
d="M506.35 813.9h1c7 0 13 -6 13 -13v-51v-2c0 -1 -1 -2 -1 -3v-2c0 -1 -1 -1 -1 -2l-26 -51c-1 -2 -4 -5 -6 -6l-52 -27c-2 -1 -4 -1 -6 -1h-53c-2 0 -4 0 -6 1l-52 27c-1 0 -1 1 -2 1l-105 78l-49 25h-46l-45 -23l-24 -72v-50c0 -7 -6 -14 -13 -14s-13 7 -13 14v52v5
l27 79c1 3 3 6 6 7l53 26c2 1 4 2 6 2h53c2 0 3 -1 5 -2l53 -26c1 0 1 -1 2 -1l104 -78l49 -25h47l45 23l23 46v50c0 7 6 13 13 13zM240 500l-48 -24l-50 -50l-25 -50l-25 -76v-74l25 -76l25 -50l50 -50l48 -24h73l48 24l49 50l25 50l26 76v74l-26 76l-25 50l-49 50l-48 24
h-73zM237 526h2h77c2 0 4 0 6 -1l52 -27c1 -1 3 -1 4 -2l52 -53l3 -3l26 -53l1 -2l26 -78c0 -1 1 -4 1 -5v-79c0 -1 -1 -3 -1 -4l-26 -79l-1 -1l-26 -53l-3 -3l-52 -53c-1 -1 -3 -2 -4 -3l-52 -26c-2 -1 -4 -1 -6 -1h-79c-2 0 -4 0 -6 1l-53 26l-3 3l-53 53c-1 1 -1 2 -2 3
l-27 53v1l-27 79v4v79v5l27 78v2l27 53c1 1 1 2 2 3l53 53c1 1 2 1 3 2l51 26h1c1 1 2 2 3 2h1h3z" />
    <glyph glyph-name="Odieresis" unicode="&#xd6;" horiz-adv-x="607" 
d="M373.7 646.9l-7 -7l7 -8l8 8zM189.7 646.9l-7 -7l7 -8l8 8zM373.7 678.9c3 0 8 -2 10 -4l26 -26c2 -2 4 -6 4 -9s-2 -8 -4 -10l-26 -26c-2 -2 -7 -4 -10 -4s-7 2 -9 4l-26 26c-2 2 -4 7 -4 10s2 7 4 9l26 26c2 2 6 4 9 4zM189.7 678.9c3 0 8 -2 10 -4l26 -26
c2 -2 4 -6 4 -9s-2 -8 -4 -10l-26 -26c-2 -2 -7 -4 -10 -4s-7 2 -9 4l-26 26c-2 2 -4 7 -4 10s2 7 4 9l26 26c2 2 6 4 9 4zM240 500l-48 -24l-50 -50l-25 -50l-25 -76v-74l25 -76l25 -50l50 -50l48 -24h73l48 24l49 50l25 50l26 76v74l-26 76l-25 50l-49 50l-48 24h-73z
M237 526h2h77c2 0 4 0 6 -1l52 -27c1 -1 3 -1 4 -2l52 -53l3 -3l26 -53l1 -2l26 -78c0 -1 1 -4 1 -5v-79c0 -1 -1 -3 -1 -4l-26 -79l-1 -1l-26 -53l-3 -3l-52 -53c-1 -1 -3 -2 -4 -3l-52 -26c-2 -1 -4 -1 -6 -1h-79c-2 0 -4 0 -6 1l-53 26l-3 3l-53 53c-1 1 -1 2 -2 3
l-27 53v1l-27 79v4v79v5l27 78v2l27 53c1 1 1 2 2 3l53 53c1 1 2 1 3 2l51 26h1c1 1 2 2 3 2h1h3z" />
    <glyph glyph-name="Ugrave" unicode="&#xd9;" horiz-adv-x="635" 
d="M218.7 763.2c3 0 6 -1 8 -3l158 -131c3 -2 5 -7 5 -10c0 -7 -6 -14 -13 -14c-3 0 -7 2 -9 4l-157 131c-3 2 -5 7 -5 10c0 7 6 13 13 13zM105 526c7 0 13 -6 13 -13v-340l25 -74l48 -48l74 -25h49l74 25l48 48l25 74v340c0 7 6 13 13 13s13 -6 13 -13v-342
c0 -1 -1 -3 -1 -4l-26 -79c-1 -2 -2 -4 -3 -5l-53 -53c-1 -1 -3 -2 -5 -3l-79 -27h-4h-53h-4l-79 27c-2 1 -4 2 -5 3l-53 53c-1 1 -2 3 -3 5l-26 79c0 1 -1 3 -1 4v342c0 7 6 13 13 13z" />
    <glyph glyph-name="Uacute" unicode="&#xda;" horiz-adv-x="635" 
d="M386.15 763.2h1c7 0 13 -6 13 -13c0 -3 -2 -8 -5 -10l-158 -131c-2 -2 -5 -4 -8 -4c-7 0 -13 7 -13 14c0 3 2 8 5 10l157 131c2 2 5 3 8 3zM105 526c7 0 13 -6 13 -13v-340l25 -74l48 -48l74 -25h49l74 25l48 48l25 74v340c0 7 6 13 13 13s13 -6 13 -13v-342
c0 -1 -1 -3 -1 -4l-26 -79c-1 -2 -2 -4 -3 -5l-53 -53c-1 -1 -3 -2 -5 -3l-79 -27h-4h-53h-4l-79 27c-2 1 -4 2 -5 3l-53 53c-1 1 -2 3 -3 5l-26 79c0 1 -1 3 -1 4v342c0 7 6 13 13 13z" />
    <glyph glyph-name="Ucircumflex" unicode="&#xdb;" horiz-adv-x="635" 
d="M296.9 800.7h1c1 0 1 -1 2 -1c3 -1 6 -3 8 -5h1l156 -156c2 -2 4 -7 4 -10c0 -7 -6 -13 -13 -13c-3 0 -8 2 -10 4l-148 149l-149 -149c-2 -2 -7 -4 -10 -4c-7 0 -13 6 -13 13c0 3 2 8 4 10l157 156c2 2 5 4 8 5h1zM105 526c7 0 13 -6 13 -13v-340l25 -74l48 -48l74 -25
h49l74 25l48 48l25 74v340c0 7 6 13 13 13s13 -6 13 -13v-342c0 -1 -1 -3 -1 -4l-26 -79c-1 -2 -2 -4 -3 -5l-53 -53c-1 -1 -3 -2 -5 -3l-79 -27h-4h-53h-4l-79 27c-2 1 -4 2 -5 3l-53 53c-1 1 -2 3 -3 5l-26 79c0 1 -1 3 -1 4v342c0 7 6 13 13 13z" />
    <glyph glyph-name="Udieresis" unicode="&#xdc;" horiz-adv-x="635" 
d="M390.2 646.9l-7 -7l7 -8l8 8zM206.2 646.9l-7 -7l7 -8l8 8zM390.2 678.9c3 0 8 -2 10 -4l26 -26c2 -2 4 -6 4 -9s-2 -8 -4 -10l-26 -26c-2 -2 -7 -4 -10 -4s-7 2 -9 4l-26 26c-2 2 -4 7 -4 10s2 7 4 9l26 26c2 2 6 4 9 4zM206.2 678.9c3 0 8 -2 10 -4l26 -26
c2 -2 4 -6 4 -9s-2 -8 -4 -10l-26 -26c-2 -2 -7 -4 -10 -4s-7 2 -9 4l-26 26c-2 2 -4 7 -4 10s2 7 4 9l26 26c2 2 6 4 9 4zM105 526c7 0 13 -6 13 -13v-340l25 -74l48 -48l74 -25h49l74 25l48 48l25 74v340c0 7 6 13 13 13s13 -6 13 -13v-342c0 -1 -1 -3 -1 -4l-26 -79
c-1 -2 -2 -4 -3 -5l-53 -53c-1 -1 -3 -2 -5 -3l-79 -27h-4h-53h-4l-79 27c-2 1 -4 2 -5 3l-53 53c-1 1 -2 3 -3 5l-26 79c0 1 -1 3 -1 4v342c0 7 6 13 13 13z" />
    <glyph glyph-name="agrave" unicode="&#xe0;" horiz-adv-x="491" 
d="M151.6 619.1c3 0 6 -1 8 -3l158 -131c3 -2 5 -7 5 -10c0 -7 -6 -14 -13 -14c-3 0 -7 2 -9 4l-157 131c-3 2 -5 7 -5 10c0 7 6 13 13 13zM161 210l-46 -23l-23 -46v-20l24 -48l23 -23l48 -24h48l74 25l46 46v66l-44 22l-76 25h-74zM184 394h79c2 0 4 0 6 -1l53 -26l3 -3
l26 -26l3 -3l25 -51l1 -1c1 -1 1 -2 1 -3v-1v-1c0 -1 1 -1 1 -2v-2v-101v-2v-2v-75v-2v-2v-77c0 -7 -7 -13 -14 -13s-13 6 -13 13v47l-30 -30c-1 -1 -3 -2 -5 -3l-79 -27h-4h-53c-2 0 -4 0 -6 1l-52 26c-1 1 -3 2 -4 3l-26 26c-1 1 -2 3 -3 4l-26 52c-1 2 -1 4 -1 6v26
c0 2 0 4 1 6l26 53c1 2 4 5 6 6l53 26c2 1 4 2 6 2h79c1 0 3 -1 4 -1l79 -26l2 -1l33 -17v81l-24 48l-23 23l-48 24h-73l-48 -24l-24 -25c-2 -2 -7 -4 -10 -4c-7 0 -13 7 -13 14c0 3 2 7 4 9l26 26c1 1 3 2 4 3l52 26c2 1 4 1 6 1z" />
    <glyph glyph-name="aacute" unicode="&#xe1;" horiz-adv-x="491" 
d="M335.55 619.1h1c7 0 13 -6 13 -13c0 -3 -2 -8 -5 -10l-158 -131c-2 -2 -5 -4 -8 -4c-7 0 -13 7 -13 14c0 3 2 8 5 10l157 131c2 2 5 3 8 3zM161 210l-46 -23l-23 -46v-20l24 -48l23 -23l48 -24h48l74 25l46 46v66l-44 22l-76 25h-74zM184 394h79c2 0 4 0 6 -1l53 -26
l3 -3l26 -26l3 -3l25 -51l1 -1c1 -1 1 -2 1 -3v-1v-1c0 -1 1 -1 1 -2v-2v-101v-2v-2v-75v-2v-2v-77c0 -7 -7 -13 -14 -13s-13 6 -13 13v47l-30 -30c-1 -1 -3 -2 -5 -3l-79 -27h-4h-53c-2 0 -4 0 -6 1l-52 26c-1 1 -3 2 -4 3l-26 26c-1 1 -2 3 -3 4l-26 52c-1 2 -1 4 -1 6v26
c0 2 0 4 1 6l26 53c1 2 4 5 6 6l53 26c2 1 4 2 6 2h79c1 0 3 -1 4 -1l79 -26l2 -1l33 -17v81l-24 48l-23 23l-48 24h-73l-48 -24l-24 -25c-2 -2 -7 -4 -10 -4c-7 0 -13 7 -13 14c0 3 2 7 4 9l26 26c1 1 3 2 4 3l52 26c2 1 4 1 6 1z" />
    <glyph glyph-name="acircumflex" unicode="&#xe2;" horiz-adv-x="491" 
d="M224.3 656.6h1c1 0 1 -1 2 -1c3 -1 6 -3 8 -5h1l156 -156c2 -2 4 -7 4 -10c0 -7 -6 -13 -13 -13c-3 0 -8 2 -10 4l-148 149l-149 -149c-2 -2 -7 -4 -10 -4c-7 0 -13 6 -13 13c0 3 2 8 4 10l157 156c2 2 5 4 8 5h1zM161 210l-46 -23l-23 -46v-20l24 -48l23 -23l48 -24h48
l74 25l46 46v66l-44 22l-76 25h-74zM184 394h79c2 0 4 0 6 -1l53 -26l3 -3l26 -26l3 -3l25 -51l1 -1c1 -1 1 -2 1 -3v-1v-1c0 -1 1 -1 1 -2v-2v-101v-2v-2v-75v-2v-2v-77c0 -7 -7 -13 -14 -13s-13 6 -13 13v47l-30 -30c-1 -1 -3 -2 -5 -3l-79 -27h-4h-53c-2 0 -4 0 -6 1
l-52 26c-1 1 -3 2 -4 3l-26 26c-1 1 -2 3 -3 4l-26 52c-1 2 -1 4 -1 6v26c0 2 0 4 1 6l26 53c1 2 4 5 6 6l53 26c2 1 4 2 6 2h79c1 0 3 -1 4 -1l79 -26l2 -1l33 -17v81l-24 48l-23 23l-48 24h-73l-48 -24l-24 -25c-2 -2 -7 -4 -10 -4c-7 0 -13 7 -13 14c0 3 2 7 4 9l26 26
c1 1 3 2 4 3l52 26c2 1 4 1 6 1z" />
    <glyph glyph-name="atilde" unicode="&#xe3;" horiz-adv-x="491" 
d="M450.25 669.8h1c7 0 13 -6 13 -13v-51v-2c0 -1 -1 -2 -1 -3v-2c0 -1 -1 -1 -1 -2l-26 -51c-1 -2 -4 -5 -6 -6l-52 -27c-2 -1 -4 -1 -6 -1h-53c-2 0 -4 0 -6 1l-52 27c-1 0 -1 1 -2 1l-105 78l-49 25h-46l-45 -23l-24 -72v-50c0 -7 -6 -14 -13 -14s-13 7 -13 14v52v5
l27 79c1 3 3 6 6 7l53 26c2 1 4 2 6 2h53c2 0 3 -1 5 -2l53 -26c1 0 1 -1 2 -1l104 -78l49 -25h47l45 23l23 46v50c0 7 6 13 13 13zM161 210l-46 -23l-23 -46v-20l24 -48l23 -23l48 -24h48l74 25l46 46v66l-44 22l-76 25h-74zM184 394h79c2 0 4 0 6 -1l53 -26l3 -3l26 -26
l3 -3l25 -51l1 -1c1 -1 1 -2 1 -3v-1v-1c0 -1 1 -1 1 -2v-2v-101v-2v-2v-75v-2v-2v-77c0 -7 -7 -13 -14 -13s-13 6 -13 13v47l-30 -30c-1 -1 -3 -2 -5 -3l-79 -27h-4h-53c-2 0 -4 0 -6 1l-52 26c-1 1 -3 2 -4 3l-26 26c-1 1 -2 3 -3 4l-26 52c-1 2 -1 4 -1 6v26c0 2 0 4 1 6
l26 53c1 2 4 5 6 6l53 26c2 1 4 2 6 2h79c1 0 3 -1 4 -1l79 -26l2 -1l33 -17v81l-24 48l-23 23l-48 24h-73l-48 -24l-24 -25c-2 -2 -7 -4 -10 -4c-7 0 -13 7 -13 14c0 3 2 7 4 9l26 26c1 1 3 2 4 3l52 26c2 1 4 1 6 1z" />
    <glyph glyph-name="ccedilla" unicode="&#xe7;" 
d="M251.85 2.24023c7 0 14 -6 14 -13c0 -3 -2 -7 -4 -9l-31 -31c1 -1 3 -2 4 -3l27 -27c2 -2 3 -6 3 -9s-1 -7 -3 -9l-27 -27c-2 -2 -6 -4 -9 -4h-26h-1c-7 0 -13 7 -13 14s6 13 13 13h1h20l14 13l-14 13h-20c-7 0 -14 6 -14 13c0 3 2 8 4 10l53 52c2 2 6 4 9 4zM211 394h52
c2 0 4 0 6 -1l53 -26l3 -3l26 -26c2 -2 4 -6 4 -9c0 -7 -6 -14 -13 -14c-3 0 -7 2 -9 4l-25 25l-48 24h-46l-48 -24l-49 -49l-25 -74v-48l25 -74l49 -49l48 -24h46l48 24l25 25c2 2 6 4 9 4c7 0 13 -6 13 -13c0 -3 -2 -8 -4 -10l-26 -26l-3 -3l-53 -26c-2 -1 -4 -1 -6 -1
h-52c-2 0 -4 0 -6 1l-53 26l-3 3l-53 53c-1 1 -2 3 -3 5l-27 79v4v52v5l27 79c1 2 2 4 3 5l53 52l3 3l53 26c2 1 4 1 6 1z" />
    <glyph glyph-name="egrave" unicode="&#xe8;" horiz-adv-x="491" 
d="M151.05 619.1c3 0 6 -1 8 -3l158 -131c3 -2 5 -7 5 -10c0 -7 -6 -14 -13 -14c-3 0 -7 2 -9 4l-157 131c-3 2 -5 7 -5 10c0 7 6 13 13 13zM214 368l-48 -24l-49 -49l-25 -74v-11h263v40v23l-24 48l-23 23l-48 24h-46zM211 394h52c2 0 4 0 6 -1l53 -26l3 -3l26 -26l3 -3
l26 -53c1 -2 2 -4 2 -6v-26v-53c0 -7 -7 -13 -14 -13h-276v-11l25 -74l49 -49l48 -24h46l48 24l25 25c2 2 6 4 9 4c7 0 13 -6 13 -13c0 -3 -2 -8 -4 -10l-26 -26l-3 -3l-53 -26c-2 -1 -4 -1 -6 -1h-52c-2 0 -4 0 -6 1l-53 26l-3 3l-53 53c-1 1 -2 3 -3 5l-27 79v4v24v2v2v24
v5l27 79c1 2 2 4 3 5l53 52l3 3l53 26c2 1 4 1 6 1z" />
    <glyph glyph-name="eacute" unicode="&#xe9;" horiz-adv-x="491" 
d="M339.4 619.1h1c7 0 13 -6 13 -13c0 -3 -2 -8 -5 -10l-158 -131c-2 -2 -5 -4 -8 -4c-7 0 -13 7 -13 14c0 3 2 8 5 10l157 131c2 2 5 3 8 3zM214 368l-48 -24l-49 -49l-25 -74v-11h263v40v23l-24 48l-23 23l-48 24h-46zM211 394h52c2 0 4 0 6 -1l53 -26l3 -3l26 -26l3 -3
l26 -53c1 -2 2 -4 2 -6v-26v-53c0 -7 -7 -13 -14 -13h-276v-11l25 -74l49 -49l48 -24h46l48 24l25 25c2 2 6 4 9 4c7 0 13 -6 13 -13c0 -3 -2 -8 -4 -10l-26 -26l-3 -3l-53 -26c-2 -1 -4 -1 -6 -1h-52c-2 0 -4 0 -6 1l-53 26l-3 3l-53 53c-1 1 -2 3 -3 5l-27 79v4v24v2v2v24
v5l27 79c1 2 2 4 3 5l53 52l3 3l53 26c2 1 4 1 6 1z" />
    <glyph glyph-name="ecircumflex" unicode="&#xea;" horiz-adv-x="491" 
d="M239.15 656.6h1c1 0 1 -1 2 -1c3 -1 6 -3 8 -5h1l156 -156c2 -2 4 -7 4 -10c0 -7 -6 -13 -13 -13c-3 0 -8 2 -10 4l-148 149l-149 -149c-2 -2 -7 -4 -10 -4c-7 0 -13 6 -13 13c0 3 2 8 4 10l157 156c2 2 5 4 8 5h1zM214 368l-48 -24l-49 -49l-25 -74v-11h263v40v23
l-24 48l-23 23l-48 24h-46zM211 394h52c2 0 4 0 6 -1l53 -26l3 -3l26 -26l3 -3l26 -53c1 -2 2 -4 2 -6v-26v-53c0 -7 -7 -13 -14 -13h-276v-11l25 -74l49 -49l48 -24h46l48 24l25 25c2 2 6 4 9 4c7 0 13 -6 13 -13c0 -3 -2 -8 -4 -10l-26 -26l-3 -3l-53 -26
c-2 -1 -4 -1 -6 -1h-52c-2 0 -4 0 -6 1l-53 26l-3 3l-53 53c-1 1 -2 3 -3 5l-27 79v4v24v2v2v24v5l27 79c1 2 2 4 3 5l53 52l3 3l53 26c2 1 4 1 6 1z" />
    <glyph glyph-name="edieresis" unicode="&#xeb;" horiz-adv-x="491" 
d="M332.45 502.8l-7 -7l7 -8l8 8zM148.45 502.8l-7 -7l7 -8l8 8zM332.45 534.8c3 0 8 -2 10 -4l26 -26c2 -2 4 -6 4 -9s-2 -8 -4 -10l-26 -26c-2 -2 -7 -4 -10 -4s-7 2 -9 4l-26 26c-2 2 -4 7 -4 10s2 7 4 9l26 26c2 2 6 4 9 4zM148.45 534.8c3 0 8 -2 10 -4l26 -26
c2 -2 4 -6 4 -9s-2 -8 -4 -10l-26 -26c-2 -2 -7 -4 -10 -4s-7 2 -9 4l-26 26c-2 2 -4 7 -4 10s2 7 4 9l26 26c2 2 6 4 9 4zM214 368l-48 -24l-49 -49l-25 -74v-11h263v40v23l-24 48l-23 23l-48 24h-46zM211 394h52c2 0 4 0 6 -1l53 -26l3 -3l26 -26l3 -3l26 -53
c1 -2 2 -4 2 -6v-26v-53c0 -7 -7 -13 -14 -13h-276v-11l25 -74l49 -49l48 -24h46l48 24l25 25c2 2 6 4 9 4c7 0 13 -6 13 -13c0 -3 -2 -8 -4 -10l-26 -26l-3 -3l-53 -26c-2 -1 -4 -1 -6 -1h-52c-2 0 -4 0 -6 1l-53 26l-3 3l-53 53c-1 1 -2 3 -3 5l-27 79v4v24v2v2v24v5
l27 79c1 2 2 4 3 5l53 52l3 3l53 26c2 1 4 1 6 1z" />
    <glyph glyph-name="igrave" unicode="&#xec;" horiz-adv-x="172" 
d="M87 434c8 0 14 -6 14 -14v-1v-405c0 -8 -6 -14 -14 -14s-14 6 -14 14v405v1c0 8 6 14 14 14zM-12.8496 697.2c3 0 6 -1 8 -3l158 -131c3 -2 5 -7 5 -10c0 -7 -6 -14 -13 -14c-3 0 -7 2 -9 4l-157 131c-3 2 -5 7 -5 10c0 7 6 13 13 13z" />
    <glyph glyph-name="iacute" unicode="&#xed;" horiz-adv-x="172" 
d="M87 434c8 0 14 -6 14 -14v-1v-405c0 -8 -6 -14 -14 -14s-14 6 -14 14v405v1c0 8 6 14 14 14zM172.2 697.2h1c7 0 13 -6 13 -13c0 -3 -2 -8 -5 -10l-158 -131c-2 -2 -5 -4 -8 -4c-7 0 -13 7 -13 14c0 3 2 8 5 10l157 131c2 2 5 3 8 3z" />
    <glyph glyph-name="icircumflex" unicode="&#xee;" horiz-adv-x="172" 
d="M87 434c8 0 14 -6 14 -14v-1v-405c0 -8 -6 -14 -14 -14s-14 6 -14 14v405v1c0 8 6 14 14 14zM65.3496 734.7h1c1 0 1 -1 2 -1c3 -1 6 -3 8 -5h1l156 -156c2 -2 4 -7 4 -10c0 -7 -6 -13 -13 -13c-3 0 -8 2 -10 4l-148 149l-149 -149c-2 -2 -7 -4 -10 -4c-7 0 -13 6 -13 13
c0 3 2 8 4 10l157 156c2 2 5 4 8 5h1z" />
    <glyph glyph-name="idieresis" unicode="&#xef;" horiz-adv-x="172" 
d="M87 434c8 0 14 -6 14 -14v-1v-405c0 -8 -6 -14 -14 -14s-14 6 -14 14v405v1c0 8 6 14 14 14zM158.65 580.9l-7 -7l7 -8l8 8zM-25.3496 580.9l-7 -7l7 -8l8 8zM158.65 612.9c3 0 8 -2 10 -4l26 -26c2 -2 4 -6 4 -9s-2 -8 -4 -10l-26 -26c-2 -2 -7 -4 -10 -4s-7 2 -9 4
l-26 26c-2 2 -4 7 -4 10s2 7 4 9l26 26c2 2 6 4 9 4zM-25.3496 612.9c3 0 8 -2 10 -4l26 -26c2 -2 4 -6 4 -9s-2 -8 -4 -10l-26 -26c-2 -2 -7 -4 -10 -4s-7 2 -9 4l-26 26c-2 2 -4 7 -4 10s2 7 4 9l26 26c2 2 6 4 9 4z" />
    <glyph glyph-name="ograve" unicode="&#xf2;" horiz-adv-x="520" 
d="M137.85 619.1c3 0 6 -1 8 -3l158 -131c3 -2 5 -7 5 -10c0 -7 -6 -14 -13 -14c-3 0 -7 2 -9 4l-157 131c-3 2 -5 7 -5 10c0 7 6 13 13 13zM214 368l-48 -24l-49 -49l-25 -74v-48l25 -74l49 -49l48 -24h46l48 24l49 49l25 74v48l-25 74l-49 49l-48 24h-46zM211 395l1 -1h51
c2 0 4 0 6 -1l53 -26l3 -3l53 -52c1 -1 2 -3 3 -5l26 -79c0 -1 1 -4 1 -5v-52c0 -1 -1 -3 -1 -4l-26 -79c-1 -2 -2 -4 -3 -5l-53 -53l-3 -3l-53 -26c-2 -1 -4 -1 -6 -1h-52c-2 0 -4 0 -6 1l-53 26l-3 3l-53 53c-1 1 -2 3 -3 5l-27 79v4v52v5l27 79c1 2 2 4 3 5l53 52l3 3
l51 25c1 1 3 2 4 2h1c1 0 2 1 3 1z" />
    <glyph glyph-name="oacute" unicode="&#xf3;" horiz-adv-x="520" 
d="M343.8 619.1h1c7 0 13 -6 13 -13c0 -3 -2 -8 -5 -10l-158 -131c-2 -2 -5 -4 -8 -4c-7 0 -13 7 -13 14c0 3 2 8 5 10l157 131c2 2 5 3 8 3zM214 368l-48 -24l-49 -49l-25 -74v-48l25 -74l49 -49l48 -24h46l48 24l49 49l25 74v48l-25 74l-49 49l-48 24h-46zM211 395l1 -1
h51c2 0 4 0 6 -1l53 -26l3 -3l53 -52c1 -1 2 -3 3 -5l26 -79c0 -1 1 -4 1 -5v-52c0 -1 -1 -3 -1 -4l-26 -79c-1 -2 -2 -4 -3 -5l-53 -53l-3 -3l-53 -26c-2 -1 -4 -1 -6 -1h-52c-2 0 -4 0 -6 1l-53 26l-3 3l-53 53c-1 1 -2 3 -3 5l-27 79v4v52v5l27 79c1 2 2 4 3 5l53 52l3 3
l51 25c1 1 3 2 4 2h1c1 0 2 1 3 1z" />
    <glyph glyph-name="ocircumflex" unicode="&#xf4;" horiz-adv-x="520" 
d="M224.85 656.6h1c1 0 1 -1 2 -1c3 -1 6 -3 8 -5h1l156 -156c2 -2 4 -7 4 -10c0 -7 -6 -13 -13 -13c-3 0 -8 2 -10 4l-148 149l-149 -149c-2 -2 -7 -4 -10 -4c-7 0 -13 6 -13 13c0 3 2 8 4 10l157 156c2 2 5 4 8 5h1zM214 368l-48 -24l-49 -49l-25 -74v-48l25 -74l49 -49
l48 -24h46l48 24l49 49l25 74v48l-25 74l-49 49l-48 24h-46zM211 395l1 -1h51c2 0 4 0 6 -1l53 -26l3 -3l53 -52c1 -1 2 -3 3 -5l26 -79c0 -1 1 -4 1 -5v-52c0 -1 -1 -3 -1 -4l-26 -79c-1 -2 -2 -4 -3 -5l-53 -53l-3 -3l-53 -26c-2 -1 -4 -1 -6 -1h-52c-2 0 -4 0 -6 1
l-53 26l-3 3l-53 53c-1 1 -2 3 -3 5l-27 79v4v52v5l27 79c1 2 2 4 3 5l53 52l3 3l51 25c1 1 3 2 4 2h1c1 0 2 1 3 1z" />
    <glyph glyph-name="ugrave" unicode="&#xf9;" horiz-adv-x="491" 
d="M120.8 619.1c3 0 6 -1 8 -3l158 -131c3 -2 5 -7 5 -10c0 -7 -6 -14 -13 -14c-3 0 -7 2 -9 4l-157 131c-3 2 -5 7 -5 10c0 7 6 13 13 13zM79 395c7 0 13 -6 13 -13v-1v-234l25 -74l22 -23l48 -24h47l48 24l24 24l49 74v233c0 7 6 14 13 14s14 -7 14 -14v-235v-1v-2v-130
c0 -7 -7 -13 -14 -13s-13 6 -13 13v88l-28 -43c0 -1 -1 -1 -2 -2l-26 -26c-1 -1 -3 -2 -4 -3l-52 -26c-2 -1 -4 -1 -6 -1h-53c-2 0 -4 0 -6 1l-52 26c-1 1 -3 2 -4 3l-26 26c-1 1 -2 3 -3 5l-27 79v4v237v1c0 7 6 13 13 13z" />
    <glyph glyph-name="uacute" unicode="&#xfa;" horiz-adv-x="491" 
d="M309.15 619.1h1c7 0 13 -6 13 -13c0 -3 -2 -8 -5 -10l-158 -131c-2 -2 -5 -4 -8 -4c-7 0 -13 7 -13 14c0 3 2 8 5 10l157 131c2 2 5 3 8 3zM79 395c7 0 13 -6 13 -13v-1v-234l25 -74l22 -23l48 -24h47l48 24l24 24l49 74v233c0 7 6 14 13 14s14 -7 14 -14v-235v-1v-2
v-130c0 -7 -7 -13 -14 -13s-13 6 -13 13v88l-28 -43c0 -1 -1 -1 -2 -2l-26 -26c-1 -1 -3 -2 -4 -3l-52 -26c-2 -1 -4 -1 -6 -1h-53c-2 0 -4 0 -6 1l-52 26c-1 1 -3 2 -4 3l-26 26c-1 1 -2 3 -3 5l-27 79v4v237v1c0 7 6 13 13 13z" />
    <glyph glyph-name="ucircumflex" unicode="&#xfb;" horiz-adv-x="491" 
d="M224.3 656.6h1c1 0 1 -1 2 -1c3 -1 6 -3 8 -5h1l156 -156c2 -2 4 -7 4 -10c0 -7 -6 -13 -13 -13c-3 0 -8 2 -10 4l-148 149l-149 -149c-2 -2 -7 -4 -10 -4c-7 0 -13 6 -13 13c0 3 2 8 4 10l157 156c2 2 5 4 8 5h1zM79 395c7 0 13 -6 13 -13v-1v-234l25 -74l22 -23l48 -24
h47l48 24l24 24l49 74v233c0 7 6 14 13 14s14 -7 14 -14v-235v-1v-2v-130c0 -7 -7 -13 -14 -13s-13 6 -13 13v88l-28 -43c0 -1 -1 -1 -2 -2l-26 -26c-1 -1 -3 -2 -4 -3l-52 -26c-2 -1 -4 -1 -6 -1h-53c-2 0 -4 0 -6 1l-52 26c-1 1 -3 2 -4 3l-26 26c-1 1 -2 3 -3 5l-27 79v4
v237v1c0 7 6 13 13 13z" />
    <glyph glyph-name="udieresis" unicode="&#xfc;" horiz-adv-x="491" 
d="M317.6 502.8l-7 -7l7 -8l8 8zM133.6 502.8l-7 -7l7 -8l8 8zM317.6 534.8c3 0 8 -2 10 -4l26 -26c2 -2 4 -6 4 -9s-2 -8 -4 -10l-26 -26c-2 -2 -7 -4 -10 -4s-7 2 -9 4l-26 26c-2 2 -4 7 -4 10s2 7 4 9l26 26c2 2 6 4 9 4zM133.6 534.8c3 0 8 -2 10 -4l26 -26
c2 -2 4 -6 4 -9s-2 -8 -4 -10l-26 -26c-2 -2 -7 -4 -10 -4s-7 2 -9 4l-26 26c-2 2 -4 7 -4 10s2 7 4 9l26 26c2 2 6 4 9 4zM79 395c7 0 13 -6 13 -13v-1v-234l25 -74l22 -23l48 -24h47l48 24l24 24l49 74v233c0 7 6 14 13 14s14 -7 14 -14v-235v-1v-2v-130
c0 -7 -7 -13 -14 -13s-13 6 -13 13v88l-28 -43c0 -1 -1 -1 -2 -2l-26 -26c-1 -1 -3 -2 -4 -3l-52 -26c-2 -1 -4 -1 -6 -1h-53c-2 0 -4 0 -6 1l-52 26c-1 1 -3 2 -4 3l-26 26c-1 1 -2 3 -3 5l-27 79v4v237v1c0 7 6 13 13 13z" />
    <glyph glyph-name="glyph10" unicode="&#x153;" horiz-adv-x="839" 
d="M582 405l-53 -27l-53 -54l-27 -81v-12h289v44v25l-26 53l-26 25l-52 27h-52zM235 405l-52 -27l-54 -54l-28 -81v-53l28 -81l54 -54l52 -26h51l53 26l54 54l27 81v24c0 1 -1 2 -1 3s1 1 1 2v24l-27 81l-54 54l-53 27h-51zM232 434l1 -1h56c2 0 5 0 7 -1l58 -28l4 -4
l58 -57c1 -1 2 -3 3 -5l15 -46l16 46c1 2 2 4 3 5l57 57c1 1 4 3 5 4l57 28c2 1 5 1 7 1h58c2 0 5 0 7 -1l57 -28l4 -4l29 -28l3 -4l29 -58c1 -2 1 -4 1 -6v-29v-58c0 -8 -7 -15 -15 -15h-303v-12l27 -81l53 -54l53 -26h52l52 26l28 27c2 2 7 5 10 5c8 0 14 -6 14 -14
c0 -3 -2 -9 -4 -11l-29 -29c-1 -1 -3 -2 -4 -3l-57 -29c-2 -1 -5 -1 -7 -1h-58c-2 0 -5 0 -7 1l-57 29c-1 1 -4 2 -5 3l-57 58c-1 1 -2 4 -3 6l-16 45l-15 -45c-1 -2 -2 -5 -3 -6l-58 -58l-4 -3l-58 -29c-2 -1 -5 -1 -7 -1h-57c-2 0 -4 0 -6 1l-59 29l-3 3l-58 58
c-1 1 -3 4 -4 6l-29 87v4v57v6l29 87c1 2 3 4 4 5l58 57l3 4l56 27c1 1 4 2 5 2h1c1 0 2 1 3 1z" />
    <glyph glyph-name="glyph22" unicode="&#x201c;" horiz-adv-x="404" 
d="M289 456l-9 -7l9 -9l9 9zM116 456l-8 -7l8 -9l8 9zM318 579h1c8 0 14 -7 14 -15c0 -3 -2 -8 -4 -10l-54 -54v-17l4 4c2 2 7 5 10 5s8 -3 10 -5l30 -28c2 -2 4 -7 4 -10s-2 -9 -4 -11l-30 -29c-2 -2 -7 -4 -10 -4s-8 2 -10 4l-27 28c-3 2 -6 8 -6 12v1v56c0 3 3 9 5 11
l57 57c2 2 7 5 10 5zM144 579h1c8 0 15 -7 15 -15c0 -3 -3 -8 -5 -10l-54 -54v-17l5 4c2 2 7 5 10 5s8 -3 10 -5l29 -28c2 -2 5 -7 5 -10s-3 -9 -5 -11l-29 -29c-2 -2 -7 -4 -10 -4s-8 2 -10 4l-28 28c-3 2 -5 8 -5 12v1v56c0 3 2 9 4 11l57 57c2 2 7 5 10 5z" />
    <glyph glyph-name="glyph23" unicode="&#x2019;" horiz-adv-x="202" 
d="M116 543l-8 -7l8 -9l8 9zM116 579c3 0 8 -3 10 -5l27 -27c3 -2 7 -7 7 -11v-2v-57c0 -3 -3 -7 -5 -9l-58 -59c-2 -2 -7 -4 -10 -4c-8 0 -14 6 -14 14c0 3 2 9 4 11l53 53v17l-4 -4c-2 -2 -7 -4 -10 -4s-8 2 -10 4l-29 29c-2 2 -4 8 -4 11s2 8 4 10l29 28c2 2 7 5 10 5z
" />
    <glyph glyph-name="glyph37" unicode="&#x201d;" horiz-adv-x="404" 
d="M289 543l-9 -7l9 -9l9 9zM116 543l-8 -7l8 -9l8 9zM289 579c3 0 8 -3 10 -5l28 -27c3 -2 6 -7 6 -11v-2v-57c0 -3 -2 -7 -4 -9l-58 -59c-2 -2 -7 -4 -10 -4c-8 0 -15 6 -15 14c0 3 3 9 5 11l53 53v17l-5 -4c-2 -2 -7 -4 -10 -4s-8 2 -10 4l-28 29c-2 2 -5 8 -5 11
s3 8 5 10l28 28c2 2 7 5 10 5zM116 579c3 0 8 -3 10 -5l27 -27c3 -2 7 -7 7 -11v-2v-57c0 -3 -3 -7 -5 -9l-58 -59c-2 -2 -7 -4 -10 -4c-8 0 -14 6 -14 14c0 3 2 9 4 11l53 53v17l-4 -4c-2 -2 -7 -4 -10 -4s-8 2 -10 4l-29 29c-2 2 -4 8 -4 11s2 8 4 10l29 28c2 2 7 5 10 5z
" />
    <glyph glyph-name="glyph38" unicode="&#x2010;" horiz-adv-x="752" 
d="M116 261h521c8 0 14 -8 14 -16s-6 -14 -14 -14h-521c-8 0 -15 6 -15 14s7 16 15 16z" />
    <glyph glyph-name="glyph42" unicode="&#x276;" horiz-adv-x="752" 
d="M264 550l-53 -26l-55 -55l-27 -55l-28 -84v-81l28 -84l27 -55l55 -55l53 -26h69v272c0 1 -1 2 -1 3s1 1 1 2v244h-69zM348 579h2h287c8 0 14 -7 14 -15s-6 -14 -14 -14h-275v-232h217c8 0 15 -6 15 -14s-7 -15 -15 -15h-217v-260h304c8 0 15 -7 15 -15s-7 -14 -15 -14
h-316h-2h-3h-84c-2 0 -5 0 -7 1l-58 29l-4 3l-58 58c-1 1 -1 3 -2 4l-30 58v1l-29 87v4v87v6l29 86v2l30 58c1 1 1 2 2 3l58 59c1 1 3 1 4 2l56 28h1c1 1 2 3 3 3h1h4h2h82h3z" />
    <glyph glyph-name="glyph47" unicode="&#x2009;" horiz-adv-x="85" 
d="M0 651z" />
    <glyph glyph-name="glyph56" unicode="&#x2014;" horiz-adv-x="578" 
d="M0 261h579c8 0 15 -8 15 -16s-7 -14 -15 -14h-579c-8 0 -14 6 -14 14s6 16 14 16z" />
    <glyph glyph-name="glyph74" unicode="&#x2026;" horiz-adv-x="404" 
d="M318 139l-8 -9l8 -9l9 9zM202 139l-7 -9l7 -9l9 9zM87 139l-9 -9l9 -9l9 9zM318 174h1h2c3 -1 7 -5 9 -7l28 -27c2 -2 4 -7 4 -10s-2 -8 -4 -10l-29 -29c-2 -2 -8 -4 -11 -4s-8 2 -10 4l-29 29c-2 2 -4 7 -4 10s2 8 4 10l28 27c2 2 6 5 9 6l1 1h1zM202 174h2h2
c3 -1 6 -5 8 -7l28 -27c2 -2 4 -7 4 -10s-2 -8 -4 -10l-29 -29c-2 -2 -8 -4 -11 -4s-8 2 -10 4l-28 29c-2 2 -4 7 -4 10s2 8 4 10l26 27c2 2 6 5 9 6l2 1h1zM87 174h2c3 -1 8 -5 10 -7l27 -27c2 -2 4 -7 4 -10s-2 -8 -4 -10l-29 -29c-2 -2 -7 -4 -10 -4s-8 2 -10 4l-30 29
c-2 2 -4 7 -4 10s2 8 4 10l28 27c2 2 6 5 9 6l1 1h2z" />
    <glyph glyph-name="glyph99" unicode="&#x2018;" horiz-adv-x="202" 
d="M116 456l-8 -7l8 -9l8 9zM144 579h1c8 0 15 -7 15 -15c0 -3 -3 -8 -5 -10l-54 -54v-17l5 4c2 2 7 5 10 5s8 -3 10 -5l29 -28c2 -2 5 -7 5 -10s-3 -9 -5 -11l-29 -29c-2 -2 -7 -4 -10 -4s-8 2 -10 4l-28 28c-3 2 -5 8 -5 12v1v56c0 3 2 9 4 11l57 57c2 2 7 5 10 5z" />
    <glyph glyph-name="glyph109" unicode="&#x2013;" horiz-adv-x="404" 
d="M58 261h290c8 0 14 -8 14 -16s-6 -14 -14 -14h-290h-1c-8 0 -14 6 -14 14s6 16 14 16h1z" />
    <glyph glyph-name="glyph156" unicode="&#x15e;" horiz-adv-x="578" 
d="M243 4c8 0 15 -6 15 -14c0 -3 -2 -8 -4 -10l-34 -34c1 -1 3 -2 4 -3l30 -30c2 -2 3 -7 3 -10s-1 -8 -3 -10l-30 -29c-2 -2 -7 -5 -10 -5h-28h-1c-8 0 -15 8 -15 16s7 14 15 14h1h22l15 14l-15 15h-22c-8 0 -16 6 -16 14c0 3 3 9 5 11l58 57c2 2 7 4 10 4zM189 579h116
c1 0 3 -1 4 -1l87 -29c2 -1 5 -2 6 -3l28 -29c2 -2 4 -8 4 -11c0 -8 -6 -14 -14 -14c-3 0 -8 2 -10 4l-26 26l-82 28h-110l-52 -26l-27 -27l-26 -51v-24l26 -52l26 -25l81 -27h85h4l87 -30c2 -1 5 -2 6 -3l28 -29c1 -1 2 -3 3 -4l29 -57c1 -2 2 -5 2 -7v-58
c0 -2 -1 -5 -2 -7l-29 -57c-1 -1 -2 -3 -3 -4l-28 -29c-1 -1 -4 -2 -6 -3l-87 -30h-4h-116c-2 0 -4 0 -6 1l-59 29l-3 3l-58 58c-2 2 -5 7 -5 10c0 8 7 15 15 15c3 0 9 -3 11 -5l56 -56l52 -26h110l82 27l24 24l26 53v52l-26 53l-24 24l-82 27h-84c-1 0 -4 1 -5 1l-87 29
c-2 1 -4 2 -5 3l-30 29c-1 1 -1 3 -2 4l-30 57c-1 2 -1 5 -1 7v30c0 2 0 3 1 5l30 59c1 1 1 3 2 4l30 29c1 1 2 1 3 2l59 30c2 1 4 1 6 1z" />
    <glyph glyph-name="glyph157" unicode="&#x15f;" 
d="M186 4c8 0 15 -6 15 -14c0 -3 -2 -8 -4 -10l-34 -34c1 -1 3 -2 4 -3l30 -30c2 -2 3 -7 3 -10s-1 -8 -3 -10l-30 -29c-2 -2 -7 -5 -10 -5h-28h-1c-8 0 -15 8 -15 16s7 14 15 14h1h22l15 14l-15 15h-22c-8 0 -16 6 -16 14c0 3 3 9 5 11l58 57c2 2 7 4 10 4zM160 433h86
c2 0 5 0 7 -1l57 -28c1 -1 4 -3 5 -4l28 -28c2 -2 5 -7 5 -10c0 -8 -7 -16 -15 -16c-3 0 -9 3 -11 5l-26 27l-53 27h-80l-51 -25l-25 -51v-22l25 -50l78 -26h28h28h5l87 -30c3 -1 7 -3 8 -6l29 -59c1 -2 1 -4 1 -6v-29c0 -2 0 -4 -1 -6l-29 -59c-1 -2 -4 -5 -6 -6l-58 -29
c-2 -1 -5 -1 -7 -1h-115c-2 0 -5 0 -7 1l-58 29l-4 3l-28 29c-2 2 -5 8 -5 11c0 8 7 14 15 14c3 0 7 -3 9 -5l28 -27l53 -26h109l50 25l26 50v22l-26 50l-78 26h-26h-30c-1 0 -3 2 -4 2l-87 28c-3 1 -8 5 -9 8l-29 57c-1 2 -1 5 -1 7v28c0 2 0 5 1 7l29 58c1 2 5 6 7 7
l58 28c2 1 5 1 7 1z" />
  </font>
</defs>
</svg>
