SplineFontDB: 3.0
FontName: Hershey-Noailles-Times-Triplex-Regular
FullName: Untitled1
FamilyName: fontName
Weight: Regular
Copyright: Copyright (c) 2020, cedr,,,
Version: 001.000
ItalicAngle: 0
UnderlinePosition: 0
UnderlineWidth: 24
Ascent: 737
Descent: 263
InvalidEm: 0
sfntRevision: 0x00010000
LayerCount: 2
Layer: 0 0 "Arri+AOgA-re" 1
Layer: 1 0 "Avant" 0
XUID: [1021 759 -2074477504 3662303]
StyleMap: 0x0000
FSType: 0
OS2Version: 4
OS2_WeightWidthSlopeOnly: 0
OS2_UseTypoMetrics: 1
CreationTime: 1583863461
ModificationTime: 1584010856
PfmFamily: 17
TTFWeight: 400
TTFWidth: 5
LineGap: 90
VLineGap: 0
Panose: 2 0 5 3 0 0 0 0 0 0
OS2TypoAscent: 737
OS2TypoAOffset: 0
OS2TypoDescent: -263
OS2TypoDOffset: 0
OS2TypoLinegap: 90
OS2WinAscent: 684
OS2WinAOffset: 0
OS2WinDescent: 185
OS2WinDOffset: 0
HheadAscent: 684
HheadAOffset: 0
HheadDescent: -185
HheadDOffset: 0
OS2SubXSize: 650
OS2SubYSize: 700
OS2SubXOff: 0
OS2SubYOff: 140
OS2SupXSize: 650
OS2SupYSize: 700
OS2SupXOff: 0
OS2SupYOff: 480
OS2StrikeYSize: 49
OS2StrikeYPos: 258
OS2CapHeight: 579
OS2XHeight: 395
OS2Vendor: 'PfEd'
OS2CodePages: 00000001.00000000
OS2UnicodeRanges: 80000007.00000000.00000000.00000000
MarkAttachClasses: 1
DEI: 91125
LangName: 1033 "" "" "" "FontForge 2.0 : Untitled1 : 11-3-2020"
Encoding: UnicodeBmp
Compacted: 1
UnicodeInterp: none
NameList: AGL For New Fonts
DisplaySize: -48
AntiAlias: 1
FitToEm: 0
WinInfo: 0 38 14
BeginPrivate: 7
BlueValues 21 [0 0 395 395 579 579]
OtherBlues 11 [-185 -185]
BlueShift 2 14
StdHW 4 [26]
StdVW 4 [79]
StemSnapH 29 [15 26 52 79 105 158 182 208]
StemSnapV 33 [7 12 20 26 48 53 79 105 184 211]
EndPrivate
BeginChars: 65537 159

StartChar: .notdef
Encoding: 65536 -1 0
Width: 500
Flags: MW
HStem: 0 50<100 400 100 450> 441 50<100 400 100 100>
VStem: 50 50<50 50 50 441> 400 50<50 441 441 441>
LayerCount: 2
Fore
SplineSet
50 0 m 1
 50 491 l 1
 450 491 l 1
 450 0 l 1
 50 0 l 1
100 50 m 1
 400 50 l 1
 400 441 l 1
 100 441 l 1
 100 50 l 1
EndSplineSet
EndChar

StartChar: exclam
Encoding: 33 33 2
Width: 315
Flags: MW
HStem: 0 105<131 132 131 132 132 134 134 158> 559 20G<131 134 134 156 156 158 158 158.5>
VStem: 92 105<39 66 37.5 67.5 485 487 487 539> 118 53<197 199 199 275>
LayerCount: 2
Fore
SplineSet
131 105 m 2xe0
 132 105 l 1
 134 105 l 1
 158 105 l 2
 161 105 165 103 167 101 c 2
 194 75 l 2
 196 73 197 69 197 66 c 2
 197 39 l 2
 197 36 196 32 194 30 c 2
 167 4 l 2
 165 2 161 0 158 0 c 2
 132 0 l 2
 129 0 124 2 122 4 c 2
 96 30 l 2
 94 32 92 36 92 39 c 2
 92 66 l 2
 92 69 94 73 96 75 c 2
 121 100 l 2
 122 101 124 102 125 103 c 2
 126 104 l 1
 127 104 l 1
 128 104 l 2
 129 104 130 105 131 105 c 2xe0
131 579 m 2
 134 579 l 1
 156 579 l 1
 158 579 l 2
 159 579 162 579 163 578 c 0
 164 578 165 577 166 576 c 2
 167 575 l 1
 168 574 l 1
 194 549 l 2
 196 547 197 542 197 539 c 2
 197 487 l 1
 197 485 l 1xe0
 171 275 l 1
 171 199 l 1
 171 197 l 2
 171 194 170 191 168 189 c 2
 167 188 l 1
 167 187 l 1
 166 187 l 2
 164 185 161 184 158 184 c 2
 156 184 l 1
 132 184 l 2
 125 184 118 190 118 197 c 2
 118 275 l 1xd0
 92 485 l 1
 92 487 l 1
 92 539 l 2
 92 542 94 547 96 549 c 2
 121 573 l 1
 121 574 l 1
 122 575 l 1
 123 575 l 1
 123 576 l 2
 125 578 128 579 131 579 c 2
EndSplineSet
EndChar

StartChar: quotedbl
Encoding: 34 34 3
Width: 473
Flags: MW
HStem: 371 208<96 131 96 131 114 131 130 334 130 333>
VStem: 92 79<538.5 539 539 540.5> 95 20<372 373 372 374 372 374> 102 7<368 369 368 369> 329 25<376 378 376 379 376 380 376 381 376 382 376 539> 329 79<538.5 539 539 540.5> 336 12<369 370 369 370>
LayerCount: 2
Fore
SplineSet
368 579 m 1x84
 369 579 l 1
 371 579 l 2
 374 578 377 575 379 573 c 2
 404 549 l 2
 406 547 408 542 408 539 c 0x84
 408 538 407 536 407 535 c 2
 355 378 l 2
 355 377 354 377 354 376 c 2x88
 353 375 l 1
 353 374 l 1
 353 373 l 1
 352 373 l 1
 352 372 l 1
 351 372 l 1
 351 371 l 1
 349 370 l 1
 348 370 l 1
 348 369 l 1
 347 369 l 1
 346 369 l 1
 346 368 l 1
 345 368 l 1
 344 368 l 1
 343 368 l 1
 342 368 l 1
 341 368 l 1
 340 368 l 1
 339 368 l 1
 338 369 l 1
 337 369 l 1
 336 369 l 1
 336 370 l 1x82
 335 370 l 1
 334 371 l 1
 333 371 l 1
 333 372 l 1
 332 372 l 1
 332 373 l 1
 331 374 l 1
 331 375 l 1
 330 376 l 1
 330 377 l 1
 329 377 l 1
 329 378 l 1
 329 379 l 1
 329 380 l 1
 329 381 l 1
 329 382 l 1x88
 329 539 l 2
 329 542 331 547 333 549 c 2
 358 573 l 2
 360 575 363 577 366 578 c 2
 367 579 l 1
 368 579 l 1x84
131 579 m 1
 132 579 l 1
 134 579 l 2
 137 578 140 575 142 573 c 2
 143 573 l 1
 167 549 l 2
 169 547 171 542 171 539 c 0xc0
 171 538 170 536 170 535 c 2
 118 378 l 2
 118 377 117 377 117 376 c 2
 117 375 l 1
 116 374 l 1
 116 373 l 1
 115 373 l 1
 115 372 l 1xa0
 114 371 l 1
 113 370 l 1
 112 370 l 1
 111 370 l 1
 111 369 l 1
 110 369 l 1
 109 369 l 1
 109 368 l 1
 108 368 l 1
 107 368 l 1
 106 368 l 1
 105 368 l 1
 104 368 l 1
 103 368 l 1
 102 368 l 1
 102 369 l 1x90
 101 369 l 1
 100 369 l 1
 99 369 l 1
 99 370 l 1
 98 370 l 1
 97 371 l 1
 96 371 l 1
 96 372 l 1
 95 372 l 1
 95 373 l 1
 95 374 l 1xa0
 94 375 l 1
 93 376 l 1
 93 377 l 1
 93 378 l 1
 92 378 l 1
 92 379 l 1
 92 380 l 1
 92 381 l 1
 92 382 l 1
 92 539 l 2xc0
 92 542 94 547 96 549 c 2
 121 573 l 2
 123 575 126 577 129 578 c 2
 130 579 l 1
 131 579 l 1
EndSplineSet
EndChar

StartChar: numbersign
Encoding: 35 35 4
Width: 578
Flags: MW
HStem: -185 21G<101.5 108 259.5 266> 158 26<75.5 170 79 164 196 322 79 191 354 447 447 448> 316 26<101.5 204 105 198 105 225 231 356 389 474>
VStem: 92 26<-174 -168 -174 -168> 250 26<-174 -168 -174 -168> 435 26<674 674>
LayerCount: 2
Fore
SplineSet
225 316 m 1
 196 184 l 1
 327 184 l 1
 356 316 l 1
 225 316 l 1
448 684 m 2
 455 684 461 678 461 671 c 0
 461 670 460 669 460 668 c 2
 389 342 l 1
 474 342 l 2
 481 342 487 336 487 329 c 0
 487 322 481 316 474 316 c 2
 383 316 l 1
 354 184 l 1
 447 184 l 1
 448 184 l 2
 455 184 461 178 461 171 c 0
 461 164 455 158 448 158 c 2
 447 158 l 1
 349 158 l 1
 276 -174 l 2
 275 -180 269 -185 263 -185 c 0
 256 -185 250 -179 250 -172 c 2
 250 -168 l 1
 322 158 l 1
 191 158 l 1
 118 -174 l 2
 117 -180 111 -185 105 -185 c 0
 98 -185 92 -179 92 -172 c 2
 92 -168 l 1
 164 158 l 1
 79 158 l 2
 72 158 66 164 66 171 c 0
 66 178 72 184 79 184 c 2
 170 184 l 1
 198 316 l 1
 105 316 l 2
 98 316 92 322 92 329 c 0
 92 336 98 342 105 342 c 2
 204 342 l 1
 277 674 l 2
 278 680 284 684 290 684 c 0
 297 684 303 678 303 671 c 0
 303 670 302 669 302 668 c 2
 231 342 l 1
 362 342 l 1
 435 674 l 2
 436 680 441 684 447 684 c 2
 448 684 l 2
EndSplineSet
EndChar

StartChar: dollar
Encoding: 36 36 5
Width: 526
Flags: MW
HStem: 0 26<224 303 224 303> 105 79<104 105 105 132> 158 26<92 92 92 103 107 107 107 118> 394 27<391.5 419 408 419 423 434 408 447> 394 79<391.5 421 395 421 421 422 395 447> 552 27<224 303 224 303>
VStem: 66 26<145 158 145 171 145 174.5 410 411 411 434> 66 52<144 145 145 158 144 171 144 174.5 437 483> 118 27<144 145 144 158 158 158> 197 27<-93 -92 -92 0 31 275 364 547 547 547 579 671> 303 26<-93 -92 -92 0 0 0 31 240 329 547 579 671> 382 26<421 434> 434 27<171 194 194 194 421 433 430 433>
LayerCount: 2
Fore
SplineSet
107 158 m 2xa4f8
 113 157 118 151 118 145 c 2
 118 144 l 1xa578
 118 158 l 1
 107 158 l 2xa4f8
92 158 m 1xa678
 92 145 l 2
 92 151 97 157 103 158 c 2
 92 158 l 1xa678
434 194 m 2
 433 191 431 188 428 186 c 2
 433 177 l 2
 434 175 434 173 434 171 c 2
 434 194 l 2
329 240 m 1
 329 31 l 1
 385 50 l 1
 408 95 l 1
 408 168 l 1
 385 214 l 1
 337 238 l 1
 329 240 l 1
224 275 m 1
 224 26 l 1
 303 26 l 1
 303 249 l 1
 224 275 l 1
434 433 m 2
 434 427 429 422 423 421 c 2
 434 421 l 1x9478
 434 433 l 2
408 434 m 2
 408 421 l 1
 419 421 l 2
 413 422 408 428 408 434 c 2
92 434 m 2x8678
 92 411 l 1
 92 410 l 2
 93 413 95 417 98 419 c 2
 93 428 l 2
 92 430 92 432 92 434 c 2x8678
197 547 m 1
 141 528 l 1
 118 483 l 1
 118 437 l 1x8578
 141 391 l 1
 189 367 l 1
 197 364 l 1
 197 547 l 1
224 552 m 1
 224 356 l 1
 303 329 l 1
 303 552 l 1
 224 552 l 1
210 684 m 2
 211 684 l 2
 218 684 224 678 224 671 c 2
 224 579 l 1
 303 579 l 1
 303 671 l 2
 303 678 309 684 316 684 c 0
 323 684 329 678 329 671 c 2
 329 575 l 1
 399 552 l 2
 401 551 403 550 404 549 c 2
 430 522 l 1
 433 519 l 1
 459 466 l 2
 460 464 461 462 461 460 c 2
 461 408 l 2
 461 401 454 394 447 394 c 2xd6f8
 395 394 l 2
 388 394 382 401 382 408 c 2
 382 460 l 2
 382 467 388 473 395 473 c 2
 421 473 l 2
 423 473 426 473 427 472 c 2
 410 505 l 1
 388 528 l 1
 329 547 l 1
 329 321 l 1
 346 315 l 2
 347 315 348 314 349 313 c 2
 428 261 l 2
 430 260 432 258 433 256 c 2
 459 203 l 2
 460 201 461 199 461 197 c 2
 461 118 l 2
 461 116 460 114 459 112 c 2
 433 60 l 2
 432 59 431 57 430 56 c 2
 405 31 l 1
 404 30 l 2
 402 28 399 26 397 26 c 2
 329 3 l 1
 329 -92 l 1
 329 -93 l 2
 329 -100 323 -106 316 -106 c 0
 309 -106 303 -100 303 -93 c 2
 303 -92 l 1
 303 0 l 1
 224 0 l 1
 224 -92 l 1
 224 -93 l 2
 224 -100 218 -106 211 -106 c 0
 204 -106 197 -100 197 -93 c 2
 197 -92 l 1
 197 3 l 1
 127 27 l 2
 125 28 123 29 122 30 c 2
 96 56 l 2
 95 57 94 59 93 60 c 2
 67 112 l 2
 66 114 66 116 66 118 c 2
 66 171 l 2
 66 178 72 184 79 184 c 2xaef8
 132 184 l 2
 139 184 145 178 145 171 c 2
 145 118 l 2
 145 111 139 105 132 105 c 2
 105 105 l 2
 103 105 101 105 100 106 c 2
 116 73 l 1
 139 51 l 1
 197 31 l 1
 197 284 l 1
 180 290 l 2
 179 290 178 290 177 291 c 2
 98 344 l 2
 96 345 94 347 93 349 c 2
 67 402 l 2
 66 404 66 406 66 408 c 2
 66 487 l 2xc6f8
 66 490 68 494 70 496 c 2
 122 548 l 1
 122 549 l 2
 124 551 127 552 129 552 c 2
 197 575 l 1
 197 671 l 2
 197 678 203 684 210 684 c 2
EndSplineSet
EndChar

StartChar: percent
Encoding: 37 37 6
Width: 631
Flags: MW
HStem: 0 26<419.5 471 427 471 427 474> 184 26<450 450 450 495> 368 26<130.5 181 137 181 137 184> 500 26<338 419 338 419 344 419 344 421 344 425> 552 27<161 161 161 205>
VStem: 66 26<439 483 439 487 439 488> 250 26<463 507 507 507> 355 27<71 115 71 118 71 119> 539 27<95 139 139 139>
LayerCount: 2
Fore
SplineSet
450 184 m 1
 405 161 l 1
 382 115 l 1
 382 71 l 1
 427 26 l 1
 471 26 l 1
 516 49 l 1
 539 95 l 1
 539 139 l 1
 495 184 l 1
 450 184 l 1
447 210 m 1
 449 210 l 1
 500 210 l 2
 503 210 507 208 509 206 c 2
 562 154 l 2
 564 152 566 147 566 144 c 2
 566 92 l 2
 566 90 565 88 564 86 c 2
 538 33 l 2
 537 31 534 28 532 27 c 2
 480 1 l 2
 478 0 476 0 474 0 c 2
 421 0 l 2
 418 0 414 2 412 4 c 2
 359 56 l 2
 357 58 355 63 355 66 c 2
 355 118 l 2
 355 120 356 122 357 124 c 2
 383 177 l 2
 384 179 387 182 389 183 c 2
 440 208 l 2
 441 209 443 210 444 210 c 2
 445 210 l 1
 447 210 l 1
161 552 m 1
 115 529 l 1
 92 483 l 1
 92 439 l 1
 137 394 l 1
 181 394 l 1
 227 417 l 1
 250 463 l 1
 250 507 l 1
 205 552 l 1
 161 552 l 1
210 579 m 2
 212 579 215 578 217 577 c 2
 268 551 l 1
 344 526 l 1
 419 526 l 1
 495 551 l 1
 546 577 l 2
 548 578 551 579 553 579 c 0
 554 579 556 578 557 578 c 0
 558 578 560 577 561 576 c 2
 562 575 l 1
 563 574 l 2
 563 573 564 573 564 572 c 2
 565 571 l 1
 565 570 l 1
 565 569 l 2
 565 568 566 568 566 567 c 2
 566 566 l 2
 566 563 564 558 562 556 c 2
 89 4 l 2
 87 1 82 0 79 0 c 0
 72 0 66 6 66 13 c 0
 66 16 67 19 69 21 c 2
 501 526 l 1
 425 500 l 1
 421 500 l 1
 342 500 l 1
 338 500 l 1
 272 522 l 2
 274 520 276 516 276 513 c 2
 276 460 l 2
 276 458 276 456 275 454 c 2
 249 402 l 2
 248 400 245 397 243 396 c 2
 190 370 l 2
 188 369 186 368 184 368 c 2
 132 368 l 2
 129 368 124 370 122 372 c 2
 70 425 l 2
 68 427 66 431 66 434 c 2
 66 487 l 2
 66 489 66 490 67 492 c 2
 93 545 l 2
 94 547 97 550 99 551 c 2
 152 577 l 2
 154 578 156 579 158 579 c 2
 209 579 l 1
 210 579 l 2
EndSplineSet
EndChar

StartChar: ampersand
Encoding: 38 38 7
Width: 684
Flags: MW
HStem: 0 26<184 286 236 286 237 286 240 286 240 289 529 553> 0 52<525 573 556 573 556 579> 289 27<549.5 577 566 577 581 592 566 605> 374 20G<553 579 579 580.5> 559 20G<288 290>
VStem: 92 79<35.5 95 95 168> 539 27<316 329 316 350 316 350> 566 26<316 328> 592 26<71 92 67 95.5 316 328 325 328>
LayerCount: 2
Fore
SplineSet
538 32 m 2xbc
 536 29 532 27 529 26 c 2
 553 26 l 2
 551 26 549 26 547 27 c 2
 538 32 l 2xbc
171 36 m 2
 171 35 170 36 170 35 c 2
 172 34 l 1
 171 36 l 2
256 276 m 1
 195 216 l 1
 171 168 l 1
 171 95 l 1
 194 49 l 1
 240 26 l 1
 286 26 l 1
 334 50 l 1
 385 100 l 1
 388 106 l 1
 385 109 l 1
 384 110 l 1
 279 242 l 1
 256 276 l 1
592 328 m 2x3d
 592 322 587 317 581 316 c 2
 592 316 l 1x3c80
 592 328 l 2x3d
566 329 m 2x3e
 566 316 l 1
 577 316 l 2
 571 317 566 323 566 329 c 2x3e
289 551 m 1
 248 530 l 1
 231 460 l 1
 249 387 l 1
 283 341 l 1
 330 388 l 1
 348 460 l 1
 331 530 l 1
 289 551 l 1
289 579 m 0
 291 579 293 578 295 577 c 2
 346 552 l 2
 349 551 353 547 354 544 c 2
 379 494 l 2
 380 492 382 490 382 488 c 2
 382 487 l 1
 382 486 l 1
 382 435 l 1
 382 434 l 2
 382 433 381 433 381 432 c 0
 381 430 380 427 379 426 c 2
 354 376 l 1
 354 375 l 2
 353 373 351 372 350 371 c 2
 299 320 l 1
 326 284 l 1
 425 161 l 1
 436 177 l 1
 488 307 l 1
 488 308 l 1
 515 361 l 2
 516 362 516 363 517 364 c 2
 543 391 l 2
 545 393 550 394 553 394 c 2
 579 394 l 2
 582 394 586 393 588 391 c 2
 615 364 l 2
 617 362 618 358 618 355 c 2
 618 302 l 2
 618 295 612 289 605 289 c 2
 553 289 l 2
 546 289 539 295 539 302 c 2
 539 350 l 1
 537 347 l 1
 512 297 l 1
 460 166 l 2
 460 165 458 164 458 163 c 2
 443 141 l 1
 508 76 l 1
 556 52 l 1
 573 52 l 1x7e80
 592 71 l 1
 592 92 l 2
 592 99 598 105 605 105 c 0
 612 105 618 99 618 92 c 2
 618 67 l 1
 619 66 l 2
 619 64 618 61 617 59 c 2
 591 7 l 2
 589 3 583 0 579 0 c 2
 526 0 l 2
 524 0 522 0 520 1 c 2
 468 27 l 2
 467 28 465 29 464 30 c 2
 407 87 l 1
 406 85 l 2
 406 84 405 84 404 83 c 2
 351 30 l 1
 348 27 l 1
 295 1 l 2
 293 0 291 0 289 0 c 2
 239 0 l 1
 237 0 l 1
 236 0 l 1
 184 0 l 2xbe80
 182 0 180 0 178 1 c 2
 126 27 l 2
 124 28 121 31 120 33 c 2
 93 86 l 2
 92 88 92 90 92 92 c 2
 92 171 l 2
 92 173 92 175 93 177 c 2
 120 229 l 2
 121 231 122 233 124 234 c 2
 235 308 l 1
 226 321 l 2
 225 322 224 324 224 325 c 2
 198 403 l 2
 198 404 197 407 197 408 c 2
 197 433 l 1
 197 434 l 1
 197 435 l 1
 197 486 l 1
 197 487 l 2
 197 488 198 488 198 489 c 0
 198 491 199 493 200 494 c 2
 225 544 l 1
 225 545 l 2
 226 548 230 551 233 552 c 2
 284 577 l 2
 285 578 287 579 289 579 c 0
EndSplineSet
EndChar

StartChar: quotesingle
Encoding: 39 39 8
Width: 263
Flags: MW
HStem: 368 25<73 79> 473 106<103.5 132 105 126>
VStem: 66 105<513 515 515 539 459 540.5>
LayerCount: 2
Fore
SplineSet
105 579 m 2
 132 579 l 2
 135 579 139 577 141 575 c 2
 167 549 l 2
 169 547 171 542 171 539 c 2
 171 515 l 1
 171 513 l 1
 171 511 l 1
 171 462 l 1
 171 460 l 2
 171 458 170 454 169 452 c 2
 144 403 l 1
 144 402 l 1
 143 402 l 2
 142 399 139 396 136 395 c 2
 85 370 l 2
 83 369 80 368 78 368 c 0
 71 368 65 374 65 381 c 0
 65 386 69 391 73 393 c 2
 120 417 l 1
 133 467 l 1
 126 473 l 1
 105 473 l 2
 102 473 98 475 96 477 c 2
 70 504 l 2
 68 506 66 510 66 513 c 2
 66 539 l 2
 66 542 68 547 70 549 c 2
 96 575 l 2
 98 577 102 579 105 579 c 2
EndSplineSet
EndChar

StartChar: parenleft
Encoding: 40 40 9
Width: 368
Flags: MW
HStem: -185 21G<261.5 266.5>
VStem: 66 79<195 197 197 302 302 305 305 305>
LayerCount: 2
Fore
SplineSet
263 684 m 0
 270 684 276 678 276 671 c 0
 276 668 274 663 272 661 c 2
 221 610 l 1
 196 560 l 1
 171 483 l 1
 145 328 l 1
 145 172 l 1
 171 16 l 1
 196 -61 l 1
 221 -111 l 1
 272 -162 l 2
 274 -164 276 -168 276 -171 c 0
 276 -178 270 -185 263 -185 c 0
 260 -185 256 -183 254 -181 c 2
 202 -129 l 1
 202 -129 200 -128 200 -127 c 2
 200 -126 l 1
 199 -126 l 1
 199 -125 l 1
 147 -47 l 1
 146 -46 l 1
 93 60 l 2
 93 61 92 62 92 63 c 2
 66 195 l 1
 66 197 l 1
 66 302 l 1
 66 305 l 1
 92 437 l 2
 92 438 93 439 93 440 c 2
 146 545 l 1
 147 547 l 1
 199 625 l 1
 200 625 l 2
 200 626 200 626 201 627 c 2
 202 628 l 1
 203 629 l 1
 254 680 l 2
 256 682 260 684 263 684 c 0
EndSplineSet
EndChar

StartChar: parenright
Encoding: 41 41 10
Width: 368
Flags: MW
HStem: -185 21G<101.5 106.5>
VStem: 224 79<196.5 197 197 302>
LayerCount: 2
Fore
SplineSet
105 684 m 0
 108 684 113 682 115 680 c 2
 166 628 l 1
 166 628 168 628 168 627 c 2
 168 626 l 1
 169 625 l 1
 221 547 l 1
 222 545 l 1
 275 440 l 2
 275 439 276 438 276 437 c 2
 302 305 l 2
 302 304 303 303 303 302 c 2
 303 197 l 2
 303 196 302 196 302 195 c 2
 276 63 l 2
 276 62 275 61 275 60 c 2
 222 -46 l 1
 221 -47 l 1
 169 -125 l 1
 169 -126 l 2
 169 -127 168 -127 167 -128 c 2
 166 -129 l 1
 115 -181 l 2
 113 -183 108 -185 105 -185 c 0
 98 -185 92 -178 92 -171 c 0
 92 -168 94 -164 96 -162 c 2
 147 -111 l 1
 172 -61 l 1
 198 16 l 1
 224 172 l 1
 224 328 l 1
 198 483 l 1
 172 560 l 1
 147 610 l 1
 96 661 l 2
 94 663 92 668 92 671 c 0
 92 678 98 684 105 684 c 0
EndSplineSet
EndChar

StartChar: asterisk
Encoding: 42 42 11
Width: 421
Flags: MW
HStem: 559 20G<210 213 213 213>
VStem: 171 79<276 279 274.5 279 537 539>
LayerCount: 2
Fore
SplineSet
210 579 m 2
 213 579 l 1
 214 578 l 1
 215 578 l 1
 216 578 l 2
 217 577 219 576 220 575 c 2
 220 575 221 574 221 573 c 2
 222 573 l 1
 246 549 l 2
 248 547 250 542 250 539 c 2
 250 537 l 1
 230 439 l 1
 308 497 l 2
 310 498 314 500 316 500 c 2
 340 500 l 1
 342 500 l 1
 345 500 l 1
 346 499 l 1
 348 499 l 1
 348 498 l 1
 349 498 l 1
 350 497 l 1
 351 496 l 1
 352 496 l 1
 352 495 l 1
 353 494 l 1
 354 493 l 1
 354 492 l 1
 355 491 l 1
 355 490 l 1
 355 489 l 1
 355 488 l 1
 355 487 l 1
 355 486 l 1
 355 484 l 1
 355 460 l 2
 355 455 352 450 347 448 c 2
 246 408 l 1
 347 367 l 2
 352 365 355 360 355 355 c 2
 355 331 l 1
 355 329 l 1
 355 327 l 1
 355 326 l 1
 355 325 l 1
 354 324 l 1
 354 323 l 2
 353 322 353 320 352 319 c 2
 351 319 l 1
 350 318 l 1
 349 318 l 1
 349 317 l 1
 348 317 l 1
 347 316 l 2
 346 316 343 315 342 315 c 0
 341 315 341 316 340 316 c 2
 316 316 l 2
 314 316 310 317 308 318 c 2
 230 376 l 1
 250 279 l 1
 250 276 l 2
 250 273 248 269 246 267 c 2
 221 242 l 1
 218 239 l 1
 217 238 l 1
 216 238 l 1
 216 238 216 237 215 237 c 0
 214 237 212 236 211 236 c 0
 210 236 209 237 208 237 c 2
 207 237 l 1
 206 237 l 1
 205 238 l 2
 204 239 202 239 201 240 c 2
 201 240 200 241 200 242 c 2
 175 267 l 2
 173 269 171 273 171 276 c 2
 171 279 l 1
 191 376 l 1
 113 318 l 2
 111 317 107 316 105 316 c 2
 81 316 l 2
 80 316 80 315 79 315 c 0
 78 315 77 316 76 316 c 2
 75 316 l 1
 73 317 l 1
 72 318 l 1
 71 318 l 1
 70 319 l 1
 69 320 l 1
 68 321 l 1
 67 322 l 1
 67 323 l 1
 67 324 l 1
 66 325 l 1
 66 327 l 1
 66 328 l 1
 66 329 l 1
 66 331 l 1
 66 355 l 2
 66 360 69 365 74 367 c 2
 175 408 l 1
 74 448 l 2
 69 450 66 455 66 460 c 2
 66 484 l 1
 66 487 l 1
 66 488 l 1
 66 489 l 1
 66 490 l 1
 67 492 l 1
 67 493 l 2
 68 494 68 495 69 496 c 2
 70 496 l 1
 70 497 l 1
 71 497 l 1
 72 498 l 1
 73 499 l 1
 74 499 l 2
 75 499 78 500 79 500 c 2
 81 500 l 1
 105 500 l 2
 107 500 111 498 113 497 c 2
 191 439 l 1
 171 537 l 1
 171 539 l 2
 171 542 173 547 175 549 c 2
 200 573 l 1
 203 576 l 1
 203 577 l 1
 204 577 l 1
 205 577 l 1
 205 577 206 578 207 578 c 0
 208 578 209 579 210 579 c 2
EndSplineSet
EndChar

StartChar: plus
Encoding: 43 43 12
Width: 684
Flags: MW
HStem: 237 52<101.5 107 105 107 107 303 355 551>
VStem: 303 52<39 41 41 237 289 484 484 484.5>
LayerCount: 2
Fore
SplineSet
316 500 m 2
 318 500 l 1
 342 500 l 2
 349 500 355 494 355 487 c 2
 355 289 l 1
 553 289 l 2
 560 289 566 283 566 276 c 2
 566 252 l 1
 566 250 l 2
 566 247 565 244 563 242 c 2
 563 241 l 1
 562 241 l 1
 562 240 l 1
 561 240 l 2
 559 238 556 236 553 236 c 0
 552 236 552 237 551 237 c 2
 355 237 l 1
 355 41 l 1
 355 39 l 2
 355 36 355 33 353 31 c 2
 352 31 l 1
 352 30 l 1
 351 29 l 2
 349 27 345 26 342 26 c 2
 340 26 l 1
 316 26 l 2
 309 26 303 32 303 39 c 2
 303 237 l 1
 105 237 l 2
 98 237 92 243 92 250 c 2
 92 274 l 1
 92 276 l 2
 92 279 93 282 95 284 c 2
 96 285 l 1
 96 286 l 1
 97 286 l 2
 99 288 102 289 105 289 c 2
 107 289 l 1
 303 289 l 1
 303 484 l 2
 303 485 302 486 302 487 c 0
 302 490 303 493 305 495 c 2
 306 496 l 1
 307 496 l 1
 307 497 l 2
 309 499 313 500 316 500 c 2
EndSplineSet
EndChar

StartChar: comma
Encoding: 44 44 13
Width: 315
Flags: MW
HStem: -106 25<99 106> 0 105<130.5 158 132 152>
VStem: 92 105<-96.5 -14 39 41 41 66 -15 67.5>
LayerCount: 2
Fore
SplineSet
132 105 m 2
 158 105 l 2
 161 105 165 103 167 101 c 2
 194 75 l 2
 196 73 197 69 197 66 c 2
 197 41 l 1
 197 39 l 1
 197 38 l 1
 197 -12 l 1
 197 -14 l 2
 197 -16 196 -19 195 -21 c 2
 170 -71 l 1
 170 -72 l 2
 169 -75 165 -78 162 -79 c 2
 111 -104 l 2
 109 -105 107 -106 105 -106 c 0
 98 -106 92 -100 92 -93 c 0
 92 -88 95 -83 99 -81 c 2
 147 -57 l 1
 159 -7 l 1
 152 0 l 1
 132 0 l 2
 129 0 124 2 122 4 c 2
 96 30 l 2
 94 32 92 36 92 39 c 2
 92 66 l 2
 92 69 94 73 96 75 c 2
 122 101 l 2
 124 103 129 105 132 105 c 2
EndSplineSet
EndChar

StartChar: hyphen
Encoding: 45 45 14
Width: 236
Flags: MW
HStem: 210 27<22.5 211 26 211>
VStem: 13 211<219.5 226.5>
LayerCount: 2
Fore
SplineSet
26 237 m 2
 211 237 l 2
 218 237 224 230 224 223 c 0
 224 216 218 210 211 210 c 2
 26 210 l 2
 19 210 13 216 13 223 c 0
 13 230 19 237 26 237 c 2
EndSplineSet
EndChar

StartChar: period
Encoding: 46 46 15
Width: 315
Flags: MW
HStem: 0 105<131 132 131 132 132 134 134 158>
VStem: 92 105<39 66 37.5 67.5>
LayerCount: 2
Fore
SplineSet
131 105 m 2
 132 105 l 1
 134 105 l 1
 158 105 l 2
 161 105 165 103 167 101 c 2
 194 75 l 2
 196 73 197 69 197 66 c 2
 197 39 l 2
 197 36 196 32 194 30 c 2
 167 4 l 2
 165 2 161 0 158 0 c 2
 132 0 l 2
 129 0 124 2 122 4 c 2
 96 30 l 2
 94 32 92 36 92 39 c 2
 92 66 l 2
 92 69 94 73 96 75 c 2
 121 100 l 2
 122 101 124 102 125 103 c 2
 126 104 l 1
 127 104 l 1
 128 104 l 2
 129 104 130 105 131 105 c 2
EndSplineSet
EndChar

StartChar: slash
Encoding: 47 47 16
Width: 631
Flags: MW
HStem: -185 21G<78.5 80>
VStem: 39 48<-182 -170>
LayerCount: 2
Fore
SplineSet
526 684 m 2
 528 684 l 1
 553 684 l 2
 560 684 566 678 566 671 c 0
 566 669 565 666 564 664 c 2
 91 -176 l 2
 90 -178 88 -180 87 -181 c 2
 87 -182 l 1
 86 -182 l 2
 84 -183 81 -185 79 -185 c 0
 78 -185 78 -184 77 -184 c 2
 53 -184 l 2
 46 -184 39 -178 39 -171 c 0
 39 -169 40 -167 41 -165 c 2
 514 675 l 2
 515 677 517 680 518 681 c 2
 519 682 l 2
 521 683 524 684 526 684 c 2
EndSplineSet
EndChar

StartChar: zero
Encoding: 48 48 17
Width: 526
Flags: MW
HStem: 0 26<233 286 233 286 237 286 240 286 240 288 240 289 240 293 240 294> 552 27<240 240 240 286>
VStem: 66 79<247 250 250 329 329 331 331 331> 382 79<249.5 250 250 329>
LayerCount: 2
Fore
SplineSet
240 552 m 1
 194 529 l 1
 170 482 l 1
 145 354 l 1
 145 225 l 1
 170 96 l 1
 194 49 l 1
 240 26 l 1
 286 26 l 1
 332 49 l 1
 356 96 l 1
 382 225 l 1
 382 354 l 1
 356 482 l 1
 332 529 l 1
 286 552 l 1
 240 552 l 1
237 579 m 1
 239 579 l 1
 288 579 l 1
 289 579 l 2
 290 579 293 578 294 578 c 2
 373 552 l 2
 375 551 378 549 379 547 c 2
 432 468 l 2
 433 467 434 464 434 463 c 2
 460 331 l 2
 460 330 461 330 461 329 c 2
 461 250 l 2
 461 249 460 248 460 247 c 2
 434 116 l 2
 434 115 433 112 432 111 c 2
 379 32 l 2
 378 30 375 28 373 27 c 2
 295 1 l 1
 294 1 l 1
 294 0 l 1
 293 0 l 1
 289 0 l 1
 288 0 l 1
 239 0 l 1
 237 0 l 1
 233 0 l 1
 232 1 l 1
 154 27 l 2
 152 28 148 30 147 32 c 2
 94 111 l 2
 93 112 92 115 92 116 c 2
 66 247 l 1
 66 250 l 1
 66 329 l 1
 66 331 l 1
 92 463 l 2
 92 464 93 467 94 468 c 2
 147 547 l 2
 148 549 152 551 154 552 c 2
 232 578 l 1
 233 578 l 1
 234 578 l 1
 234 579 l 1
 235 579 l 1
 236 579 l 1
 237 579 l 1
EndSplineSet
EndChar

StartChar: one
Encoding: 49 49 18
Width: 526
Flags: MW
HStem: 0 26<127.5 132 131 132 132 181 250 261 265 276 345 395> 447 25<152 158> 559 20G<289 292 292 292>
VStem: 224 79<69 481 481 481> 276 27<513 534 534 534>
LayerCount: 2
Fore
SplineSet
276 38 m 2xe8
 275 32 270 27 265 26 c 2
 276 26 l 1
 276 37 l 1
 276 38 l 2xe8
250 38 m 2
 250 37 l 1
 250 26 l 1
 261 26 l 2
 256 27 251 33 250 38 c 2
276 534 m 1
 268 525 l 1
 273 523 276 518 276 513 c 2
 276 534 l 1
289 579 m 2
 292 579 l 1
 293 578 l 1
 294 578 l 1
 295 578 l 2
 296 577 298 576 299 575 c 0
 301 573 303 569 303 566 c 2
 303 564 l 1xe8
 303 69 l 1
 317 40 l 1
 345 26 l 1
 395 26 l 2
 402 26 408 20 408 13 c 0
 408 6 402 0 395 0 c 2
 344 0 l 1
 342 0 l 1
 341 0 l 1
 318 0 l 1
 316 0 l 1
 314 0 l 1
 292 0 l 1
 289 0 l 1
 287 0 l 1
 239 0 l 1
 237 0 l 1
 235 0 l 1
 212 0 l 1
 210 0 l 1
 208 0 l 1
 185 0 l 1
 184 0 l 1
 183 0 l 1
 132 0 l 1
 131 0 l 2
 124 0 118 6 118 13 c 0
 118 20 124 26 131 26 c 2
 132 26 l 1
 181 26 l 1
 209 40 l 1
 224 69 l 1
 224 481 l 1xf0
 220 477 l 2
 219 476 217 476 216 475 c 2
 164 448 l 2
 162 447 159 447 157 447 c 0
 150 447 144 453 144 460 c 0
 144 465 148 470 152 472 c 2
 203 497 l 1
 226 521 l 1
 229 524 l 1
 279 574 l 2
 281 577 285 579 289 579 c 2
EndSplineSet
EndChar

StartChar: two
Encoding: 50 50 19
Width: 526
Flags: MW
HStem: 0 79<75.5 154 291 392> 79 26<111 154 111 111> 394 106<103.5 132 113 132 113 132> 552 27<213 313 213 213>
VStem: 66 26<13 60> 66 105<434 460 432.5 461> 382 79<411 458 458 458> 434 27<100 144 144 145>
LayerCount: 2
Fore
SplineSet
382 352 m 2x32
 380 349 l 2
 379 348 379 347 378 346 c 2
 366 334 l 1
 385 346 l 2
 384 347 382 350 382 352 c 2x32
101 474 m 1
 100 472 l 2
 101 472 103 474 104 474 c 2
 101 474 l 1
386 528 m 1
 387 524 l 2
 388 524 389 525 390 525 c 2
 388 528 l 1
 386 528 l 1
315 579 m 1
 316 579 l 2
 317 579 319 578 320 578 c 2
 321 578 l 1
 399 552 l 2
 401 551 403 550 404 549 c 2
 430 522 l 1
 433 519 l 1
 459 466 l 2
 460 464 461 462 461 460 c 2
 461 408 l 2
 461 406 460 404 459 402 c 2
 433 349 l 2
 432 347 430 345 428 344 c 2
 349 291 l 2
 348 291 348 290 347 290 c 2
 216 238 l 1
 166 213 l 1
 117 164 l 1
 96 101 l 2
 98 103 102 105 105 105 c 2
 156 105 l 1
 158 105 l 1
 160 105 l 1
 162 105 l 1x75
 291 79 l 1
 392 79 l 1
 434 100 l 1
 434 144 l 1
 434 145 l 2
 434 152 440 158 447 158 c 0
 454 158 461 152 461 145 c 2
 461 144 l 1
 461 94 l 1
 461 92 l 2
 461 90 460 87 459 85 c 2
 433 33 l 1
 430 30 l 1
 404 4 l 2
 402 2 398 0 395 0 c 2
 289 0 l 2xb5
 287 0 285 1 283 2 c 2
 154 79 l 1
 111 79 l 1x75
 92 60 l 1
 92 13 l 2
 92 6 86 0 79 0 c 0
 72 0 66 6 66 13 c 2
 66 64 l 1
 66 65 l 1
 66 67 l 1
 66 92 l 1
 66 96 l 1xb9
 93 175 l 2
 94 177 95 179 96 180 c 2
 149 233 l 2
 150 234 151 234 152 235 c 2
 203 261 l 1
 205 262 l 1
 206 262 l 1
 308 313 l 1
 358 363 l 1
 382 411 l 1
 382 458 l 1
 358 530 l 1
 313 552 l 1
 213 552 l 1
 139 528 l 1
 116 505 l 1
 113 500 l 1
 132 500 l 2
 135 500 139 498 141 496 c 2
 167 470 l 2
 169 468 171 463 171 460 c 2
 171 434 l 2
 171 431 169 427 167 425 c 2
 141 398 l 2
 139 396 135 394 132 394 c 2
 105 394 l 2
 102 394 98 396 96 398 c 2
 70 425 l 2
 68 427 66 431 66 434 c 2
 66 460 l 2xb6
 66 462 66 464 67 466 c 2
 93 519 l 1
 96 522 l 1
 122 549 l 2
 123 550 125 551 127 552 c 2
 206 578 l 2
 207 578 210 579 211 579 c 2
 314 579 l 1
 315 579 l 1
EndSplineSet
EndChar

StartChar: three
Encoding: 51 51 20
Width: 526
Flags: MW
HStem: 0 26<206 313 206 313 213 313 213 314 213 316 213 320> 79 105<113 132 113 113> 316 26<233.5 286 237 286> 394 106<103.5 132 113 132 113 132> 552 27<213 286 213 213>
VStem: 66 105<118 144 116.5 145.5 434 460> 355 79<411 483 483 483> 382 79<120 195 195 195>
LayerCount: 2
Fore
SplineSet
387 54 m 2xfc
 386 50 l 1
 388 51 l 1
 390 53 l 2
 389 53 388 54 387 54 c 2xfc
100 106 m 2
 101 104 l 2
 102 104 104 105 105 105 c 1
 104 105 101 105 100 106 c 2
385 267 m 1
 387 261 l 2
 388 261 389 262 390 262 c 2
 385 267 l 1
101 474 m 1
 100 472 l 2
 101 472 103 474 104 474 c 2
 101 474 l 1
289 579 m 1
 291 579 l 1
 316 579 l 2
 317 579 319 578 320 578 c 2
 399 552 l 2
 402 551 406 548 407 545 c 2
 433 492 l 2
 434 490 434 489 434 487 c 2
 434 408 l 2xfe
 434 406 434 404 433 402 c 2
 407 349 l 2
 406 346 402 344 399 343 c 2
 350 326 l 1
 374 314 l 2
 375 313 377 313 378 312 c 2
 430 259 l 1
 433 256 l 1
 459 203 l 2
 460 201 461 199 461 197 c 2
 461 118 l 2
 461 116 460 114 459 112 c 2
 433 60 l 2
 432 59 431 57 430 56 c 2
 404 30 l 2
 403 29 401 28 399 27 c 2
 321 1 l 1
 320 1 l 1
 320 0 l 1
 316 0 l 1
 314 0 l 1
 211 0 l 1
 206 0 l 1
 127 27 l 2
 125 28 123 29 122 30 c 2
 96 56 l 2
 95 57 94 59 93 60 c 2
 67 112 l 2
 66 114 66 116 66 118 c 2
 66 144 l 2
 66 147 68 152 70 154 c 2
 96 180 l 2
 98 182 102 184 105 184 c 2
 132 184 l 2
 135 184 139 182 141 180 c 2
 167 154 l 2
 169 152 171 147 171 144 c 2
 171 118 l 2
 171 115 169 111 167 109 c 2
 141 83 l 2
 139 81 135 79 132 79 c 2
 113 79 l 1
 116 73 l 1
 139 51 l 1
 213 26 l 1
 313 26 l 1
 358 49 l 1
 382 120 l 1
 382 195 l 1xfd
 357 269 l 1
 334 292 l 1
 286 316 l 1
 237 316 l 2
 230 316 224 322 224 329 c 0
 224 336 230 342 237 342 c 2
 286 342 l 1
 332 365 l 1
 355 411 l 1
 355 483 l 1xfe
 332 529 l 1
 286 552 l 1
 213 552 l 1
 139 528 l 1
 116 505 l 1
 113 500 l 1
 132 500 l 2
 135 500 139 498 141 496 c 2
 167 470 l 2
 169 468 171 463 171 460 c 2
 171 434 l 2
 171 431 169 427 167 425 c 2
 141 398 l 2
 139 396 135 394 132 394 c 2
 105 394 l 2
 102 394 98 396 96 398 c 2
 70 425 l 2
 68 427 66 431 66 434 c 2
 66 460 l 2
 66 462 66 464 67 466 c 2
 93 519 l 1
 96 522 l 1
 122 549 l 2
 123 550 125 551 127 552 c 2
 206 578 l 2
 207 578 210 579 211 579 c 2
 288 579 l 1
 289 579 l 1
EndSplineSet
EndChar

StartChar: four
Encoding: 52 52 21
Width: 526
Flags: MW
HStem: 0 26<206.5 211 210 211 211 234 210 235 210 237 303 314 318 329 398 421> 158 26<79 276 79 276 355 474> 559 20G<342 344 344 345 345 345>
VStem: 276 79<69 158 69 158 184 454 454 454> 329 26<513 525 525 525>
LayerCount: 2
Fore
SplineSet
329 38 m 2xe8
 328 32 323 27 318 26 c 2
 329 26 l 1
 329 37 l 1
 329 38 l 2xe8
303 38 m 2
 303 37 l 1
 303 26 l 1
 314 26 l 2
 309 27 304 33 303 38 c 2
276 454 m 1xf0
 79 184 l 1
 276 184 l 1
 276 454 l 1xf0
303 490 m 1
 302 489 l 2
 302 488 303 488 303 487 c 2
 303 490 l 1
329 525 m 1xe8
 326 521 l 2
 328 519 329 516 329 513 c 2
 329 525 l 1xe8
342 579 m 2
 344 579 l 1
 345 579 l 1
 346 578 l 1
 347 578 l 1
 348 577 l 1
 349 577 l 1
 350 576 l 1
 351 575 l 1
 352 574 l 2
 354 572 355 569 355 566 c 2
 355 564 l 1xe8
 355 184 l 1
 474 184 l 2
 481 184 487 178 487 171 c 0
 487 164 481 158 474 158 c 2
 355 158 l 1
 355 69 l 1
 369 40 l 1
 398 26 l 1
 421 26 l 2
 428 26 434 20 434 13 c 0
 434 6 428 0 421 0 c 2
 396 0 l 1
 395 0 l 1
 393 0 l 1
 370 0 l 1
 368 0 l 1
 367 0 l 1
 344 0 l 1
 342 0 l 1
 340 0 l 1
 292 0 l 1
 289 0 l 1
 287 0 l 1
 265 0 l 1
 263 0 l 1
 261 0 l 1
 238 0 l 1
 237 0 l 1
 235 0 l 1
 211 0 l 1
 210 0 l 2
 203 0 197 6 197 13 c 0
 197 20 203 26 210 26 c 2
 211 26 l 1
 234 26 l 1
 262 40 l 1
 276 69 l 1
 276 158 l 1xf0
 53 158 l 2
 46 158 39 164 39 171 c 0
 39 173 41 177 42 179 c 2
 331 572 l 2
 332 574 334 576 336 577 c 0
 337 578 340 579 342 579 c 2
EndSplineSet
EndChar

StartChar: five
Encoding: 53 53 22
Width: 526
Flags: MW
HStem: 0 26<206 286 206 286 213 286 213 288 213 289 213 293 213 294> 79 105<113 132 113 113> 368 26<213 286 213 213> 500 79<132 134 134 237 132 132 237 240> 528 51<349 350 349 349> 553 26
VStem: 66 105<118 144 116.5 145.5> 382 79<170.5 171 171 223 170.5 248 170.5 248>
LayerCount: 2
Fore
SplineSet
387 81 m 2xe3
 385 75 l 1
 390 79 l 2
 389 79 388 81 387 81 c 2xe3
100 106 m 2
 101 104 l 2
 102 104 104 105 105 105 c 1
 104 105 101 105 100 106 c 2
385 319 m 1
 387 314 l 2
 388 314 389 315 390 315 c 2
 385 319 l 1
131 579 m 2xe7
 134 579 l 1xf3
 394 579 l 1
 395 579 l 2
 398 579 402 577 404 575 c 2
 405 574 l 1
 406 573 l 1
 406 572 l 1
 407 571 l 1
 407 570 l 1
 408 569 l 1
 408 568 l 1
 408 566 l 1
 408 563 l 1
 407 561 l 1
 407 560 l 2
 406 558 404 555 402 554 c 0
 401 554 400 553 399 553 c 2xe7
 350 528 l 1
 349 528 l 2xeb
 348 527 346 526 344 526 c 2
 240 500 l 1
 237 500 l 1
 132 500 l 1xf3
 100 342 l 1
 122 364 l 2
 123 365 125 366 127 367 c 2
 206 394 l 1
 211 394 l 1
 288 394 l 1
 289 395 l 2
 290 395 293 394 294 394 c 2
 373 367 l 2
 375 366 377 365 378 364 c 2
 430 312 l 2
 431 311 433 309 434 307 c 2
 460 228 l 2
 460 227 461 224 461 223 c 2
 461 171 l 2
 461 170 460 168 460 167 c 2
 434 88 l 2
 433 86 431 84 430 83 c 2
 378 30 l 2
 377 29 375 28 373 27 c 2
 295 1 l 1
 294 1 l 1
 294 0 l 1
 293 0 l 1
 289 0 l 1
 288 0 l 1
 211 0 l 1
 206 0 l 1
 127 27 l 2
 125 28 123 29 122 30 c 2
 96 56 l 2
 95 57 94 59 93 60 c 2
 67 112 l 2
 66 114 66 116 66 118 c 2
 66 144 l 2
 66 147 68 152 70 154 c 2
 96 180 l 2
 98 182 102 184 105 184 c 2
 132 184 l 2
 135 184 139 182 141 180 c 2
 167 154 l 2
 169 152 171 147 171 144 c 2
 171 118 l 2
 171 115 169 111 167 109 c 2
 141 83 l 2
 139 81 135 79 132 79 c 2
 113 79 l 1
 116 73 l 1
 139 51 l 1
 213 26 l 1
 286 26 l 1
 334 50 l 1
 357 73 l 1
 382 147 l 1
 382 248 l 1
 357 322 l 1
 334 344 l 1
 286 368 l 1
 213 368 l 1
 139 343 l 1
 88 293 l 2
 86 291 82 289 79 289 c 0
 72 289 66 295 66 302 c 2
 66 305 l 1
 118 566 l 2
 118 569 120 573 122 575 c 2
 123 576 l 2
 125 578 128 579 131 579 c 2xe7
EndSplineSet
EndChar

StartChar: six
Encoding: 54 54 23
Width: 526
Flags: MW
HStem: 0 26<233 286 233 286 237 286 240 286 240 288 240 289 240 293 240 294> 342 26<240 240 240 286> 421 105<366.5 387 368 387 368 395> 552 27<266 339 266 266>
VStem: 66 79<167 247 173 247 173 305 305 329 329 332 332 332> 329 105<460 487> 382 79<170.5 171 171 197 170.5 221 170.5 221>
LayerCount: 2
Fore
SplineSet
387 81 m 2xf8
 385 75 l 1
 390 79 l 2
 389 79 388 81 387 81 c 2xf8
385 293 m 1
 387 287 l 2
 388 287 389 288 390 288 c 2
 385 293 l 1
240 342 m 1
 192 318 l 1
 169 295 l 1
 145 247 l 1
 145 173 l 1
 170 97 l 1
 194 49 l 1
 240 26 l 1
 286 26 l 1
 334 50 l 1
 357 73 l 1
 382 147 l 1
 382 221 l 1xfa
 357 295 l 1
 334 318 l 1
 286 342 l 1
 240 342 l 1
399 501 m 2
 398 501 396 500 395 500 c 1
 396 500 399 499 400 498 c 2
 399 501 l 2
263 579 m 2
 265 579 l 1
 342 579 l 2
 344 579 346 578 348 577 c 2
 401 551 l 2
 403 550 406 547 407 545 c 2
 433 492 l 2
 434 490 434 489 434 487 c 2
 434 460 l 2
 434 457 432 453 430 451 c 2
 404 425 l 2
 402 423 398 421 395 421 c 2
 368 421 l 2
 365 421 361 423 359 425 c 2
 333 451 l 2
 331 453 329 457 329 460 c 2
 329 487 l 2
 329 490 331 494 333 496 c 2
 359 522 l 2
 361 524 365 526 368 526 c 2
 387 526 l 1
 385 529 l 1
 339 552 l 1
 266 552 l 1
 218 528 l 1
 195 505 l 1
 170 456 l 1
 145 353 l 1
 145 305 l 1
 146 308 l 2
 147 309 148 311 149 312 c 2
 175 338 l 2
 176 339 177 339 178 340 c 2
 231 367 l 2
 233 368 235 368 237 368 c 2
 288 368 l 1
 289 368 l 2
 290 368 293 367 294 367 c 2
 373 341 l 2
 375 340 377 339 378 338 c 2
 430 285 l 2
 431 284 433 282 434 280 c 2xfc
 460 201 l 2
 460 200 461 198 461 197 c 2
 461 171 l 2xfa
 461 170 460 168 460 167 c 2
 434 88 l 2xfc
 433 86 431 84 430 83 c 2
 378 30 l 2
 377 29 375 28 373 27 c 2
 295 1 l 1
 294 1 l 1
 294 0 l 1
 293 0 l 1
 289 0 l 1
 288 0 l 1
 239 0 l 1
 237 0 l 1
 233 0 l 1
 232 1 l 1
 154 27 l 2
 152 28 150 29 149 30 c 2
 96 83 l 2
 95 84 94 86 93 88 c 2
 66 167 l 1
 66 171 l 1
 66 329 l 1
 66 332 l 1
 93 437 l 1
 93 440 l 1
 120 492 l 2
 121 493 121 495 122 496 c 2
 175 549 l 2
 176 550 178 551 180 552 c 2
 258 578 l 1
 259 578 l 2
 260 578 262 579 263 579 c 2
EndSplineSet
EndChar

StartChar: seven
Encoding: 55 55 24
Width: 526
Flags: MW
HStem: 0 21G<207.5 211 211 235 235 237 237 239 239 261 261 263> 394 21G 473 27<346 389> 500 79<161 209 161 161>
VStem: 66 26<407 408 408 455 516 566> 197 79<13 15 15 117> 434 27<489 510 510 510>
LayerCount: 2
Fore
SplineSet
79 579 m 0xde
 86 579 92 573 92 566 c 2
 92 516 l 1
 93 519 l 1
 96 522 l 1
 149 575 l 2
 151 577 155 579 158 579 c 2
 211 579 l 2xde
 213 579 215 578 217 577 c 2
 346 500 l 1
 389 500 l 1xee
 410 521 l 1
 435 570 l 2
 436 573 439 577 442 578 c 2
 443 578 l 2
 444 578 446 579 447 579 c 2
 448 579 l 1
 449 579 l 1
 450 579 l 1xde
 451 578 l 1
 452 578 l 1
 453 577 l 1
 455 577 l 1
 456 576 l 1
 457 575 l 1
 458 574 l 2
 459 573 460 570 460 569 c 0
 460 568 461 567 461 566 c 2
 461 564 l 1
 461 487 l 2
 461 486 460 483 460 482 c 2
 434 405 l 2
 434 404 434 403 433 402 c 2
 433 401 l 1
 432 400 l 1
 431 400 l 1
 431 399 l 1
 327 269 l 1
 302 219 l 1
 276 117 l 1
 276 15 l 1
 276 13 l 2
 276 10 276 7 274 5 c 2
 273 4 l 1
 272 3 l 2
 270 1 266 0 263 0 c 2
 261 0 l 1
 239 0 l 1
 237 0 l 1
 235 0 l 1
 211 0 l 2
 204 0 197 6 197 13 c 2
 197 118 l 2
 197 119 198 121 198 122 c 2
 224 201 l 2
 224 202 225 203 226 204 c 2
 279 283 l 2
 279 284 279 284 280 285 c 2
 410 415 l 1
 434 489 l 1
 434 510 l 1
 433 507 l 1
 430 504 l 1
 404 477 l 2
 402 475 398 473 395 473 c 2
 343 473 l 1
 342 473 l 1xee
 340 474 l 1
 339 474 l 1
 209 500 l 1
 161 500 l 1
 113 476 l 1
 92 455 l 1
 92 408 l 1
 92 407 l 2
 92 400 86 394 79 394 c 0
 72 394 66 400 66 407 c 2
 66 408 l 1
 66 459 l 1
 66 460 l 1
 66 461 l 1
 66 462 l 1
 66 566 l 2
 66 573 72 579 79 579 c 0xde
EndSplineSet
EndChar

StartChar: eight
Encoding: 56 56 25
Width: 526
Flags: MW
HStem: 0 26<206 313 206 313 211 313 214 313 214 314 214 316 214 320> 316 26<214 310 216 310 216 313> 552 27<216 216 216 310>
VStem: 66 79<120 221 120 223 120 224> 92 79<411 483 411 487 411 488> 355 79<411 483 483 483> 382 79<120 221 221 221>
LayerCount: 2
Fore
SplineSet
139 54 m 2xe0
 138 54 137 53 136 53 c 2
 139 51 l 1
 140 50 l 1
 139 54 l 2xe0
387 54 m 2
 386 50 l 1
 388 51 l 1
 390 53 l 2
 389 53 388 54 387 54 c 2
386 291 m 1
 387 287 l 2
 388 287 389 288 390 288 c 2
 388 291 l 1
 386 291 l 1
140 291 m 1
 139 291 l 1
 136 289 l 2
 137 289 138 287 139 287 c 2
 140 291 l 1
214 316 m 1
 169 293 l 1
 145 221 l 1
 145 120 l 1
 169 49 l 1
 214 26 l 1
 313 26 l 1
 358 49 l 1
 382 120 l 1
 382 221 l 1xf2
 358 293 l 1
 313 316 l 1
 214 316 l 1
216 552 m 1
 195 531 l 1
 171 483 l 1
 171 411 l 1
 195 363 l 1
 216 342 l 1
 310 342 l 1
 331 363 l 1
 355 411 l 1
 355 483 l 1xec
 331 531 l 1
 310 552 l 1
 216 552 l 1
316 579 m 2
 317 579 320 579 321 578 c 2
 399 552 l 2
 402 551 406 548 407 545 c 2
 433 492 l 2
 434 490 434 489 434 487 c 2
 434 408 l 2xec
 434 406 434 404 433 402 c 2
 407 349 l 2
 406 346 402 344 399 343 c 2
 357 329 l 1
 399 315 l 2
 401 314 403 313 404 312 c 2
 430 285 l 1
 433 282 l 1
 459 229 l 2
 460 227 461 225 461 223 c 2
 461 118 l 2
 461 116 460 114 459 112 c 2
 433 60 l 2
 432 59 431 57 430 56 c 2
 404 30 l 2
 403 29 401 28 399 27 c 2
 321 1 l 1
 320 1 l 1
 320 0 l 1
 316 0 l 1
 314 0 l 1
 212 0 l 1
 211 0 l 1
 206 0 l 1
 206 1 l 1
 127 27 l 2
 125 28 123 29 122 30 c 2
 96 56 l 2
 95 57 94 59 93 60 c 2
 67 112 l 2
 66 114 66 116 66 118 c 2
 66 223 l 2xf2
 66 225 66 227 67 229 c 2
 93 282 l 1
 96 285 l 1
 122 312 l 2
 123 313 125 314 127 315 c 2
 169 329 l 1
 127 343 l 2
 124 344 121 346 120 349 c 2
 93 402 l 2
 92 404 92 406 92 408 c 2
 92 487 l 2
 92 489 92 490 93 492 c 2
 120 545 l 2
 121 548 124 551 127 552 c 2
 205 578 l 1
 206 578 l 1
 207 578 l 2
 208 578 209 579 210 579 c 2
 211 579 l 1
 212 579 l 1
 314 579 l 1
 316 579 l 2
EndSplineSet
EndChar

StartChar: nine
Encoding: 57 57 26
Width: 526
Flags: MW
HStem: 0 26<183 260 187 260 187 261 187 263 187 267> 52 106<140 158 140 140> 210 27<240 286> 552 27<240 240 240 286>
VStem: 66 79<377 381 381 408 408 412 412 412> 92 105<92 118 90.5 119.5> 382 79<249.5 250 250 273 273 273 332 405 405 405>
LayerCount: 2
Fore
SplineSet
126 80 m 2xf2
 127 78 l 2
 128 78 130 79 131 79 c 1
 130 79 127 79 126 80 c 2xf2
139 291 m 2
 138 291 137 290 136 290 c 2
 141 285 l 1
 139 291 l 2
141 504 m 1
 136 499 l 2
 137 499 138 498 139 498 c 2
 141 504 l 1
240 552 m 1
 192 528 l 1
 169 506 l 1
 145 432 l 1
 145 357 l 1xfa
 169 283 l 1
 192 261 l 1
 240 237 l 1
 286 237 l 1
 334 261 l 1
 358 284 l 1
 382 332 l 1
 382 405 l 1
 356 482 l 1
 332 529 l 1
 286 552 l 1
 240 552 l 1
237 579 m 2
 239 579 l 1
 288 579 l 1
 289 579 l 2
 290 579 293 578 294 578 c 2
 373 552 l 2
 375 551 377 550 378 549 c 2
 430 496 l 2
 431 495 433 493 434 491 c 2
 460 412 l 2
 460 411 461 409 461 408 c 2
 461 250 l 2
 461 249 460 248 460 247 c 2
 434 141 l 2
 434 140 433 140 433 139 c 2
 407 86 l 1
 404 83 l 1
 351 30 l 2
 350 29 348 28 346 27 c 2
 268 1 l 1
 267 0 l 1
 263 0 l 1
 261 0 l 1
 184 0 l 2
 182 0 180 0 178 1 c 2
 126 27 l 2
 124 28 121 31 120 33 c 2
 93 86 l 2
 92 88 92 90 92 92 c 2
 92 118 l 2
 92 121 94 125 96 127 c 2
 122 154 l 2
 124 156 129 158 132 158 c 2
 158 158 l 2
 161 158 165 156 167 154 c 2
 194 127 l 2
 196 125 197 121 197 118 c 2
 197 92 l 2xf6
 197 89 196 85 194 83 c 2
 167 56 l 2
 165 54 161 52 158 52 c 2
 140 52 l 1
 141 49 l 1
 187 26 l 1
 260 26 l 1
 308 50 l 1
 331 73 l 1
 356 123 l 1
 382 225 l 1
 382 273 l 1
 380 270 l 2
 379 269 379 268 378 267 c 2
 351 240 l 2
 350 239 349 239 348 238 c 2
 295 212 l 2
 293 211 291 210 289 210 c 2
 239 210 l 1
 237 210 l 2
 236 210 234 211 233 211 c 2
 232 211 l 1
 154 237 l 2
 152 238 150 239 149 240 c 2
 96 293 l 2
 95 294 94 296 93 298 c 2
 66 377 l 1
 66 381 l 1
 66 408 l 1
 66 412 l 1
 93 491 l 2
 94 493 95 495 96 496 c 2
 149 549 l 2
 150 550 152 551 154 552 c 2
 232 578 l 1
 233 578 l 2
 234 578 236 579 237 579 c 2
EndSplineSet
EndChar

StartChar: colon
Encoding: 58 58 27
Width: 315
Flags: MW
HStem: 0 105<131 132 131 132 132 134 134 158> 289 105<127 132 134 158 127 158>
VStem: 92 105<39 66 37.5 67.5 329 355>
LayerCount: 2
Fore
SplineSet
131 105 m 2
 132 105 l 1
 134 105 l 1
 158 105 l 2
 161 105 165 103 167 101 c 2
 194 75 l 2
 196 73 197 69 197 66 c 2
 197 39 l 2
 197 36 196 32 194 30 c 2
 167 4 l 2
 165 2 161 0 158 0 c 2
 132 0 l 2
 129 0 124 2 122 4 c 2
 96 30 l 2
 94 32 92 36 92 39 c 2
 92 66 l 2
 92 69 94 73 96 75 c 2
 121 100 l 2
 122 101 124 102 125 103 c 2
 126 104 l 1
 127 104 l 1
 128 104 l 2
 129 104 130 105 131 105 c 2
131 395 m 2
 132 395 l 1
 134 394 l 1
 158 394 l 2
 161 394 165 393 167 391 c 2
 194 364 l 2
 196 362 197 358 197 355 c 2
 197 329 l 2
 197 326 196 321 194 319 c 2
 167 293 l 2
 165 291 161 289 158 289 c 2
 132 289 l 2
 129 289 124 291 122 293 c 2
 96 319 l 2
 94 321 92 326 92 329 c 2
 92 355 l 2
 92 358 94 362 96 364 c 2
 121 389 l 1
 125 393 l 1
 126 393 l 1
 127 394 l 1
 128 394 l 2
 129 394 130 395 131 395 c 2
EndSplineSet
EndChar

StartChar: semicolon
Encoding: 59 59 28
Width: 315
Flags: MW
HStem: -106 25<99 106> 0 105<130.5 158 132 152> 289 105<127 132 134 158 127 158>
VStem: 92 105<-96.5 -14 39 41 41 66 -15 67.5 329 355>
LayerCount: 2
Fore
SplineSet
132 105 m 2
 158 105 l 2
 161 105 165 103 167 101 c 2
 194 75 l 2
 196 73 197 69 197 66 c 2
 197 41 l 1
 197 39 l 1
 197 38 l 1
 197 -12 l 1
 197 -14 l 2
 197 -16 196 -19 195 -21 c 2
 170 -71 l 1
 170 -72 l 2
 169 -75 165 -78 162 -79 c 2
 111 -104 l 2
 109 -105 107 -106 105 -106 c 0
 98 -106 92 -100 92 -93 c 0
 92 -88 95 -83 99 -81 c 2
 147 -57 l 1
 159 -7 l 1
 152 0 l 1
 132 0 l 2
 129 0 124 2 122 4 c 2
 96 30 l 2
 94 32 92 36 92 39 c 2
 92 66 l 2
 92 69 94 73 96 75 c 2
 122 101 l 2
 124 103 129 105 132 105 c 2
131 395 m 2
 132 395 l 1
 134 394 l 1
 158 394 l 2
 161 394 165 393 167 391 c 2
 194 364 l 2
 196 362 197 358 197 355 c 2
 197 329 l 2
 197 326 196 321 194 319 c 2
 167 293 l 2
 165 291 161 289 158 289 c 2
 132 289 l 2
 129 289 124 291 122 293 c 2
 96 319 l 2
 94 321 92 326 92 329 c 2
 92 355 l 2
 92 358 94 362 96 364 c 2
 121 389 l 1
 125 393 l 1
 126 393 l 1
 127 394 l 1
 128 394 l 2
 129 394 130 395 131 395 c 2
EndSplineSet
EndChar

StartChar: less
Encoding: 60 60 29
Width: 631
Flags: MW
HStem: 0 21G<525 529.5>
LayerCount: 2
Fore
SplineSet
526 500 m 2
 527 500 l 2
 534 500 540 494 540 487 c 0
 540 483 537 477 533 475 c 2
 132 250 l 1
 533 24 l 2
 537 22 539 17 539 13 c 0
 539 6 533 0 526 0 c 0
 524 0 522 0 520 1 c 2
 99 238 l 2
 95 240 92 246 92 250 c 0
 92 254 95 259 99 261 c 2
 520 498 l 2
 521 499 524 500 526 500 c 2
EndSplineSet
EndChar

StartChar: equal
Encoding: 61 61 30
Width: 684
Flags: MW
HStem: 131 53<101.5 107 105 107 107 551 551 553> 342 52<101.5 553 107 551 551 553>
LayerCount: 2
Fore
SplineSet
105 184 m 2
 107 184 l 1
 553 184 l 2
 560 184 566 178 566 171 c 2
 566 147 l 1
 566 144 l 2
 566 141 565 138 563 136 c 2
 562 135 l 1
 561 134 l 2
 559 132 556 131 553 131 c 2
 551 131 l 1
 105 131 l 2
 98 131 92 137 92 144 c 2
 92 169 l 1
 92 171 l 2
 92 174 93 177 95 179 c 2
 96 180 l 1
 96 181 l 1
 97 181 l 2
 99 183 102 184 105 184 c 2
105 395 m 0
 106 395 106 394 107 394 c 2
 553 394 l 2
 560 394 566 388 566 381 c 2
 566 357 l 1
 566 355 l 2
 566 352 565 349 563 347 c 2
 562 346 l 1
 561 345 l 2
 559 343 556 342 553 342 c 2
 551 342 l 1
 105 342 l 2
 98 342 92 348 92 355 c 2
 92 379 l 1
 92 381 l 2
 92 384 93 388 95 390 c 2
 96 391 l 1
 97 391 l 2
 99 393 102 395 105 395 c 0
EndSplineSet
EndChar

StartChar: greater
Encoding: 62 62 31
Width: 631
Flags: MW
HStem: 0 21G<101.5 106>
LayerCount: 2
Fore
SplineSet
104 500 m 2
 105 500 l 2
 107 500 110 499 112 498 c 2
 533 261 l 2
 537 259 539 254 539 250 c 0
 539 246 537 240 533 238 c 2
 112 1 l 2
 110 0 107 0 105 0 c 0
 98 0 92 6 92 13 c 0
 92 17 95 22 99 24 c 2
 499 250 l 1
 99 475 l 2
 95 477 92 483 92 487 c 0
 92 494 97 500 104 500 c 2
EndSplineSet
EndChar

StartChar: question
Encoding: 63 63 32
Width: 526
Flags: MW
HStem: 0 105<235.5 239 237 239 239 263> 394 27<75.5 103 92 103 107 118 92 132> 394 79<75.5 132 105 132 105 132> 552 27<187 286 187 187>
VStem: 66 26<421 434 421 460> 92 26<421 433 421 434 421 433> 118 27<421 433 430 433> 197 106<39 66 37.5 67.5> 224 52<197 268> 355 79<407 408 408 460 407 483 407 483>
LayerCount: 2
Fore
SplineSet
237 105 m 2x9140
 239 105 l 1
 263 105 l 2
 266 105 270 103 272 101 c 2
 299 75 l 2
 301 73 303 69 303 66 c 2
 303 39 l 2
 303 36 301 32 299 30 c 2
 272 4 l 2
 270 2 266 0 263 0 c 2
 237 0 l 2
 234 0 230 2 228 4 c 2
 201 30 l 2
 199 32 197 36 197 39 c 2
 197 66 l 2
 197 69 199 73 201 75 c 2
 226 100 l 2
 227 101 229 102 230 103 c 2
 231 103 l 1
 231 104 l 1
 232 104 l 1
 233 104 l 2
 234 104 236 105 237 105 c 2x9140
118 433 m 2xd440
 118 427 113 422 107 421 c 2
 118 421 l 1xd240
 118 433 l 2xd440
92 434 m 2xd840
 92 421 l 1
 103 421 l 2
 97 422 92 428 92 434 c 2xd840
289 579 m 2
 290 579 293 578 294 578 c 2
 373 552 l 2
 375 551 377 550 378 549 c 2
 404 522 l 1
 407 519 l 1
 433 466 l 2
 434 464 434 462 434 460 c 2
 434 408 l 2
 434 406 434 404 433 402 c 2
 407 349 l 1
 404 346 l 1
 378 319 l 2
 377 318 375 318 374 317 c 2
 323 291 l 2
 322 291 322 290 321 290 c 2
 276 268 l 1
 276 197 l 2
 276 190 270 184 263 184 c 2
 237 184 l 2
 230 184 224 190 224 197 c 2
 224 274 l 1
 224 276 l 2
 224 279 224 282 226 284 c 2
 227 285 l 1
 228 286 l 2
 230 288 234 289 237 289 c 2
 239 289 l 1
 260 289 l 1
 308 313 l 1
 331 336 l 1
 355 384 l 1
 355 483 l 1
 332 529 l 1
 286 552 l 1
 187 552 l 1
 139 528 l 1
 116 505 l 1
 100 472 l 2
 101 473 103 473 105 473 c 2
 132 473 l 2
 139 473 145 467 145 460 c 2
 145 408 l 2
 145 401 139 394 132 394 c 2xbac0
 79 394 l 2
 72 394 66 401 66 408 c 2
 66 460 l 2
 66 462 66 464 67 466 c 2
 93 519 l 1
 96 522 l 1
 122 549 l 2
 123 550 125 550 126 551 c 2
 178 577 l 2
 180 578 182 579 184 579 c 2
 288 579 l 1
 289 579 l 2
EndSplineSet
EndChar

StartChar: at
Encoding: 64 64 33
Width: 736
Flags: MW
HStem: 0 26<312 393 312 393 318 393 318 395 318 399> 131 27<289 365 290 365 295 365 295 368 505 547> 421 26<321 321 321 392> 552 27<318 393 318 318>
VStem: 66 26<246 327 252 327 252 329 252 333 252 333> 197 53<227 300 227 302 227 302.5> 487 26<432 436 432 436> 618 27<278 327 327 327>
LayerCount: 2
Fore
SplineSet
321 421 m 1
 275 374 l 1
 250 300 l 1
 250 227 l 1
 274 179 l 1
 295 158 l 1
 365 158 l 1
 411 181 l 1
 435 227 l 1
 452 368 l 1
 438 398 l 1
 392 421 l 1
 321 421 l 1
316 579 m 2
 395 579 l 2
 396 579 398 578 399 578 c 2
 478 552 l 1
 480 551 l 1
 532 525 l 2
 533 524 535 523 536 522 c 2
 588 470 l 2
 589 469 590 467 591 466 c 2
 617 413 l 1
 618 412 l 1
 644 333 l 2
 644 332 645 330 645 329 c 2
 645 276 l 2
 645 275 644 273 644 272 c 2
 618 193 l 2
 617 191 616 189 615 188 c 2
 562 135 l 2
 560 133 556 131 553 131 c 2
 502 131 l 1
 500 131 l 2
 498 131 495 132 493 133 c 2
 442 159 l 2
 439 161 435 165 434 168 c 2
 433 165 l 2
 432 163 429 160 427 159 c 2
 374 133 l 2
 372 132 370 131 368 131 c 2
 291 131 l 1
 290 131 l 2
 288 131 285 132 283 133 c 2
 231 159 l 2
 229 160 226 163 225 165 c 2
 199 218 l 2
 198 220 197 221 197 223 c 2
 197 302 l 2
 197 303 198 306 198 307 c 2
 224 385 l 2
 225 387 227 390 228 391 c 2
 254 417 l 2
 255 418 256 418 257 419 c 2
 309 445 l 1
 311 446 l 2
 312 447 314 447 316 447 c 2
 318 447 l 1
 395 447 l 2
 397 447 399 447 401 446 c 2
 453 419 l 2
 455 418 457 416 458 415 c 2
 461 436 l 2
 462 442 467 447 474 447 c 0
 481 447 487 442 487 435 c 2
 487 436 l 2
 488 442 494 447 500 447 c 0
 507 447 513 441 513 434 c 2
 513 432 l 1
 487 223 l 1
 487 176 l 1
 505 158 l 1
 547 158 l 1
 594 204 l 1
 618 278 l 1
 618 327 l 1
 593 403 l 1
 568 452 l 1
 519 502 l 1
 469 527 l 1
 393 552 l 1
 318 552 l 1
 242 527 l 1
 192 502 l 1
 142 452 l 1
 117 403 l 1
 92 327 l 1
 92 252 l 1
 117 176 l 1
 142 126 l 1
 192 76 l 1
 242 51 l 1
 318 26 l 1
 393 26 l 1
 469 51 l 1
 519 76 l 1
 543 101 l 2
 545 103 550 105 553 105 c 0
 560 105 566 99 566 92 c 0
 566 89 564 85 562 83 c 2
 536 56 l 2
 535 55 533 55 532 54 c 2
 480 27 l 1
 478 27 l 1
 399 0 l 1
 395 0 l 1
 316 0 l 1
 312 0 l 1
 233 27 l 1
 231 27 l 1
 178 54 l 2
 177 55 176 55 175 56 c 2
 122 109 l 2
 121 110 121 111 120 112 c 2
 93 165 l 1
 93 167 l 1
 66 246 l 1
 66 250 l 1
 66 329 l 1
 66 333 l 1
 93 412 l 1
 93 413 l 1
 120 466 l 2
 121 467 121 469 122 470 c 2
 175 522 l 1
 178 525 l 1
 231 551 l 1
 233 552 l 1
 312 578 l 2
 313 578 315 579 316 579 c 2
EndSplineSet
EndChar

StartChar: A
Encoding: 65 65 34
Width: 526
Flags: MW
HStem: 0 26<22.5 47 26 47 26 51 26 52 26 54 26 130 135 184 316 339 479 500> 158 26<144 324 144 333 134 324> 559 20G<261 262 262 263 263 264 264 265 265 265>
LayerCount: 2
Fore
SplineSet
236 448 m 1
 144 184 l 1
 324 184 l 1
 236 448 l 1
263 525 m 1
 252 494 l 2
 254 497 259 500 263 500 c 0
 266 500 270 498 272 496 c 2
 263 525 l 1
262 579 m 1
 263 579 l 1
 264 579 l 1
 265 579 l 1
 266 578 l 1
 267 578 l 1
 268 578 l 2
 269 578 269 577 270 577 c 0
 273 575 275 572 276 569 c 2
 446 59 l 1
 479 26 l 1
 500 26 l 2
 507 26 513 20 513 13 c 0
 513 6 507 0 500 0 c 2
 475 0 l 1
 474 0 l 1
 472 0 l 1
 449 0 l 1
 447 0 l 1
 445 0 l 1
 423 0 l 1
 421 0 l 1
 419 0 l 1
 397 0 l 1
 395 0 l 1
 393 0 l 1
 370 0 l 1
 368 0 l 1
 366 0 l 1
 343 0 l 1
 342 0 l 1
 340 0 l 1
 316 0 l 2
 309 0 302 6 302 13 c 0
 302 20 309 26 316 26 c 2
 339 26 l 1
 367 40 l 1
 370 45 l 1
 333 158 l 1
 134 158 l 1
 95 46 l 1
 135 26 l 1
 184 26 l 2
 191 26 198 20 198 13 c 0
 198 6 191 0 184 0 c 2
 133 0 l 1
 132 0 l 1
 130 0 l 1
 54 0 l 1
 52 0 l 1
 51 0 l 1
 26 0 l 2
 19 0 13 6 13 13 c 0
 13 20 19 26 26 26 c 2
 47 26 l 1
 67 46 l 1
 250 569 l 2
 251 571 252 574 254 575 c 0
 255 576 255 577 256 577 c 2
 257 577 l 1
 258 578 l 1
 259 578 l 1
 260 578 l 1
 261 579 l 1
 262 579 l 1
EndSplineSet
EndChar

StartChar: B
Encoding: 66 66 35
Width: 578
Flags: MW
HStem: 0 26<48.5 53 52 53 53 76 52 77 52 79 145 156 160 171 240 365> 289 27<197 365 197 365> 552 27<48.5 53 52 53 53 76 145 145 145 156 160 160 160 171 240 240 240 365>
VStem: 118 79<69 289 69 316 316 510> 434 79<117 118 118 197 407 408 408 460>
LayerCount: 2
Fore
SplineSet
171 38 m 2
 170 32 165 27 160 26 c 2
 171 26 l 1
 171 37 l 1
 171 38 l 2
145 38 m 2
 145 37 l 1
 145 26 l 1
 156 26 l 2
 151 27 146 33 145 38 c 2
197 289 m 1
 197 69 l 1
 212 40 l 1
 240 26 l 1
 365 26 l 1
 411 49 l 1
 434 95 l 1
 434 220 l 1
 411 266 l 1
 365 289 l 1
 197 289 l 1
240 552 m 1
 212 538 l 1
 197 510 l 1
 197 316 l 1
 365 316 l 1
 411 339 l 1
 434 384 l 1
 434 483 l 1
 411 529 l 1
 365 552 l 1
 240 552 l 1
160 552 m 2
 165 551 170 546 171 541 c 2
 171 552 l 1
 160 552 l 2
145 552 m 1
 145 541 l 2
 146 547 151 551 156 552 c 2
 145 552 l 1
131 579 m 1
 134 579 l 1
 182 579 l 1
 184 579 l 1
 186 579 l 1
 209 579 l 1
 211 579 l 1
 213 579 l 1
 236 579 l 1
 237 579 l 1
 239 579 l 1
 367 579 l 1
 368 579 l 2
 369 579 372 578 373 578 c 2
 452 552 l 2
 454 551 456 550 457 549 c 2
 483 522 l 2
 484 521 484 520 485 519 c 2
 512 466 l 2
 513 464 513 462 513 460 c 2
 513 408 l 2
 513 406 513 404 512 402 c 2
 485 349 l 2
 484 348 484 347 483 346 c 2
 457 319 l 2
 456 318 454 317 452 316 c 2
 410 302 l 1
 452 289 l 2
 454 288 456 286 457 285 c 2
 483 259 l 2
 484 258 484 257 485 256 c 2
 512 203 l 2
 513 201 513 199 513 197 c 2
 513 118 l 2
 513 116 513 114 512 112 c 2
 485 60 l 2
 484 59 484 57 483 56 c 2
 457 30 l 2
 456 29 454 28 452 27 c 2
 373 1 l 1
 373 0 l 1
 372 0 l 1
 368 0 l 1
 367 0 l 1
 239 0 l 1
 237 0 l 1
 236 0 l 1
 213 0 l 1
 211 0 l 1
 209 0 l 1
 186 0 l 1
 184 0 l 1
 182 0 l 1
 134 0 l 1
 132 0 l 1
 129 0 l 1
 107 0 l 1
 105 0 l 1
 103 0 l 1
 80 0 l 1
 79 0 l 1
 77 0 l 1
 53 0 l 1
 52 0 l 2
 45 0 39 6 39 13 c 0
 39 20 45 26 52 26 c 2
 53 26 l 1
 76 26 l 1
 104 40 l 1
 118 69 l 1
 118 510 l 1
 104 538 l 1
 76 552 l 1
 53 552 l 1
 52 552 l 2
 45 552 39 559 39 566 c 0
 39 573 45 579 52 579 c 2
 53 579 l 1
 77 579 l 1
 79 579 l 1
 80 579 l 1
 103 579 l 1
 105 579 l 1
 107 579 l 1
 129 579 l 1
 131 579 l 1
EndSplineSet
EndChar

StartChar: C
Encoding: 67 67 36
Width: 526
Flags: MW
HStem: 0 26<259 339 259 339 263 339 266 339 266 342> 394 21G<471.5 477.5> 552 27<266 339 266 266>
VStem: 66 79<219 353 225 353 225 355 225 359 225 359> 461 26
LayerCount: 2
Fore
SplineSet
166 82 m 2
 165 81 164 79 163 79 c 2
 179 64 l 1
 166 82 l 2
179 515 m 1
 163 499 l 2
 164 499 165 498 166 497 c 2
 179 515 l 1
263 579 m 2
 265 579 l 1
 342 579 l 2
 344 579 346 578 348 577 c 2
 401 551 l 2
 402 550 403 550 404 549 c 2
 442 511 l 1
 461 570 l 2
 463 575 469 579 474 579 c 0
 481 579 487 573 487 566 c 2
 487 408 l 2
 487 401 481 394 474 394 c 0
 469 394 463 398 461 403 c 2
 436 479 l 1
 387 528 l 1
 339 552 l 1
 266 552 l 1
 220 529 l 1
 170 455 l 1
 145 353 l 1
 145 225 l 1
 170 124 l 1
 220 49 l 1
 266 26 l 1
 339 26 l 1
 387 50 l 1
 437 100 l 1
 462 150 l 2
 464 154 469 158 474 158 c 0
 481 158 487 152 487 145 c 0
 487 143 486 141 485 139 c 2
 459 86 l 2
 458 85 458 84 457 83 c 2
 404 30 l 1
 401 27 l 1
 348 1 l 2
 346 0 344 0 342 0 c 2
 265 0 l 1
 263 0 l 1
 259 0 l 1
 258 1 l 1
 180 27 l 2
 178 28 176 29 175 30 c 2
 122 83 l 2
 121 84 121 85 120 86 c 2
 93 139 l 1
 93 140 l 1
 66 219 l 1
 66 223 l 1
 66 355 l 1
 66 359 l 1
 93 438 l 1
 93 440 l 1
 120 492 l 2
 121 493 121 495 122 496 c 2
 175 549 l 2
 176 550 178 551 180 552 c 2
 258 578 l 1
 259 578 l 2
 260 578 262 579 263 579 c 2
EndSplineSet
EndChar

StartChar: D
Encoding: 68 68 37
Width: 578
Flags: MW
HStem: 0 26<48.5 53 52 53 53 76 52 77 52 79 145 156 160 171 240 313> 552 27<48.5 53 52 53 53 76 145 145 145 156 160 160 160 171 240 240 240 313>
VStem: 118 79<69 510 69 510> 434 79<225 353 353 353>
LayerCount: 2
Fore
SplineSet
171 38 m 2
 170 32 165 27 160 26 c 2
 171 26 l 1
 171 37 l 1
 171 38 l 2
145 38 m 2
 145 37 l 1
 145 26 l 1
 156 26 l 2
 151 27 146 33 145 38 c 2
413 82 m 2
 400 64 l 1
 416 79 l 2
 415 79 414 81 413 82 c 2
400 515 m 1
 413 497 l 2
 414 498 415 499 416 499 c 2
 400 515 l 1
240 552 m 1
 212 538 l 1
 197 510 l 1
 197 69 l 1
 212 40 l 1
 240 26 l 1
 313 26 l 1
 359 49 l 1
 409 124 l 1
 434 225 l 1
 434 353 l 1
 409 455 l 1
 359 529 l 1
 313 552 l 1
 240 552 l 1
160 552 m 2
 165 551 170 546 171 541 c 2
 171 552 l 1
 160 552 l 2
145 552 m 1
 145 541 l 2
 146 547 151 551 156 552 c 2
 145 552 l 1
131 579 m 1
 134 579 l 1
 182 579 l 1
 184 579 l 1
 186 579 l 1
 209 579 l 1
 211 579 l 1
 213 579 l 1
 236 579 l 1
 237 579 l 1
 239 579 l 1
 314 579 l 1
 316 579 l 2
 317 579 319 578 320 578 c 2
 321 578 l 1
 399 552 l 2
 401 551 403 550 404 549 c 2
 457 496 l 2
 458 495 458 493 459 492 c 2
 485 440 l 1
 486 438 l 1
 512 359 l 2
 512 358 513 356 513 355 c 2
 513 223 l 2
 513 222 512 220 512 219 c 2
 486 140 l 1
 485 139 l 1
 459 86 l 2
 458 85 458 84 457 83 c 2
 404 30 l 2
 403 29 401 28 399 27 c 2
 321 1 l 1
 320 1 l 1
 320 0 l 1
 316 0 l 1
 314 0 l 1
 239 0 l 1
 237 0 l 1
 236 0 l 1
 213 0 l 1
 211 0 l 1
 209 0 l 1
 186 0 l 1
 184 0 l 1
 182 0 l 1
 134 0 l 1
 132 0 l 1
 129 0 l 1
 107 0 l 1
 105 0 l 1
 103 0 l 1
 80 0 l 1
 79 0 l 1
 77 0 l 1
 53 0 l 1
 52 0 l 2
 45 0 39 6 39 13 c 0
 39 20 45 26 52 26 c 2
 53 26 l 1
 76 26 l 1
 104 40 l 1
 118 69 l 1
 118 510 l 1
 104 538 l 1
 76 552 l 1
 53 552 l 1
 52 552 l 2
 45 552 39 559 39 566 c 0
 39 573 45 579 52 579 c 2
 53 579 l 1
 77 579 l 1
 79 579 l 1
 80 579 l 1
 103 579 l 1
 105 579 l 1
 107 579 l 1
 129 579 l 1
 131 579 l 1
EndSplineSet
EndChar

StartChar: E
Encoding: 69 69 38
Width: 526
Flags: MW
HStem: 0 26<48.5 53 52 53 53 76 52 77 52 79 145 156 160 171 240 341> 289 27<197 235 197 235> 394 21G 552 27<48.5 53 52 53 53 76 145 145 145 156 160 160 160 171 240 240 240 341>
VStem: 118 79<69 289 316 510> 330 25<191 194> 336 12<419 420 419 420> 461 26<405 406 406 406>
LayerCount: 2
Fore
SplineSet
171 38 m 2xf9
 170 32 165 27 160 26 c 2
 171 26 l 1
 171 37 l 1
 171 38 l 2xf9
145 38 m 2
 145 37 l 1
 145 26 l 1
 156 26 l 2
 151 27 146 33 145 38 c 2
160 552 m 2
 165 551 170 546 171 541 c 2
 171 552 l 1
 160 552 l 2
145 552 m 1
 145 541 l 2
 146 547 151 551 156 552 c 2
 145 552 l 1
131 579 m 1
 134 579 l 1
 182 579 l 1
 184 579 l 1
 186 579 l 1
 209 579 l 1
 211 579 l 1
 213 579 l 1
 236 579 l 1
 237 579 l 1
 239 579 l 1
 341 579 l 1
 342 579 l 1
 343 579 l 1
 393 579 l 1
 395 579 l 1
 396 579 l 1
 419 579 l 1
 421 579 l 1
 423 579 l 1
 445 579 l 1
 447 579 l 1
 449 579 l 1
 474 579 l 2
 481 579 487 573 487 566 c 2
 487 541 l 1
 487 539 l 1
 487 537 l 1
 487 515 l 1
 487 513 l 1
 487 511 l 1
 487 488 l 1
 487 487 l 1
 487 485 l 1
 487 408 l 1
 487 407 l 1
 487 405 l 1
 486 404 l 1
 486 403 l 1
 486 402 l 1
 485 401 l 1
 485 400 l 1
 484 399 l 2
 484 398 483 398 482 398 c 2
 481 397 l 2
 480 397 480 395 479 395 c 2
 478 395 l 1
 477 395 l 1
 476 395 l 1
 475 394 l 1
 474 394 l 1
 473 394 l 1
 472 394 l 1
 471 395 l 1
 469 395 l 1
 468 395 l 1
 468 396 l 1
 467 396 l 1
 466 397 l 1
 465 398 l 1
 464 398 l 1
 464 399 l 1
 463 399 l 1
 463 400 l 1
 462 401 l 1
 462 402 l 1
 461 403 l 1
 461 405 l 1
 461 406 l 1
 444 508 l 1
 433 524 l 1
 412 538 l 1
 341 552 l 1
 240 552 l 1
 212 538 l 1
 197 510 l 1
 197 316 l 1
 235 316 l 1
 300 332 l 1
 313 344 l 1
 329 410 l 2
 329 411 330 411 330 412 c 2
 330 413 l 1xfd
 331 414 l 2
 331 415 332 415 332 416 c 2
 333 417 l 2
 334 418 334 419 335 419 c 2
 336 419 l 1
 336 420 l 1
 337 420 l 1
 339 420 l 1
 340 421 l 1
 341 421 l 1
 342 421 l 1
 343 421 l 1
 344 421 l 1
 345 421 l 1
 346 420 l 1
 347 420 l 1
 348 420 l 1
 348 419 l 1xfb
 349 419 l 1
 350 418 l 1
 351 418 l 1
 351 417 l 1
 352 417 l 1
 352 416 l 1
 353 415 l 1
 354 414 l 1
 354 413 l 1
 355 412 l 1
 355 410 l 1
 355 409 l 1
 355 408 l 1
 355 407 l 1
 355 357 l 1
 355 355 l 1
 355 353 l 1
 355 331 l 1
 355 329 l 1
 355 327 l 1
 355 305 l 1
 355 302 l 1
 355 300 l 1
 355 278 l 1
 355 276 l 1
 355 274 l 1
 355 251 l 1
 355 250 l 1
 355 248 l 1
 355 198 l 1
 355 197 l 1
 355 196 l 1
 355 195 l 1
 355 194 l 2xfd
 355 193 354 191 353 190 c 2
 353 189 l 1
 352 188 l 1
 351 187 l 1
 350 186 l 1
 349 186 l 1
 349 185 l 1
 347 185 l 1
 346 184 l 1
 345 184 l 1
 344 184 l 1
 343 184 l 1
 342 184 l 1
 340 184 l 1
 339 184 l 1
 338 185 l 1
 337 185 l 1
 336 185 l 1xfb
 335 186 l 1
 334 186 l 1
 333 187 l 1
 332 188 l 1
 332 189 l 1
 331 189 l 1
 331 190 l 1
 330 191 l 2xfd
 330 192 329 194 329 195 c 2
 313 261 l 1
 300 273 l 1
 235 289 l 1
 197 289 l 1
 197 69 l 1
 212 40 l 1
 240 26 l 1
 341 26 l 1
 412 40 l 1
 433 54 l 1
 444 70 l 1
 461 173 l 1
 461 174 l 2
 461 175 462 175 462 176 c 2
 462 178 l 1
 463 178 l 1
 463 179 l 1
 464 179 l 1
 464 180 l 1
 465 181 l 2
 466 181 466 182 467 182 c 2
 468 183 l 1
 470 183 l 1
 470 184 l 1
 471 184 l 1
 472 184 l 1
 473 184 l 1
 474 184 l 1
 475 184 l 1
 476 184 l 1
 477 184 l 1
 479 183 l 1
 480 183 l 1
 481 182 l 1
 482 181 l 1
 483 180 l 1
 484 179 l 1
 485 178 l 2
 485 177 486 177 486 176 c 2
 486 175 l 1
 487 173 l 1
 487 171 l 1
 487 170 l 1
 487 94 l 1
 487 92 l 1
 487 90 l 1
 487 68 l 1
 487 66 l 1
 487 64 l 1
 487 41 l 1
 487 39 l 1
 487 37 l 1
 487 13 l 2
 487 6 481 0 474 0 c 2
 450 0 l 1
 447 0 l 1
 445 0 l 1
 423 0 l 1
 421 0 l 1
 419 0 l 1
 396 0 l 1
 395 0 l 1
 393 0 l 1
 343 0 l 1
 342 0 l 1
 341 0 l 1
 239 0 l 1
 237 0 l 1
 236 0 l 1
 213 0 l 1
 211 0 l 1
 209 0 l 1
 186 0 l 1
 184 0 l 1
 182 0 l 1
 134 0 l 1
 132 0 l 1
 129 0 l 1
 107 0 l 1
 105 0 l 1
 103 0 l 1
 80 0 l 1
 79 0 l 1
 77 0 l 1
 53 0 l 1
 52 0 l 2
 45 0 39 6 39 13 c 0
 39 20 45 26 52 26 c 2
 53 26 l 1
 76 26 l 1
 104 40 l 1
 118 69 l 1
 118 510 l 1
 104 538 l 1
 76 552 l 1
 53 552 l 1
 52 552 l 2
 45 552 39 559 39 566 c 0
 39 573 45 579 52 579 c 2
 53 579 l 1
 77 579 l 1
 79 579 l 1
 80 579 l 1
 103 579 l 1
 105 579 l 1
 107 579 l 1
 129 579 l 1
 131 579 l 1
EndSplineSet
EndChar

StartChar: F
Encoding: 70 70 39
Width: 473
Flags: MW
HStem: 0 26<48.5 53 52 53 53 76 52 77 52 79 145 156 160 171 240 263> 289 27<197 235 197 235> 394 21G 552 27<48.5 53 52 53 53 76 145 145 145 156 160 160 160 171 240 240 240 341>
VStem: 118 79<69 289 316 510> 330 25<191 194> 336 12<419 420 419 420> 461 26<403 407 405 406 406 406>
LayerCount: 2
Fore
SplineSet
171 38 m 2xf9
 170 32 165 27 160 26 c 2
 171 26 l 1
 171 37 l 1
 171 38 l 2xf9
145 38 m 2
 145 37 l 1
 145 26 l 1
 156 26 l 2
 151 27 146 33 145 38 c 2
160 552 m 2
 165 551 170 546 171 541 c 2
 171 552 l 1
 160 552 l 2
145 552 m 1
 145 541 l 2
 146 547 151 551 156 552 c 2
 145 552 l 1
131 579 m 1
 134 579 l 1
 182 579 l 1
 184 579 l 1
 186 579 l 1
 209 579 l 1
 211 579 l 1
 213 579 l 1
 236 579 l 1
 237 579 l 1
 239 579 l 1
 341 579 l 1
 342 579 l 1
 343 579 l 1
 393 579 l 1
 395 579 l 1
 396 579 l 1
 419 579 l 1
 421 579 l 1
 423 579 l 1
 445 579 l 1
 447 579 l 1
 449 579 l 1
 474 579 l 2
 481 579 487 573 487 566 c 2
 487 541 l 1
 487 539 l 1
 487 537 l 1
 487 515 l 1
 487 513 l 1
 487 511 l 1
 487 488 l 1
 487 487 l 1
 487 485 l 1
 487 408 l 1
 487 407 l 1
 487 405 l 1
 486 404 l 1
 486 403 l 1
 486 402 l 1
 485 401 l 1
 485 400 l 1
 484 399 l 2
 484 398 483 398 482 398 c 2
 481 397 l 2
 480 397 480 395 479 395 c 2
 478 395 l 1
 477 395 l 1
 476 395 l 1
 475 394 l 1
 474 394 l 1
 473 394 l 1
 472 394 l 1
 471 395 l 1
 469 395 l 1
 468 395 l 1
 468 396 l 1
 467 396 l 1
 466 397 l 1
 465 398 l 1
 464 398 l 1
 464 399 l 1
 463 399 l 1
 463 400 l 1
 462 401 l 1
 462 402 l 1
 461 403 l 1
 461 405 l 1
 461 406 l 1
 444 508 l 1
 433 524 l 1
 412 538 l 1
 341 552 l 1
 240 552 l 1
 212 538 l 1
 197 510 l 1
 197 316 l 1
 235 316 l 1
 300 332 l 1
 313 344 l 1
 329 410 l 2
 329 411 330 411 330 412 c 2
 330 413 l 1xfd
 331 414 l 2
 331 415 332 415 332 416 c 2
 333 417 l 2
 334 418 334 419 335 419 c 2
 336 419 l 1
 336 420 l 1
 337 420 l 1
 339 420 l 1
 340 421 l 1
 341 421 l 1
 342 421 l 1
 343 421 l 1
 344 421 l 1
 345 421 l 1
 346 420 l 1
 347 420 l 1
 348 420 l 1
 348 419 l 1xfb
 349 419 l 1
 350 418 l 1
 351 418 l 1
 351 417 l 1
 352 417 l 1
 352 416 l 1
 353 415 l 1
 354 414 l 1
 354 413 l 1
 355 412 l 1
 355 410 l 1
 355 409 l 1
 355 408 l 1
 355 407 l 1
 355 357 l 1
 355 355 l 1
 355 353 l 1
 355 331 l 1
 355 329 l 1
 355 327 l 1
 355 305 l 1
 355 302 l 1
 355 300 l 1
 355 278 l 1
 355 276 l 1
 355 274 l 1
 355 251 l 1
 355 250 l 1
 355 248 l 1
 355 198 l 1
 355 197 l 1
 355 196 l 1
 355 195 l 1
 355 194 l 2xfd
 355 193 354 191 353 190 c 2
 353 189 l 1
 352 188 l 1
 351 187 l 1
 350 186 l 1
 349 186 l 1
 349 185 l 1
 347 185 l 1
 346 184 l 1
 345 184 l 1
 344 184 l 1
 343 184 l 1
 342 184 l 1
 340 184 l 1
 339 184 l 1
 338 185 l 1
 337 185 l 1
 336 185 l 1xfb
 335 186 l 1
 334 186 l 1
 333 187 l 1
 332 188 l 1
 332 189 l 1
 331 189 l 1
 331 190 l 1
 330 191 l 2xfd
 330 192 329 194 329 195 c 2
 313 261 l 1
 300 273 l 1
 235 289 l 1
 197 289 l 1
 197 69 l 1
 212 40 l 1
 240 26 l 1
 263 26 l 2
 270 26 276 20 276 13 c 0
 276 6 270 0 263 0 c 2
 239 0 l 1
 237 0 l 1
 236 0 l 1
 213 0 l 1
 211 0 l 1
 209 0 l 1
 186 0 l 1
 184 0 l 1
 182 0 l 1
 134 0 l 1
 132 0 l 1
 129 0 l 1
 107 0 l 1
 105 0 l 1
 103 0 l 1
 80 0 l 1
 79 0 l 1
 77 0 l 1
 53 0 l 1
 52 0 l 2
 45 0 39 6 39 13 c 0
 39 20 45 26 52 26 c 2
 53 26 l 1
 76 26 l 1
 104 40 l 1
 118 69 l 1
 118 510 l 1
 104 538 l 1
 76 552 l 1
 53 552 l 1
 52 552 l 2
 45 552 39 559 39 566 c 0
 39 573 45 579 52 579 c 2
 53 579 l 1
 77 579 l 1
 79 579 l 1
 80 579 l 1
 103 579 l 1
 105 579 l 1
 107 579 l 1
 129 579 l 1
 131 579 l 1
EndSplineSet
EndChar

StartChar: G
Encoding: 71 71 40
Width: 631
Flags: MW
HStem: 0 26<259 339 259 339 263 339 266 339 266 342> 26 26<427 442> 210 27<338.5 367 342 365 434 434 434 445 450 450 450 461 529 529 529 553> 394 21G<471.5 477.5> 552 27<266 339 266 266>
VStem: 66 79<219 353 225 353 225 355 225 359 225 359> 408 79<71 168> 434 27<64.5 65 45 66 45 66 199 210> 461 26<45 65 62 65>
LayerCount: 2
Fore
SplineSet
461 65 m 2x7d
 461 59 455 53 449 52 c 1
 451 52 455 51 457 49 c 2
 461 45 l 1x7c80
 461 65 l 2x7d
434 66 m 2x7d
 434 63 432 58 430 56 c 2
 427 52 l 1
 445 52 l 2
 439 53 434 59 434 65 c 2
 434 66 l 2x7d
166 82 m 2
 165 81 164 79 163 79 c 2
 179 64 l 1
 166 82 l 2
450 210 m 2
 455 209 459 205 460 199 c 1
 461 199 l 1
 461 210 l 1x3c80
 450 210 l 2
434 210 m 1x3d
 434 199 l 2
 435 205 440 209 445 210 c 2
 434 210 l 1x3d
179 515 m 1
 163 499 l 2
 164 499 165 498 166 497 c 2
 179 515 l 1
263 579 m 2
 265 579 l 1
 342 579 l 2
 344 579 346 578 348 577 c 2
 401 551 l 2
 402 550 403 550 404 549 c 2
 442 511 l 1
 461 570 l 2
 463 575 469 579 474 579 c 0
 481 579 487 573 487 566 c 2
 487 408 l 2
 487 401 481 394 474 394 c 0
 469 394 463 398 461 403 c 2xbc80
 436 479 l 1
 387 528 l 1
 339 552 l 1
 266 552 l 1
 220 529 l 1
 170 455 l 1
 145 353 l 1
 145 225 l 1
 170 124 l 1
 220 49 l 1
 266 26 l 1
 339 26 l 1
 387 50 l 1
 408 71 l 1
 408 168 l 1
 394 196 l 1
 365 210 l 1
 342 210 l 2
 335 210 329 216 329 223 c 0
 329 230 335 237 342 237 c 2
 367 237 l 1
 368 237 l 1
 370 237 l 1
 393 237 l 1
 395 237 l 1
 397 237 l 1
 419 237 l 1
 421 237 l 1
 423 237 l 1
 472 237 l 1
 474 237 l 1
 476 237 l 1
 498 237 l 1
 500 237 l 1
 502 237 l 1
 525 237 l 1
 527 237 l 1
 528 237 l 1
 553 237 l 2
 560 237 566 230 566 223 c 0
 566 216 560 210 553 210 c 2
 529 210 l 1
 501 196 l 1
 487 168 l 1xbe
 487 13 l 2
 487 6 481 0 474 0 c 0xbc80
 471 0 466 2 464 4 c 2
 442 26 l 1
 398 26 l 1x7c80
 348 1 l 2
 346 0 344 0 342 0 c 2
 265 0 l 1
 263 0 l 1
 259 0 l 1xbc80
 258 1 l 1
 180 27 l 2
 178 28 176 29 175 30 c 2
 122 83 l 2
 121 84 121 85 120 86 c 2
 93 139 l 1
 93 140 l 1
 66 219 l 1
 66 223 l 1
 66 355 l 1
 66 359 l 1
 93 438 l 1
 93 440 l 1
 120 492 l 2
 121 493 121 495 122 496 c 2
 175 549 l 2
 176 550 178 551 180 552 c 2
 258 578 l 1
 259 578 l 2
 260 578 262 579 263 579 c 2
EndSplineSet
EndChar

StartChar: H
Encoding: 72 72 41
Width: 631
Flags: MW
HStem: 0 26<48.5 53 52 53 53 76 52 77 52 79 145 156 160 171 240 263 368 392 461 471 476 487 556 579> 289 27<197 434 197 434> 552 27<48.5 53 52 53 53 76 145 145 145 156 160 160 160 171 240 240 240 263 368 392 461 461 461 472 476 476 476 487 556 556 556 579>
VStem: 118 79<69 289 316 510> 434 79<69 289 289 289 316 510 69 510>
LayerCount: 2
Fore
SplineSet
487 38 m 2
 486 32 481 27 476 26 c 2
 487 26 l 1
 487 37 l 1
 487 38 l 2
171 38 m 2
 170 32 165 27 160 26 c 2
 171 26 l 1
 171 37 l 1
 171 38 l 2
461 38 m 2
 461 37 l 1
 461 26 l 1
 471 26 l 2
 466 27 462 33 461 38 c 2
145 38 m 2
 145 37 l 1
 145 26 l 1
 156 26 l 2
 151 27 146 33 145 38 c 2
476 552 m 2
 481 551 486 546 487 541 c 2
 487 552 l 1
 476 552 l 2
461 552 m 1
 461 541 l 2
 462 547 467 551 472 552 c 2
 461 552 l 1
160 552 m 2
 165 551 170 546 171 541 c 2
 171 552 l 1
 160 552 l 2
145 552 m 1
 145 541 l 2
 146 547 151 551 156 552 c 2
 145 552 l 1
131 579 m 1
 134 579 l 1
 182 579 l 1
 184 579 l 1
 186 579 l 1
 209 579 l 1
 211 579 l 1
 213 579 l 1
 236 579 l 1
 237 579 l 1
 239 579 l 1
 263 579 l 2
 270 579 276 573 276 566 c 0
 276 559 270 552 263 552 c 2
 240 552 l 1
 212 538 l 1
 197 510 l 1
 197 316 l 1
 434 316 l 1
 434 510 l 1
 420 538 l 1
 392 552 l 1
 368 552 l 2
 361 552 355 559 355 566 c 0
 355 573 361 579 368 579 c 2
 393 579 l 1
 395 579 l 1
 396 579 l 1
 419 579 l 1
 421 579 l 1
 423 579 l 1
 445 579 l 1
 447 579 l 1
 449 579 l 1
 498 579 l 1
 500 579 l 1
 502 579 l 1
 524 579 l 1
 526 579 l 1
 528 579 l 1
 551 579 l 1
 553 579 l 1
 554 579 l 1
 579 579 l 2
 586 579 592 573 592 566 c 0
 592 559 586 552 579 552 c 2
 556 552 l 1
 527 538 l 1
 513 510 l 1
 513 69 l 1
 527 40 l 1
 556 26 l 1
 579 26 l 2
 586 26 592 20 592 13 c 0
 592 6 586 0 579 0 c 2
 554 0 l 1
 553 0 l 1
 551 0 l 1
 528 0 l 1
 526 0 l 1
 524 0 l 1
 502 0 l 1
 500 0 l 1
 498 0 l 1
 450 0 l 1
 447 0 l 1
 445 0 l 1
 423 0 l 1
 421 0 l 1
 419 0 l 1
 396 0 l 1
 395 0 l 1
 393 0 l 1
 368 0 l 2
 361 0 355 6 355 13 c 0
 355 20 361 26 368 26 c 2
 392 26 l 1
 420 40 l 1
 434 69 l 1
 434 289 l 1
 197 289 l 1
 197 69 l 1
 212 40 l 1
 240 26 l 1
 263 26 l 2
 270 26 276 20 276 13 c 0
 276 6 270 0 263 0 c 2
 239 0 l 1
 237 0 l 1
 236 0 l 1
 213 0 l 1
 211 0 l 1
 209 0 l 1
 186 0 l 1
 184 0 l 1
 182 0 l 1
 134 0 l 1
 132 0 l 1
 129 0 l 1
 107 0 l 1
 105 0 l 1
 103 0 l 1
 80 0 l 1
 79 0 l 1
 77 0 l 1
 53 0 l 1
 52 0 l 2
 45 0 39 6 39 13 c 0
 39 20 45 26 52 26 c 2
 53 26 l 1
 76 26 l 1
 104 40 l 1
 118 69 l 1
 118 510 l 1
 104 538 l 1
 76 552 l 1
 53 552 l 1
 52 552 l 2
 45 552 39 559 39 566 c 0
 39 573 45 579 52 579 c 2
 53 579 l 1
 77 579 l 1
 79 579 l 1
 80 579 l 1
 103 579 l 1
 105 579 l 1
 107 579 l 1
 129 579 l 1
 131 579 l 1
EndSplineSet
EndChar

StartChar: I
Encoding: 73 73 42
Width: 315
Flags: MW
HStem: 0 26<48.5 53 52 53 53 76 52 77 52 79 145 156 160 171 240 263> 552 27<48.5 53 52 53 53 76 145 145 145 156 160 160 160 171 240 240 240 263>
VStem: 118 79<69 510 69 510>
LayerCount: 2
Fore
SplineSet
171 38 m 2
 170 32 165 27 160 26 c 2
 171 26 l 1
 171 37 l 1
 171 38 l 2
145 38 m 2
 145 37 l 1
 145 26 l 1
 156 26 l 2
 151 27 146 33 145 38 c 2
160 552 m 2
 165 551 170 546 171 541 c 2
 171 552 l 1
 160 552 l 2
145 552 m 1
 145 541 l 2
 146 547 151 551 156 552 c 2
 145 552 l 1
131 579 m 1
 134 579 l 1
 182 579 l 1
 184 579 l 1
 186 579 l 1
 209 579 l 1
 211 579 l 1
 213 579 l 1
 236 579 l 1
 237 579 l 1
 239 579 l 1
 263 579 l 2
 270 579 276 573 276 566 c 0
 276 559 270 552 263 552 c 2
 240 552 l 1
 212 538 l 1
 197 510 l 1
 197 69 l 1
 212 40 l 1
 240 26 l 1
 263 26 l 2
 270 26 276 20 276 13 c 0
 276 6 270 0 263 0 c 2
 239 0 l 1
 237 0 l 1
 236 0 l 1
 213 0 l 1
 211 0 l 1
 209 0 l 1
 186 0 l 1
 184 0 l 1
 182 0 l 1
 134 0 l 1
 132 0 l 1
 129 0 l 1
 107 0 l 1
 105 0 l 1
 103 0 l 1
 80 0 l 1
 79 0 l 1
 77 0 l 1
 53 0 l 1
 52 0 l 2
 45 0 39 6 39 13 c 0
 39 20 45 26 52 26 c 2
 53 26 l 1
 76 26 l 1
 104 40 l 1
 118 69 l 1
 118 510 l 1
 104 538 l 1
 76 552 l 1
 53 552 l 1
 52 552 l 2
 45 552 39 559 39 566 c 0
 39 573 45 579 52 579 c 2
 53 579 l 1
 77 579 l 1
 79 579 l 1
 80 579 l 1
 103 579 l 1
 105 579 l 1
 107 579 l 1
 129 579 l 1
 131 579 l 1
EndSplineSet
EndChar

StartChar: J
Encoding: 74 74 43
Width: 421
Flags: MW
HStem: 0 26<131 179 135 179 135 182 135 184> 79 26<75.5 79 75.5 105> 79 105<78 105 79 105> 552 27<154.5 182 158 181 250 250 250 261 265 265 265 276 345 345 345 368 368 369>
VStem: 39 27<95 118 95 144 95 145.5> 39 106<116.5 118 118 144 116.5 145.5> 224 79<120 510>
LayerCount: 2
Fore
SplineSet
66 118 m 2xda
 66 95 l 2
 67 101 73 105 79 105 c 1
 72 105 66 111 66 118 c 2xda
265 552 m 2
 270 551 275 546 276 541 c 2
 276 552 l 1
 265 552 l 2
250 552 m 1
 250 541 l 2
 251 547 256 551 261 552 c 2
 250 552 l 1
237 579 m 1
 239 579 l 1
 287 579 l 1
 289 579 l 1
 292 579 l 1
 314 579 l 1
 316 579 l 1
 318 579 l 1
 341 579 l 1
 342 579 l 1
 344 579 l 1
 368 579 l 1
 369 579 l 2
 376 579 382 573 382 566 c 0
 382 559 376 552 369 552 c 2
 368 552 l 1
 345 552 l 1
 317 538 l 1
 303 510 l 1
 303 118 l 2
 303 117 302 115 302 114 c 2
 276 35 l 2
 275 32 270 28 267 27 c 2
 190 1 l 1
 189 1 l 2
 188 0 186 0 184 0 c 2
 182 0 l 1
 132 0 l 2
 130 0 128 0 126 1 c 2
 73 27 l 2
 71 28 68 31 67 33 c 2
 41 86 l 2
 40 88 39 90 39 92 c 2xba
 39 144 l 2
 39 147 41 152 43 154 c 2
 70 180 l 2
 72 182 76 184 79 184 c 2
 105 184 l 2
 108 184 113 182 115 180 c 2
 141 154 l 2
 143 152 145 147 145 144 c 2
 145 118 l 2
 145 115 143 111 141 109 c 2
 115 83 l 2
 113 81 108 79 105 79 c 2
 79 79 l 2
 77 79 74 79 73 80 c 2
 89 49 l 1
 135 26 l 1
 179 26 l 1
 199 46 l 1
 224 120 l 1
 224 510 l 1
 209 538 l 1
 181 552 l 1
 158 552 l 2
 151 552 145 559 145 566 c 0xb6
 145 573 151 579 158 579 c 2
 182 579 l 1
 184 579 l 1
 185 579 l 1
 209 579 l 1
 210 579 l 1
 212 579 l 1
 235 579 l 1
 237 579 l 1
EndSplineSet
EndChar

StartChar: K
Encoding: 75 75 44
Width: 526
Flags: MW
HStem: 0 26<48.5 53 52 53 53 76 52 77 52 79 145 156 160 171 240 263 368 389 530 553> 552 27<48.5 53 52 53 53 76 145 145 145 156 160 160 160 171 240 240 240 263 395 442 529 529 529 553>
VStem: 118 79<69 244 282 510>
LayerCount: 2
Fore
SplineSet
171 38 m 2
 170 32 165 27 160 26 c 2
 171 26 l 1
 171 37 l 1
 171 38 l 2
145 38 m 2
 145 37 l 1
 145 26 l 1
 156 26 l 2
 151 27 146 33 145 38 c 2
287 334 m 1
 268 315 l 2
 270 314 273 311 274 309 c 2
 277 306 l 1
 278 311 283 316 289 316 c 0
 293 316 299 312 301 309 c 2
 346 237 l 1
 287 334 l 1
160 552 m 2
 165 551 170 546 171 541 c 2
 171 552 l 1
 160 552 l 2
145 552 m 1
 145 541 l 2
 146 547 151 551 156 552 c 2
 145 552 l 1
131 579 m 1
 134 579 l 1
 182 579 l 1
 184 579 l 1
 186 579 l 1
 209 579 l 1
 211 579 l 1
 213 579 l 1
 236 579 l 1
 237 579 l 1
 239 579 l 1
 263 579 l 2
 270 579 276 573 276 566 c 0
 276 559 270 552 263 552 c 2
 240 552 l 1
 212 538 l 1
 197 510 l 1
 197 282 l 1
 279 363 l 1
 282 366 l 1
 455 539 l 1
 442 552 l 1
 395 552 l 2
 388 552 381 559 381 566 c 0
 381 573 388 579 395 579 c 2
 446 579 l 1
 447 579 l 1
 449 579 l 1
 525 579 l 1
 527 579 l 1
 528 579 l 1
 553 579 l 2
 560 579 566 573 566 566 c 0
 566 559 560 552 553 552 c 2
 529 552 l 1
 482 528 l 1
 481 528 l 1
 306 353 l 1
 491 52 l 1
 530 26 l 1
 553 26 l 2
 560 26 566 20 566 13 c 0
 566 6 560 0 553 0 c 2
 528 0 l 1
 526 0 l 1
 525 0 l 1
 502 0 l 1
 500 0 l 1
 498 0 l 1
 476 0 l 1
 474 0 l 1
 472 0 l 1
 449 0 l 1
 448 0 l 1
 446 0 l 1
 396 0 l 1
 395 0 l 1
 393 0 l 1
 368 0 l 2
 361 0 355 6 355 13 c 0
 355 20 361 26 368 26 c 2
 389 26 l 1
 410 47 l 1
 252 295 l 2
 252 296 251 297 251 298 c 2
 197 244 l 1
 197 69 l 1
 212 40 l 1
 240 26 l 1
 263 26 l 2
 270 26 276 20 276 13 c 0
 276 6 270 0 263 0 c 2
 239 0 l 1
 237 0 l 1
 236 0 l 1
 213 0 l 1
 211 0 l 1
 209 0 l 1
 186 0 l 1
 184 0 l 1
 182 0 l 1
 134 0 l 1
 132 0 l 1
 129 0 l 1
 107 0 l 1
 105 0 l 1
 103 0 l 1
 80 0 l 1
 79 0 l 1
 77 0 l 1
 53 0 l 1
 52 0 l 2
 45 0 39 6 39 13 c 0
 39 20 45 26 52 26 c 2
 53 26 l 1
 76 26 l 1
 104 40 l 1
 118 69 l 1
 118 510 l 1
 104 538 l 1
 76 552 l 1
 53 552 l 1
 52 552 l 2
 45 552 39 559 39 566 c 0
 39 573 45 579 52 579 c 2
 53 579 l 1
 77 579 l 1
 79 579 l 1
 80 579 l 1
 103 579 l 1
 105 579 l 1
 107 579 l 1
 129 579 l 1
 131 579 l 1
EndSplineSet
EndChar

StartChar: L
Encoding: 76 76 45
Width: 473
Flags: MW
HStem: 0 26<48.5 53 52 53 53 76 52 77 52 79 145 156 160 171 240 315> 552 27<48.5 53 52 53 53 76 145 145 145 156 160 160 160 171 240 240 240 263>
VStem: 118 79<69 510 69 510>
LayerCount: 2
Fore
SplineSet
171 38 m 2
 170 32 165 27 160 26 c 2
 171 26 l 1
 171 37 l 1
 171 38 l 2
145 38 m 2
 145 37 l 1
 145 26 l 1
 156 26 l 2
 151 27 146 33 145 38 c 2
160 552 m 2
 165 551 170 546 171 541 c 2
 171 552 l 1
 160 552 l 2
145 552 m 1
 145 541 l 2
 146 547 151 551 156 552 c 2
 145 552 l 1
131 579 m 1
 134 579 l 1
 182 579 l 1
 184 579 l 1
 186 579 l 1
 209 579 l 1
 211 579 l 1
 213 579 l 1
 236 579 l 1
 237 579 l 1
 239 579 l 1
 263 579 l 2
 270 579 276 573 276 566 c 0
 276 559 270 552 263 552 c 2
 240 552 l 1
 212 538 l 1
 197 510 l 1
 197 69 l 1
 212 40 l 1
 240 26 l 1
 315 26 l 1
 386 40 l 1
 406 54 l 1
 417 70 l 1
 434 173 l 1
 435 174 l 1
 435 176 l 1
 436 178 l 1
 437 178 l 1
 437 179 l 1
 438 180 l 1
 438 181 l 2
 439 181 439 182 440 182 c 2
 441 182 l 1
 441 183 l 1
 442 183 l 1
 443 183 l 1
 444 184 l 1
 445 184 l 1
 447 184 l 1
 448 184 l 1
 449 184 l 1
 450 184 l 1
 451 184 l 1
 452 183 l 1
 453 183 l 1
 455 182 l 1
 456 181 l 1
 457 180 l 1
 458 179 l 1
 458 178 l 2
 458 177 460 177 460 176 c 2
 460 175 l 1
 460 173 l 2
 460 172 461 172 461 171 c 2
 461 170 l 1
 461 94 l 1
 461 92 l 1
 461 90 l 1
 461 68 l 1
 461 66 l 1
 461 64 l 1
 461 41 l 1
 461 39 l 1
 461 37 l 1
 461 13 l 2
 461 6 454 0 447 0 c 2
 423 0 l 1
 421 0 l 1
 419 0 l 1
 397 0 l 1
 395 0 l 1
 393 0 l 1
 370 0 l 1
 368 0 l 1
 367 0 l 1
 317 0 l 1
 316 0 l 1
 315 0 l 1
 239 0 l 1
 237 0 l 1
 236 0 l 1
 213 0 l 1
 211 0 l 1
 209 0 l 1
 186 0 l 1
 184 0 l 1
 182 0 l 1
 134 0 l 1
 132 0 l 1
 129 0 l 1
 107 0 l 1
 105 0 l 1
 103 0 l 1
 80 0 l 1
 79 0 l 1
 77 0 l 1
 53 0 l 1
 52 0 l 2
 45 0 39 6 39 13 c 0
 39 20 45 26 52 26 c 2
 53 26 l 1
 76 26 l 1
 104 40 l 1
 118 69 l 1
 118 510 l 1
 104 538 l 1
 76 552 l 1
 53 552 l 1
 52 552 l 2
 45 552 39 559 39 566 c 0
 39 573 45 579 52 579 c 2
 53 579 l 1
 77 579 l 1
 79 579 l 1
 80 579 l 1
 103 579 l 1
 105 579 l 1
 107 579 l 1
 129 579 l 1
 131 579 l 1
EndSplineSet
EndChar

StartChar: M
Encoding: 77 77 46
Width: 684
Flags: MW
HStem: 0 26<48.5 53 52 53 53 76 52 77 52 79 187 211 421 444 513 524 528 539 608 632> 552 27<48.5 53 52 53 53 76 513 513 513 524 529 529 529 539 608 608 608 632>
VStem: 118 27<47 484 47 531> 487 79<69 484 484 484 69 569>
LayerCount: 2
Fore
SplineSet
539 38 m 2
 538 32 533 27 528 26 c 2
 539 26 l 1
 539 37 l 1
 539 38 l 2
513 38 m 2
 513 37 l 1
 513 26 l 1
 524 26 l 2
 519 27 514 33 513 38 c 2
306 82 m 2
 316 55 l 1
 325 82 l 2
 323 80 319 79 316 79 c 0
 313 79 308 80 306 82 c 2
529 552 m 2
 534 551 538 546 539 541 c 2
 539 552 l 1
 529 552 l 2
513 552 m 1
 513 540 l 2
 513 546 518 551 524 552 c 2
 513 552 l 1
131 579 m 1
 132 579 l 1
 134 579 l 1
 156 579 l 1
 158 579 l 1
 160 579 l 1
 182 579 l 1
 184 579 l 2
 186 579 188 578 190 577 c 2
 191 577 l 1
 192 576 l 1
 193 575 l 2
 195 573 197 570 197 568 c 2
 342 133 l 1
 487 568 l 2
 487 570 489 573 490 574 c 2
 490 575 l 1
 491 575 l 1
 491 576 l 1
 493 577 l 1
 494 577 l 1
 495 578 l 1
 496 578 l 1
 497 578 l 1
 498 579 l 1
 499 579 l 1
 500 579 l 1
 501 579 l 1
 502 579 l 1
 550 579 l 1
 553 579 l 1
 555 579 l 1
 577 579 l 1
 579 579 l 1
 581 579 l 1
 604 579 l 1
 605 579 l 1
 607 579 l 1
 632 579 l 2
 639 579 645 573 645 566 c 0
 645 559 639 552 632 552 c 2
 608 552 l 1
 580 538 l 1
 566 510 l 1
 566 69 l 1
 580 40 l 1
 608 26 l 1
 632 26 l 2
 639 26 645 20 645 13 c 0
 645 6 639 0 632 0 c 2
 607 0 l 1
 605 0 l 1
 604 0 l 1
 581 0 l 1
 579 0 l 1
 577 0 l 1
 555 0 l 1
 553 0 l 1
 551 0 l 1
 502 0 l 1
 500 0 l 1
 498 0 l 1
 476 0 l 1
 474 0 l 1
 472 0 l 1
 449 0 l 1
 447 0 l 1
 446 0 l 1
 421 0 l 2
 414 0 408 6 408 13 c 0
 408 20 414 26 421 26 c 2
 444 26 l 1
 473 40 l 1
 487 69 l 1
 487 484 l 1
 355 89 l 2
 355 88 354 87 354 86 c 2
 329 10 l 2
 328 7 325 4 323 2 c 2
 322 1 l 1
 321 1 l 1
 320 0 l 1
 319 0 l 1
 318 0 l 1
 317 0 l 1
 316 0 l 1
 315 0 l 1
 314 0 l 1
 312 0 l 1
 311 0 l 2
 310 0 310 2 309 2 c 0
 306 4 304 7 303 10 c 2
 145 484 l 1
 145 47 l 1
 187 26 l 1
 211 26 l 2
 218 26 224 20 224 13 c 0
 224 6 218 0 211 0 c 2
 186 0 l 1
 184 0 l 1
 183 0 l 1
 80 0 l 1
 79 0 l 1
 77 0 l 1
 53 0 l 1
 52 0 l 2
 45 0 39 6 39 13 c 0
 39 20 45 26 52 26 c 2
 53 26 l 1
 76 26 l 1
 118 47 l 1
 118 531 l 1
 76 552 l 1
 53 552 l 1
 52 552 l 2
 45 552 39 559 39 566 c 0
 39 573 45 579 52 579 c 2
 53 579 l 1
 77 579 l 1
 79 579 l 1
 80 579 l 1
 129 579 l 1
 131 579 l 1
EndSplineSet
EndChar

StartChar: N
Encoding: 78 78 47
Width: 631
Flags: MW
HStem: 0 26<48.5 53 52 53 53 76 52 77 52 79 187 211> 552 27<48.5 53 52 53 53 76 421 444 556 556 556 579>
VStem: 118 27<47 522 47 531 47 531> 487 26<56 88 88 88 135 531>
LayerCount: 2
Fore
SplineSet
487 88 m 2
 486 83 480 79 474 79 c 2
 472 79 l 1
 487 56 l 1
 487 88 l 2
131 579 m 1
 134 579 l 1
 156 579 l 1
 158 579 l 1
 160 579 l 1
 182 579 l 1
 184 579 l 2
 185 579 188 579 189 578 c 2
 190 577 l 1
 191 577 l 1
 192 577 l 2
 194 576 195 573 196 571 c 2
 487 135 l 1
 487 531 l 1
 444 552 l 1
 421 552 l 2
 414 552 408 559 408 566 c 0
 408 573 414 579 421 579 c 2
 446 579 l 1
 447 579 l 1
 449 579 l 1
 551 579 l 1
 553 579 l 1
 554 579 l 1
 579 579 l 2
 586 579 592 573 592 566 c 0
 592 559 586 552 579 552 c 2
 556 552 l 1
 513 531 l 1
 513 93 l 1
 513 92 l 1
 513 90 l 1
 513 14 l 1
 513 13 l 2
 513 9 511 4 508 2 c 2
 506 1 l 2
 505 1 505 0 504 0 c 2
 501 0 l 1
 500 0 l 1
 496 0 l 2
 493 1 489 4 488 7 c 2
 145 522 l 1
 145 47 l 1
 187 26 l 1
 211 26 l 2
 218 26 224 20 224 13 c 0
 224 6 218 0 211 0 c 2
 186 0 l 1
 184 0 l 1
 183 0 l 1
 80 0 l 1
 79 0 l 1
 77 0 l 1
 53 0 l 1
 52 0 l 2
 45 0 39 6 39 13 c 0
 39 20 45 26 52 26 c 2
 53 26 l 1
 76 26 l 1
 118 47 l 1
 118 531 l 1
 76 552 l 1
 53 552 l 1
 52 552 l 2
 45 552 39 559 39 566 c 0
 39 573 45 579 52 579 c 2
 53 579 l 1
 77 579 l 1
 79 579 l 1
 80 579 l 1
 129 579 l 1
 130 579 l 1
 131 579 l 1
EndSplineSet
EndChar

StartChar: O
Encoding: 79 79 48
Width: 578
Flags: MW
HStem: 0 26<259 313 259 313 263 313 266 313 266 314 266 316 266 320> 552 27<266 266 266 313>
VStem: 66 79<247 250 250 329 329 332 332 332> 434 79<247 250 250 329 329 332>
LayerCount: 2
Fore
SplineSet
413 82 m 2
 400 64 l 1
 416 79 l 2
 415 79 414 81 413 82 c 2
166 82 m 2
 165 81 164 79 163 79 c 2
 179 64 l 1
 166 82 l 2
400 515 m 1
 413 497 l 2
 414 498 415 499 416 499 c 2
 400 515 l 1
179 515 m 1
 163 499 l 2
 164 499 165 498 166 497 c 2
 179 515 l 1
266 552 m 1
 220 529 l 1
 170 455 l 1
 145 353 l 1
 145 225 l 1
 170 124 l 1
 220 49 l 1
 266 26 l 1
 313 26 l 1
 359 49 l 1
 409 124 l 1
 434 225 l 1
 434 353 l 1
 409 455 l 1
 359 529 l 1
 313 552 l 1
 266 552 l 1
263 579 m 1
 265 579 l 1
 314 579 l 1
 316 579 l 2
 317 579 319 578 320 578 c 2
 321 578 l 1
 399 552 l 2
 401 551 403 550 404 549 c 2
 457 496 l 2
 458 495 458 493 459 492 c 2
 485 440 l 2
 485 439 486 438 486 437 c 2
 513 332 l 1
 513 329 l 1
 513 250 l 1
 513 247 l 1
 486 141 l 2
 486 140 485 140 485 139 c 2
 459 86 l 2
 458 85 458 84 457 83 c 2
 404 30 l 2
 403 29 401 28 399 27 c 2
 321 1 l 1
 320 1 l 1
 320 0 l 1
 316 0 l 1
 314 0 l 1
 265 0 l 1
 263 0 l 1
 259 0 l 1
 258 1 l 1
 180 27 l 2
 178 28 176 29 175 30 c 2
 122 83 l 2
 121 84 121 85 120 86 c 2
 93 139 l 1
 93 141 l 1
 66 247 l 1
 66 250 l 1
 66 329 l 1
 66 332 l 1
 93 437 l 1
 93 440 l 1
 120 492 l 2
 121 493 121 495 122 496 c 2
 175 549 l 2
 176 550 178 551 180 552 c 2
 258 578 l 1
 259 578 l 1
 261 578 l 1
 261 579 l 1
 262 579 l 1
 263 579 l 1
EndSplineSet
EndChar

StartChar: P
Encoding: 80 80 49
Width: 578
Flags: MW
HStem: 0 26<48.5 53 52 53 53 76 52 77 52 79 145 156 160 171 240 263> 263 26<197 365 197 367 197 365 197 368 197 372> 552 27<48.5 53 52 53 53 76 145 145 145 156 160 160 160 171 240 240 240 365>
VStem: 118 79<69 263 289 510> 434 79<380 381 381 460>
LayerCount: 2
Fore
SplineSet
171 38 m 2
 170 32 165 27 160 26 c 2
 171 26 l 1
 171 37 l 1
 171 38 l 2
145 38 m 2
 145 37 l 1
 145 26 l 1
 156 26 l 2
 151 27 146 33 145 38 c 2
240 552 m 1
 212 538 l 1
 197 510 l 1
 197 289 l 1
 365 289 l 1
 411 312 l 1
 434 358 l 1
 434 483 l 1
 411 529 l 1
 365 552 l 1
 240 552 l 1
160 552 m 2
 165 551 170 546 171 541 c 2
 171 552 l 1
 160 552 l 2
145 552 m 1
 145 541 l 2
 146 547 151 551 156 552 c 2
 145 552 l 1
131 579 m 1
 134 579 l 1
 182 579 l 1
 184 579 l 1
 186 579 l 1
 209 579 l 1
 211 579 l 1
 213 579 l 1
 236 579 l 1
 237 579 l 1
 239 579 l 1
 367 579 l 1
 368 579 l 2
 369 579 372 578 373 578 c 2
 452 552 l 2
 454 551 456 550 457 549 c 2
 483 522 l 2
 484 521 484 520 485 519 c 2
 512 466 l 2
 513 464 513 462 513 460 c 2
 513 381 l 2
 513 379 513 377 512 375 c 2
 485 323 l 2
 484 322 484 320 483 319 c 2
 457 293 l 2
 456 292 454 291 452 290 c 2
 373 264 l 1
 372 263 l 1
 368 263 l 1
 367 263 l 1
 197 263 l 1
 197 69 l 1
 212 40 l 1
 240 26 l 1
 263 26 l 2
 270 26 276 20 276 13 c 0
 276 6 270 0 263 0 c 2
 239 0 l 1
 237 0 l 1
 236 0 l 1
 213 0 l 1
 211 0 l 1
 209 0 l 1
 186 0 l 1
 184 0 l 1
 182 0 l 1
 134 0 l 1
 132 0 l 1
 129 0 l 1
 107 0 l 1
 105 0 l 1
 103 0 l 1
 80 0 l 1
 79 0 l 1
 77 0 l 1
 53 0 l 1
 52 0 l 2
 45 0 39 6 39 13 c 0
 39 20 45 26 52 26 c 2
 53 26 l 1
 76 26 l 1
 104 40 l 1
 118 69 l 1
 118 510 l 1
 104 538 l 1
 76 552 l 1
 53 552 l 1
 52 552 l 2
 45 552 39 559 39 566 c 0
 39 573 45 579 52 579 c 2
 53 579 l 1
 77 579 l 1
 79 579 l 1
 80 579 l 1
 103 579 l 1
 105 579 l 1
 107 579 l 1
 129 579 l 1
 131 579 l 1
EndSplineSet
EndChar

StartChar: Q
Encoding: 81 81 50
Width: 578
Flags: MW
HStem: -132 26<419 447 429 447 429 474> -20 20G<259 263 259 259 263 265 265 314 314 316 316 320 496.5 503.5> 0 26<259 313 259 313 263 313 266 313 266 314 266 316 266 320> 158 26<266 266 266 286> 552 27<266 266 266 313>
VStem: 66 79<247 250 250 329 329 332 332 332> 434 79<247 250 250 329 329 332> 487 26<-34 -13>
LayerCount: 2
Fore
SplineSet
416 -80 m 1x9c
 429 -106 l 1
 447 -106 l 2
 444 -106 440 -104 438 -102 c 2
 416 -80 l 1x9c
479 -78 m 2
 478 -79 476 -79 474 -79 c 1
 475 -79 477 -80 478 -80 c 2
 479 -78 l 2
413 82 m 2
 400 64 l 1
 416 79 l 2
 415 79 414 81 413 82 c 2
166 82 m 2
 165 81 164 79 163 79 c 2
 179 64 l 1
 166 82 l 2
266 158 m 1
 220 135 l 1
 196 86 l 1
 196 85 l 1
 220 49 l 1
 266 26 l 1
 313 26 l 1xbc
 359 49 l 1
 362 53 l 1
 356 88 l 1
 332 135 l 1
 286 158 l 1
 266 158 l 1
400 515 m 1
 413 497 l 2
 414 498 415 499 416 499 c 2
 400 515 l 1
179 515 m 1
 163 499 l 2
 164 499 165 498 166 497 c 2
 179 515 l 1
266 552 m 1
 220 529 l 1
 170 455 l 1
 145 353 l 1
 145 225 l 1
 170 124 l 1
 179 111 l 1
 199 150 l 2
 200 152 203 155 205 156 c 2
 257 183 l 2
 259 184 261 184 263 184 c 2
 289 184 l 2
 291 184 293 184 295 183 c 2
 348 156 l 2
 350 155 353 152 354 150 c 2
 379 99 l 1
 380 98 l 1
 381 97 l 1
 385 87 l 1
 409 124 l 1
 434 225 l 1
 434 353 l 1x9e
 409 455 l 1
 359 529 l 1
 313 552 l 1
 266 552 l 1
263 579 m 1
 265 579 l 1
 314 579 l 1
 316 579 l 2
 317 579 319 578 320 578 c 2
 321 578 l 1
 399 552 l 2
 401 551 403 550 404 549 c 2
 457 496 l 2
 458 495 458 493 459 492 c 2
 485 440 l 2
 485 439 486 438 486 437 c 2
 513 332 l 1
 513 329 l 1
 513 250 l 1
 513 247 l 1xbe
 486 141 l 2
 486 140 485 140 485 139 c 2
 459 86 l 2
 458 85 458 84 457 83 c 2
 406 32 l 1
 432 -32 l 1
 453 -53 l 1
 468 -53 l 1
 487 -34 l 1
 487 -13 l 2
 487 -6 493 0 500 0 c 0xdd
 507 0 513 -6 513 -13 c 2
 513 -38 l 1
 513 -40 l 1
 513 -41 l 1
 513 -66 l 2
 513 -68 513 -70 512 -72 c 2
 485 -125 l 2
 483 -129 478 -132 474 -132 c 2
 421 -132 l 2
 417 -132 411 -129 409 -125 c 2
 383 -72 l 2
 383 -71 382 -69 382 -68 c 2
 368 16 l 1
 321 1 l 1
 320 1 l 1
 320 0 l 1
 316 0 l 1
 314 0 l 1
 265 0 l 1
 263 0 l 1
 259 0 l 1xbd
 258 1 l 1
 180 27 l 2
 178 28 176 29 175 30 c 2
 122 83 l 2
 121 84 121 85 120 86 c 2
 93 139 l 1
 93 141 l 1
 66 247 l 1
 66 250 l 1
 66 329 l 1
 66 332 l 1
 93 437 l 1
 93 440 l 1
 120 492 l 2
 121 493 121 495 122 496 c 2
 175 549 l 2
 176 550 178 551 180 552 c 2
 258 578 l 1
 259 578 l 1
 261 578 l 1
 261 579 l 1
 262 579 l 1
 263 579 l 1
EndSplineSet
EndChar

StartChar: R
Encoding: 82 82 51
Width: 578
Flags: MW
HStem: 0 26<48.5 53 52 53 53 76 52 77 52 79 145 156 160 171 240 263 455 474> 289 27<197 286 197 288 345 365 345 345> 552 27<48.5 53 52 53 53 76 145 145 145 156 160 160 160 171 240 240 240 365>
VStem: 118 79<69 289 316 510> 434 79<407 408 408 460> 513 26<97 118>
LayerCount: 2
Fore
SplineSet
171 38 m 2xf0
 170 32 165 27 160 26 c 2
 171 26 l 1
 171 37 l 1
 171 38 l 2xf0
145 38 m 2
 145 37 l 1
 145 26 l 1
 156 26 l 2
 151 27 146 33 145 38 c 2
443 52 m 1
 455 26 l 1
 474 26 l 2
 471 26 466 28 464 30 c 2
 443 52 l 1
506 54 m 2
 505 53 502 52 500 52 c 2
 505 52 l 1
 506 54 l 2
413 131 m 1
 414 129 l 1
 413 131 l 1
240 552 m 1
 212 538 l 1
 197 510 l 1
 197 316 l 1
 288 316 l 1
 289 316 l 1
 291 316 l 1
 365 316 l 1
 411 339 l 1
 434 384 l 1
 434 483 l 1xf8
 411 529 l 1
 365 552 l 1
 240 552 l 1
160 552 m 2
 165 551 170 546 171 541 c 2
 171 552 l 1
 160 552 l 2
145 552 m 1
 145 541 l 2
 146 547 151 551 156 552 c 2
 145 552 l 1
131 579 m 1
 134 579 l 1
 182 579 l 1
 184 579 l 1
 186 579 l 1
 209 579 l 1
 211 579 l 1
 213 579 l 1
 236 579 l 1
 237 579 l 1
 239 579 l 1
 367 579 l 1
 368 579 l 2
 369 579 372 578 373 578 c 2
 452 552 l 2
 454 551 456 550 457 549 c 2
 483 522 l 2
 484 521 484 520 485 519 c 2
 512 466 l 2
 513 464 513 462 513 460 c 2
 513 408 l 2xf8
 513 406 513 404 512 402 c 2
 485 349 l 2
 484 348 484 347 483 346 c 2
 457 319 l 2
 456 318 454 317 452 316 c 2
 373 290 l 1
 372 290 l 2
 371 290 369 289 368 289 c 2
 367 289 l 1
 345 289 l 1
 347 288 l 1
 348 288 l 1
 350 287 l 1
 351 286 l 1
 352 285 l 1
 378 259 l 2
 379 258 379 257 380 256 c 2
 458 100 l 1
 479 79 l 1
 495 79 l 1
 513 97 l 1
 513 118 l 2
 513 125 519 131 526 131 c 0
 533 131 539 125 539 118 c 2
 539 94 l 1
 540 92 l 1
 539 90 l 1
 539 66 l 2xf4
 539 64 539 62 538 60 c 2
 512 7 l 2
 510 3 504 0 500 0 c 2
 447 0 l 2
 443 0 438 3 436 7 c 2
 409 60 l 1
 409 61 l 1
 356 218 l 1
 332 266 l 1
 286 289 l 1
 197 289 l 1
 197 69 l 1
 212 40 l 1
 240 26 l 1
 263 26 l 2
 270 26 276 20 276 13 c 0
 276 6 270 0 263 0 c 2
 239 0 l 1
 237 0 l 1
 236 0 l 1
 213 0 l 1
 211 0 l 1
 209 0 l 1
 186 0 l 1
 184 0 l 1
 182 0 l 1
 134 0 l 1
 132 0 l 1
 129 0 l 1
 107 0 l 1
 105 0 l 1
 103 0 l 1
 80 0 l 1
 79 0 l 1
 77 0 l 1
 53 0 l 1
 52 0 l 2
 45 0 39 6 39 13 c 0
 39 20 45 26 52 26 c 2
 53 26 l 1
 76 26 l 1
 104 40 l 1
 118 69 l 1
 118 510 l 1
 104 538 l 1
 76 552 l 1
 53 552 l 1
 52 552 l 2
 45 552 39 559 39 566 c 0
 39 573 45 579 52 579 c 2
 53 579 l 1
 77 579 l 1
 79 579 l 1
 80 579 l 1
 103 579 l 1
 105 579 l 1
 107 579 l 1
 129 579 l 1
 131 579 l 1
EndSplineSet
EndChar

StartChar: S
Encoding: 83 83 52
Width: 526
Flags: MW
HStem: 0 26<233 314 233 314 239 314 239 316 239 320> 394 21G<444.5 450.5> 552 27<213 287 213 213>
VStem: 66 26<410 411 411 434 410 487> 66 52<437 483 437 487 437 488.5> 408 53<117 118 118 168 168 168> 434 27<171 194 194 194>
LayerCount: 2
Fore
SplineSet
434 194 m 2xe2
 433 191 431 188 428 186 c 2
 433 177 l 2
 434 175 434 173 434 171 c 2
 434 194 l 2xe2
92 434 m 2xf0
 92 411 l 1
 92 410 l 2
 93 413 95 417 98 419 c 2
 93 428 l 2
 92 430 92 432 92 434 c 2xf0
211 579 m 2
 289 579 l 2
 290 579 293 578 294 578 c 2
 373 552 l 2
 375 551 377 550 378 549 c 2
 415 511 l 1
 435 570 l 2
 437 575 442 579 447 579 c 0
 454 579 461 573 461 566 c 2
 461 408 l 2
 461 401 454 394 447 394 c 0
 442 394 437 398 435 403 c 2
 410 479 l 1
 361 528 l 1
 287 552 l 1
 213 552 l 1
 141 528 l 1
 118 483 l 1
 118 437 l 1
 141 391 l 1
 189 367 l 1
 346 315 l 2
 347 315 348 314 349 313 c 2
 428 261 l 2
 430 260 432 258 433 256 c 2
 459 203 l 2
 460 201 461 199 461 197 c 2xea
 461 118 l 2
 461 116 460 114 459 112 c 2
 433 60 l 2
 432 59 431 57 430 56 c 2
 405 31 l 1
 404 30 l 2
 402 28 399 26 397 26 c 2
 320 0 l 1
 316 0 l 1
 237 0 l 1
 233 0 l 1
 154 27 l 2
 152 28 150 29 149 30 c 2
 111 67 l 1
 91 9 l 2
 89 4 84 0 79 0 c 0
 72 0 66 6 66 13 c 2
 66 171 l 2
 66 178 72 184 79 184 c 0
 84 184 89 180 91 175 c 2
 117 99 l 1
 165 51 l 1
 239 26 l 1
 314 26 l 1
 385 50 l 1
 408 95 l 1
 408 168 l 1xf4
 385 214 l 1
 337 238 l 1
 180 290 l 2
 179 290 178 290 177 291 c 2
 98 344 l 2
 96 345 94 347 93 349 c 2
 67 402 l 2
 66 404 66 406 66 408 c 2
 66 487 l 2
 66 490 68 494 70 496 c 2
 122 548 l 1
 122 549 l 2
 124 551 127 552 129 552 c 2
 206 578 l 2
 207 578 210 579 211 579 c 2
EndSplineSet
EndChar

StartChar: T
Encoding: 84 84 53
Width: 526
Flags: MW
HStem: 0 26<154.5 181 158 181 158 183 158 184 158 185 158 208 250 261 265 276 345 368 368 369> 394 21G<51 52 51 51 52 53 53 54 54 55 472 473 472 472 473 474 474 475> 552 27<185 224 250 250 250 261 265 265 265 276 303 303 303 341>
VStem: 39 27<405 409 405 485> 224 26<540 543 543 552> 276 27<539 552 69 552> 461 26<403 407 405 406 406 406>
LayerCount: 2
Fore
SplineSet
276 38 m 2
 275 32 270 27 265 26 c 2
 276 26 l 1
 276 37 l 1
 276 38 l 2
250 38 m 2
 250 37 l 1
 250 26 l 1
 261 26 l 2
 256 27 251 33 250 38 c 2
265 552 m 2
 271 551 276 545 276 539 c 2
 276 552 l 1
 265 552 l 2
250 552 m 1
 250 540 l 2
 250 546 255 551 261 552 c 2
 250 552 l 1
52 579 m 2
 55 579 l 1
 77 579 l 1
 79 579 l 1
 81 579 l 1
 103 579 l 1
 105 579 l 1
 107 579 l 1
 130 579 l 1
 132 579 l 1
 133 579 l 1
 183 579 l 1
 184 579 l 1
 185 579 l 1
 235 579 l 1
 237 579 l 1
 239 579 l 1
 287 579 l 1
 289 579 l 1
 292 579 l 1
 341 579 l 1
 342 579 l 1
 343 579 l 1
 393 579 l 1
 395 579 l 1
 396 579 l 1
 419 579 l 1
 421 579 l 1
 423 579 l 1
 445 579 l 1
 447 579 l 1
 449 579 l 1
 472 579 l 1
 474 579 l 2
 477 579 480 578 482 576 c 2
 483 575 l 1
 484 574 l 2
 486 572 487 569 487 566 c 2
 487 563 l 1
 487 541 l 1
 487 539 l 1
 487 537 l 1
 487 515 l 1
 487 513 l 1
 487 511 l 1
 487 488 l 1
 487 487 l 1
 487 485 l 1
 487 408 l 1
 487 407 l 1
 487 405 l 1
 486 404 l 1
 486 403 l 1
 486 402 l 1
 485 401 l 1
 485 400 l 1
 484 399 l 2
 484 398 483 398 482 398 c 2
 481 397 l 2
 480 397 480 395 479 395 c 2
 478 395 l 1
 477 395 l 1
 476 395 l 1
 475 394 l 1
 474 394 l 1
 473 394 l 1
 472 394 l 1
 471 395 l 1
 469 395 l 1
 468 395 l 1
 468 396 l 1
 467 396 l 1
 466 397 l 1
 465 398 l 1
 464 398 l 1
 464 399 l 1
 463 399 l 1
 463 400 l 1
 462 401 l 1
 462 402 l 1
 461 403 l 1
 461 405 l 1
 461 406 l 1
 444 508 l 1
 433 524 l 1
 412 538 l 1
 341 552 l 1
 303 552 l 1
 303 69 l 1
 317 40 l 1
 345 26 l 1
 368 26 l 1
 369 26 l 2
 376 26 382 20 382 13 c 0
 382 6 376 0 369 0 c 2
 368 0 l 1
 344 0 l 1
 342 0 l 1
 341 0 l 1
 318 0 l 1
 316 0 l 1
 314 0 l 1
 292 0 l 1
 289 0 l 1
 287 0 l 1
 239 0 l 1
 237 0 l 1
 235 0 l 1
 212 0 l 1
 210 0 l 1
 208 0 l 1
 185 0 l 1
 184 0 l 1
 183 0 l 1
 158 0 l 2
 151 0 145 6 145 13 c 0
 145 20 151 26 158 26 c 2
 181 26 l 1
 209 40 l 1
 224 69 l 1
 224 552 l 1
 185 552 l 1
 114 538 l 1
 94 524 l 1
 83 508 l 1
 66 406 l 1
 66 405 l 1
 65 405 l 1
 65 402 l 1
 64 401 l 1
 64 400 l 1
 63 400 l 1
 63 399 l 1
 62 399 l 1
 62 398 l 2
 61 398 61 396 60 396 c 2
 59 396 l 2
 58 396 58 395 57 395 c 2
 56 395 l 1
 55 395 l 1
 55 394 l 1
 54 394 l 1
 53 394 l 1
 52 394 l 1
 51 394 l 1
 50 395 l 1
 49 395 l 1
 48 395 l 1
 47 395 l 1
 47 396 l 1
 45 396 l 1
 45 397 l 1
 44 397 l 1
 43 398 l 1
 42 399 l 1
 42 400 l 2
 42 401 40 401 40 402 c 2
 40 404 l 1
 40 405 l 2
 40 406 39 407 39 408 c 2
 39 409 l 1
 39 485 l 1
 39 486 l 1
 39 488 l 1
 39 511 l 1
 39 513 l 1
 39 515 l 1
 39 537 l 1
 39 539 l 1
 39 541 l 1
 39 563 l 1
 39 566 l 2
 39 569 40 572 42 574 c 2
 43 575 l 1
 44 575 l 1
 44 576 l 2
 46 578 49 579 52 579 c 2
EndSplineSet
EndChar

StartChar: U
Encoding: 85 85 54
Width: 631
Flags: MW
HStem: 0 26<285 340 285 340 290 340 293 340 293 342 293 346> 552 27<48.5 53 52 53 53 76 145 145 145 156 160 160 160 171 240 240 240 263 421 444 556 556 556 579>
VStem: 118 79<171 510 147 510> 487 26<173 531>
LayerCount: 2
Fore
SplineSet
192 81 m 2
 191 81 190 79 189 79 c 2
 194 75 l 1
 192 81 l 2
160 552 m 2
 165 551 170 546 171 541 c 2
 171 552 l 1
 160 552 l 2
145 552 m 1
 145 541 l 2
 146 547 151 551 156 552 c 2
 145 552 l 1
131 579 m 1
 134 579 l 1
 182 579 l 1
 184 579 l 1
 186 579 l 1
 209 579 l 1
 211 579 l 1
 213 579 l 1
 236 579 l 1
 237 579 l 1
 239 579 l 1
 263 579 l 2
 270 579 276 573 276 566 c 0
 276 559 270 552 263 552 c 2
 240 552 l 1
 212 538 l 1
 197 510 l 1
 197 147 l 1
 222 73 l 1
 245 50 l 1
 293 26 l 1
 340 26 l 1
 414 51 l 1
 462 99 l 1
 487 173 l 1
 487 531 l 1
 444 552 l 1
 421 552 l 2
 414 552 408 559 408 566 c 0
 408 573 414 579 421 579 c 2
 446 579 l 1
 447 579 l 1
 449 579 l 1
 551 579 l 1
 553 579 l 1
 554 579 l 1
 579 579 l 2
 586 579 592 573 592 566 c 0
 592 559 586 552 579 552 c 2
 556 552 l 1
 513 531 l 1
 513 171 l 2
 513 170 512 168 512 167 c 2
 486 88 l 2
 485 86 484 84 483 83 c 2
 430 30 l 2
 429 29 427 28 425 27 c 2
 346 0 l 1
 342 0 l 1
 291 0 l 1
 290 0 l 1
 285 0 l 1
 285 1 l 1
 206 27 l 2
 204 28 202 29 201 30 c 2
 149 83 l 2
 148 84 146 86 145 88 c 2
 119 167 l 2
 119 168 118 170 118 171 c 2
 118 510 l 1
 104 538 l 1
 76 552 l 1
 53 552 l 1
 52 552 l 2
 45 552 39 559 39 566 c 0
 39 573 45 579 52 579 c 2
 53 579 l 1
 77 579 l 1
 79 579 l 1
 80 579 l 1
 103 579 l 1
 105 579 l 1
 107 579 l 1
 129 579 l 1
 131 579 l 1
EndSplineSet
EndChar

StartChar: V
Encoding: 86 86 55
Width: 526
Flags: MW
HStem: 0 21G<259 260 259 259 260 261 261 262 262 263 263 264 264 265 265 266 266 267 267 268> 552 27<22.5 51 26 47 187 211 187 187 342 392 479 479 479 500>
LayerCount: 2
Fore
SplineSet
52 579 m 1
 54 579 l 1
 77 579 l 1
 79 579 l 1
 81 579 l 1
 103 579 l 1
 105 579 l 1
 107 579 l 1
 129 579 l 1
 132 579 l 1
 134 579 l 1
 156 579 l 1
 158 579 l 1
 160 579 l 1
 183 579 l 1
 184 579 l 1
 186 579 l 1
 211 579 l 2
 218 579 224 573 224 566 c 0
 224 559 218 552 211 552 c 2
 187 552 l 1
 159 538 l 1
 156 533 l 1
 290 131 l 1
 431 533 l 1
 392 552 l 1
 342 552 l 2
 335 552 329 559 329 566 c 0
 329 573 335 579 342 579 c 2
 393 579 l 1
 395 579 l 1
 396 579 l 1
 472 579 l 1
 474 579 l 1
 476 579 l 1
 500 579 l 2
 507 579 513 573 513 566 c 0
 513 559 507 552 500 552 c 2
 479 552 l 1
 459 532 l 1
 276 10 l 1
 276 9 l 1
 275 8 l 1
 275 7 l 2
 275 6 274 6 274 5 c 2
 273 4 l 1
 272 3 l 1
 271 2 l 1
 270 2 l 1
 270 1 l 1
 269 1 l 1
 268 1 l 1
 268 0 l 1
 267 0 l 1
 266 0 l 1
 265 0 l 1
 264 0 l 1
 263 0 l 1
 262 0 l 1
 261 0 l 1
 260 0 l 1
 259 0 l 1
 258 1 l 1
 257 1 l 1
 256 2 l 1
 255 3 l 1
 254 3 l 1
 253 4 l 2
 252 5 251 8 251 9 c 2
 250 10 l 1
 81 519 l 1
 47 552 l 1
 26 552 l 2
 19 552 13 559 13 566 c 0
 13 573 19 579 26 579 c 2
 51 579 l 1
 52 579 l 1
EndSplineSet
EndChar

StartChar: W
Encoding: 87 87 56
Width: 631
Flags: MW
HStem: 0 21G<207 208 207 207 208 211 211 213 213 214 417 418 417 417 418 419 419 421 421 424 424 425> 552 27<22.5 51 26 50 214 237 214 214 447 471 582 582 582 605>
VStem: 198 23<5 10 5 10> 305 77<566 574 566 574> 408 26<9 10 10 11 8.5 12 8.5 12>
LayerCount: 2
Fore
SplineSet
105 579 m 1
 107 579 l 1
 130 579 l 1
 132 579 l 1
 134 579 l 1
 156 579 l 1
 158 579 l 1
 160 579 l 1
 182 579 l 1
 184 579 l 1
 186 579 l 1
 209 579 l 1
 211 579 l 1
 212 579 l 1
 237 579 l 2
 244 579 250 573 250 566 c 0
 250 559 244 552 237 552 c 2
 214 552 l 1
 185 538 l 1
 179 525 l 1
 237 216 l 1
 302 566 l 2
 302 568 304 571 305 573 c 2
 305 574 l 1
 306 575 l 1
 308 576 l 1
 309 577 l 1
 310 578 l 1
 312 578 l 1
 313 579 l 1
 314 579 l 1
 316 579 l 1
 317 579 l 1
 318 579 l 1
 340 579 l 1
 342 579 l 1
 344 579 l 1
 366 579 l 1
 368 579 l 2
 370 579 374 577 376 576 c 2
 377 576 l 1
 378 575 l 2
 380 573 382 569 382 566 c 2
 448 214 l 1
 511 532 l 1
 471 552 l 1
 447 552 l 2
 440 552 434 559 434 566 c 0
 434 573 440 579 447 579 c 2
 472 579 l 1
 473 579 l 1
 475 579 l 1
 578 579 l 1
 579 579 l 1
 581 579 l 1
 605 579 l 2
 612 579 619 573 619 566 c 0
 619 559 612 552 605 552 c 2
 582 552 l 1
 538 530 l 1
 461 143 l 1
 460 143 l 1
 460 141 l 1
 434 11 l 1
 434 9 l 2
 434 8 433 8 433 7 c 0
 433 6 431 6 431 5 c 2
 431 4 l 1
 430 3 l 1
 429 2 l 1
 428 1 l 1
 426 1 l 1
 425 0 l 1
 424 0 l 1
 421 0 l 1
 419 0 l 1
 418 0 l 1
 417 0 l 1
 416 1 l 1
 415 1 l 1
 414 2 l 1
 413 3 l 1
 412 3 l 1
 411 4 l 2
 410 5 408 8 408 9 c 2
 408 10 l 1
 408 11 l 1
 408 12 l 1
 316 495 l 1
 250 143 l 1
 250 141 l 1
 249 141 l 1
 224 11 l 1
 223 9 l 2
 223 8 222 8 222 7 c 0
 222 6 221 6 221 5 c 2
 220 4 l 1
 219 3 l 1
 219 2 l 1
 218 2 l 1
 217 1 l 1
 216 1 l 1
 214 0 l 1
 213 0 l 1
 211 0 l 1
 208 0 l 1
 207 0 l 1
 206 1 l 1
 205 1 l 1
 204 1 l 1
 203 2 l 1
 202 3 l 1
 201 3 l 1
 200 4 l 2
 199 5 198 8 198 9 c 2
 198 10 l 1
 197 11 l 1
 197 12 l 1
 99 527 l 1
 85 541 l 1
 50 552 l 1
 26 552 l 2
 19 552 13 559 13 566 c 0
 13 573 19 579 26 579 c 2
 51 579 l 1
 52 579 l 1
 54 579 l 1
 77 579 l 1
 79 579 l 1
 81 579 l 1
 103 579 l 1
 105 579 l 1
EndSplineSet
EndChar

StartChar: X
Encoding: 88 88 57
Width: 526
Flags: MW
HStem: 0 26<22.5 50 26 50 26 51 26 52 26 54 26 157 161 184 316 339 478 500> 552 27<22.5 51 26 49 187 211 187 187 342 365 477 477 477 500>
LayerCount: 2
Fore
SplineSet
78 579 m 1
 79 579 l 1
 81 579 l 1
 103 579 l 1
 105 579 l 1
 107 579 l 1
 129 579 l 1
 132 579 l 1
 134 579 l 1
 156 579 l 1
 158 579 l 1
 160 579 l 1
 183 579 l 1
 184 579 l 1
 186 579 l 1
 211 579 l 2
 218 579 224 573 224 566 c 0
 224 559 218 552 211 552 c 2
 187 552 l 1
 162 540 l 1
 278 337 l 1
 402 534 l 1
 365 552 l 1
 342 552 l 2
 335 552 329 559 329 566 c 0
 329 573 335 579 342 579 c 2
 367 579 l 1
 368 579 l 1
 370 579 l 1
 472 579 l 1
 474 579 l 1
 475 579 l 1
 500 579 l 2
 507 579 513 573 513 566 c 0
 513 559 507 552 500 552 c 2
 477 552 l 1
 430 529 l 1
 292 311 l 1
 441 50 l 1
 478 26 l 1
 500 26 l 2
 507 26 513 20 513 13 c 0
 513 6 507 0 500 0 c 2
 475 0 l 1
 474 0 l 1
 472 0 l 1
 449 0 l 1
 447 0 l 1
 445 0 l 1
 423 0 l 1
 421 0 l 1
 419 0 l 1
 397 0 l 1
 395 0 l 1
 393 0 l 1
 370 0 l 1
 368 0 l 1
 366 0 l 1
 343 0 l 1
 342 0 l 1
 340 0 l 1
 316 0 l 2
 309 0 302 6 302 13 c 0
 302 20 309 26 316 26 c 2
 339 26 l 1
 365 39 l 1
 249 242 l 1
 124 44 l 1
 161 26 l 1
 184 26 l 2
 191 26 198 20 198 13 c 0
 198 6 191 0 184 0 c 2
 160 0 l 1
 158 0 l 1
 157 0 l 1
 54 0 l 1
 52 0 l 1
 51 0 l 1
 26 0 l 2
 19 0 13 6 13 13 c 0
 13 20 19 26 26 26 c 2
 50 26 l 1
 96 49 l 1
 234 268 l 1
 85 528 l 1
 49 552 l 1
 26 552 l 2
 19 552 13 559 13 566 c 0
 13 573 19 579 26 579 c 2
 51 579 l 1
 53 579 l 1
 54 579 l 1
 77 579 l 1
 78 579 l 1
EndSplineSet
EndChar

StartChar: Y
Encoding: 89 89 58
Width: 578
Flags: MW
HStem: 0 26<180.5 207 184 207 184 209 184 210 184 212 184 235 276 287 292 303 372 395> 552 27<22.5 51 26 50 187 211 187 187 395 418 529 529 529 553>
VStem: 250 79<69 272 69 272>
LayerCount: 2
Fore
SplineSet
303 38 m 2
 302 32 297 27 292 26 c 2
 303 26 l 1
 303 37 l 1
 303 38 l 2
276 38 m 2
 276 37 l 1
 276 26 l 1
 287 26 l 2
 282 27 277 33 276 38 c 2
79 579 m 1
 81 579 l 1
 103 579 l 1
 105 579 l 1
 107 579 l 1
 130 579 l 1
 131 579 l 1
 133 579 l 1
 183 579 l 1
 184 579 l 1
 186 579 l 1
 211 579 l 2
 218 579 224 573 224 566 c 0
 224 559 218 552 211 552 c 2
 187 552 l 1
 163 540 l 1
 315 301 l 1
 455 534 l 1
 418 552 l 1
 395 552 l 2
 388 552 381 559 381 566 c 0
 381 573 388 579 395 579 c 2
 419 579 l 1
 421 579 l 1
 422 579 l 1
 525 579 l 1
 527 579 l 1
 528 579 l 1
 553 579 l 2
 560 579 566 573 566 566 c 0
 566 559 560 552 553 552 c 2
 529 552 l 1
 483 529 l 1
 329 272 l 1
 329 69 l 1
 343 40 l 1
 372 26 l 1
 395 26 l 2
 402 26 408 20 408 13 c 0
 408 6 402 0 395 0 c 2
 370 0 l 1
 369 0 l 1
 367 0 l 1
 344 0 l 1
 342 0 l 1
 340 0 l 1
 318 0 l 1
 316 0 l 1
 314 0 l 1
 265 0 l 1
 263 0 l 1
 261 0 l 1
 239 0 l 1
 237 0 l 1
 235 0 l 1
 212 0 l 1
 210 0 l 1
 209 0 l 1
 184 0 l 2
 177 0 171 6 171 13 c 0
 171 20 177 26 184 26 c 2
 207 26 l 1
 236 40 l 1
 250 69 l 1
 250 272 l 1
 82 536 l 1
 50 552 l 1
 26 552 l 2
 19 552 13 559 13 566 c 0
 13 573 19 579 26 579 c 2
 51 579 l 1
 52 579 l 1
 54 579 l 1
 77 579 l 1
 79 579 l 1
EndSplineSet
EndChar

StartChar: Z
Encoding: 90 90 59
Width: 526
Flags: MW
HStem: 0 26<107 315 129 315 131 315 154 315 154 315 154 316 154 317 154 367> 394 21G<77 78 77 77 78 79 79 80 80 81> 552 27<212 372 212 212>
VStem: 66 26<404.5 405 404.5 405 405 406 404.5 408 404.5 409 404.5 485>
LayerCount: 2
Fore
SplineSet
105 579 m 1
 108 579 l 1
 130 579 l 1
 132 579 l 1
 134 579 l 1
 156 579 l 1
 158 579 l 1
 159 579 l 1
 210 579 l 1
 211 579 l 1
 393 579 l 1
 395 579 l 1
 397 579 l 1
 419 579 l 1
 421 579 l 1
 423 579 l 1
 446 579 l 1
 447 579 l 2
 450 579 455 577 457 574 c 2
 458 574 l 1
 458 573 l 1
 459 572 l 1
 460 570 l 1
 460 569 l 2
 460 568 461 567 461 566 c 0
 461 563 460 559 458 557 c 2
 154 26 l 1
 315 26 l 1
 386 40 l 1
 406 54 l 1
 417 70 l 1
 434 173 l 1
 435 174 l 1
 435 176 l 1
 436 178 l 1
 437 178 l 1
 437 179 l 1
 438 180 l 1
 438 181 l 2
 439 181 439 182 440 182 c 2
 441 182 l 1
 441 183 l 1
 442 183 l 1
 443 183 l 1
 444 184 l 1
 445 184 l 1
 447 184 l 1
 448 184 l 1
 449 184 l 1
 450 184 l 1
 451 184 l 1
 452 183 l 1
 453 183 l 1
 455 182 l 1
 456 181 l 1
 457 180 l 1
 458 179 l 1
 458 178 l 2
 458 177 460 177 460 176 c 2
 460 175 l 1
 460 173 l 2
 460 172 461 172 461 171 c 2
 461 170 l 1
 461 94 l 1
 461 92 l 1
 461 90 l 1
 461 68 l 1
 461 66 l 1
 461 64 l 1
 461 41 l 1
 461 39 l 1
 461 37 l 1
 461 13 l 2
 461 6 454 0 447 0 c 2
 423 0 l 1
 421 0 l 1
 419 0 l 1
 397 0 l 1
 395 0 l 1
 393 0 l 1
 370 0 l 1
 368 0 l 1
 367 0 l 1
 317 0 l 1
 316 0 l 1
 315 0 l 1
 133 0 l 1
 131 0 l 1
 129 0 l 1
 107 0 l 1
 105 0 l 1
 103 0 l 1
 81 0 l 1
 79 0 l 2
 76 0 71 1 69 4 c 2
 69 5 l 1
 68 5 l 1
 67 6 l 1
 67 7 l 1
 67 8 l 1
 66 9 l 1
 66 13 l 2
 66 16 67 19 69 21 c 2
 372 552 l 1
 212 552 l 1
 140 538 l 1
 120 524 l 1
 109 508 l 1
 92 406 l 1
 92 405 l 2
 92 404 91 403 91 402 c 2
 90 401 l 1
 90 400 l 1
 89 399 l 1
 88 398 l 2
 87 398 87 396 86 396 c 2
 85 396 l 2
 84 396 84 395 83 395 c 2
 82 395 l 1
 81 394 l 1
 80 394 l 1
 79 394 l 1
 78 394 l 1
 77 394 l 1
 77 395 l 1
 75 395 l 1
 74 395 l 1
 73 396 l 1
 72 396 l 1
 71 397 l 1
 70 398 l 1
 69 399 l 1
 68 400 l 2
 68 401 67 401 67 402 c 2
 66 404 l 1
 66 405 l 1
 66 408 l 1
 66 409 l 1
 66 485 l 1
 66 486 l 1
 66 488 l 1
 66 511 l 1
 66 513 l 1
 66 515 l 1
 66 537 l 1
 66 539 l 1
 66 541 l 1
 66 566 l 2
 66 573 72 579 79 579 c 2
 103 579 l 1
 105 579 l 1
EndSplineSet
EndChar

StartChar: bracketleft
Encoding: 91 91 60
Width: 368
Flags: MW
HStem: -184 26<107 289 133.5 289 145 289 145 289 289 290> 658 26<145 289 145 145 289 290>
VStem: 92 53<-171 658 -158 658 -158 669 -158 671 -158 672.5>
LayerCount: 2
Fore
SplineSet
105 684 m 2
 107 684 l 1
 129 684 l 1
 132 684 l 1
 134 684 l 1
 289 684 l 1
 290 684 l 2
 297 684 303 678 303 671 c 0
 303 664 297 658 290 658 c 2
 289 658 l 1
 145 658 l 1
 145 -158 l 1
 289 -158 l 1
 290 -158 l 2
 297 -158 303 -164 303 -171 c 0
 303 -178 297 -184 290 -184 c 2
 289 -184 l 1
 134 -184 l 2
 133 -184 133 -185 132 -185 c 0
 131 -185 130 -184 129 -184 c 2
 107 -184 l 2
 106 -184 106 -185 105 -185 c 0
 102 -185 99 -184 97 -182 c 2
 96 -181 l 1
 95 -180 l 2
 93 -178 92 -174 92 -171 c 2
 92 -169 l 1
 92 669 l 1
 92 671 l 2
 92 674 93 677 95 679 c 2
 96 680 l 1
 96 681 l 1
 97 681 l 2
 99 683 102 684 105 684 c 2
EndSplineSet
EndChar

StartChar: backslash
Encoding: 92 92 61
Width: 368
Flags: MW
HStem: 559 20G<-11 0>
LayerCount: 2
Fore
SplineSet
-1 579 m 2
 0 579 l 2
 4 579 9 576 11 572 c 2
 380 -59 l 2
 381 -61 382 -64 382 -66 c 0
 382 -73 376 -80 369 -80 c 0
 365 -80 359 -77 357 -73 c 2
 -11 559 l 2
 -12 561 -13 564 -13 566 c 0
 -13 573 -8 579 -1 579 c 2
EndSplineSet
EndChar

StartChar: bracketright
Encoding: 93 93 62
Width: 368
Flags: MW
HStem: -184 26<75.5 224 79 224 79 235 79 239 79 261> 658 26<75.5 235 79 224>
VStem: 224 52<-158 658 658 658>
LayerCount: 2
Fore
SplineSet
237 684 m 1
 239 684 l 1
 261 684 l 1
 263 684 l 2
 266 684 269 683 271 681 c 2
 272 680 l 1
 273 679 l 2
 275 677 276 674 276 671 c 2
 276 669 l 1
 276 -169 l 1
 276 -171 l 2
 276 -174 276 -178 274 -180 c 2
 273 -181 l 1
 272 -181 l 2
 270 -183 266 -185 263 -185 c 0
 262 -185 262 -184 261 -184 c 2
 239 -184 l 2
 238 -184 238 -185 237 -185 c 0
 236 -185 236 -184 235 -184 c 2
 79 -184 l 2
 72 -184 66 -178 66 -171 c 0
 66 -164 72 -158 79 -158 c 2
 224 -158 l 1
 224 658 l 1
 79 658 l 2
 72 658 66 664 66 671 c 0
 66 678 72 684 79 684 c 2
 235 684 l 1
 237 684 l 1
EndSplineSet
EndChar

StartChar: asciicircum
Encoding: 94 94 63
Width: 578
Flags: MW
HStem: 184 158
LayerCount: 2
Fore
SplineSet
289 342 m 0
 291 342 294 341 296 340 c 2
 507 209 l 1
 507 208 l 1
 508 208 l 1
 509 207 l 1
 510 206 l 2
 511 205 512 204 512 203 c 0
 512 202 513 202 513 201 c 2
 513 200 l 1
 513 199 l 1
 513 198 l 1
 513 197 l 1
 513 196 l 1
 513 195 l 1
 513 194 l 1
 513 193 l 1
 512 191 l 1
 511 190 l 1
 510 188 l 1
 509 187 l 1
 508 186 l 1
 506 185 l 2
 505 184 503 184 501 184 c 2
 500 184 l 1
 499 184 l 1
 498 184 l 1
 497 184 l 1
 495 185 l 1
 494 186 l 1
 289 288 l 1
 85 185 l 1
 84 185 l 1
 82 184 l 1
 79 184 l 1
 78 184 l 1
 76 184 l 1
 75 184 l 1
 74 185 l 1
 73 185 l 1
 71 186 l 1
 70 187 l 1
 69 188 l 1
 69 189 l 1
 68 190 l 1
 67 191 l 1
 67 192 l 1
 66 193 l 1
 66 194 l 1
 66 195 l 1
 66 196 l 1
 66 197 l 1
 66 199 l 1
 66 200 l 1
 66 201 l 1
 67 202 l 1
 67 204 l 1
 68 205 l 2
 68 206 69 207 70 207 c 2
 71 207 l 1
 71 208 l 1
 72 208 l 1
 282 340 l 2
 284 341 287 342 289 342 c 0
EndSplineSet
EndChar

StartChar: underscore
Encoding: 95 95 64
Width: 526
Flags: MW
HStem: -158 26<-3.5 526 0 526>
LayerCount: 2
Fore
SplineSet
0 -132 m 2
 526 -132 l 2
 533 -132 540 -138 540 -145 c 0
 540 -152 533 -158 526 -158 c 2
 0 -158 l 2
 -7 -158 -13 -152 -13 -145 c 0
 -13 -138 -7 -132 0 -132 c 2
EndSplineSet
EndChar

StartChar: grave
Encoding: 96 96 65
Width: 315
Flags: MW
HStem: 395 184<105 233 105 234 105 240 105 239 105 241 105 242>
VStem: 66 184<404 540.5>
LayerCount: 2
Fore
SplineSet
104 546 m 1
 98 540 l 1
 134 511 l 1
 104 546 l 1
105 579 m 2
 106 579 l 2
 110 579 115 575 117 572 c 2
 247 416 l 1
 248 415 l 1
 248 414 l 2
 248 413 249 413 249 412 c 0
 249 411 250 410 250 409 c 2
 250 408 l 1
 250 407 l 1
 250 405 l 1
 250 404 l 1
 249 403 l 1
 249 402 l 1
 248 401 l 1
 248 400 l 1
 247 399 l 1
 247 398 l 1
 246 398 l 2
 245 397 245 397 244 397 c 2
 244 396 l 1
 243 396 l 1
 242 395 l 1
 241 395 l 1
 240 395 l 1
 239 395 l 1
 238 394 l 1
 237 394 l 1
 236 394 l 1
 234 395 l 1
 233 395 l 2
 232 395 232 396 231 396 c 2
 230 397 l 1
 229 397 l 1
 228 398 l 1
 71 529 l 2
 68 531 66 536 66 539 c 0
 66 542 68 547 70 549 c 2
 95 573 l 2
 97 576 101 579 105 579 c 2
EndSplineSet
EndChar

StartChar: a
Encoding: 97 97 66
Width: 526
Flags: MW
HStem: 0 26<183.5 260 184 260 190 260 190 263 453 474> 263 26<101.5 129 118 129 134 145 118 158> 263 79<101.5 158 137 158 137 158> 368 26<187 284 187 187>
VStem: 92 26<289 302 289 329> 145 26<289 301 298 301> 329 79<95 218 218 218 255 276 95 299 95 299>
LayerCount: 2
Fore
SplineSet
329 218 m 1x9e
 327 216 l 1
 326 215 l 2
 325 214 323 213 322 212 c 2
 321 211 l 1
 320 211 l 1
 319 211 l 1
 318 211 l 1
 215 185 l 1
 168 161 l 1
 145 115 l 1
 145 95 l 1
 169 47 l 1
 190 26 l 1
 260 26 l 1
 306 49 l 1
 329 95 l 1
 329 218 l 1x9e
145 301 m 2
 145 295 140 290 134 289 c 2
 145 289 l 1xde
 145 301 l 2
118 302 m 2
 118 289 l 1
 129 289 l 2
 123 290 118 296 118 302 c 2
289 395 m 2
 291 395 294 394 296 393 c 2
 348 367 l 1
 351 364 l 1
 378 338 l 2
 379 337 379 336 380 335 c 2
 407 282 l 2
 408 280 408 278 408 276 c 2
 408 95 l 1
 432 47 l 1
 453 26 l 1
 474 26 l 2
 481 26 487 20 487 13 c 0
 487 6 481 0 474 0 c 2
 449 0 l 1
 447 0 l 2
 446 0 443 0 442 1 c 2
 364 27 l 2
 361 28 358 30 357 33 c 2
 342 62 l 1
 328 33 l 2
 327 31 324 28 322 27 c 2
 269 1 l 2
 267 0 265 0 263 0 c 2
 186 0 l 1
 184 0 l 2
 183 0 180 0 179 1 c 2
 101 27 l 2
 98 28 94 30 93 33 c 2
 67 86 l 2
 66 88 66 90 66 92 c 2
 66 118 l 2
 66 120 66 122 67 124 c 2
 93 177 l 2
 94 180 98 182 101 183 c 2
 180 210 l 1
 182 210 l 1
 309 236 l 1
 329 255 l 1
 329 299 l 1
 305 347 l 1
 284 368 l 1
 187 368 l 1
 139 344 l 1
 137 342 l 1
 158 342 l 2
 165 342 171 336 171 329 c 2
 171 276 l 2
 171 269 165 263 158 263 c 2xbe
 105 263 l 2
 98 263 92 269 92 276 c 2
 92 329 l 2
 92 332 94 336 96 338 c 2
 122 364 l 2
 123 365 125 366 126 367 c 2
 178 393 l 2
 180 394 182 394 184 394 c 2
 288 394 l 1
 289 395 l 2
EndSplineSet
EndChar

StartChar: b
Encoding: 98 98 67
Width: 526
Flags: MW
HStem: 0 26<266 313> 26 26<163 171 155 182 163 163> 368 26<266 266 266 313> 552 27<48.5 53 52 53 53 76 145 145 145 156 160 160 160 171>
VStem: 118 27<45 66 45 510> 145 26<52 65 52 66 45 65 52 66 541 541 541 552> 171 26<539 552 552 552> 408 79<170.5 171 171 223 170.5 248 170.5 248>
LayerCount: 2
Fore
SplineSet
171 65 m 2x75
 171 59 166 53 160 52 c 2
 171 52 l 1x73
 171 65 l 2x75
145 66 m 1x79
 145 45 l 1
 149 49 l 2
 151 51 154 52 156 52 c 1
 150 53 145 59 145 65 c 2
 145 66 l 1x79
414 81 m 2
 412 75 l 1
 416 79 l 2
 415 79 415 81 414 81 c 2
412 319 m 1
 414 314 l 2
 415 314 415 315 416 315 c 2
 412 319 l 1
266 368 m 1
 220 345 l 1
 197 299 l 1
 197 95 l 1
 220 49 l 1
 266 26 l 1
 313 26 l 1xb3
 361 50 l 1
 383 73 l 1
 408 147 l 1
 408 248 l 1
 383 322 l 1
 361 344 l 1
 313 368 l 1
 266 368 l 1
160 552 m 2
 166 551 171 545 171 539 c 2
 171 552 l 1
 160 552 l 2
145 552 m 1x35
 145 541 l 2
 146 547 151 551 156 552 c 2
 145 552 l 1x35
131 579 m 1
 134 579 l 1
 184 579 l 2
 191 579 197 573 197 566 c 2
 197 358 l 1
 199 361 l 2
 200 363 203 366 205 367 c 2
 257 393 l 2
 259 394 261 394 263 394 c 2
 314 394 l 1
 316 395 l 2
 317 395 319 394 320 394 c 2
 321 394 l 1
 399 367 l 2
 401 366 403 365 404 364 c 2
 457 312 l 2
 458 311 459 309 460 307 c 2
 486 228 l 2
 486 227 487 224 487 223 c 2
 487 171 l 2
 487 170 486 168 486 167 c 2
 460 88 l 2
 459 86 458 84 457 83 c 2
 404 30 l 2
 403 29 401 28 399 27 c 2
 321 1 l 1
 320 1 l 1
 320 0 l 1
 316 0 l 1
 314 0 l 1
 263 0 l 2xbb
 261 0 259 0 257 1 c 2
 207 26 l 1
 186 26 l 1
 184 26 l 1
 182 26 l 1
 163 26 l 1x7b
 141 4 l 2
 139 2 135 0 132 0 c 0
 125 0 118 6 118 13 c 2
 118 510 l 1xbb
 104 538 l 1
 76 552 l 1
 53 552 l 1
 52 552 l 2
 45 552 39 559 39 566 c 0
 39 573 45 579 52 579 c 2
 53 579 l 1
 77 579 l 1
 79 579 l 1
 80 579 l 1
 103 579 l 1
 105 579 l 1
 107 579 l 1
 129 579 l 1
 131 579 l 1
EndSplineSet
EndChar

StartChar: c
Encoding: 99 99 68
Width: 473
Flags: MW
HStem: 0 26<233 287 233 287 237 287 240 287 240 289 240 294> 237 26<364.5 393 382 393 397 408 382 421> 237 79<364.5 389 368 389 368 421> 368 26<240 313 240 240>
VStem: 66 79<167 171 171 223 223 228 228 228> 355 27<263 276 263 302 263 305.5> 382 26<263 275 263 276 263 275> 408 26<263 275 272 275>
LayerCount: 2
Fore
SplineSet
139 81 m 2x98
 138 81 137 79 136 79 c 2
 141 75 l 1
 139 81 l 2x98
408 275 m 2xda
 408 269 403 264 397 263 c 2
 408 263 l 1xd9
 408 275 l 2xda
382 276 m 2xdc
 382 263 l 1
 393 263 l 2
 387 264 382 270 382 276 c 2xdc
141 319 m 1
 136 315 l 2
 137 315 138 313 139 313 c 2
 141 319 l 1
237 395 m 2
 239 394 l 1
 316 394 l 2
 318 394 320 394 322 393 c 2
 374 367 l 2
 375 366 377 365 378 364 c 2
 430 312 l 2
 432 310 434 305 434 302 c 2
 434 250 l 2
 434 243 428 237 421 237 c 2xdd
 368 237 l 2
 361 237 355 243 355 250 c 2
 355 302 l 2
 355 309 361 316 368 316 c 2
 389 316 l 1
 361 344 l 1
 313 368 l 1
 240 368 l 1
 192 344 l 1
 169 322 l 1
 145 248 l 1
 145 147 l 1
 169 73 l 1
 192 50 l 1
 240 26 l 1
 287 26 l 1
 361 51 l 1
 412 101 l 2
 414 103 418 105 421 105 c 0
 428 105 434 99 434 92 c 0xbd
 434 89 432 85 430 83 c 2
 378 30 l 2
 377 29 375 28 373 27 c 2
 294 0 l 1
 289 0 l 1
 239 0 l 1
 237 0 l 1
 233 0 l 1
 232 1 l 1
 154 27 l 2
 152 28 150 29 149 30 c 2
 96 83 l 2
 95 84 94 86 93 88 c 2
 66 167 l 1
 66 171 l 1
 66 223 l 1
 66 228 l 1
 93 307 l 2
 94 309 95 311 96 312 c 2
 149 364 l 2
 150 365 152 366 154 367 c 2
 232 393 l 1
 233 394 l 2
 234 394 236 395 237 395 c 2
EndSplineSet
EndChar

StartChar: d
Encoding: 100 100 69
Width: 578
Flags: MW
HStem: 0 26<233 286 233 286 237 286 240 286 240 289 382 393 397 408 477 500> 368 26<240 240 240 286> 552 27<285.5 314 289 313 382 382 382 393 397 397 397 408>
VStem: 66 79<167 171 171 223 223 228 228 228> 355 27<26 36 36 36> 408 26<539 552 552 552>
LayerCount: 2
Fore
SplineSet
408 38 m 2
 407 32 402 27 397 26 c 2
 408 26 l 1
 408 37 l 1
 408 38 l 2
382 39 m 2
 382 26 l 1
 393 26 l 2
 387 27 382 33 382 39 c 2
139 81 m 2
 138 81 137 79 136 79 c 2
 141 75 l 1
 139 81 l 2
141 319 m 1
 136 315 l 2
 137 315 138 313 139 313 c 2
 141 319 l 1
240 368 m 1
 192 344 l 1
 169 322 l 1
 145 248 l 1
 145 147 l 1
 169 73 l 1
 192 50 l 1
 240 26 l 1
 286 26 l 1
 332 49 l 1
 355 95 l 1
 355 299 l 1
 332 345 l 1
 286 368 l 1
 240 368 l 1
397 552 m 2
 403 551 408 545 408 539 c 2
 408 552 l 1
 397 552 l 2
382 552 m 1
 382 541 l 2
 383 547 388 551 393 552 c 2
 382 552 l 1
368 579 m 1
 371 579 l 1
 421 579 l 2
 428 579 434 573 434 566 c 2
 434 69 l 1
 448 40 l 1
 477 26 l 1
 500 26 l 2
 507 26 513 20 513 13 c 0
 513 6 507 0 500 0 c 2
 475 0 l 1
 474 0 l 1
 472 0 l 1
 449 0 l 1
 447 0 l 1
 446 0 l 1
 423 0 l 1
 421 0 l 1
 419 0 l 1
 368 0 l 2
 361 0 355 6 355 13 c 2
 355 36 l 1
 354 33 l 2
 353 31 350 28 348 27 c 2
 295 1 l 2
 293 0 291 0 289 0 c 2
 239 0 l 1
 237 0 l 1
 233 0 l 1
 232 1 l 1
 154 27 l 2
 152 28 150 29 149 30 c 2
 96 83 l 2
 95 84 94 86 93 88 c 2
 66 167 l 1
 66 171 l 1
 66 223 l 1
 66 228 l 1
 93 307 l 2
 94 309 95 311 96 312 c 2
 149 364 l 2
 150 365 152 366 154 367 c 2
 232 393 l 1
 233 394 l 2
 234 394 236 395 237 395 c 2
 239 394 l 1
 289 394 l 2
 291 394 293 394 295 393 c 2
 348 367 l 2
 350 366 353 363 354 361 c 2
 355 358 l 1
 355 510 l 1
 341 538 l 1
 313 552 l 1
 289 552 l 2
 282 552 276 559 276 566 c 0
 276 573 282 579 289 579 c 2
 314 579 l 1
 316 579 l 1
 317 579 l 1
 340 579 l 1
 342 579 l 1
 344 579 l 1
 366 579 l 1
 368 579 l 1
EndSplineSet
EndChar

StartChar: e
Encoding: 101 101 70
Width: 447
Flags: MW
HStem: 0 26<206 261 206 261 211 261 214 261 214 263 214 267> 210 27<118 329 118 340 118 329 118 342 118 344 355 366 371 382> 368 26<214 214 214 260>
VStem: 39 79<171 210 147 223 147 223.5> 329 26<237 250 237 299> 355 27<237 249 237 250 237 249> 382 26<237 249 246 249>
LayerCount: 2
Fore
SplineSet
113 81 m 2xf0
 112 81 111 79 110 79 c 2
 115 75 l 1
 113 81 l 2xf0
382 249 m 2xf4
 382 243 377 238 371 237 c 2
 382 237 l 1xf2
 382 249 l 2xf4
355 250 m 2xf8
 355 237 l 1
 366 237 l 2
 360 238 355 244 355 250 c 2xf8
115 319 m 1
 110 315 l 2
 111 315 112 313 113 313 c 2
 115 319 l 1
214 368 m 1
 166 344 l 1
 143 322 l 1
 118 248 l 1
 118 237 l 1
 329 237 l 1
 329 299 l 1
 306 345 l 1
 260 368 l 1
 214 368 l 1
211 395 m 2
 212 394 l 1
 261 394 l 1
 263 395 l 2
 264 395 266 394 267 394 c 2
 268 394 l 1
 346 367 l 2
 348 366 350 365 351 364 c 2
 378 338 l 2
 379 337 379 336 380 335 c 2
 407 282 l 2
 408 280 408 278 408 276 c 2
 408 223 l 2
 408 216 402 210 395 210 c 2
 344 210 l 1
 342 210 l 1
 340 210 l 1
 118 210 l 1
 118 147 l 1
 143 73 l 1
 166 50 l 1
 214 26 l 1
 261 26 l 1
 335 51 l 1
 385 101 l 2
 387 103 392 105 395 105 c 0
 402 105 408 99 408 92 c 0xf2
 408 89 406 85 404 83 c 2
 351 30 l 2
 350 29 348 28 346 27 c 2
 267 0 l 1
 263 0 l 1
 212 0 l 1
 211 0 l 1
 206 0 l 1
 206 1 l 1
 127 27 l 2
 125 28 123 29 122 30 c 2
 70 83 l 2
 69 84 67 86 66 88 c 2
 40 167 l 2
 40 168 39 170 39 171 c 2
 39 223 l 2
 39 224 40 227 40 228 c 2
 66 307 l 2
 67 309 69 311 70 312 c 2
 122 364 l 2
 123 365 125 366 127 367 c 2
 205 393 l 1
 206 394 l 1
 207 394 l 2
 208 394 210 395 211 395 c 2
EndSplineSet
EndChar

StartChar: f
Encoding: 102 102 71
Width: 368
Flags: MW
HStem: 0 26<48.5 53 52 53 53 76 52 77 52 79 145 156 160 171 240 263> 368 26<48.5 53 52 53 53 118 197 289 289 290> 473 27<285.5 314 303 314 318 329 303 342> 552 27<242 289 242 242>
VStem: 118 79<69 368 69 368 394 434 434 434.5> 276 27<500 513> 303 26<500 512 500 513 500 512> 329 26<500 512 509 512>
LayerCount: 2
Fore
SplineSet
171 38 m 2xf8
 170 32 165 27 160 26 c 2
 171 26 l 1
 171 37 l 1
 171 38 l 2xf8
145 38 m 2
 145 37 l 1
 145 26 l 1
 156 26 l 2
 151 27 146 33 145 38 c 2
329 512 m 2xfa
 329 506 324 501 318 500 c 2
 329 500 l 1xf9
 329 512 l 2xfa
303 513 m 2xfc
 303 500 l 1
 314 500 l 2
 308 501 303 507 303 513 c 2xfc
237 579 m 2
 239 579 l 1
 316 579 l 2
 319 579 323 577 325 575 c 2
 351 549 l 2
 353 547 355 542 355 539 c 2
 355 487 l 2
 355 480 349 473 342 473 c 2
 289 473 l 2
 282 473 276 480 276 487 c 2
 276 539 l 2xfd
 276 546 282 552 289 552 c 2
 242 552 l 1
 221 531 l 1
 197 483 l 1
 197 394 l 1
 289 394 l 1
 290 394 l 2
 297 394 303 388 303 381 c 0xfa
 303 374 297 368 290 368 c 2
 289 368 l 1
 197 368 l 1
 197 69 l 1
 212 40 l 1
 240 26 l 1
 263 26 l 2
 270 26 276 20 276 13 c 0
 276 6 270 0 263 0 c 2
 239 0 l 1
 237 0 l 1
 236 0 l 1
 213 0 l 1
 211 0 l 1
 209 0 l 1
 186 0 l 1
 184 0 l 1
 182 0 l 1
 134 0 l 1
 132 0 l 1
 129 0 l 1
 107 0 l 1
 105 0 l 1
 103 0 l 1
 80 0 l 1
 79 0 l 1
 77 0 l 1
 53 0 l 1
 52 0 l 2
 45 0 39 6 39 13 c 0
 39 20 45 26 52 26 c 2
 53 26 l 1
 76 26 l 1
 104 40 l 1
 118 69 l 1
 118 368 l 1
 53 368 l 1
 52 368 l 2
 45 368 39 374 39 381 c 0
 39 388 45 394 52 394 c 2
 53 394 l 1
 118 394 l 1
 118 434 l 2
 118 435 119 437 119 438 c 2
 145 517 l 2
 146 519 148 521 149 522 c 2
 175 549 l 2
 176 550 177 550 178 551 c 2
 230 577 l 1
 232 578 l 2
 233 579 236 579 237 579 c 2
EndSplineSet
EndChar

StartChar: g
Encoding: 103 103 72
Width: 526
Flags: MW
HStem: -184 26<153 314 153 314 161 314 161 316 160 314 161 320> -53 79<210.5 211 211 314> 105 26<210 258 211 258 216 258 216 261 216 263> 368 26<216 216 216 258 397 398 397 398 398 416>
VStem: 39 53<-89 -69 -89 -66 -89 -65> 66 26<71 89> 92 79<223 276 276 277> 303 79<222 223 223 276 222 299 222 299> 381 80<353.5 356>
LayerCount: 2
Fore
SplineSet
399 -52 m 2xf0
 398 -52 398 -53 397 -53 c 2
 399 -54 l 1
 400 -54 l 1
 399 -52 l 2xf0
120 -21 m 1
 115 -23 l 1
 92 -69 l 1
 92 -89 l 1xf8
 115 -135 l 1
 161 -158 l 1
 314 -158 l 1
 385 -134 l 1
 405 -95 l 1
 388 -78 l 1
 314 -53 l 1
 211 -53 l 2
 210 -53 207 -52 206 -52 c 2
 127 -26 l 2
 125 -25 123 -24 122 -23 c 2
 120 -21 l 1
115 22 m 1
 116 21 l 1
 119 18 l 2
 119 19 120 19 120 20 c 2
 115 22 l 1
398 368 m 1
 397 368 l 2
 399 368 402 366 404 364 c 2
 421 347 l 1
 429 355 l 1
 416 368 l 1
 398 368 l 1
216 368 m 1
 195 347 l 1
 171 299 l 1
 171 200 l 1
 195 152 l 1
 216 131 l 1
 258 131 l 1
 279 152 l 1
 303 200 l 1
 303 299 l 1xf3
 279 347 l 1
 258 368 l 1
 216 368 l 1
263 395 m 2
 265 395 268 394 270 393 c 2
 322 367 l 1
 325 364 l 1
 329 360 l 1
 333 364 l 1
 336 367 l 1
 389 393 l 2
 391 394 393 394 395 394 c 2
 421 394 l 2
 424 394 428 393 430 391 c 2
 457 364 l 2
 459 362 461 358 461 355 c 0
 461 352 459 348 457 346 c 2
 430 319 l 2
 428 317 424 316 421 316 c 0
 418 316 414 317 412 319 c 2
 385 346 l 2
 383 348 381 352 381 355 c 0xf280
 381 357 382 360 383 361 c 2
 350 344 l 1
 348 342 l 1
 351 338 l 1
 354 335 l 1
 380 282 l 2
 381 280 382 278 382 276 c 2
 382 223 l 2
 382 221 381 220 380 218 c 2
 354 165 l 2
 353 164 352 162 351 161 c 2
 325 135 l 2
 324 134 323 134 322 133 c 2
 270 107 l 1
 268 106 l 2
 267 105 265 105 263 105 c 2
 261 105 l 1
 212 105 l 1
 211 105 l 2
 209 105 206 106 204 107 c 2
 152 133 l 2
 151 134 150 134 149 135 c 2
 132 152 l 1
 116 137 l 1
 92 89 l 1
 92 71 l 1xf5
 112 51 l 1
 186 26 l 1
 316 26 l 2
 317 26 319 25 320 25 c 2
 399 -1 l 2
 402 -2 406 -5 407 -8 c 2
 433 -60 l 2
 434 -62 434 -64 434 -66 c 2
 434 -91 l 1
 434 -93 l 2
 434 -95 433 -98 432 -100 c 2
 407 -151 l 2
 406 -154 402 -156 399 -157 c 2
 320 -184 l 1
 316 -184 l 1
 160 -184 l 1
 158 -185 l 2
 157 -185 155 -184 154 -184 c 2
 153 -184 l 1
 75 -157 l 2
 72 -156 68 -154 67 -151 c 2
 41 -98 l 2
 40 -96 39 -94 39 -92 c 2
 39 -66 l 2xf8
 39 -64 40 -62 41 -60 c 2
 67 -8 l 2
 68 -5 72 -2 75 -1 c 2
 94 6 l 1
 93 7 l 1
 68 59 l 1
 67 60 l 2
 66 61 66 64 66 66 c 2
 66 67 l 1
 66 92 l 2xf4
 66 94 66 96 67 98 c 2
 93 150 l 2
 94 151 95 153 96 154 c 2
 116 173 l 1
 93 218 l 2
 92 220 92 221 92 223 c 2
 92 276 l 2
 92 278 92 280 93 282 c 2
 120 335 l 2
 121 336 121 337 122 338 c 2
 149 364 l 1
 152 367 l 1
 203 392 l 1
 204 393 l 1
 205 393 l 1
 206 394 l 1
 207 394 l 1
 209 394 l 1
 211 395 l 1
 212 395 l 1
 212 394 l 1
 261 394 l 1
 263 395 l 2
EndSplineSet
EndChar

StartChar: h
Encoding: 104 104 73
Width: 631
Flags: MW
HStem: 0 26<48.5 53 52 53 53 76 52 77 52 79 145 156 160 171 240 263 342 365 434 445 450 461 529 553> 368 26<293 363 293 293> 552 27<48.5 53 52 53 53 76 145 145 145 156 160 160 160 171>
VStem: 118 79<69 273 332 510 510 510> 171 26<539 552 552 552> 408 79<69 250 69 274 69 274>
LayerCount: 2
Fore
SplineSet
460 38 m 1xe4
 459 32 455 27 450 26 c 2
 461 26 l 1
 461 37 l 1
 460 38 l 1xe4
171 38 m 2xec
 170 32 165 27 160 26 c 2
 171 26 l 1
 171 37 l 1
 171 38 l 2xec
434 38 m 2
 434 37 l 1
 434 26 l 1
 445 26 l 2
 440 27 435 33 434 38 c 2
145 38 m 2
 145 37 l 1
 145 26 l 1
 156 26 l 2
 151 27 146 33 145 38 c 2
412 345 m 1
 414 340 l 2
 415 340 415 341 416 341 c 2
 413 344 l 1
 412 345 l 1
160 552 m 2
 166 551 171 545 171 539 c 2
 171 552 l 1
 160 552 l 2
145 552 m 1
 145 541 l 2
 146 547 151 551 156 552 c 2
 145 552 l 1
131 579 m 1
 134 579 l 1
 184 579 l 2
 191 579 197 573 197 566 c 2xec
 197 332 l 1
 199 335 l 2
 200 336 200 337 201 338 c 2
 228 364 l 1
 231 367 l 1
 284 393 l 2
 286 394 287 394 289 394 c 2
 367 394 l 1
 368 395 l 2
 370 395 373 394 375 393 c 2
 427 367 l 1
 430 364 l 1
 457 338 l 2
 458 337 459 335 460 333 c 2
 486 254 l 2
 486 253 487 251 487 250 c 2
 487 69 l 1
 501 40 l 1
 529 26 l 1
 553 26 l 2
 560 26 566 20 566 13 c 0
 566 6 560 0 553 0 c 2
 528 0 l 1
 527 0 l 1
 525 0 l 1
 502 0 l 1
 500 0 l 1
 498 0 l 1
 476 0 l 1
 474 0 l 1
 472 0 l 1
 423 0 l 1
 421 0 l 1
 419 0 l 1
 397 0 l 1
 395 0 l 1
 393 0 l 1
 370 0 l 1
 368 0 l 1
 367 0 l 1
 342 0 l 2
 335 0 329 6 329 13 c 0
 329 20 335 26 342 26 c 2
 365 26 l 1
 394 40 l 1
 408 69 l 1
 408 274 l 1
 383 348 l 1
 363 368 l 1
 293 368 l 1
 245 344 l 1
 221 321 l 1
 197 273 l 1
 197 69 l 1
 212 40 l 1
 240 26 l 1
 263 26 l 2
 270 26 276 20 276 13 c 0
 276 6 270 0 263 0 c 2
 239 0 l 1
 237 0 l 1
 236 0 l 1
 213 0 l 1
 211 0 l 1
 209 0 l 1
 186 0 l 1
 184 0 l 1
 182 0 l 1
 134 0 l 1
 132 0 l 1
 129 0 l 1
 107 0 l 1
 105 0 l 1
 103 0 l 1
 80 0 l 1
 79 0 l 1
 77 0 l 1
 53 0 l 1
 52 0 l 2
 45 0 39 6 39 13 c 0
 39 20 45 26 52 26 c 2
 53 26 l 1
 76 26 l 1
 104 40 l 1
 118 69 l 1
 118 510 l 1xf4
 104 538 l 1
 76 552 l 1
 53 552 l 1
 52 552 l 2
 45 552 39 559 39 566 c 0
 39 573 45 579 52 579 c 2
 53 579 l 1
 77 579 l 1
 79 579 l 1
 80 579 l 1
 103 579 l 1
 105 579 l 1
 107 579 l 1
 129 579 l 1
 131 579 l 1
EndSplineSet
EndChar

StartChar: i
Encoding: 105 105 74
Width: 315
Flags: MW
HStem: 0 26<48.5 53 52 53 53 76 52 77 52 79 145 156 160 171 240 263> 368 26<48.5 53 52 53 53 76 145 145 145 156 160 160 160 171> 500 79<131 132 132 134 134 156 156 158 158 160 160 184>
VStem: 118 79<69 326 326 326 513 537 540.5 541 541 563 563 566> 171 26<355 368 368 368>
LayerCount: 2
Fore
SplineSet
171 38 m 2xe8
 170 32 165 27 160 26 c 2
 171 26 l 1
 171 37 l 1
 171 38 l 2xe8
145 38 m 2
 145 37 l 1
 145 26 l 1
 156 26 l 2
 151 27 146 33 145 38 c 2
160 368 m 2
 166 367 171 361 171 355 c 2
 171 368 l 1
 160 368 l 2
145 368 m 1
 145 357 l 2
 146 362 151 367 156 368 c 2
 145 368 l 1
131 395 m 0
 132 395 133 394 134 394 c 2
 184 394 l 2
 191 394 197 388 197 381 c 2xe8
 197 69 l 1
 212 40 l 1
 240 26 l 1
 263 26 l 2
 270 26 276 20 276 13 c 0
 276 6 270 0 263 0 c 2
 239 0 l 1
 237 0 l 1
 236 0 l 1
 213 0 l 1
 211 0 l 1
 209 0 l 1
 186 0 l 1
 184 0 l 1
 182 0 l 1
 134 0 l 1
 132 0 l 1
 129 0 l 1
 107 0 l 1
 105 0 l 1
 103 0 l 1
 80 0 l 1
 79 0 l 1
 77 0 l 1
 53 0 l 1
 52 0 l 2
 45 0 39 6 39 13 c 0
 39 20 45 26 52 26 c 2
 53 26 l 1
 76 26 l 1
 104 40 l 1
 118 69 l 1
 118 326 l 1xf0
 104 354 l 1
 76 368 l 1
 53 368 l 1
 52 368 l 2
 45 368 39 374 39 381 c 0
 39 388 45 394 52 394 c 2
 53 394 l 1
 77 394 l 1
 79 395 l 1
 80 394 l 1
 103 394 l 2
 104 394 104 395 105 395 c 0
 106 395 106 394 107 394 c 2
 129 394 l 2
 130 394 130 395 131 395 c 0
131 579 m 2
 134 579 l 1
 156 579 l 1
 158 579 l 1
 160 579 l 1
 184 579 l 2
 191 579 197 573 197 566 c 2
 197 541 l 2
 197 540 198 540 198 539 c 0
 198 538 197 538 197 537 c 2
 197 513 l 2
 197 506 191 500 184 500 c 2
 160 500 l 1
 158 500 l 1
 156 500 l 1
 132 500 l 2
 125 500 118 506 118 513 c 2
 118 537 l 1
 118 539 l 1
 118 541 l 1
 118 563 l 1
 118 566 l 2xf0
 118 569 119 572 121 574 c 2
 122 575 l 1
 123 575 l 1
 123 576 l 2
 125 578 128 579 131 579 c 2
EndSplineSet
EndChar

StartChar: j
Encoding: 106 106 75
Width: 315
Flags: MW
HStem: -184 26<79 126 79 130> -106 27<39 39 39 50 55 55 55 66> 368 26<101.5 130 105 128 197 197 197 208 213 213 213 224> 500 79<180.5 186 184 186 186 208 208 211 211 213 213 237>
VStem: 13 26<-118 -106 -118 -92 -118 -88.5> 66 26<-119 -106 -106 -106> 171 79<-40.5 -40 -40 326 326 326 513 537 537 539 539 541 541 563 563 566> 224 26<355 368 368 368>
LayerCount: 2
Fore
SplineSet
177 -130 m 2xfc
 175 -135 l 1
 176 -134 l 1
 179 -131 l 2
 178 -131 178 -130 177 -130 c 2xfc
55 -106 m 2
 61 -107 66 -113 66 -119 c 2
 66 -106 l 1
 55 -106 l 2
39 -106 m 1
 39 -118 l 2
 39 -112 44 -107 50 -106 c 2
 39 -106 l 1
213 368 m 2
 219 367 224 361 224 355 c 2
 224 368 l 1xfd
 213 368 l 2
197 368 m 1
 197 357 l 2
 198 362 203 367 208 368 c 2
 197 368 l 1
184 395 m 0
 185 395 185 394 186 394 c 2
 237 394 l 2
 244 394 250 388 250 381 c 2xfd
 250 -40 l 2
 250 -41 249 -43 249 -44 c 2
 223 -123 l 2
 222 -125 221 -127 220 -128 c 2
 194 -154 l 2
 193 -155 191 -156 190 -157 c 2
 138 -183 l 1
 137 -183 l 2
 136 -184 133 -185 131 -185 c 2
 130 -184 l 1
 53 -184 l 2
 50 -184 45 -183 43 -181 c 2
 17 -154 l 2
 15 -152 13 -148 13 -145 c 2
 13 -92 l 2
 13 -85 19 -79 26 -79 c 2
 79 -79 l 2
 86 -79 92 -85 92 -92 c 2
 92 -145 l 2
 92 -152 86 -158 79 -158 c 2
 126 -158 l 1
 146 -138 l 1
 171 -64 l 1
 171 326 l 1xfe
 157 354 l 1
 128 368 l 1
 105 368 l 2
 98 368 92 374 92 381 c 0
 92 388 98 394 105 394 c 2
 130 394 l 1
 131 395 l 1
 133 394 l 1
 156 394 l 2
 157 394 157 395 158 395 c 0
 159 395 159 394 160 394 c 2
 182 394 l 2
 183 394 183 395 184 395 c 0
184 579 m 2
 186 579 l 1
 208 579 l 1
 211 579 l 1
 213 579 l 1
 237 579 l 2
 244 579 250 573 250 566 c 2
 250 541 l 1
 250 539 l 1
 250 537 l 1
 250 513 l 2
 250 506 244 500 237 500 c 2
 213 500 l 1
 211 500 l 1
 208 500 l 1
 184 500 l 2
 177 500 171 506 171 513 c 2
 171 537 l 1
 171 539 l 1
 171 541 l 1
 171 563 l 1
 171 566 l 2xfe
 171 569 172 572 174 574 c 2
 175 575 l 1
 176 576 l 2
 178 578 181 579 184 579 c 2
EndSplineSet
EndChar

StartChar: k
Encoding: 107 107 76
Width: 578
Flags: MW
HStem: 0 26<48.5 53 52 53 53 76 52 77 52 79 145 156 160 171 240 263 342 363 503 526> 368 26<338.5 367 342 365 502 502 502 526> 552 27<48.5 53 52 53 53 76 145 145 145 156 160 160 160 171>
VStem: 118 79<69 113 150 510 510 510> 171 26<539 552 552 552>
LayerCount: 2
Fore
SplineSet
171 38 m 2xe8
 170 32 165 27 160 26 c 2
 171 26 l 1
 171 37 l 1
 171 38 l 2xe8
145 38 m 2
 145 37 l 1
 145 26 l 1
 156 26 l 2
 151 27 146 33 145 38 c 2
160 552 m 2
 166 551 171 545 171 539 c 2
 171 552 l 1
 160 552 l 2
145 552 m 1
 145 541 l 2
 146 547 151 551 156 552 c 2
 145 552 l 1
131 579 m 1
 134 579 l 1
 184 579 l 2
 191 579 197 573 197 566 c 2xe8
 197 150 l 1
 252 205 l 1
 255 208 l 1
 279 231 l 1
 282 234 l 1
 399 351 l 1
 365 368 l 1
 342 368 l 2
 335 368 329 374 329 381 c 0
 329 388 335 394 342 394 c 2
 367 394 l 1
 368 395 l 1
 370 394 l 1
 499 394 l 1
 500 395 l 1
 501 394 l 1
 526 394 l 2
 533 394 540 388 540 381 c 0
 540 374 533 368 526 368 c 2
 502 368 l 1
 428 343 l 1
 308 223 l 1
 462 47 l 1
 503 26 l 1
 526 26 l 2
 533 26 540 20 540 13 c 0
 540 6 533 0 526 0 c 2
 502 0 l 1
 500 0 l 1
 499 0 l 1
 476 0 l 1
 474 0 l 1
 472 0 l 1
 449 0 l 1
 447 0 l 1
 446 0 l 1
 423 0 l 1
 421 0 l 1
 419 0 l 1
 370 0 l 1
 368 0 l 1
 366 0 l 1
 342 0 l 2
 335 0 329 6 329 13 c 0
 329 20 335 26 342 26 c 2
 363 26 l 1
 379 42 l 1
 262 178 l 1
 197 113 l 1
 197 69 l 1
 212 40 l 1
 240 26 l 1
 263 26 l 2
 270 26 276 20 276 13 c 0
 276 6 270 0 263 0 c 2
 239 0 l 1
 237 0 l 1
 236 0 l 1
 213 0 l 1
 211 0 l 1
 209 0 l 1
 186 0 l 1
 184 0 l 1
 182 0 l 1
 134 0 l 1
 132 0 l 1
 129 0 l 1
 107 0 l 1
 105 0 l 1
 103 0 l 1
 80 0 l 1
 79 0 l 1
 77 0 l 1
 53 0 l 1
 52 0 l 2
 45 0 39 6 39 13 c 0
 39 20 45 26 52 26 c 2
 53 26 l 1
 76 26 l 1
 104 40 l 1
 118 69 l 1
 118 510 l 1xf0
 104 538 l 1
 76 552 l 1
 53 552 l 1
 52 552 l 2
 45 552 39 559 39 566 c 0
 39 573 45 579 52 579 c 2
 53 579 l 1
 77 579 l 1
 79 579 l 1
 80 579 l 1
 103 579 l 1
 105 579 l 1
 107 579 l 1
 129 579 l 1
 131 579 l 1
EndSplineSet
EndChar

StartChar: l
Encoding: 108 108 77
Width: 315
Flags: MW
HStem: 0 26<48.5 53 52 53 53 76 52 77 52 79 145 156 160 171 240 263> 552 27<48.5 53 52 53 53 76 145 145 145 156 160 160 160 171>
VStem: 118 79<69 510 510 510> 171 26<539 552 552 552>
LayerCount: 2
Fore
SplineSet
171 38 m 2xd0
 170 32 165 27 160 26 c 2
 171 26 l 1
 171 37 l 1
 171 38 l 2xd0
145 38 m 2
 145 37 l 1
 145 26 l 1
 156 26 l 2
 151 27 146 33 145 38 c 2
160 552 m 2
 166 551 171 545 171 539 c 2
 171 552 l 1
 160 552 l 2
145 552 m 1
 145 541 l 2
 146 547 151 551 156 552 c 2
 145 552 l 1
131 579 m 1
 134 579 l 1
 184 579 l 2
 191 579 197 573 197 566 c 2xd0
 197 69 l 1
 212 40 l 1
 240 26 l 1
 263 26 l 2
 270 26 276 20 276 13 c 0
 276 6 270 0 263 0 c 2
 239 0 l 1
 237 0 l 1
 236 0 l 1
 213 0 l 1
 211 0 l 1
 209 0 l 1
 186 0 l 1
 184 0 l 1
 182 0 l 1
 134 0 l 1
 132 0 l 1
 129 0 l 1
 107 0 l 1
 105 0 l 1
 103 0 l 1
 80 0 l 1
 79 0 l 1
 77 0 l 1
 53 0 l 1
 52 0 l 2
 45 0 39 6 39 13 c 0
 39 20 45 26 52 26 c 2
 53 26 l 1
 76 26 l 1
 104 40 l 1
 118 69 l 1
 118 510 l 1xe0
 104 538 l 1
 76 552 l 1
 53 552 l 1
 52 552 l 2
 45 552 39 559 39 566 c 0
 39 573 45 579 52 579 c 2
 53 579 l 1
 77 579 l 1
 79 579 l 1
 80 579 l 1
 103 579 l 1
 105 579 l 1
 107 579 l 1
 129 579 l 1
 131 579 l 1
EndSplineSet
EndChar

StartChar: m
Encoding: 109 109 78
Width: 894
Flags: MW
HStem: 0 26<48.5 53 52 53 53 76 52 77 52 79 145 156 160 171 240 263 342 365 434 445 450 461 529 553 631 632 632 655 724 735 739 750 819 842> 368 26<48.5 53 52 53 53 76 145 145 145 156 160 160 160 171 293 293 293 363 582 582 582 652>
VStem: 118 79<69 273 69 326 69 326> 171 26<355 368 368 368> 408 79<69 250 69 274 69 274> 697 79<69 250 250 254 69 274 69 274>
LayerCount: 2
Fore
SplineSet
750 38 m 2xcc
 749 32 744 27 739 26 c 2
 750 26 l 1
 750 37 l 1
 750 38 l 2xcc
460 38 m 1
 459 32 455 27 450 26 c 2
 461 26 l 1
 461 37 l 1
 460 38 l 1
171 38 m 2xdc
 170 32 165 27 160 26 c 2
 171 26 l 1
 171 37 l 1
 171 38 l 2xdc
724 38 m 2
 724 37 l 1
 724 26 l 1
 735 26 l 2
 730 27 725 33 724 38 c 2
434 38 m 2
 434 37 l 1
 434 26 l 1
 445 26 l 2
 440 27 435 33 434 38 c 2
145 38 m 2
 145 37 l 1
 145 26 l 1
 156 26 l 2
 151 27 146 33 145 38 c 2
701 345 m 1
 703 340 l 2
 704 340 705 341 706 341 c 2
 703 344 l 1
 701 345 l 1
412 345 m 1
 414 340 l 2
 415 340 415 341 416 341 c 2
 413 344 l 1
 412 345 l 1
160 368 m 2
 166 367 171 361 171 355 c 2
 171 368 l 1
 160 368 l 2
145 368 m 1
 145 357 l 2
 146 362 151 367 156 368 c 2
 145 368 l 1
131 395 m 0
 132 395 133 394 134 394 c 2
 184 394 l 2
 191 394 197 388 197 381 c 2
 197 332 l 1xdc
 199 335 l 2
 200 336 200 337 201 338 c 2
 228 364 l 1
 231 367 l 1
 284 393 l 2
 286 394 287 394 289 394 c 2
 367 394 l 1
 368 395 l 2
 370 395 373 394 375 393 c 2
 427 367 l 1
 430 364 l 1
 457 338 l 2
 458 337 459 335 460 333 c 2
 471 300 l 1
 488 335 l 1
 491 338 l 1
 517 364 l 1
 520 367 l 1
 573 393 l 2
 575 394 577 394 579 394 c 2
 656 394 l 1
 658 395 l 2
 660 395 663 394 665 393 c 2
 716 367 l 2
 717 366 719 365 720 364 c 2
 746 338 l 2
 747 337 748 335 749 333 c 2
 776 254 l 1
 776 250 l 1
 776 69 l 1
 791 40 l 1
 819 26 l 1
 842 26 l 2
 849 26 855 20 855 13 c 0
 855 6 849 0 842 0 c 2
 818 0 l 1
 816 0 l 1
 815 0 l 1
 791 0 l 1
 790 0 l 1
 788 0 l 1
 765 0 l 1
 763 0 l 1
 761 0 l 1
 713 0 l 1
 711 0 l 1
 708 0 l 1
 686 0 l 1
 684 0 l 1
 682 0 l 1
 659 0 l 1
 658 0 l 1
 656 0 l 1
 632 0 l 1
 631 0 l 2
 624 0 618 6 618 13 c 0
 618 20 624 26 631 26 c 2
 632 26 l 1
 655 26 l 1
 683 40 l 1
 697 69 l 1
 697 274 l 1
 673 348 l 1
 652 368 l 1
 582 368 l 1
 534 344 l 1
 511 321 l 1
 485 270 l 2
 484 269 483 267 482 266 c 2
 486 254 l 2
 486 253 487 251 487 250 c 2
 487 69 l 1
 501 40 l 1
 529 26 l 1
 553 26 l 2
 560 26 566 20 566 13 c 0
 566 6 560 0 553 0 c 2
 528 0 l 1
 527 0 l 1
 525 0 l 1
 502 0 l 1
 500 0 l 1
 498 0 l 1
 476 0 l 1
 474 0 l 1
 472 0 l 1
 423 0 l 1
 421 0 l 1
 419 0 l 1
 397 0 l 1
 395 0 l 1
 393 0 l 1
 370 0 l 1
 368 0 l 1
 367 0 l 1
 342 0 l 2
 335 0 329 6 329 13 c 0
 329 20 335 26 342 26 c 2
 365 26 l 1
 394 40 l 1
 408 69 l 1
 408 274 l 1
 383 348 l 1
 363 368 l 1
 293 368 l 1
 245 344 l 1
 221 321 l 1
 197 273 l 1
 197 69 l 1
 212 40 l 1
 240 26 l 1
 263 26 l 2
 270 26 276 20 276 13 c 0
 276 6 270 0 263 0 c 2
 239 0 l 1
 237 0 l 1
 236 0 l 1
 213 0 l 1
 211 0 l 1
 209 0 l 1
 186 0 l 1
 184 0 l 1
 182 0 l 1
 134 0 l 1
 132 0 l 1
 129 0 l 1
 107 0 l 1
 105 0 l 1
 103 0 l 1
 80 0 l 1
 79 0 l 1
 77 0 l 1
 53 0 l 1
 52 0 l 2
 45 0 39 6 39 13 c 0
 39 20 45 26 52 26 c 2
 53 26 l 1
 76 26 l 1
 104 40 l 1
 118 69 l 1
 118 326 l 1xec
 104 354 l 1
 76 368 l 1
 53 368 l 1
 52 368 l 2
 45 368 39 374 39 381 c 0
 39 388 45 394 52 394 c 2
 53 394 l 1
 77 394 l 1
 79 395 l 1
 80 394 l 1
 103 394 l 2
 104 394 104 395 105 395 c 0
 106 395 106 394 107 394 c 2
 129 394 l 2
 130 394 130 395 131 395 c 0
EndSplineSet
EndChar

StartChar: n
Encoding: 110 110 79
Width: 605
Flags: MW
HStem: 0 26<48.5 53 52 53 53 76 52 77 52 79 145 156 160 171 240 263 342 365 434 445 450 461 529 553> 368 26<48.5 53 52 53 53 76 145 145 145 156 160 160 160 171 293 293 293 363>
VStem: 118 79<69 273 69 326 69 326> 171 26<355 368 368 368> 408 79<69 250 69 274 69 274>
LayerCount: 2
Fore
SplineSet
460 38 m 1xc8
 459 32 455 27 450 26 c 2
 461 26 l 1
 461 37 l 1
 460 38 l 1xc8
171 38 m 2xd8
 170 32 165 27 160 26 c 2
 171 26 l 1
 171 37 l 1
 171 38 l 2xd8
434 38 m 2
 434 37 l 1
 434 26 l 1
 445 26 l 2
 440 27 435 33 434 38 c 2
145 38 m 2
 145 37 l 1
 145 26 l 1
 156 26 l 2
 151 27 146 33 145 38 c 2
412 345 m 1
 414 340 l 2
 415 340 415 341 416 341 c 2
 413 344 l 1
 412 345 l 1
160 368 m 2
 166 367 171 361 171 355 c 2
 171 368 l 1
 160 368 l 2
145 368 m 1
 145 357 l 2
 146 362 151 367 156 368 c 2
 145 368 l 1
131 395 m 0
 132 395 133 394 134 394 c 2
 184 394 l 2
 191 394 197 388 197 381 c 2
 197 332 l 1xd8
 199 335 l 2
 200 336 200 337 201 338 c 2
 228 364 l 1
 231 367 l 1
 284 393 l 2
 286 394 287 394 289 394 c 2
 367 394 l 1
 368 395 l 2
 370 395 373 394 375 393 c 2
 427 367 l 1
 430 364 l 1
 457 338 l 2
 458 337 459 335 460 333 c 2
 486 254 l 2
 486 253 487 251 487 250 c 2
 487 69 l 1
 501 40 l 1
 529 26 l 1
 553 26 l 2
 560 26 566 20 566 13 c 0
 566 6 560 0 553 0 c 2
 528 0 l 1
 527 0 l 1
 525 0 l 1
 502 0 l 1
 500 0 l 1
 498 0 l 1
 476 0 l 1
 474 0 l 1
 472 0 l 1
 423 0 l 1
 421 0 l 1
 419 0 l 1
 397 0 l 1
 395 0 l 1
 393 0 l 1
 370 0 l 1
 368 0 l 1
 367 0 l 1
 342 0 l 2
 335 0 329 6 329 13 c 0
 329 20 335 26 342 26 c 2
 365 26 l 1
 394 40 l 1
 408 69 l 1
 408 274 l 1
 383 348 l 1
 363 368 l 1
 293 368 l 1
 245 344 l 1
 221 321 l 1
 197 273 l 1
 197 69 l 1
 212 40 l 1
 240 26 l 1
 263 26 l 2
 270 26 276 20 276 13 c 0
 276 6 270 0 263 0 c 2
 239 0 l 1
 237 0 l 1
 236 0 l 1
 213 0 l 1
 211 0 l 1
 209 0 l 1
 186 0 l 1
 184 0 l 1
 182 0 l 1
 134 0 l 1
 132 0 l 1
 129 0 l 1
 107 0 l 1
 105 0 l 1
 103 0 l 1
 80 0 l 1
 79 0 l 1
 77 0 l 1
 53 0 l 1
 52 0 l 2
 45 0 39 6 39 13 c 0
 39 20 45 26 52 26 c 2
 53 26 l 1
 76 26 l 1
 104 40 l 1
 118 69 l 1
 118 326 l 1xe8
 104 354 l 1
 76 368 l 1
 53 368 l 1
 52 368 l 2
 45 368 39 374 39 381 c 0
 39 388 45 394 52 394 c 2
 53 394 l 1
 77 394 l 1
 79 395 l 1
 80 394 l 1
 103 394 l 2
 104 394 104 395 105 395 c 0
 106 395 106 394 107 394 c 2
 129 394 l 2
 130 394 130 395 131 395 c 0
EndSplineSet
EndChar

StartChar: o
Encoding: 111 111 80
Width: 526
Flags: MW
HStem: 0 26<233 286 233 286 237 286 240 286 240 288 240 289 240 293 240 294> 368 26<240 240 240 286>
VStem: 66 79<167 171 171 223 223 228 228 228> 382 79<170.5 171 171 223 170.5 248 170.5 248>
LayerCount: 2
Fore
SplineSet
139 81 m 2
 138 81 137 79 136 79 c 2
 141 75 l 1
 139 81 l 2
387 81 m 2
 385 75 l 1
 390 79 l 2
 389 79 388 81 387 81 c 2
385 319 m 1
 387 314 l 2
 388 314 389 315 390 315 c 2
 385 319 l 1
141 319 m 1
 136 315 l 2
 137 315 138 313 139 313 c 2
 141 319 l 1
240 368 m 1
 192 344 l 1
 169 322 l 1
 145 248 l 1
 145 147 l 1
 169 73 l 1
 192 50 l 1
 240 26 l 1
 286 26 l 1
 334 50 l 1
 357 73 l 1
 382 147 l 1
 382 248 l 1
 357 322 l 1
 334 344 l 1
 286 368 l 1
 240 368 l 1
237 395 m 1
 239 394 l 1
 288 394 l 1
 289 395 l 2
 290 395 293 394 294 394 c 2
 373 367 l 2
 375 366 377 365 378 364 c 2
 430 312 l 2
 431 311 433 309 434 307 c 2
 460 228 l 2
 460 227 461 224 461 223 c 2
 461 171 l 2
 461 170 460 168 460 167 c 2
 434 88 l 2
 433 86 431 84 430 83 c 2
 378 30 l 2
 377 29 375 28 373 27 c 2
 295 1 l 1
 294 1 l 1
 294 0 l 1
 293 0 l 1
 289 0 l 1
 288 0 l 1
 239 0 l 1
 237 0 l 1
 233 0 l 1
 232 1 l 1
 154 27 l 2
 152 28 150 29 149 30 c 2
 96 83 l 2
 95 84 94 86 93 88 c 2
 66 167 l 1
 66 171 l 1
 66 223 l 1
 66 228 l 1
 93 307 l 2
 94 309 95 311 96 312 c 2
 149 364 l 2
 150 365 152 366 154 367 c 2
 232 393 l 1
 233 394 l 1
 234 394 l 1
 235 394 l 1
 236 394 l 1
 236 395 l 1
 237 395 l 1
EndSplineSet
EndChar

StartChar: p
Encoding: 112 112 81
Width: 526
Flags: MW
HStem: -184 26<48.5 53 52 53 53 76 52 77 145 156 160 171 240 263> 0 26<262 313 266 313 266 314 266 316 266 320> 368 26<48.5 53 52 53 53 76 145 145 145 156 160 160 160 171 266 266 266 313>
VStem: 118 79<-116 36 95 299> 171 26<358 368 368 368> 408 79<170.5 171 171 223 170.5 248 170.5 248>
LayerCount: 2
Fore
SplineSet
171 -147 m 2xec
 170 -152 165 -157 160 -158 c 2
 171 -158 l 1
 171 -147 l 2xec
145 -146 m 2
 145 -147 l 1
 145 -158 l 1
 156 -158 l 2
 151 -157 146 -152 145 -146 c 2
414 81 m 2
 412 75 l 1
 416 79 l 2
 415 79 415 81 414 81 c 2
412 319 m 1
 414 314 l 2
 415 314 415 315 416 315 c 2
 412 319 l 1
266 368 m 1
 220 345 l 1
 197 299 l 1
 197 95 l 1xf4
 220 49 l 1
 266 26 l 1
 313 26 l 1
 361 50 l 1
 383 73 l 1
 408 147 l 1
 408 248 l 1
 383 322 l 1
 361 344 l 1
 313 368 l 1
 266 368 l 1
160 368 m 2
 166 367 171 361 171 355 c 2
 171 368 l 1xec
 160 368 l 2
145 368 m 1
 145 357 l 2
 146 362 151 367 156 368 c 2
 145 368 l 1
131 395 m 0
 132 395 133 394 134 394 c 2
 184 394 l 2
 191 394 197 388 197 381 c 2
 197 358 l 1xec
 199 361 l 2
 200 363 203 366 205 367 c 2
 257 393 l 2
 259 394 261 394 263 394 c 2
 314 394 l 1
 316 395 l 2
 317 395 319 394 320 394 c 2
 321 394 l 1
 399 367 l 2
 401 366 403 365 404 364 c 2
 457 312 l 2
 458 311 459 309 460 307 c 2
 486 228 l 2
 486 227 487 224 487 223 c 2
 487 171 l 2
 487 170 486 168 486 167 c 2
 460 88 l 2
 459 86 458 84 457 83 c 2
 404 30 l 2
 403 29 401 28 399 27 c 2
 321 1 l 1
 320 1 l 1
 320 0 l 1
 316 0 l 1
 314 0 l 1
 263 0 l 2
 261 0 259 0 257 1 c 2
 205 27 l 2
 203 28 200 31 199 33 c 2
 197 36 l 1
 197 -116 l 1
 212 -144 l 1
 240 -158 l 1
 263 -158 l 2
 270 -158 276 -164 276 -171 c 0
 276 -178 270 -184 263 -184 c 2
 239 -184 l 1
 237 -185 l 1
 236 -184 l 1
 213 -184 l 2
 212 -184 212 -185 211 -185 c 0
 210 -185 210 -184 209 -184 c 2
 186 -184 l 2
 185 -184 185 -185 184 -185 c 0
 183 -185 183 -184 182 -184 c 2
 134 -184 l 2
 133 -184 133 -185 132 -185 c 0
 131 -185 130 -184 129 -184 c 2
 107 -184 l 2
 106 -184 106 -185 105 -185 c 0
 104 -185 104 -184 103 -184 c 2
 80 -184 l 1
 79 -185 l 1
 77 -184 l 1
 53 -184 l 1
 52 -184 l 2
 45 -184 39 -178 39 -171 c 0
 39 -164 45 -158 52 -158 c 2
 53 -158 l 1
 76 -158 l 1
 104 -144 l 1
 118 -116 l 1
 118 326 l 1xf4
 104 354 l 1
 76 368 l 1
 53 368 l 1
 52 368 l 2
 45 368 39 374 39 381 c 0
 39 388 45 394 52 394 c 2
 53 394 l 1
 77 394 l 1
 79 395 l 1
 80 394 l 1
 103 394 l 2
 104 394 104 395 105 395 c 0
 106 395 106 394 107 394 c 2
 129 394 l 2
 130 394 130 395 131 395 c 0
EndSplineSet
EndChar

StartChar: q
Encoding: 113 113 82
Width: 526
Flags: MW
HStem: -184 26<285.5 313 289 313 289 314 289 340 289 317 382 392 397 408 477 500> 0 26<233 286 233 286 237 286 240 286 240 289> 342 26<382 382 382 389> 368 26<240 240 240 286>
VStem: 66 79<167 171 171 223 223 228 228 228> 355 79<-116 36 36 36 95 299 299 299> 408 26<329 350 350 350>
LayerCount: 2
Fore
SplineSet
408 -147 m 2xca
 407 -152 402 -157 397 -158 c 2
 408 -158 l 1
 408 -147 l 2xca
382 -146 m 2
 382 -147 l 1
 382 -158 l 1
 392 -158 l 2
 387 -157 383 -152 382 -146 c 2
139 81 m 2
 138 81 137 79 136 79 c 2
 141 75 l 1
 139 81 l 2
141 319 m 1
 136 315 l 2
 137 315 138 313 139 313 c 2
 141 319 l 1
382 342 m 1xe8
 382 330 l 2
 382 336 387 341 393 342 c 2
 382 342 l 1xe8
408 350 m 1xea
 404 346 l 2
 402 344 398 342 396 342 c 1
 402 341 408 335 408 329 c 2
 408 350 l 1xea
240 368 m 1xdc
 192 344 l 1
 169 322 l 1
 145 248 l 1
 145 147 l 1
 169 73 l 1
 192 50 l 1
 240 26 l 1
 286 26 l 1
 332 49 l 1
 355 95 l 1
 355 299 l 1
 332 345 l 1
 286 368 l 1
 240 368 l 1xdc
237 395 m 2
 239 394 l 1
 289 394 l 2
 291 394 293 394 295 393 c 2
 345 368 l 1
 366 368 l 1
 368 368 l 1
 371 368 l 1xdc
 389 368 l 1xec
 412 391 l 2
 414 393 418 394 421 394 c 0
 428 394 434 388 434 381 c 2xda
 434 -116 l 1
 448 -144 l 1
 477 -158 l 1
 500 -158 l 2
 507 -158 513 -164 513 -171 c 0
 513 -178 507 -184 500 -184 c 2
 475 -184 l 1
 474 -185 l 1
 472 -184 l 1
 449 -184 l 2
 448 -184 448 -185 447 -185 c 0
 446 -185 447 -184 446 -184 c 2
 423 -184 l 2
 422 -184 422 -185 421 -185 c 0
 420 -185 420 -184 419 -184 c 2
 371 -184 l 2
 370 -184 369 -185 368 -185 c 0
 367 -185 367 -184 366 -184 c 2
 344 -184 l 2
 343 -184 343 -185 342 -185 c 0
 341 -185 341 -184 340 -184 c 2
 317 -184 l 1
 316 -185 l 1
 314 -184 l 1
 289 -184 l 2
 282 -184 276 -178 276 -171 c 0
 276 -164 282 -158 289 -158 c 2
 313 -158 l 1
 341 -144 l 1
 355 -116 l 1
 355 36 l 1
 354 33 l 2
 353 31 350 28 348 27 c 2
 295 1 l 2
 293 0 291 0 289 0 c 2
 239 0 l 1
 237 0 l 1
 233 0 l 1
 232 1 l 1
 154 27 l 2
 152 28 150 29 149 30 c 2
 96 83 l 2
 95 84 94 86 93 88 c 2
 66 167 l 1
 66 171 l 1
 66 223 l 1
 66 228 l 1
 93 307 l 2
 94 309 95 311 96 312 c 2
 149 364 l 2
 150 365 152 366 154 367 c 2
 232 393 l 1
 233 394 l 2
 234 394 236 395 237 395 c 2
EndSplineSet
EndChar

StartChar: r
Encoding: 114 114 83
Width: 421
Flags: MW
HStem: 0 26<48.5 53 52 53 53 76 52 77 52 79 145 156 160 171 240 263> 289 27<338.5 366 355 366 371 382 355 395> 368 26<48.5 53 52 53 53 76 145 145 145 156 160 160 160 171 319 319 319 342>
VStem: 118 79<69 221 305 326 326 326> 171 26<355 368 368 368> 329 26<316 329 316 355> 355 27<316 328 316 329 316 328> 382 26<316 328 325 328>
LayerCount: 2
Fore
SplineSet
171 38 m 2xe8
 170 32 165 27 160 26 c 2
 171 26 l 1
 171 37 l 1
 171 38 l 2xe8
145 38 m 2
 145 37 l 1
 145 26 l 1
 156 26 l 2
 151 27 146 33 145 38 c 2
382 328 m 2xe2
 382 322 377 317 371 316 c 2
 382 316 l 1xe1
 382 328 l 2xe2
355 329 m 2xe4
 355 316 l 1
 366 316 l 2
 360 317 355 323 355 329 c 2xe4
160 368 m 2
 166 367 171 361 171 355 c 2
 171 368 l 1xe8
 160 368 l 2
145 368 m 1
 145 357 l 2
 146 362 151 367 156 368 c 2
 145 368 l 1
131 395 m 0
 132 395 133 394 134 394 c 2
 184 394 l 2
 191 394 197 388 197 381 c 2xe8
 197 305 l 1
 198 307 l 2
 199 309 200 311 201 312 c 2
 254 364 l 1
 257 367 l 1
 310 393 l 2
 312 394 314 394 316 394 c 2
 368 394 l 2
 371 394 376 393 378 391 c 2
 404 364 l 2
 406 362 408 358 408 355 c 2
 408 302 l 2
 408 295 402 289 395 289 c 2
 342 289 l 2
 335 289 329 295 329 302 c 2
 329 355 l 2
 329 362 335 368 342 368 c 2
 319 368 l 1
 271 344 l 1
 222 295 l 1
 197 221 l 1
 197 69 l 1
 212 40 l 1
 240 26 l 1
 263 26 l 2
 270 26 276 20 276 13 c 0
 276 6 270 0 263 0 c 2
 239 0 l 1
 237 0 l 1
 236 0 l 1
 213 0 l 1
 211 0 l 1
 209 0 l 1
 186 0 l 1
 184 0 l 1
 182 0 l 1
 134 0 l 1
 132 0 l 1
 129 0 l 1
 107 0 l 1
 105 0 l 1
 103 0 l 1
 80 0 l 1
 79 0 l 1
 77 0 l 1
 53 0 l 1
 52 0 l 2
 45 0 39 6 39 13 c 0
 39 20 45 26 52 26 c 2
 53 26 l 1
 76 26 l 1
 104 40 l 1
 118 69 l 1
 118 326 l 1xf5
 104 354 l 1
 76 368 l 1
 53 368 l 1
 52 368 l 2
 45 368 39 374 39 381 c 0
 39 388 45 394 52 394 c 2
 53 394 l 1
 77 394 l 1
 79 395 l 1
 80 394 l 1
 103 394 l 2
 104 394 104 395 105 395 c 0
 106 395 106 394 107 394 c 2
 129 394 l 2
 130 394 130 395 131 395 c 0
EndSplineSet
EndChar

StartChar: s
Encoding: 115 115 84
Width: 473
Flags: MW
HStem: 0 26<183 286 187 286 187 289> 368 26<161 260 161 161>
VStem: 66 25<7 118> 357 25
LayerCount: 2
Fore
SplineSet
347 158 m 1
 345 158 l 1
 348 156 l 1
 347 158 l 1
100 264 m 1
 101 262 l 2
 102 262 102 263 103 263 c 2
 100 264 l 1
158 394 m 2
 263 394 l 2
 265 394 267 394 269 393 c 2
 322 367 l 1
 325 364 l 1
 339 351 l 1
 357 387 l 2
 359 391 364 394 368 394 c 0
 375 394 382 388 382 381 c 2
 382 276 l 2
 382 269 375 263 368 263 c 0
 364 263 359 266 357 270 c 2
 331 321 l 1
 308 344 l 1
 260 368 l 1
 161 368 l 1
 116 346 l 1
 104 309 l 1
 115 286 l 1
 162 262 l 1
 292 236 l 2
 293 236 294 235 295 235 c 2
 348 209 l 2
 350 208 353 205 354 203 c 2
 379 152 l 2
 380 150 382 148 382 146 c 2
 382 145 l 1
 382 144 l 1
 382 67 l 1
 382 65 l 2
 382 61 379 57 376 55 c 2
 352 31 l 2
 351 29 348 28 346 27 c 2
 295 1 l 2
 293 0 291 0 289 0 c 2
 184 0 l 2
 182 0 180 0 178 1 c 2
 126 27 l 2
 125 28 123 29 122 30 c 2
 109 43 l 1
 91 7 l 2
 89 3 83 0 79 0 c 0
 72 0 66 6 66 13 c 2
 66 118 l 2
 66 125 72 131 79 131 c 0
 83 131 89 128 91 124 c 2
 116 73 l 1
 139 50 l 1
 187 26 l 1
 286 26 l 1
 331 48 l 1
 343 99 l 1
 331 135 l 1
 285 158 l 1
 155 184 l 2
 154 184 153 185 152 185 c 2
 99 212 l 2
 97 213 94 216 93 218 c 2
 68 268 l 2
 67 270 66 274 66 276 c 2
 66 277 l 1
 66 327 l 1
 66 329 l 2
 66 333 68 338 71 340 c 2
 95 363 l 2
 96 365 99 367 101 368 c 2
 102 368 l 1
 152 393 l 2
 154 394 156 394 158 394 c 2
EndSplineSet
EndChar

StartChar: t
Encoding: 116 116 85
Width: 421
Flags: MW
HStem: 0 26<236 286 237 286 242 286 242 289> 368 26<48.5 53 52 53 53 118 197 289 289 290> 559 20G<182.5 187.5>
VStem: 118 79<144 368 120 368 394 511 511 513 513 513.5> 171 26<513 534 534 534> 357 25<91 98>
LayerCount: 2
Fore
SplineSet
192 54 m 2xe4
 191 54 190 53 189 53 c 2
 192 50 l 1
 193 49 l 1
 192 54 l 2xe4
171 534 m 1xec
 163 525 l 1
 168 523 171 518 171 513 c 2
 171 534 l 1xec
184 579 m 0
 191 579 197 573 197 566 c 2xec
 197 394 l 1
 289 394 l 1
 290 394 l 2
 297 394 303 388 303 381 c 0
 303 374 297 368 290 368 c 2
 289 368 l 1
 197 368 l 1xf4
 197 120 l 1xec
 222 46 l 1
 242 26 l 1
 286 26 l 1
 332 49 l 1
 357 98 l 2
 359 102 364 105 369 105 c 0
 376 105 382 99 382 92 c 0
 382 90 381 88 380 86 c 2
 354 33 l 2
 353 31 350 28 348 27 c 2
 295 1 l 2
 293 0 291 0 289 0 c 2
 239 0 l 1
 237 0 l 2
 235 0 232 1 230 2 c 2
 178 27 l 1
 175 30 l 1
 149 56 l 2
 148 57 146 59 145 61 c 2
 119 140 l 2
 119 141 118 143 118 144 c 2
 118 368 l 1
 53 368 l 1
 52 368 l 2
 45 368 39 374 39 381 c 0
 39 388 45 394 52 394 c 2
 53 394 l 1
 118 394 l 1
 118 511 l 1
 118 513 l 2xf4
 118 514 119 515 119 516 c 2
 119 517 l 1
 119 518 l 1
 120 519 l 2
 121 521 123 523 124 524 c 2
 175 575 l 2
 177 577 181 579 184 579 c 0
EndSplineSet
EndChar

StartChar: u
Encoding: 117 117 86
Width: 631
Flags: MW
HStem: 0 26<236 313 237 313 242 313 242 316 434 445 450 461 529 553> 368 26<48.5 53 52 53 53 76 145 145 145 156 160 160 160 171 342 408 434 434 434 445 449 449 449 461>
VStem: 118 79<144 326 326 326> 171 26<355 368 368 368> 408 26<26 39 26 62 26 62 356 359 359 368> 461 26<355 368 368 368>
LayerCount: 2
Fore
SplineSet
460 38 m 1xcc
 459 32 455 27 450 26 c 2
 461 26 l 1
 461 37 l 1
 460 38 l 1xcc
434 39 m 2
 434 26 l 1
 445 26 l 2
 439 27 434 33 434 39 c 2
192 54 m 2
 191 54 190 53 189 53 c 2
 192 50 l 1
 193 49 l 1
 192 54 l 2
449 368 m 2
 455 367 461 361 461 355 c 2
 461 368 l 1
 449 368 l 2
434 368 m 1
 434 356 l 2
 434 362 439 367 445 368 c 2
 434 368 l 1
160 368 m 2
 166 367 171 361 171 355 c 2
 171 368 l 1xdc
 160 368 l 2
145 368 m 1
 145 357 l 2
 146 362 151 367 156 368 c 2
 145 368 l 1
131 395 m 0
 132 395 133 394 134 394 c 2
 184 394 l 2
 191 394 197 388 197 381 c 2
 197 120 l 1xdc
 222 46 l 1
 242 26 l 1
 313 26 l 1
 361 50 l 1
 384 73 l 1
 408 121 l 1
 408 368 l 1
 342 368 l 2
 335 368 329 374 329 381 c 0
 329 388 335 394 342 394 c 2
 419 394 l 2
 420 394 420 395 421 395 c 0
 422 395 422 394 423 394 c 2
 474 394 l 2
 481 394 487 388 487 381 c 2
 487 69 l 1
 501 40 l 1
 529 26 l 1
 553 26 l 2
 560 26 566 20 566 13 c 0
 566 6 560 0 553 0 c 2
 528 0 l 1
 527 0 l 1
 525 0 l 1
 502 0 l 1
 500 0 l 1
 498 0 l 1
 476 0 l 1
 474 0 l 1
 472 0 l 1
 421 0 l 2
 414 0 408 6 408 13 c 2
 408 62 l 1
 407 60 l 2
 406 59 405 57 404 56 c 2
 378 30 l 2
 377 29 375 28 374 27 c 2
 322 1 l 2
 320 0 318 0 316 0 c 2
 239 0 l 1
 237 0 l 2
 235 0 232 1 230 2 c 2
 178 27 l 1
 175 30 l 1
 149 56 l 2
 148 57 146 59 145 61 c 2
 119 140 l 2
 119 141 118 143 118 144 c 2
 118 326 l 1xec
 104 354 l 1
 76 368 l 1
 53 368 l 1
 52 368 l 2
 45 368 39 374 39 381 c 0
 39 388 45 394 52 394 c 2
 53 394 l 1
 77 394 l 1
 79 395 l 1
 80 394 l 1
 103 394 l 2
 104 394 104 395 105 395 c 0
 106 395 106 394 107 394 c 2
 129 394 l 2
 130 394 130 395 131 395 c 0
EndSplineSet
EndChar

StartChar: v
Encoding: 118 118 87
Width: 473
Flags: MW
HStem: 0 21G<235 236 235 235 236 237 237 238 238 240 240 241> 368 26<22.5 51 26 49 187 211 187 187 289 339 427 427 427 447 447 448>
LayerCount: 2
Fore
SplineSet
242 53 m 2
 241 52 239 52 237 52 c 2
 234 52 l 1
 238 44 l 1
 242 53 l 2
79 395 m 2
 80 395 80 394 81 394 c 2
 103 394 l 2
 104 394 104 395 105 395 c 0
 106 395 106 394 107 394 c 2
 129 394 l 2
 130 394 131 395 132 395 c 0
 133 395 133 394 134 394 c 2
 183 394 l 1
 184 395 l 1
 186 394 l 1
 211 394 l 2
 218 394 224 388 224 381 c 0
 224 374 218 368 211 368 c 2
 187 368 l 1
 157 353 l 1
 264 98 l 1
 378 349 l 1
 339 368 l 1
 289 368 l 2
 282 368 276 374 276 381 c 0
 276 388 282 394 289 394 c 2
 340 394 l 1
 342 395 l 1
 343 394 l 1
 419 394 l 1
 421 395 l 1
 423 394 l 1
 447 394 l 1
 448 394 l 2
 455 394 461 388 461 381 c 0
 461 374 455 368 448 368 c 2
 447 368 l 1
 427 368 l 1
 406 347 l 1
 276 62 l 2
 276 61 275 59 274 58 c 2
 249 9 l 2
 248 6 244 1 241 0 c 2
 240 0 l 1
 238 0 l 1
 237 0 l 1
 236 0 l 1
 235 0 l 2
 230 1 225 5 224 9 c 2
 79 348 l 1
 49 368 l 1
 26 368 l 2
 19 368 13 374 13 381 c 0
 13 388 19 394 26 394 c 2
 51 394 l 1
 53 395 l 1
 54 394 l 1
 77 394 l 1
 79 395 l 2
EndSplineSet
EndChar

StartChar: w
Encoding: 119 119 88
Width: 631
Flags: MW
HStem: 0 21G<207 208 207 207 208 209 209 211 211 212 212 214 417 418 417 417 418 420 420 421 421 422 422 425> 368 26<22.5 51 26 50 214 237 214 214 447 471 582 582 582 605>
LayerCount: 2
Fore
SplineSet
430 82 m 2
 428 80 424 79 421 79 c 0
 419 79 417 79 416 80 c 2
 422 57 l 1
 430 82 l 2
220 82 m 2
 218 80 214 79 211 79 c 0
 209 79 206 79 205 80 c 2
 212 57 l 1
 220 82 l 2
105 395 m 0
 106 395 106 394 107 394 c 2
 129 394 l 2
 130 394 131 395 132 395 c 0
 133 395 133 394 134 394 c 2
 156 394 l 2
 157 394 157 395 158 395 c 0
 159 395 159 394 160 394 c 2
 209 394 l 1
 211 395 l 1
 212 394 l 1
 237 394 l 2
 244 394 250 388 250 381 c 0
 250 374 244 368 237 368 c 2
 214 368 l 1
 180 351 l 1
 237 142 l 1
 302 382 l 1
 302 383 l 2
 302 385 304 387 305 388 c 2
 305 389 l 1
 306 390 l 1
 306 391 l 2
 307 392 308 393 309 393 c 2
 310 393 l 1
 311 394 l 1
 313 394 l 1
 314 395 l 1
 315 395 l 1
 316 395 l 1
 317 395 l 1
 318 394 l 1
 340 394 l 2
 341 394 341 395 342 395 c 0
 343 395 343 394 344 394 c 2
 368 394 l 2
 374 394 380 390 381 385 c 2
 448 140 l 1
 511 348 l 1
 471 368 l 1
 447 368 l 2
 440 368 434 374 434 381 c 0
 434 388 440 394 447 394 c 2
 472 394 l 1
 473 395 l 1
 475 394 l 1
 578 394 l 1
 579 395 l 1
 581 394 l 1
 605 394 l 2
 612 394 619 388 619 381 c 0
 619 374 612 368 605 368 c 2
 582 368 l 1
 537 346 l 1
 460 89 l 2
 460 88 459 87 459 86 c 2
 434 10 l 2
 433 6 429 1 425 0 c 2
 422 0 l 1
 421 0 l 1
 420 0 l 1
 418 0 l 1
 417 0 l 2
 413 1 409 6 408 11 c 2
 316 332 l 1
 250 90 l 2
 250 89 249 87 249 86 c 2
 224 10 l 1
 223 10 l 1
 222 6 218 1 214 0 c 2
 212 0 l 1
 211 0 l 1
 209 0 l 1
 208 0 l 1
 207 0 l 2
 203 1 198 6 197 11 c 2
 100 352 l 1
 50 368 l 1
 26 368 l 2
 19 368 13 374 13 381 c 0
 13 388 19 394 26 394 c 2
 51 394 l 1
 52 395 l 1
 54 394 l 1
 103 394 l 2
 104 394 104 395 105 395 c 0
EndSplineSet
EndChar

StartChar: x
Encoding: 120 120 89
Width: 526
Flags: MW
HStem: 0 26<48.5 53 52 53 53 76 52 77 52 79 187 211 289 313 450 474> 368 26<48.5 53 52 53 53 76 214 237 214 214 316 339 450 450 450 474>
LayerCount: 2
Fore
SplineSet
105 395 m 2
 106 395 106 394 107 394 c 2
 129 394 l 2
 130 394 131 395 132 395 c 0
 133 395 133 394 134 394 c 2
 156 394 l 2
 157 394 157 395 158 395 c 0
 159 395 159 394 160 394 c 2
 209 394 l 1
 211 395 l 1
 212 394 l 1
 237 394 l 2
 244 394 250 388 250 381 c 0
 250 374 244 368 237 368 c 2
 214 368 l 1
 191 357 l 1
 278 236 l 1
 374 351 l 1
 339 368 l 1
 316 368 l 2
 309 368 302 374 302 381 c 0
 302 388 309 394 316 394 c 2
 340 394 l 1
 342 395 l 1
 343 394 l 1
 446 394 l 1
 448 395 l 1
 449 394 l 1
 474 394 l 2
 481 394 487 388 487 381 c 0
 487 374 481 368 474 368 c 2
 450 368 l 1
 403 345 l 1
 294 213 l 1
 415 44 l 1
 450 26 l 1
 474 26 l 2
 481 26 487 20 487 13 c 0
 487 6 481 0 474 0 c 2
 449 0 l 1
 448 0 l 1
 446 0 l 1
 423 0 l 1
 421 0 l 1
 419 0 l 1
 397 0 l 1
 395 0 l 1
 393 0 l 1
 371 0 l 1
 368 0 l 1
 366 0 l 1
 317 0 l 1
 316 0 l 1
 314 0 l 1
 289 0 l 2
 282 0 276 6 276 13 c 0
 276 20 282 26 289 26 c 2
 313 26 l 1
 335 37 l 1
 248 159 l 1
 152 44 l 1
 187 26 l 1
 211 26 l 2
 218 26 224 20 224 13 c 0
 224 6 218 0 211 0 c 2
 186 0 l 1
 184 0 l 1
 183 0 l 1
 80 0 l 1
 79 0 l 1
 77 0 l 1
 53 0 l 1
 52 0 l 2
 45 0 39 6 39 13 c 0
 39 20 45 26 52 26 c 2
 53 26 l 1
 76 26 l 1
 123 50 l 1
 232 181 l 1
 111 351 l 1
 76 368 l 1
 53 368 l 1
 52 368 l 2
 45 368 39 374 39 381 c 0
 39 388 45 394 52 394 c 2
 53 394 l 1
 77 394 l 1
 79 395 l 1
 80 394 l 1
 103 394 l 1
 105 395 l 2
EndSplineSet
EndChar

StartChar: y
Encoding: 121 121 90
Width: 473
Flags: MW
HStem: -184 26<79 102 79 105> -106 27<39 39 39 50 55 55 55 66> 368 26<48.5 53 52 53 53 75 214 237 214 214 316 365 453 453 453 474>
VStem: 13 26<-118 -106 -118 -92 -118 -88.5> 66 26<-119 -106 -106 -106>
LayerCount: 2
Fore
SplineSet
55 -106 m 2
 61 -107 66 -113 66 -119 c 2
 66 -106 l 1
 55 -106 l 2
39 -106 m 1
 39 -118 l 2
 39 -112 44 -107 50 -106 c 2
 39 -106 l 1
269 53 m 2
 268 52 265 52 263 52 c 2
 260 52 l 1
 264 44 l 1
 269 53 l 2
105 395 m 2
 106 395 106 394 107 394 c 2
 129 394 l 2
 130 394 131 395 132 395 c 0
 133 395 133 394 134 394 c 2
 156 394 l 2
 157 394 157 395 158 395 c 0
 159 395 159 394 160 394 c 2
 209 394 l 1
 211 395 l 1
 212 394 l 1
 237 394 l 2
 244 394 250 388 250 381 c 0
 250 374 244 368 237 368 c 2
 214 368 l 1
 184 353 l 1
 290 98 l 1
 404 349 l 1
 365 368 l 1
 316 368 l 2
 309 368 302 374 302 381 c 0
 302 388 309 394 316 394 c 2
 367 394 l 1
 368 395 l 1
 370 394 l 1
 446 394 l 1
 448 395 l 1
 449 394 l 1
 474 394 l 2
 481 394 487 388 487 381 c 0
 487 374 481 368 474 368 c 2
 453 368 l 1
 432 347 l 1
 302 62 l 2
 302 61 301 59 300 58 c 2
 276 9 l 2
 276 8 275 6 274 5 c 2
 222 -98 l 2
 221 -99 221 -101 220 -102 c 2
 167 -154 l 1
 164 -157 l 1
 111 -183 l 2
 109 -184 107 -184 105 -184 c 2
 53 -184 l 2
 50 -184 45 -183 43 -181 c 2
 17 -154 l 2
 15 -152 13 -148 13 -145 c 2
 13 -92 l 2
 13 -85 19 -79 26 -79 c 2
 79 -79 l 2
 86 -79 92 -85 92 -92 c 2
 92 -145 l 2
 92 -152 86 -158 79 -158 c 2
 102 -158 l 1
 150 -134 l 1
 200 -85 l 1
 249 13 l 1
 105 348 l 1
 75 368 l 1
 53 368 l 1
 52 368 l 2
 45 368 39 374 39 381 c 0
 39 388 45 394 52 394 c 2
 53 394 l 1
 77 394 l 1
 79 395 l 1
 80 394 l 1
 103 394 l 1
 105 395 l 2
EndSplineSet
EndChar

StartChar: z
Encoding: 122 122 91
Width: 473
Flags: MW
HStem: 0 26<131 262 157 262 157 262 157 263 157 264 157 314> 368 26<212 317 212 212>
VStem: 66 25<271 273 271 274 271 275 271 276 271 277 271 301> 382 26<120 121>
LayerCount: 2
Fore
SplineSet
104 395 m 1
 105 395 l 2
 106 395 106 394 107 394 c 2
 130 394 l 2
 131 394 131 395 132 395 c 0
 133 395 133 394 134 394 c 2
 156 394 l 1
 158 395 l 1
 159 394 l 1
 210 394 l 1
 211 394 l 1
 340 394 l 2
 341 394 341 395 342 395 c 0
 343 395 343 394 344 394 c 2
 367 394 l 2
 368 394 368 395 369 395 c 0
 370 395 370 394 371 394 c 2
 393 394 l 2
 394 394 395 395 395 395 c 2
 398 395 403 393 405 390 c 2
 406 389 l 1
 406 388 l 1
 407 387 l 1
 407 386 l 1
 408 385 l 1
 408 384 l 1
 408 381 l 2
 408 378 406 374 404 372 c 2
 157 26 l 1
 262 26 l 1
 333 40 l 1
 354 54 l 1
 372 82 l 1
 382 120 l 1
 382 122 l 1
 383 123 l 1
 383 125 l 2
 383 126 385 126 385 127 c 2
 386 128 l 2
 387 129 387 129 388 129 c 2
 388 130 l 1
 389 130 l 1
 390 131 l 1
 391 131 l 1
 393 131 l 1
 394 131 l 1
 395 131 l 1
 396 131 l 1
 397 131 l 1
 398 131 l 1
 400 131 l 1
 400 130 l 1
 401 130 l 1
 402 129 l 1
 403 129 l 1
 404 128 l 1
 405 127 l 1
 406 126 l 1
 406 124 l 1
 407 123 l 1
 407 122 l 1
 408 121 l 1
 408 120 l 1
 408 119 l 1
 408 118 l 1
 408 94 l 1
 408 92 l 1
 408 90 l 1
 408 68 l 1
 408 66 l 1
 408 64 l 1
 408 41 l 1
 408 39 l 1
 408 37 l 1
 408 13 l 2
 408 6 402 0 395 0 c 2
 371 0 l 1
 368 0 l 1
 366 0 l 1
 344 0 l 1
 342 0 l 1
 340 0 l 1
 317 0 l 1
 316 0 l 1
 314 0 l 1
 264 0 l 1
 263 0 l 1
 262 0 l 1
 133 0 l 1
 131 0 l 1
 129 0 l 1
 107 0 l 1
 105 0 l 1
 103 0 l 1
 81 0 l 1
 79 0 l 2
 76 0 71 1 69 4 c 2
 69 5 l 1
 68 5 l 1
 68 6 l 1
 67 6 l 1
 67 7 l 1
 67 8 l 1
 66 9 l 1
 66 11 l 1
 66 13 l 2
 66 16 67 20 69 22 c 2
 317 368 l 1
 212 368 l 1
 140 354 l 1
 120 340 l 1
 102 313 l 1
 92 274 l 2
 92 273 91 273 91 272 c 2
 91 271 l 1
 90 270 l 2
 90 269 89 268 89 267 c 2
 88 266 l 2
 87 265 87 265 86 265 c 2
 85 264 l 1
 84 264 l 1
 82 263 l 1
 81 263 l 1
 80 263 l 1
 79 263 l 1
 78 263 l 1
 77 263 l 1
 76 263 l 1
 75 263 l 1
 74 264 l 1
 73 264 l 1
 72 265 l 1
 71 265 l 1
 71 266 l 1
 70 266 l 1
 70 267 l 1
 69 267 l 1
 69 268 l 1
 68 269 l 1
 67 270 l 1
 67 271 l 1
 66 272 l 1
 66 273 l 1
 66 274 l 1
 66 275 l 1
 66 276 l 1
 66 277 l 1
 66 301 l 1
 66 302 l 1
 66 304 l 1
 66 327 l 1
 66 329 l 1
 66 331 l 1
 66 353 l 1
 66 355 l 1
 66 357 l 1
 66 381 l 2
 66 388 72 394 79 394 c 2
 103 394 l 1
 104 395 l 1
EndSplineSet
EndChar

StartChar: braceleft
Encoding: 123 123 92
Width: 368
Flags: MW
HStem: -185 25<236 243> 659 25<236 243>
VStem: 118 27<-40 -17 -40 -13 -40 -12 516 539> 118 53<-66 -43 -89 -13 -89 -12 542 566 566 567> 197 53<121 144 354 355 355 378 378 378> 224 26<95 118 117 118 381 405 405 405>
LayerCount: 2
Fore
SplineSet
224 118 m 2xe4
 224 116 223 114 222 112 c 2
 196 60 l 2
 195 59 195 57 194 56 c 2
 169 31 l 1
 145 -17 l 1
 145 -40 l 2
 145 -38 145 -36 146 -34 c 2
 172 19 l 1
 175 22 l 1
 200 47 l 1
 224 95 l 1
 224 118 l 2xe4
145 539 m 2
 145 516 l 1
 169 468 l 1
 194 443 l 2
 195 442 195 441 196 440 c 2
 222 387 l 2
 223 385 224 383 224 381 c 2
 224 405 l 1
 200 452 l 1
 175 477 l 2
 174 478 173 480 172 481 c 2
 146 533 l 2
 145 535 145 537 145 539 c 2
237 684 m 0
 244 684 250 678 250 671 c 0
 250 666 247 661 243 659 c 2
 194 635 l 1
 171 589 l 1
 171 542 l 1
 195 494 l 1
 220 470 l 2
 221 469 221 467 222 466 c 2
 249 413 l 2
 250 411 250 410 250 408 c 2xd4
 250 355 l 2
 250 353 250 351 249 349 c 2
 222 297 l 2
 221 295 218 292 216 291 c 2
 165 265 l 2
 164 265 164 264 163 264 c 2
 135 250 l 1
 163 236 l 2
 164 236 165 235 165 235 c 1
 216 209 l 2
 218 208 221 205 222 203 c 2
 249 150 l 2
 250 148 250 146 250 144 c 2xc8
 250 92 l 2
 250 90 250 88 249 86 c 2
 222 33 l 2
 221 32 221 31 220 30 c 2
 195 5 l 1
 171 -43 l 1
 171 -89 l 1
 194 -135 l 1
 243 -160 l 2
 247 -162 250 -167 250 -172 c 0
 250 -179 244 -185 237 -185 c 0
 235 -185 233 -184 231 -183 c 2
 180 -158 l 2
 178 -157 175 -156 174 -154 c 2
 149 -128 l 1
 146 -125 l 1
 120 -72 l 2
 119 -70 118 -68 118 -66 c 2xd4
 118 -13 l 2
 118 -11 119 -10 120 -8 c 2
 146 45 l 2
 147 46 148 48 149 49 c 2
 173 73 l 1
 197 121 l 1
 197 165 l 1
 150 213 l 1
 99 238 l 2
 95 240 92 246 92 250 c 0
 92 254 95 260 99 262 c 2
 150 287 l 1
 197 334 l 1
 197 378 l 1
 173 426 l 1
 149 451 l 1
 146 454 l 1
 120 507 l 2
 119 509 118 511 118 513 c 2xe8
 118 566 l 2xd0
 118 568 119 569 120 571 c 2
 146 624 l 1
 149 627 l 1
 174 653 l 1
 175 654 l 2
 176 655 178 656 180 657 c 2
 231 683 l 2
 233 684 235 684 237 684 c 0
EndSplineSet
EndChar

StartChar: bar
Encoding: 124 124 93
Width: 210
Flags: MW
HStem: -185 21G<101.5 108.5>
VStem: 92 26<-171 671>
LayerCount: 2
Fore
SplineSet
105 684 m 0
 112 684 118 678 118 671 c 2
 118 -171 l 2
 118 -178 112 -185 105 -185 c 0
 98 -185 92 -178 92 -171 c 2
 92 671 l 2
 92 678 98 684 105 684 c 0
EndSplineSet
EndChar

StartChar: braceright
Encoding: 125 125 94
Width: 368
Flags: MW
HStem: -185 21G<127.5 132> 659 25<126 132>
VStem: 118 27<95 118 95 144 95 145 381 382 382 405> 118 53<121 144 144 145 355 378> 197 53<-67 -66 -66 -43 -43 -43 542 566> 224 26<-40 -17 -17 -17 516 539 538 539>
LayerCount: 2
Fore
SplineSet
145 118 m 2xe4
 145 95 l 1
 169 47 l 1
 194 22 l 2
 195 21 195 20 196 19 c 2
 222 -34 l 2
 223 -36 224 -38 224 -40 c 2
 224 -17 l 1
 200 31 l 1
 175 56 l 2
 174 57 173 59 172 60 c 2
 146 112 l 2
 145 114 145 116 145 118 c 2xe4
224 539 m 2
 224 537 223 535 222 533 c 2
 196 481 l 2
 195 480 195 478 194 477 c 2
 169 452 l 1
 145 405 l 1
 145 381 l 2
 145 383 145 385 146 387 c 2
 172 440 l 1
 175 443 l 1
 200 468 l 1
 224 516 l 1
 224 539 l 2
131 684 m 0
 133 684 135 684 137 683 c 2
 188 657 l 2
 190 656 193 655 194 653 c 2
 220 627 l 2
 221 626 221 625 222 624 c 2
 249 571 l 2
 250 569 250 568 250 566 c 2xe8
 250 513 l 2
 250 511 250 509 249 507 c 2
 222 454 l 2
 221 453 221 452 220 451 c 2
 195 426 l 1
 171 378 l 1
 171 334 l 1
 218 287 l 1
 269 262 l 2
 273 260 276 254 276 250 c 0
 276 246 273 240 269 238 c 2
 218 213 l 1
 171 165 l 1
 171 121 l 1
 195 73 l 1
 220 49 l 2
 221 48 221 46 222 45 c 2
 249 -8 l 2
 250 -10 250 -11 250 -13 c 2xd4
 250 -66 l 2
 250 -68 250 -70 249 -72 c 2
 222 -125 l 2
 221 -126 221 -127 220 -128 c 2
 194 -154 l 1
 193 -155 l 2
 192 -156 190 -157 188 -158 c 2
 137 -183 l 2
 135 -184 133 -185 131 -185 c 0
 124 -185 118 -179 118 -172 c 0
 118 -167 122 -162 126 -160 c 2
 174 -135 l 1
 197 -89 l 1
 197 -43 l 1
 173 5 l 1
 149 30 l 1
 146 33 l 1
 120 86 l 2
 119 88 118 90 118 92 c 2xe8
 118 144 l 2
 118 146 119 148 120 150 c 2
 146 203 l 2
 147 205 150 208 152 209 c 2
 204 235 l 2
 205 235 205 236 206 236 c 2
 234 250 l 1
 206 264 l 2
 205 264 204 265 204 265 c 1
 152 291 l 2
 150 292 147 295 146 297 c 2
 120 349 l 2
 119 351 118 353 118 355 c 2xd0
 118 408 l 2
 118 410 119 411 120 413 c 2
 146 466 l 2
 147 467 148 469 149 470 c 2
 173 494 l 1
 197 542 l 1
 197 589 l 1xe8
 174 635 l 1
 126 659 l 2
 122 661 118 666 118 671 c 0
 118 678 124 684 131 684 c 0
EndSplineSet
EndChar

StartChar: asciitilde
Encoding: 126 126 95
Width: 631
Flags: MW
HStem: 158 52<420 471 424 471 424 474> 289 53<161 207 161 161>
VStem: 66 26<171 220> 539 27<279 329>
LayerCount: 2
Fore
SplineSet
552 342 m 2
 553 342 l 2
 560 342 566 336 566 329 c 2
 566 278 l 1
 566 276 l 2
 566 275 565 273 565 272 c 2
 565 271 l 1
 539 193 l 2
 538 190 535 186 532 185 c 2
 480 159 l 2
 478 158 476 158 474 158 c 2
 421 158 l 2
 419 158 417 158 415 159 c 2
 363 185 l 2
 362 185 362 187 361 187 c 2
 256 265 l 1
 207 289 l 1
 161 289 l 1
 115 266 l 1
 92 220 l 1
 92 171 l 2
 92 164 86 157 79 157 c 0
 72 157 66 164 66 171 c 2
 66 222 l 1
 66 223 l 1
 66 228 l 1
 67 228 l 1
 93 307 l 2
 94 310 96 313 99 314 c 2
 152 340 l 2
 154 341 156 342 158 342 c 2
 211 342 l 2
 213 342 214 341 216 340 c 2
 269 314 l 2
 270 314 270 313 271 313 c 2
 375 235 l 1
 424 210 l 1
 471 210 l 1
 516 233 l 1
 539 279 l 1
 539 329 l 2
 539 336 545 342 552 342 c 2
EndSplineSet
EndChar

StartChar: uni007F
Encoding: 127 127 96
Width: 421
Flags: MW
HStem: 0 21G<-3.5 0 0 26 49.5 53 53 79 101.5 105 105 132 154.5 158 158 184 207.5 211 211 237 259.5 263 263 289 312.5 316 316 342 364.5 368 368 395 417.5 424.5> 559 20G<-3.5 3.5 26 53 53 56.5 79 105 105 108.5 132 158 158 161.5 184 211 211 214.5 237 263 263 266.5 289 316 316 319.5 342 368 368 371.5 395 421 421 424.5>
VStem: -13 26<13 569.5 566 569.5> -13 52<9.5 566> 13 53<569.5 569.5> 39 53<9.5 9.5> 66 52<569.5 569.5> 92 53<9.5 9.5> 118 53<569.5 569.5> 145 52<9.5 9.5> 171 53<569.5 569.5> 197 53<9.5 9.5> 224 52<569.5 569.5> 250 53<9.5 9.5> 276 53<569.5 569.5> 303 52<9.5 9.5> 329 53<569.5 569.5> 355 53<9.5 9.5> 382 52<566 566> 408 26<9.5 13>
LayerCount: 2
Fore
SplineSet
0 579 m 0xe0
 7 579 13 573 13 566 c 1xe0
 13 573 19 579 26 579 c 2
 53 579 l 2
 60 579 66 573 66 566 c 1xc8
 66 573 72 579 79 579 c 2
 105 579 l 2
 112 579 118 573 118 566 c 1xc2
 118 573 125 579 132 579 c 2
 158 579 l 2
 165 579 171 573 171 566 c 1xc080
 171 573 177 579 184 579 c 2
 211 579 l 2
 218 579 224 573 224 566 c 1xc020
 224 573 230 579 237 579 c 2
 263 579 l 2
 270 579 276 573 276 566 c 1xc008
 276 573 282 579 289 579 c 2
 316 579 l 2
 323 579 329 573 329 566 c 1xc002
 329 573 335 579 342 579 c 2
 368 579 l 2
 375 579 382 573 382 566 c 1xc00080
 382 573 388 579 395 579 c 2
 421 579 l 2
 428 579 434 573 434 566 c 2xc00020
 434 13 l 2xc00010
 434 6 428 0 421 0 c 0
 414 0 408 6 408 13 c 1xc00040
 408 6 402 0 395 0 c 2
 368 0 l 2
 361 0 355 6 355 13 c 1xc001
 355 6 349 0 342 0 c 2
 316 0 l 2
 309 0 303 6 303 13 c 1xc004
 303 6 296 0 289 0 c 2
 263 0 l 2
 256 0 250 6 250 13 c 1xc010
 250 6 244 0 237 0 c 2
 211 0 l 2
 204 0 197 6 197 13 c 1xc040
 197 6 191 0 184 0 c 2
 158 0 l 2
 151 0 145 6 145 13 c 1xc1
 145 6 139 0 132 0 c 2
 105 0 l 2
 98 0 92 6 92 13 c 1xc4
 92 6 86 0 79 0 c 2
 53 0 l 2
 46 0 39 6 39 13 c 1
 39 6 33 0 26 0 c 2
 0 0 l 2
 -7 0 -13 6 -13 13 c 2xd0
 -13 566 l 2
 -13 573 -7 579 0 579 c 0xe0
EndSplineSet
EndChar

StartChar: dieresis
Encoding: 168 168 97
Width: 394
Flags: MW
HStem: 447 105<103.5 105 105 107 107 132 261.5 263 263 265 265 289>
VStem: 66 105<487 513 485.5 514.5> 224 105<487 513 485.5 514.5>
LayerCount: 2
Fore
SplineSet
263 552 m 1
 265 552 l 1
 289 552 l 2
 292 552 297 551 299 549 c 2
 325 522 l 2
 327 520 329 516 329 513 c 2
 329 487 l 2
 329 484 327 479 325 477 c 2
 299 451 l 2
 297 449 292 447 289 447 c 2
 263 447 l 2
 260 447 256 449 254 451 c 2
 228 477 l 2
 226 479 224 484 224 487 c 2
 224 513 l 2
 224 516 226 520 228 522 c 2
 253 547 l 2
 254 548 255 550 256 551 c 2
 257 551 l 1
 258 551 l 1
 258 552 l 1
 259 552 l 1
 263 552 l 1
105 552 m 1
 107 552 l 1
 132 552 l 2
 135 552 139 551 141 549 c 2
 167 522 l 2
 169 520 171 516 171 513 c 2
 171 487 l 2
 171 484 169 479 167 477 c 2
 141 451 l 2
 139 449 135 447 132 447 c 2
 105 447 l 2
 102 447 98 449 96 451 c 2
 70 477 l 2
 68 479 66 484 66 487 c 2
 66 513 l 2
 66 516 68 520 70 522 c 2
 95 547 l 1
 99 551 l 1
 100 551 l 1
 101 552 l 1
 105 552 l 1
EndSplineSet
EndChar

StartChar: copyright
Encoding: 169 169 98
Width: 631
Flags: MW
HStem: -79 26<260 367 260 367 265 367 265 368 265 372> 0 26<288 363 293 363 293 366 293 368> 421 26<293 363 293 293> 526 26<265 265 265 366>
VStem: 13 26<199 274 199 276 199 276.5> 145 25<144 150> 434 27<173 274 274 274> 487 26<199 248 248 248> 592 26<199 274 274 274>
LayerCount: 2
Fore
SplineSet
422 382 m 1
 433 361 l 1
 434 359 l 1
 460 280 l 2
 460 279 461 277 461 276 c 2
 461 171 l 2
 461 170 460 168 460 167 c 2
 434 88 l 1
 433 86 l 1
 422 64 l 1
 437 75 l 1
 462 123 l 1
 487 199 l 1
 487 248 l 1
 462 324 l 1
 437 372 l 1
 422 382 l 1
368 447 m 2
 370 447 374 446 376 445 c 2
 455 392 l 2
 457 391 458 389 459 387 c 2
 485 335 l 1
 486 333 l 1
 512 254 l 2
 512 253 513 251 513 250 c 2
 513 197 l 2
 513 196 512 194 512 193 c 2
 486 114 l 1
 485 112 l 1
 459 60 l 2
 458 58 457 56 455 55 c 2
 376 2 l 2
 375 2 375 1 374 1 c 0
 373 0 370 0 368 0 c 2
 366 0 l 1
 289 0 l 2
 287 0 286 0 284 1 c 2
 231 27 l 1
 228 30 l 1
 175 83 l 1
 172 86 l 1
 146 139 l 2
 145 141 145 143 145 145 c 0
 145 152 151 158 158 158 c 0
 163 158 168 154 170 150 c 2
 195 100 l 1
 245 50 l 1
 293 26 l 1
 363 26 l 1
 384 47 l 1
 409 97 l 1
 434 173 l 1
 434 274 l 1
 409 350 l 1
 384 400 l 1
 363 421 l 1
 293 421 l 1
 245 397 l 1
 196 348 l 1
 170 272 l 2
 168 267 163 263 158 263 c 0
 151 263 145 269 145 276 c 2
 145 434 l 2
 145 441 151 447 158 447 c 0
 163 447 168 443 170 438 c 2
 190 379 l 1
 228 417 l 2
 229 418 230 418 231 419 c 2
 284 446 l 2
 286 447 287 447 289 447 c 2
 367 447 l 1
 368 447 l 2
265 526 m 1
 189 501 l 1
 139 476 l 1
 90 426 l 1
 65 377 l 1
 39 274 l 1
 39 199 l 1
 65 96 l 1
 90 47 l 1
 165 -28 l 1
 265 -53 l 1
 367 -53 l 1
 467 -28 l 1
 542 47 l 1
 567 96 l 1
 592 199 l 1
 592 274 l 1
 567 377 l 1
 542 426 l 1
 492 476 l 1
 442 501 l 1
 366 526 l 1
 265 526 l 1
263 552 m 1
 368 552 l 1
 373 552 l 1
 451 526 l 1
 452 525 l 1
 453 525 l 1
 454 525 l 1
 454 524 l 1
 506 498 l 2
 507 497 508 497 509 496 c 2
 562 443 l 2
 563 442 563 441 564 440 c 2
 591 387 l 2
 591 386 592 386 592 385 c 2
 618 279 l 1
 618 276 l 1
 618 197 l 1
 618 194 l 1
 592 89 l 2
 592 88 591 87 591 86 c 2
 564 33 l 2
 563 32 563 31 562 30 c 2
 483 -49 l 2
 482 -50 479 -52 477 -52 c 2
 372 -79 l 1
 368 -79 l 1
 263 -79 l 1
 260 -79 l 1
 155 -52 l 2
 153 -52 150 -50 149 -49 c 2
 70 30 l 1
 67 33 l 1
 41 86 l 2
 41 87 40 88 40 89 c 2
 14 194 l 2
 14 195 13 196 13 197 c 2
 13 276 l 2
 13 277 14 278 14 279 c 2
 40 385 l 2
 40 386 41 386 41 387 c 2
 67 440 l 1
 70 443 l 1
 122 496 l 2
 123 497 125 497 126 498 c 2
 178 525 l 1
 180 525 l 1
 259 552 l 1
 263 552 l 1
EndSplineSet
EndChar

StartChar: guillemotleft
Encoding: 171 171 99
Width: 368
Flags: MW
HStem: 375 20G<183 196>
LayerCount: 2
Fore
SplineSet
342 395 m 1
 343 395 l 1
 344 394 l 1
 345 394 l 1
 346 394 l 1
 347 394 l 1
 348 393 l 1
 349 392 l 1
 350 392 l 1
 351 391 l 1
 352 390 l 1
 353 389 l 1
 353 388 l 1
 354 388 l 1
 354 387 l 1
 354 386 l 1
 355 385 l 1
 355 384 l 1
 355 383 l 1
 355 381 l 1
 355 380 l 1
 355 379 l 1
 355 378 l 1
 355 377 l 1
 354 376 l 1
 354 375 l 1
 353 374 l 1
 253 223 l 1
 353 73 l 1
 354 72 l 1
 354 71 l 1
 355 70 l 1
 355 69 l 1
 355 68 l 1
 355 67 l 1
 355 66 l 1
 355 65 l 1
 355 64 l 1
 355 63 l 1
 355 62 l 1
 355 61 l 1
 354 61 l 1
 354 60 l 1
 354 59 l 1
 353 58 l 2
 353 57 352 56 352 56 c 2
 351 55 350 55 349 54 c 2
 347 53 l 1
 346 53 l 1
 345 53 l 2
 344 53 343 52 342 52 c 2
 341 52 l 1
 340 52 l 1
 339 53 l 1
 338 53 l 1
 336 54 l 1
 335 54 l 1
 334 55 l 1
 333 56 l 1
 332 57 l 1
 175 214 l 2
 173 216 171 220 171 223 c 0
 171 226 173 231 175 233 c 2
 332 390 l 1
 333 390 l 1
 333 391 l 1
 334 391 l 1
 334 392 l 1
 335 392 l 1
 335 393 l 1
 336 393 l 2
 337 393 337 394 338 394 c 2
 339 394 l 1
 340 394 l 1
 341 395 l 1
 342 395 l 1
184 395 m 1
 185 395 l 1
 187 394 l 1
 188 394 l 1
 189 394 l 1
 190 393 l 1
 192 392 l 1
 193 392 l 1
 194 391 l 1
 194 390 l 1
 195 389 l 1
 195 388 l 1
 196 388 l 1
 196 387 l 1
 196 386 l 1
 197 385 l 1
 197 384 l 1
 197 383 l 1
 197 381 l 1
 197 380 l 1
 197 379 l 1
 197 378 l 1
 197 377 l 1
 196 376 l 1
 196 375 l 1
 195 374 l 1
 95 223 l 1
 195 73 l 1
 196 72 l 1
 196 71 l 1
 197 70 l 1
 197 69 l 1
 197 68 l 1
 197 67 l 1
 197 66 l 1
 197 65 l 1
 197 64 l 1
 197 63 l 1
 197 62 l 1
 197 61 l 1
 196 60 l 1
 196 59 l 1
 195 58 l 2
 195 57 194 56 194 56 c 1
 193 55 l 1
 193 55 192 54 191 54 c 2
 189 53 l 1
 188 53 l 1
 187 53 l 2
 186 53 186 52 185 52 c 2
 184 52 l 1
 183 52 l 1
 182 52 l 1
 181 53 l 1
 180 53 l 1
 179 53 l 1
 178 54 l 1
 177 54 l 1
 176 55 l 1
 175 56 l 1
 174 57 l 1
 17 214 l 2
 15 216 13 220 13 223 c 0
 13 226 15 231 17 233 c 2
 174 390 l 1
 175 390 l 1
 175 391 l 1
 176 391 l 1
 177 392 l 1
 177 393 l 1
 178 393 l 2
 179 393 179 394 180 394 c 2
 181 394 l 1
 182 394 l 1
 183 395 l 1
 184 395 l 1
EndSplineSet
EndChar

StartChar: acute
Encoding: 180 180 100
Width: 315
Flags: MW
HStem: 397 182<71 209 87 209>
VStem: 66 184<404 540.5 405 540.5 406 540.5 408 540.5 409 540.5 410 540.5 411 540.5>
LayerCount: 2
Fore
SplineSet
211 546 m 1
 182 511 l 1
 217 540 l 1
 211 546 l 1
210 579 m 1
 211 579 l 2
 215 579 219 576 221 573 c 2
 246 549 l 2
 248 547 250 542 250 539 c 0
 250 536 248 531 245 529 c 2
 88 398 l 1
 87 398 l 1
 87 397 l 1
 86 396 l 2
 85 396 84 395 83 395 c 0
 82 395 82 394 81 394 c 2
 79 394 l 1
 78 394 l 1
 77 395 l 1
 75 395 l 1
 74 395 l 1
 73 396 l 1
 72 396 l 1
 71 397 l 1
 70 398 l 1
 69 399 l 1
 68 399 l 1
 68 400 l 1
 67 401 l 1
 67 402 l 1
 66 404 l 1
 66 405 l 1
 66 406 l 1
 66 408 l 1
 66 409 l 1
 66 410 l 1
 66 411 l 2
 66 412 67 413 67 414 c 2
 68 415 l 1
 69 416 l 1
 70 417 l 1
 199 572 l 2
 201 575 205 578 208 579 c 2
 209 579 l 1
 210 579 l 1
EndSplineSet
EndChar

StartChar: cedilla
Encoding: 184 184 101
Width: 473
Flags: MW
HStem: -106 27<233.5 258 237 258 237 263>
VStem: 224 79<-95.5 -64.5 -67.5 -38.5>
LayerCount: 2
Fore
SplineSet
289 26 m 2
 290 26 l 2
 297 26 303 20 303 13 c 0
 303 10 301 6 299 4 c 2
 268 -27 l 2
 269 -28 271 -29 272 -30 c 2
 299 -57 l 2
 301 -59 303 -63 303 -66 c 0
 303 -69 301 -73 299 -75 c 2
 272 -102 l 2
 270 -104 266 -106 263 -106 c 2
 237 -106 l 2
 230 -106 224 -99 224 -92 c 0
 224 -85 230 -79 237 -79 c 2
 258 -79 l 1
 271 -66 l 1
 258 -53 l 1
 237 -53 l 2
 230 -53 224 -47 224 -40 c 0
 224 -37 226 -32 228 -30 c 2
 280 22 l 2
 282 24 286 26 289 26 c 2
EndSplineSet
EndChar

StartChar: guillemotright
Encoding: 187 187 102
Width: 368
Flags: MW
HStem: 58 15<15 16 15 16 173 174> 375 20G<15 27>
LayerCount: 2
Fore
SplineSet
184 395 m 2
 185 395 l 1
 186 394 l 1
 187 394 l 1
 188 394 l 1
 189 394 l 1
 190 393 l 1
 191 393 l 1
 192 392 l 1
 193 392 l 1
 193 391 l 1
 194 391 l 1
 194 390 l 1
 351 233 l 2
 353 231 355 226 355 223 c 0
 355 220 353 216 351 214 c 2
 195 57 l 1
 194 57 l 1
 194 56 l 1
 193 56 l 1
 192 55 l 1
 191 54 l 1
 190 53 l 1
 189 53 l 1
 188 53 l 1
 187 53 l 1
 186 52 l 1
 184 52 l 1
 183 52 l 1
 182 52 l 1
 181 53 l 1
 180 53 l 1
 179 53 l 1
 178 54 l 2
 177 54 176 55 176 55 c 1
 175 56 l 1
 174 57 l 1
 174 58 l 1
 173 58 l 1
 173 59 l 1
 172 59 l 1
 172 60 l 1
 172 62 l 1
 171 62 l 1
 171 63 l 1
 171 64 l 1
 171 65 l 1
 171 67 l 1
 171 68 l 1
 172 69 l 1
 172 70 l 1
 172 71 l 1
 173 72 l 1
 173 73 l 1
 174 73 l 1
 274 223 l 1
 174 373 l 1
 174 374 l 1
 173 374 l 1
 173 375 l 1
 172 376 l 1
 172 377 l 1
 171 378 l 1
 171 379 l 1
 171 380 l 1
 171 381 l 1
 171 382 l 1
 171 384 l 1
 171 385 l 1
 172 386 l 1
 172 387 l 1
 173 388 l 1
 173 389 l 1
 174 390 l 1
 175 391 l 1
 176 391 l 1
 176 392 l 1
 177 392 l 1
 178 393 l 1
 179 394 l 1
 180 394 l 1
 181 394 l 2
 182 394 183 395 184 395 c 2
26 395 m 2
 27 395 l 1
 28 394 l 1
 29 394 l 1
 30 394 l 1
 31 394 l 1
 32 393 l 1
 33 393 l 1
 34 392 l 1
 35 392 l 1
 36 391 l 1
 36 390 l 1
 37 390 l 1
 194 233 l 2
 196 231 197 226 197 223 c 0
 197 220 196 216 194 214 c 2
 37 57 l 1
 36 57 l 1
 36 56 l 1
 35 56 l 1
 34 55 l 1
 33 54 l 1
 32 53 l 1
 30 53 l 1
 29 53 l 1
 28 52 l 1
 27 52 l 1
 26 52 l 1
 25 52 l 1
 24 52 l 1
 23 53 l 1
 21 53 l 1
 20 54 l 1
 19 54 l 1
 18 55 l 1
 17 56 l 1
 16 57 l 1
 16 58 l 1
 15 58 l 1
 15 59 l 1
 14 60 l 1
 14 62 l 1
 13 63 l 1
 13 64 l 1
 13 65 l 1
 13 67 l 1
 13 68 l 1
 14 69 l 1
 14 70 l 1
 14 71 l 1
 15 72 l 1
 15 73 l 1
 16 73 l 1
 116 223 l 1
 16 373 l 1
 16 374 l 1
 15 374 l 1
 15 375 l 1
 14 376 l 1
 14 377 l 1
 13 378 l 1
 13 379 l 1
 13 380 l 1
 13 381 l 1
 13 382 l 1
 13 384 l 1
 13 385 l 1
 14 385 l 1
 14 386 l 1
 14 387 l 1
 15 388 l 1
 15 389 l 1
 16 390 l 1
 17 391 l 1
 18 391 l 1
 18 392 l 1
 19 392 l 1
 20 393 l 1
 21 394 l 1
 22 394 l 1
 23 394 l 2
 24 394 25 395 26 395 c 2
EndSplineSet
EndChar

StartChar: Agrave
Encoding: 192 192 103
Width: 526
Flags: HMW
HStem: 0 26<22.5 47 26 47 26 51 26 52 26 54 26 130 135 184 316 339 479 500> 158 26<144 324 144 333 134 324> 559 20G<261 262 262 263 263 264 264 265 265 265> 632 184<368 496 368 497 368 503 368 502 368 504 368 505>
VStem: 329 184
LayerCount: 2
Fore
SplineSet
217 783 m 5
 211 777 l 5
 247 748 l 5
 217 783 l 5
218 816 m 6
 219 816 l 6
 223 816 228 812 230 809 c 6
 360 653 l 5
 361 652 l 5
 361 651 l 6
 361 650 362 650 362 649 c 4
 362 648 363 647 363 646 c 6
 363 645 l 5
 363 644 l 5
 363 642 l 5
 363 641 l 5
 362 640 l 5
 362 639 l 5
 361 638 l 5
 361 637 l 5
 360 636 l 5
 360 635 l 5
 359 635 l 6
 358 634 358 634 357 634 c 6
 357 633 l 5
 356 633 l 5
 355 632 l 5
 354 632 l 5
 353 632 l 5
 352 632 l 5
 351 631 l 5
 350 631 l 5
 349 631 l 5
 347 632 l 5
 346 632 l 6
 345 632 345 633 344 633 c 6
 343 634 l 5
 342 634 l 5
 341 635 l 5
 184 766 l 6
 181 768 179 773 179 776 c 4
 179 779 181 784 183 786 c 6
 208 810 l 6
 210 813 214 816 218 816 c 6
236 448 m 1
 144 184 l 1
 324 184 l 1
 236 448 l 1
263 525 m 1
 252 494 l 2
 254 497 259 500 263 500 c 0
 266 500 270 498 272 496 c 2
 263 525 l 1
262 579 m 1
 263 579 l 1
 264 579 l 1
 265 579 l 1
 266 578 l 1
 267 578 l 1
 268 578 l 2
 269 578 269 577 270 577 c 0
 273 575 275 572 276 569 c 2
 446 59 l 1
 479 26 l 1
 500 26 l 2
 507 26 513 20 513 13 c 0
 513 6 507 0 500 0 c 2
 475 0 l 1
 474 0 l 1
 472 0 l 1
 449 0 l 1
 447 0 l 1
 445 0 l 1
 423 0 l 1
 421 0 l 1
 419 0 l 1
 397 0 l 1
 395 0 l 1
 393 0 l 1
 370 0 l 1
 368 0 l 1
 366 0 l 1
 343 0 l 1
 342 0 l 1
 340 0 l 1
 316 0 l 2
 309 0 302 6 302 13 c 0
 302 20 309 26 316 26 c 2
 339 26 l 1
 367 40 l 1
 370 45 l 1
 333 158 l 1
 134 158 l 1
 95 46 l 1
 135 26 l 1
 184 26 l 2
 191 26 198 20 198 13 c 0
 198 6 191 0 184 0 c 2
 133 0 l 1
 132 0 l 1
 130 0 l 1
 54 0 l 1
 52 0 l 1
 51 0 l 1
 26 0 l 2
 19 0 13 6 13 13 c 0
 13 20 19 26 26 26 c 2
 47 26 l 1
 67 46 l 1
 250 569 l 2
 251 571 252 574 254 575 c 0
 255 576 255 577 256 577 c 2
 257 577 l 1
 258 578 l 1
 259 578 l 1
 260 578 l 1
 261 579 l 1
 262 579 l 1
EndSplineSet
EndChar

StartChar: Aacute
Encoding: 193 193 104
Width: 526
Flags: HMW
HStem: 0 26<22.5 47 26 47 26 51 26 52 26 54 26 130 135 184 316 339 479 500> 158 26<144 324 144 333 134 324> 559 20G<261 262 262 263 263 264 264 265 265 265> 634 182<334 472 350 472>
VStem: 329 184
LayerCount: 2
Fore
SplineSet
304 783 m 5
 275 748 l 5
 310 777 l 5
 304 783 l 5
303 816 m 5
 304 816 l 6
 308 816 312 813 314 810 c 6
 339 786 l 6
 341 784 343 779 343 776 c 4
 343 773 341 768 338 766 c 6
 181 635 l 5
 180 635 l 5
 180 634 l 5
 179 633 l 6
 178 633 177 632 176 632 c 4
 175 632 175 631 174 631 c 6
 172 631 l 5
 171 631 l 5
 170 632 l 5
 168 632 l 5
 167 632 l 5
 166 633 l 5
 165 633 l 5
 164 634 l 5
 163 635 l 5
 162 636 l 5
 161 636 l 5
 161 637 l 5
 160 638 l 5
 160 639 l 5
 159 641 l 5
 159 642 l 5
 159 643 l 5
 159 645 l 5
 159 646 l 5
 159 647 l 5
 159 648 l 6
 159 649 160 650 160 651 c 6
 161 652 l 5
 162 653 l 5
 163 654 l 5
 292 809 l 6
 294 812 298 815 301 816 c 6
 302 816 l 5
 303 816 l 5
236 448 m 1
 144 184 l 1
 324 184 l 1
 236 448 l 1
263 525 m 1
 252 494 l 2
 254 497 259 500 263 500 c 0
 266 500 270 498 272 496 c 2
 263 525 l 1
262 579 m 1
 263 579 l 1
 264 579 l 1
 265 579 l 1
 266 578 l 1
 267 578 l 1
 268 578 l 2
 269 578 269 577 270 577 c 0
 273 575 275 572 276 569 c 2
 446 59 l 1
 479 26 l 1
 500 26 l 2
 507 26 513 20 513 13 c 0
 513 6 507 0 500 0 c 2
 475 0 l 1
 474 0 l 1
 472 0 l 1
 449 0 l 1
 447 0 l 1
 445 0 l 1
 423 0 l 1
 421 0 l 1
 419 0 l 1
 397 0 l 1
 395 0 l 1
 393 0 l 1
 370 0 l 1
 368 0 l 1
 366 0 l 1
 343 0 l 1
 342 0 l 1
 340 0 l 1
 316 0 l 2
 309 0 302 6 302 13 c 0
 302 20 309 26 316 26 c 2
 339 26 l 1
 367 40 l 1
 370 45 l 1
 333 158 l 1
 134 158 l 1
 95 46 l 1
 135 26 l 1
 184 26 l 2
 191 26 198 20 198 13 c 0
 198 6 191 0 184 0 c 2
 133 0 l 1
 132 0 l 1
 130 0 l 1
 54 0 l 1
 52 0 l 1
 51 0 l 1
 26 0 l 2
 19 0 13 6 13 13 c 0
 13 20 19 26 26 26 c 2
 47 26 l 1
 67 46 l 1
 250 569 l 2
 251 571 252 574 254 575 c 0
 255 576 255 577 256 577 c 2
 257 577 l 1
 258 578 l 1
 259 578 l 1
 260 578 l 1
 261 579 l 1
 262 579 l 1
EndSplineSet
EndChar

StartChar: Acircumflex
Encoding: 194 194 105
Width: 526
Flags: MW
HStem: 0 26<22.5 47 26 47 26 51 26 52 26 54 26 130 135 184 316 339 479 500> 158 26<144 324 144 333 134 324> 559 20G<261 262 262 263 263 264 264 265 265 265> 632 158
LayerCount: 2
Fore
SplineSet
263 790 m 0
 265 790 268 789 270 788 c 2
 481 657 l 1
 481 656 l 1
 482 656 l 1
 483 655 l 1
 484 654 l 2
 485 653 486 652 486 651 c 0
 486 650 487 650 487 649 c 2
 487 648 l 1
 487 647 l 1
 487 646 l 1
 487 645 l 1
 487 644 l 1
 487 643 l 1
 487 642 l 1
 487 641 l 1
 486 639 l 1
 485 638 l 1
 484 636 l 1
 483 635 l 1
 482 634 l 1
 480 633 l 2
 479 632 477 632 475 632 c 2
 474 632 l 1
 473 632 l 1
 472 632 l 1
 471 632 l 1
 469 633 l 1
 468 634 l 1
 263 736 l 1
 59 633 l 1
 58 633 l 1
 56 632 l 1
 53 632 l 1
 52 632 l 1
 50 632 l 1
 49 632 l 1
 48 633 l 1
 47 633 l 1
 45 634 l 1
 44 635 l 1
 43 636 l 1
 43 637 l 1
 42 638 l 1
 41 639 l 1
 41 640 l 1
 40 641 l 1
 40 642 l 1
 40 643 l 1
 40 644 l 1
 40 645 l 1
 40 647 l 1
 40 648 l 1
 40 649 l 1
 41 650 l 1
 41 652 l 1
 42 653 l 2
 42 654 43 655 44 655 c 2
 45 655 l 1
 45 656 l 1
 46 656 l 1
 256 788 l 2
 258 789 261 790 263 790 c 0
236 448 m 1
 144 184 l 1
 324 184 l 1
 236 448 l 1
263 525 m 1
 252 494 l 2
 254 497 259 500 263 500 c 0
 266 500 270 498 272 496 c 2
 263 525 l 1
262 579 m 1
 263 579 l 1
 264 579 l 1
 265 579 l 1
 266 578 l 1
 267 578 l 1
 268 578 l 2
 269 578 269 577 270 577 c 0
 273 575 275 572 276 569 c 2
 446 59 l 1
 479 26 l 1
 500 26 l 2
 507 26 513 20 513 13 c 0
 513 6 507 0 500 0 c 2
 475 0 l 1
 474 0 l 1
 472 0 l 1
 449 0 l 1
 447 0 l 1
 445 0 l 1
 423 0 l 1
 421 0 l 1
 419 0 l 1
 397 0 l 1
 395 0 l 1
 393 0 l 1
 370 0 l 1
 368 0 l 1
 366 0 l 1
 343 0 l 1
 342 0 l 1
 340 0 l 1
 316 0 l 2
 309 0 302 6 302 13 c 0
 302 20 309 26 316 26 c 2
 339 26 l 1
 367 40 l 1
 370 45 l 1
 333 158 l 1
 134 158 l 1
 95 46 l 1
 135 26 l 1
 184 26 l 2
 191 26 198 20 198 13 c 0
 198 6 191 0 184 0 c 2
 133 0 l 1
 132 0 l 1
 130 0 l 1
 54 0 l 1
 52 0 l 1
 51 0 l 1
 26 0 l 2
 19 0 13 6 13 13 c 0
 13 20 19 26 26 26 c 2
 47 26 l 1
 67 46 l 1
 250 569 l 2
 251 571 252 574 254 575 c 0
 255 576 255 577 256 577 c 2
 257 577 l 1
 258 578 l 1
 259 578 l 1
 260 578 l 1
 261 579 l 1
 262 579 l 1
EndSplineSet
EndChar

StartChar: Atilde
Encoding: 195 195 106
Width: 526
Flags: MW
HStem: 0 26<22.5 47 26 47 26 51 26 52 26 54 26 130 135 184 316 339 479 500> 158 26<144 324 144 333 134 324> 559 20G<261 262 262 263 263 264 264 265 265 265> 632 52<368 419 372 419 372 422> 763 53<109 155 109 109>
VStem: 14 26<645 694> 487 27<753 803>
LayerCount: 2
Fore
SplineSet
500 816 m 2
 501 816 l 2
 508 816 514 810 514 803 c 2
 514 752 l 1
 514 750 l 2
 514 749 513 747 513 746 c 2
 513 745 l 1
 487 667 l 2
 486 664 483 660 480 659 c 2
 428 633 l 2
 426 632 424 632 422 632 c 2
 369 632 l 2
 367 632 365 632 363 633 c 2
 311 659 l 2
 310 659 310 661 309 661 c 2
 204 739 l 1
 155 763 l 1
 109 763 l 1
 63 740 l 1
 40 694 l 1
 40 645 l 2
 40 638 34 631 27 631 c 0
 20 631 14 638 14 645 c 2
 14 696 l 1
 14 697 l 1
 14 702 l 1
 15 702 l 1
 41 781 l 2
 42 784 44 787 47 788 c 2
 100 814 l 2
 102 815 104 816 106 816 c 2
 159 816 l 2
 161 816 162 815 164 814 c 2
 217 788 l 2
 218 788 218 787 219 787 c 2
 323 709 l 1
 372 684 l 1
 419 684 l 1
 464 707 l 1
 487 753 l 1
 487 803 l 2
 487 810 493 816 500 816 c 2
236 448 m 1
 144 184 l 1
 324 184 l 1
 236 448 l 1
263 525 m 1
 252 494 l 2
 254 497 259 500 263 500 c 0
 266 500 270 498 272 496 c 2
 263 525 l 1
262 579 m 1
 263 579 l 1
 264 579 l 1
 265 579 l 1
 266 578 l 1
 267 578 l 1
 268 578 l 2
 269 578 269 577 270 577 c 0
 273 575 275 572 276 569 c 2
 446 59 l 1
 479 26 l 1
 500 26 l 2
 507 26 513 20 513 13 c 0
 513 6 507 0 500 0 c 2
 475 0 l 1
 474 0 l 1
 472 0 l 1
 449 0 l 1
 447 0 l 1
 445 0 l 1
 423 0 l 1
 421 0 l 1
 419 0 l 1
 397 0 l 1
 395 0 l 1
 393 0 l 1
 370 0 l 1
 368 0 l 1
 366 0 l 1
 343 0 l 1
 342 0 l 1
 340 0 l 1
 316 0 l 2
 309 0 302 6 302 13 c 0
 302 20 309 26 316 26 c 2
 339 26 l 1
 367 40 l 1
 370 45 l 1
 333 158 l 1
 134 158 l 1
 95 46 l 1
 135 26 l 1
 184 26 l 2
 191 26 198 20 198 13 c 0
 198 6 191 0 184 0 c 2
 133 0 l 1
 132 0 l 1
 130 0 l 1
 54 0 l 1
 52 0 l 1
 51 0 l 1
 26 0 l 2
 19 0 13 6 13 13 c 0
 13 20 19 26 26 26 c 2
 47 26 l 1
 67 46 l 1
 250 569 l 2
 251 571 252 574 254 575 c 0
 255 576 255 577 256 577 c 2
 257 577 l 1
 258 578 l 1
 259 578 l 1
 260 578 l 1
 261 579 l 1
 262 579 l 1
EndSplineSet
EndChar

StartChar: Adieresis
Encoding: 196 196 107
Width: 526
Flags: MW
HStem: 0 26<22.5 47 26 47 26 51 26 52 26 54 26 130 135 184 316 339 479 500> 158 26<144 324 144 333 134 324> 559 20G<261 262 262 263 263 264 264 265 265 265> 631 105<169.5 171 171 173 173 198 327.5 329 329 331 331 355>
VStem: 132 105<671 697 669.5 698.5> 290 105<671 697>
LayerCount: 2
Fore
SplineSet
329 736 m 1
 331 736 l 1
 355 736 l 2
 358 736 363 735 365 733 c 2
 391 706 l 2
 393 704 395 700 395 697 c 2
 395 671 l 2
 395 668 393 663 391 661 c 2
 365 635 l 2
 363 633 358 631 355 631 c 2
 329 631 l 2
 326 631 322 633 320 635 c 2
 294 661 l 2
 292 663 290 668 290 671 c 2
 290 697 l 2
 290 700 292 704 294 706 c 2
 319 731 l 2
 320 732 321 734 322 735 c 2
 323 735 l 1
 324 735 l 1
 324 736 l 1
 325 736 l 1
 329 736 l 1
171 736 m 1
 173 736 l 1
 198 736 l 2
 201 736 205 735 207 733 c 2
 233 706 l 2
 235 704 237 700 237 697 c 2
 237 671 l 2
 237 668 235 663 233 661 c 2
 207 635 l 2
 205 633 201 631 198 631 c 2
 171 631 l 2
 168 631 164 633 162 635 c 2
 136 661 l 2
 134 663 132 668 132 671 c 2
 132 697 l 2
 132 700 134 704 136 706 c 2
 161 731 l 1
 165 735 l 1
 166 735 l 1
 167 736 l 1
 171 736 l 1
236 448 m 1
 144 184 l 1
 324 184 l 1
 236 448 l 1
263 525 m 1
 252 494 l 2
 254 497 259 500 263 500 c 0
 266 500 270 498 272 496 c 2
 263 525 l 1
262 579 m 1
 263 579 l 1
 264 579 l 1
 265 579 l 1
 266 578 l 1
 267 578 l 1
 268 578 l 2
 269 578 269 577 270 577 c 0
 273 575 275 572 276 569 c 2
 446 59 l 1
 479 26 l 1
 500 26 l 2
 507 26 513 20 513 13 c 0
 513 6 507 0 500 0 c 2
 475 0 l 1
 474 0 l 1
 472 0 l 1
 449 0 l 1
 447 0 l 1
 445 0 l 1
 423 0 l 1
 421 0 l 1
 419 0 l 1
 397 0 l 1
 395 0 l 1
 393 0 l 1
 370 0 l 1
 368 0 l 1
 366 0 l 1
 343 0 l 1
 342 0 l 1
 340 0 l 1
 316 0 l 2
 309 0 302 6 302 13 c 0
 302 20 309 26 316 26 c 2
 339 26 l 1
 367 40 l 1
 370 45 l 1
 333 158 l 1
 134 158 l 1
 95 46 l 1
 135 26 l 1
 184 26 l 2
 191 26 198 20 198 13 c 0
 198 6 191 0 184 0 c 2
 133 0 l 1
 132 0 l 1
 130 0 l 1
 54 0 l 1
 52 0 l 1
 51 0 l 1
 26 0 l 2
 19 0 13 6 13 13 c 0
 13 20 19 26 26 26 c 2
 47 26 l 1
 67 46 l 1
 250 569 l 2
 251 571 252 574 254 575 c 0
 255 576 255 577 256 577 c 2
 257 577 l 1
 258 578 l 1
 259 578 l 1
 260 578 l 1
 261 579 l 1
 262 579 l 1
EndSplineSet
EndChar

StartChar: Ccedilla
Encoding: 199 199 108
Width: 526
Flags: MW
HStem: -128 27<206.5 231 210 231 210 236> 0 26<253 339 259 339 259 339 263 339 266 339 266 342> 394 21G<471.5 477.5> 552 27<266 339 266 266>
VStem: 66 79<219 353 225 353 225 355 225 359 225 359> 197 79<-117.5 -86.5 -89.5 -60.5> 461 26
LayerCount: 2
Fore
SplineSet
262 4 m 2
 263 4 l 2
 270 4 276 -2 276 -9 c 0
 276 -12 274 -16 272 -18 c 2
 241 -49 l 2
 242 -50 244 -51 245 -52 c 2
 272 -79 l 2
 274 -81 276 -85 276 -88 c 0
 276 -91 274 -95 272 -97 c 2
 245 -124 l 2
 243 -126 239 -128 236 -128 c 2
 210 -128 l 2
 203 -128 197 -121 197 -114 c 0
 197 -107 203 -101 210 -101 c 2
 231 -101 l 1
 244 -88 l 1
 231 -75 l 1
 210 -75 l 2
 203 -75 197 -69 197 -62 c 0
 197 -59 199 -54 201 -52 c 2
 253 0 l 2
 255 2 259 4 262 4 c 2
166 82 m 2
 165 81 164 79 163 79 c 2
 179 64 l 1
 166 82 l 2
179 515 m 1
 163 499 l 2
 164 499 165 498 166 497 c 2
 179 515 l 1
263 579 m 2
 265 579 l 1
 342 579 l 2
 344 579 346 578 348 577 c 2
 401 551 l 2
 402 550 403 550 404 549 c 2
 442 511 l 1
 461 570 l 2
 463 575 469 579 474 579 c 0
 481 579 487 573 487 566 c 2
 487 408 l 2
 487 401 481 394 474 394 c 0
 469 394 463 398 461 403 c 2
 436 479 l 1
 387 528 l 1
 339 552 l 1
 266 552 l 1
 220 529 l 1
 170 455 l 1
 145 353 l 1
 145 225 l 1
 170 124 l 1
 220 49 l 1
 266 26 l 1
 339 26 l 1
 387 50 l 1
 437 100 l 1
 462 150 l 2
 464 154 469 158 474 158 c 0
 481 158 487 152 487 145 c 0
 487 143 486 141 485 139 c 2
 459 86 l 2
 458 85 458 84 457 83 c 2
 404 30 l 1
 401 27 l 1
 348 1 l 2
 346 0 344 0 342 0 c 2
 265 0 l 1
 263 0 l 1
 259 0 l 1
 258 1 l 1
 180 27 l 2
 178 28 176 29 175 30 c 2
 122 83 l 2
 121 84 121 85 120 86 c 2
 93 139 l 1
 93 140 l 1
 66 219 l 1
 66 223 l 1
 66 355 l 1
 66 359 l 1
 93 438 l 1
 93 440 l 1
 120 492 l 2
 121 493 121 495 122 496 c 2
 175 549 l 2
 176 550 178 551 180 552 c 2
 258 578 l 1
 259 578 l 2
 260 578 262 579 263 579 c 2
EndSplineSet
EndChar

StartChar: Egrave
Encoding: 200 200 109
Width: 526
Flags: MW
HStem: 0 26<48.5 53 52 53 53 76 52 77 52 79 145 156 160 171 240 341> 289 27<197 235 197 235> 394 21G 552 27<48.5 53 52 53 53 76 145 145 145 156 160 160 160 171 240 240 240 341> 632 184<237 365 237 366 237 372 237 371 237 373 237 374>
VStem: 118 79<69 289 316 510> 198 184<641 777.5> 330 25<191 194> 336 12<419 420 419 420> 461 26<405 406 406 406>
LayerCount: 2
Fore
SplineSet
236 783 m 1x0a
 230 777 l 1
 266 748 l 1
 236 783 l 1x0a
237 816 m 2
 238 816 l 2
 242 816 247 812 249 809 c 2
 379 653 l 1
 380 652 l 1
 380 651 l 2
 380 650 381 650 381 649 c 0
 381 648 382 647 382 646 c 2
 382 645 l 1
 382 644 l 1
 382 642 l 1
 382 641 l 1
 381 640 l 1
 381 639 l 1
 380 638 l 1
 380 637 l 1
 379 636 l 1
 379 635 l 1
 378 635 l 2
 377 634 377 634 376 634 c 2
 376 633 l 1
 375 633 l 1
 374 632 l 1
 373 632 l 1
 372 632 l 1
 371 632 l 1
 370 631 l 1
 369 631 l 1
 368 631 l 1
 366 632 l 1
 365 632 l 2
 364 632 364 633 363 633 c 2
 362 634 l 1
 361 634 l 1
 360 635 l 1
 203 766 l 2
 200 768 198 773 198 776 c 0
 198 779 200 784 202 786 c 2
 227 810 l 2
 229 813 233 816 237 816 c 2
171 38 m 2xf440
 170 32 165 27 160 26 c 2
 171 26 l 1
 171 37 l 1
 171 38 l 2xf440
145 38 m 2
 145 37 l 1
 145 26 l 1
 156 26 l 2
 151 27 146 33 145 38 c 2
160 552 m 2
 165 551 170 546 171 541 c 2
 171 552 l 1
 160 552 l 2
145 552 m 1
 145 541 l 2
 146 547 151 551 156 552 c 2
 145 552 l 1
131 579 m 1
 134 579 l 1
 182 579 l 1
 184 579 l 1
 186 579 l 1
 209 579 l 1
 211 579 l 1
 213 579 l 1
 236 579 l 1
 237 579 l 1
 239 579 l 1
 341 579 l 1
 342 579 l 1
 343 579 l 1
 393 579 l 1
 395 579 l 1
 396 579 l 1
 419 579 l 1
 421 579 l 1
 423 579 l 1
 445 579 l 1
 447 579 l 1
 449 579 l 1
 474 579 l 2
 481 579 487 573 487 566 c 2
 487 541 l 1
 487 539 l 1
 487 537 l 1
 487 515 l 1
 487 513 l 1
 487 511 l 1
 487 488 l 1
 487 487 l 1
 487 485 l 1
 487 408 l 1
 487 407 l 1
 487 405 l 1
 486 404 l 1
 486 403 l 1
 486 402 l 1
 485 401 l 1
 485 400 l 1
 484 399 l 2
 484 398 483 398 482 398 c 2
 481 397 l 2
 480 397 480 395 479 395 c 2
 478 395 l 1
 477 395 l 1
 476 395 l 1
 475 394 l 1
 474 394 l 1
 473 394 l 1
 472 394 l 1
 471 395 l 1
 469 395 l 1
 468 395 l 1
 468 396 l 1
 467 396 l 1
 466 397 l 1
 465 398 l 1
 464 398 l 1
 464 399 l 1
 463 399 l 1
 463 400 l 1
 462 401 l 1
 462 402 l 1
 461 403 l 1
 461 405 l 1
 461 406 l 1
 444 508 l 1
 433 524 l 1
 412 538 l 1
 341 552 l 1
 240 552 l 1
 212 538 l 1
 197 510 l 1
 197 316 l 1
 235 316 l 1
 300 332 l 1
 313 344 l 1
 329 410 l 2
 329 411 330 411 330 412 c 2
 330 413 l 1xf540
 331 414 l 2
 331 415 332 415 332 416 c 2
 333 417 l 2
 334 418 334 419 335 419 c 2
 336 419 l 1
 336 420 l 1
 337 420 l 1
 339 420 l 1
 340 421 l 1
 341 421 l 1
 342 421 l 1
 343 421 l 1
 344 421 l 1
 345 421 l 1
 346 420 l 1
 347 420 l 1
 348 420 l 1
 348 419 l 1xf4c0
 349 419 l 1
 350 418 l 1
 351 418 l 1
 351 417 l 1
 352 417 l 1
 352 416 l 1
 353 415 l 1
 354 414 l 1
 354 413 l 1
 355 412 l 1
 355 410 l 1
 355 409 l 1
 355 408 l 1
 355 407 l 1
 355 357 l 1
 355 355 l 1
 355 353 l 1
 355 331 l 1
 355 329 l 1
 355 327 l 1
 355 305 l 1
 355 302 l 1
 355 300 l 1
 355 278 l 1
 355 276 l 1
 355 274 l 1
 355 251 l 1
 355 250 l 1
 355 248 l 1
 355 198 l 1
 355 197 l 1
 355 196 l 1
 355 195 l 1
 355 194 l 2xf540
 355 193 354 191 353 190 c 2
 353 189 l 1
 352 188 l 1
 351 187 l 1
 350 186 l 1
 349 186 l 1
 349 185 l 1
 347 185 l 1
 346 184 l 1
 345 184 l 1
 344 184 l 1
 343 184 l 1
 342 184 l 1
 340 184 l 1
 339 184 l 1
 338 185 l 1
 337 185 l 1
 336 185 l 1xf4c0
 335 186 l 1
 334 186 l 1
 333 187 l 1
 332 188 l 1
 332 189 l 1
 331 189 l 1
 331 190 l 1
 330 191 l 2xf540
 330 192 329 194 329 195 c 2
 313 261 l 1
 300 273 l 1
 235 289 l 1
 197 289 l 1
 197 69 l 1
 212 40 l 1
 240 26 l 1
 341 26 l 1
 412 40 l 1
 433 54 l 1
 444 70 l 1
 461 173 l 1
 461 174 l 2
 461 175 462 175 462 176 c 2
 462 178 l 1
 463 178 l 1
 463 179 l 1
 464 179 l 1
 464 180 l 1
 465 181 l 2
 466 181 466 182 467 182 c 2
 468 183 l 1
 470 183 l 1
 470 184 l 1
 471 184 l 1
 472 184 l 1
 473 184 l 1
 474 184 l 1
 475 184 l 1
 476 184 l 1
 477 184 l 1
 479 183 l 1
 480 183 l 1
 481 182 l 1
 482 181 l 1
 483 180 l 1
 484 179 l 1
 485 178 l 2
 485 177 486 177 486 176 c 2
 486 175 l 1
 487 173 l 1
 487 171 l 1
 487 170 l 1
 487 94 l 1
 487 92 l 1
 487 90 l 1
 487 68 l 1
 487 66 l 1
 487 64 l 1
 487 41 l 1
 487 39 l 1
 487 37 l 1
 487 13 l 2
 487 6 481 0 474 0 c 2
 450 0 l 1
 447 0 l 1
 445 0 l 1
 423 0 l 1
 421 0 l 1
 419 0 l 1
 396 0 l 1
 395 0 l 1
 393 0 l 1
 343 0 l 1
 342 0 l 1
 341 0 l 1
 239 0 l 1
 237 0 l 1
 236 0 l 1
 213 0 l 1
 211 0 l 1
 209 0 l 1
 186 0 l 1
 184 0 l 1
 182 0 l 1
 134 0 l 1
 132 0 l 1
 129 0 l 1
 107 0 l 1
 105 0 l 1
 103 0 l 1
 80 0 l 1
 79 0 l 1
 77 0 l 1
 53 0 l 1
 52 0 l 2
 45 0 39 6 39 13 c 0
 39 20 45 26 52 26 c 2
 53 26 l 1
 76 26 l 1
 104 40 l 1
 118 69 l 1
 118 510 l 1
 104 538 l 1
 76 552 l 1
 53 552 l 1
 52 552 l 2
 45 552 39 559 39 566 c 0
 39 573 45 579 52 579 c 2
 53 579 l 1
 77 579 l 1
 79 579 l 1
 80 579 l 1
 103 579 l 1
 105 579 l 1
 107 579 l 1
 129 579 l 1
 131 579 l 1
EndSplineSet
EndChar

