SplineFontDB: 3.0
FontName: Hershey-Noailles-Futura-Duplex-Regular
FullName: Untitled1
FamilyName: fontName
Weight: Regular
Copyright: Copyright (c) 2020, cedr,,,
Version: 001.000
ItalicAngle: 0
UnderlinePosition: -99
UnderlineWidth: 49
Ascent: 737
Descent: 263
InvalidEm: 0
sfntRevision: 0x00010000
LayerCount: 2
Layer: 0 0 "Arri+AOgA-re" 1
Layer: 1 0 "Avant" 0
XUID: [1021 759 -2074477504 13285282]
StyleMap: 0x0000
FSType: 0
OS2Version: 4
OS2_WeightWidthSlopeOnly: 0
OS2_UseTypoMetrics: 1
CreationTime: 1584018295
ModificationTime: 1584023300
PfmFamily: 17
TTFWeight: 400
TTFWidth: 5
LineGap: 90
VLineGap: 0
Panose: 2 0 5 3 0 0 0 0 0 0
OS2TypoAscent: 737
OS2TypoAOffset: 0
OS2TypoDescent: -263
OS2TypoDOffset: 0
OS2TypoLinegap: 90
OS2WinAscent: 698
OS2WinAOffset: 0
OS2WinDescent: 185
OS2WinDOffset: 0
HheadAscent: 698
HheadAOffset: 0
HheadDescent: -185
HheadDOffset: 0
OS2SubXSize: 650
OS2SubYSize: 700
OS2SubXOff: 0
OS2SubYOff: 140
OS2SupXSize: 650
OS2SupYSize: 700
OS2SupXOff: 0
OS2SupYOff: 480
OS2StrikeYSize: 49
OS2StrikeYPos: 258
OS2CapHeight: 592
OS2XHeight: 408
OS2Vendor: 'PfEd'
OS2CodePages: 00000001.00000000
OS2UnicodeRanges: 80000007.00000000.00000000.00000000
MarkAttachClasses: 1
DEI: 91125
LangName: 1033 "" "" "" "FontForge 2.0 : Untitled1 : 12-3-2020"
Encoding: UnicodeBmp
Compacted: 1
UnicodeInterp: none
NameList: AGL For New Fonts
DisplaySize: -48
AntiAlias: 1
FitToEm: 0
WinInfo: 0 38 14
BeginPrivate: 7
BlueValues 21 [0 0 408 408 592 593]
OtherBlues 11 [-184 -184]
BlueShift 2 20
StdHW 4 [66]
StdVW 4 [65]
StemSnapH 35 [37 38 39 40 65 66 118 119 171 197]
StemSnapV 33 [39 55 65 92 119 171 195 327 461]
EndPrivate
BeginChars: 65537 155

StartChar: .notdef
Encoding: 65536 -1 0
Width: 500
Flags: MW
HStem: 0 50<100 400 100 450> 441 50<100 400 100 100>
VStem: 50 50<50 50 50 441> 400 50<50 441 441 441>
LayerCount: 2
Fore
SplineSet
50 0 m 1
 50 491 l 1
 450 491 l 1
 450 0 l 1
 50 0 l 1
100 50 m 1
 400 50 l 1
 400 441 l 1
 100 441 l 1
 100 50 l 1
EndSplineSet
EndChar

StartChar: space
Encoding: 32 32 1
Width: 421
Flags: W
LayerCount: 2
Fore
SplineSet
0 599 m 1024,0,0
EndSplineSet
EndChar

StartChar: exclam
Encoding: 33 33 2
Width: 315
Flags: MW
HStem: 0 119<131 132 131 132 132 134 134 158> 573 20G<112 132>
VStem: 86 118<46 73 44 75> 112 66<204 207 207 569 569 573>
LayerCount: 2
Fore
SplineSet
131 119 m 2xe0
 132 119 l 1
 134 119 l 1
 158 119 l 2
 162 119 169 116 172 113 c 2
 198 87 l 2
 201 84 204 77 204 73 c 2
 204 46 l 2
 204 42 201 35 198 32 c 2
 172 6 l 2
 169 3 162 0 158 0 c 2
 132 0 l 2
 128 0 121 3 118 6 c 2
 91 32 l 2
 88 35 86 42 86 46 c 2
 86 73 l 2
 86 77 88 84 91 87 c 2
 116 111 l 2
 118 113 121 116 124 117 c 0
 126 118 129 119 131 119 c 2xe0
131 593 m 2
 132 593 l 2
 133 593 134 592 135 592 c 2
 158 592 l 2
 169 592 178 584 178 573 c 2
 178 207 l 1
 178 204 l 2
 178 200 175 193 172 190 c 2
 171 189 l 2
 168 186 162 184 158 184 c 2
 155 184 l 1
 132 184 l 2
 121 184 112 193 112 204 c 2
 112 569 l 1
 112 573 l 2xd0
 112 577 114 583 117 586 c 2
 117 587 l 1
 119 588 l 2
 122 591 127 593 131 593 c 2
EndSplineSet
EndChar

StartChar: quotedbl
Encoding: 34 34 3
Width: 473
Flags: MW
HStem: 371 221<95 131 95 131 116 131>
VStem: 86 92<545 546 546 548>
LayerCount: 2
Fore
SplineSet
131 592 m 1
 132 592 l 2
 138 592 145 588 148 584 c 2
 172 560 l 2
 175 557 178 550 178 546 c 0
 178 544 178 542 177 540 c 2
 124 384 l 1
 124 382 l 2
 124 381 123 380 123 380 c 1
 122 378 l 1
 121 377 l 1
 121 376 l 1
 120 375 l 1
 120 374 l 1
 119 374 l 1
 118 373 l 1
 117 372 l 1
 116 372 l 1
 116 371 l 1
 114 370 l 1
 112 370 l 2
 111 370 110 369 109 369 c 2
 108 369 l 1
 108 368 l 1
 107 368 l 1
 106 368 l 1
 105 368 l 1
 104 368 l 1
 103 368 l 1
 102 369 l 1
 101 369 l 1
 100 369 l 1
 99 369 l 1
 98 370 l 1
 97 370 l 1
 96 371 l 1
 95 371 l 1
 94 372 l 1
 93 372 l 1
 93 373 l 1
 92 374 l 1
 90 375 l 1
 89 376 l 1
 89 377 l 1
 88 378 l 1
 88 379 l 2
 87 380 86 383 86 384 c 0
 86 385 85 387 85 388 c 2
 86 390 l 1
 86 546 l 2
 86 550 88 557 91 560 c 2
 116 584 l 2
 119 588 124 591 129 592 c 2
 131 592 l 1
EndSplineSet
EndChar

StartChar: numbersign
Encoding: 35 35 4
Width: 578
Flags: MW
HStem: -185 21G<99.5 109.5 257.5 267.5> 158 40<73.5 164 79 156 205 313 79 196 363 447 447 448> 316 39<99.5 199 105 190 105 231 239 348 397 474>
VStem: 85 40<-169 -169 -169 -164.5> 270 39<674 682> 428 39
LayerCount: 2
Fore
SplineSet
231 316 m 1
 205 198 l 1
 322 198 l 1
 348 316 l 1
 231 316 l 1
448 698 m 2
 459 698 467 689 467 678 c 2
 467 674 l 1
 397 355 l 1
 474 355 l 2
 485 355 494 347 494 336 c 0
 494 325 485 316 474 316 c 2
 388 316 l 1
 363 198 l 1
 447 198 l 1
 448 198 l 2
 459 198 467 189 467 178 c 0
 467 167 459 158 448 158 c 2
 447 158 l 1
 354 158 l 1
 282 -169 l 2
 280 -178 272 -185 263 -185 c 0
 252 -185 243 -176 243 -165 c 0
 243 -164 244 -161 244 -160 c 2
 313 158 l 1
 196 158 l 1
 125 -169 l 2
 123 -178 114 -185 105 -185 c 0
 94 -185 85 -176 85 -165 c 0
 85 -164 86 -161 86 -160 c 2
 156 158 l 1
 79 158 l 2
 68 158 59 167 59 178 c 0
 59 189 68 198 79 198 c 2
 164 198 l 1
 190 316 l 1
 105 316 l 2
 94 316 85 325 85 336 c 0
 85 347 94 355 105 355 c 2
 199 355 l 1
 270 682 l 2
 272 691 281 698 290 698 c 0
 301 698 309 689 309 678 c 2
 309 674 l 1
 239 355 l 1
 357 355 l 1
 428 682 l 2
 430 691 438 698 447 698 c 2
 448 698 l 2
EndSplineSet
EndChar

StartChar: dollar
Encoding: 36 36 5
Width: 526
Flags: MW
HStem: 526 66<214 214 214 217 283 285>
VStem: 59 66<446 485> 217 66<-85 -82 -82 0 66 264 368 526 592 675 675 678> 375 66<130 173 173 173>
CounterMasks: 1 70
LayerCount: 2
Fore
SplineSet
283 264 m 1
 283 66 l 1
 286 66 l 1
 333 82 l 1
 360 99 l 1
 375 130 l 1
 375 173 l 1
 352 219 l 1
 330 240 l 1
 283 264 l 1
214 526 m 1
 142 503 l 1
 125 485 l 1
 125 446 l 1
 146 403 l 1
 217 368 l 1
 217 526 l 1
 214 526 l 1
237 698 m 2
 240 698 l 1
 263 698 l 2
 274 698 283 689 283 678 c 2
 283 592 l 1
 289 592 l 2
 291 592 294 592 296 591 c 2
 375 565 l 2
 377 564 380 562 382 560 c 2
 435 508 l 2
 438 505 441 499 441 494 c 0
 441 483 432 474 421 474 c 2
 371 474 l 1
 369 474 l 1
 363 474 l 2
 362 474 362 475 361 475 c 2
 360 476 l 1
 359 476 l 2
 357 477 354 479 353 481 c 2
 330 504 l 1
 285 526 l 1
 283 526 l 1
 283 335 l 1
 351 301 l 2
 353 300 355 298 356 297 c 2
 409 244 l 2
 410 243 411 241 412 239 c 2
 439 187 l 2
 440 185 441 181 441 178 c 2
 441 125 l 2
 441 122 440 118 439 116 c 2
 412 64 l 2
 411 62 410 60 409 59 c 2
 382 32 l 2
 380 30 377 29 375 28 c 2
 296 1 l 2
 294 0 291 0 289 0 c 2
 283 0 l 1
 283 -82 l 1
 283 -85 l 2
 283 -89 281 -96 278 -99 c 2
 277 -99 l 1
 276 -101 l 2
 273 -104 267 -105 263 -105 c 2
 260 -105 l 1
 237 -105 l 2
 226 -105 217 -96 217 -85 c 2
 217 0 l 1
 211 0 l 2
 209 0 206 0 204 1 c 2
 125 28 l 2
 123 29 120 30 118 32 c 2
 65 85 l 2
 62 88 59 94 59 99 c 0
 59 110 68 119 79 119 c 2
 129 119 l 1
 131 119 l 2
 133 119 136 118 137 118 c 0
 138 118 138 117 139 117 c 2
 140 117 l 1
 141 116 l 2
 143 115 146 113 147 111 c 2
 170 89 l 1
 215 66 l 1
 217 66 l 1
 217 297 l 1
 123 344 l 2
 121 345 119 347 118 348 c 2
 91 374 l 2
 90 375 89 377 88 379 c 2
 61 432 l 2
 60 434 59 438 59 441 c 2
 59 494 l 2
 59 498 62 505 65 508 c 2
 118 560 l 2
 120 562 123 564 125 565 c 2
 204 591 l 2
 206 592 209 592 211 592 c 2
 217 592 l 1
 217 675 l 1
 217 678 l 2
 217 682 219 689 222 692 c 2
 223 692 l 1
 224 693 l 2
 227 696 233 698 237 698 c 2
EndSplineSet
EndChar

StartChar: percent
Encoding: 37 37 6
Width: 631
Flags: MW
HStem: 0 40<419 469 429 469 429 474> 184 40<452 452 452 492> 369 39<130 180 140 180 140 184> 500 40<341 418 345 418 345 421> 553 39<163 163 163 202>
VStem: 59 40<449 489 449 494 449 495.5> 243 40<472 512 512 512> 349 39<72 120 81 120 81 125 81 126.5> 533 39<104 143 143 143>
LayerCount: 2
Fore
SplineSet
452 184 m 1
 409 163 l 1
 388 120 l 1
 388 81 l 1
 429 40 l 1
 469 40 l 1
 512 61 l 1
 533 104 l 1
 533 143 l 1
 492 184 l 1
 452 184 l 1
447 224 m 2
 448 224 l 1
 450 224 l 1
 500 224 l 2
 504 224 511 221 514 218 c 2
 567 165 l 2
 570 162 572 156 572 152 c 2
 572 151 l 1
 572 99 l 2
 572 96 571 92 570 90 c 2
 544 37 l 2
 542 34 538 31 535 29 c 2
 483 2 l 2
 481 1 477 0 474 0 c 2
 421 0 l 2
 417 0 410 3 407 6 c 2
 354 59 l 2
 351 62 349 68 349 72 c 2
 349 73 l 1
 349 125 l 2
 349 128 350 132 351 134 c 2
 377 187 l 2
 379 190 383 193 386 195 c 2
 436 221 l 2
 437 222 440 223 442 223 c 2
 443 223 l 2
 444 223 446 224 447 224 c 2
163 553 m 1
 120 532 l 1
 99 489 l 1
 99 449 l 1
 140 408 l 1
 180 408 l 1
 222 429 l 1
 243 472 l 1
 243 512 l 1
 202 553 l 1
 163 553 l 1
210 592 m 2
 213 592 218 591 221 589 c 2
 271 565 l 1
 345 540 l 1
 418 540 l 1
 492 565 l 1
 542 589 l 2
 545 591 550 592 553 592 c 0
 556 592 560 591 562 590 c 2
 564 589 l 1
 565 588 l 1
 567 587 l 1
 568 585 l 1
 569 584 l 1
 569 583 l 1
 570 582 l 1
 571 580 l 1
 571 580 572 579 572 578 c 0
 572 577 573 575 573 573 c 0
 573 569 570 562 567 559 c 2
 94 7 l 2
 91 3 84 0 79 0 c 0
 68 0 59 9 59 20 c 0
 59 24 61 30 64 33 c 2
 481 519 l 1
 427 501 l 2
 425 500 423 500 421 500 c 2
 342 500 l 2
 340 500 338 500 336 501 c 2
 283 519 l 1
 283 467 l 2
 283 464 282 460 281 458 c 2
 254 406 l 2
 252 403 249 399 246 397 c 2
 193 371 l 2
 191 370 187 369 184 369 c 2
 132 369 l 2
 128 369 121 371 118 374 c 2
 65 427 l 2
 62 430 59 437 59 441 c 2
 59 494 l 2
 59 497 60 500 61 502 c 2
 88 555 l 2
 90 558 93 562 96 564 c 2
 149 590 l 2
 151 591 155 592 158 592 c 2
 208 592 l 1
 210 592 l 2
EndSplineSet
EndChar

StartChar: ampersand
Encoding: 38 38 7
Width: 684
Flags: MW
HStem: 0 40<184.5 258 185 258 189 258 189 263 531 544> 290 118<550.5 553 553 555 526 555.5> 572 20G<262 263 263 264.5>
VStem: 59 66<104 173 104 178 104 179.5> 164 40<441 489 446 489 446 494 446 495.5> 322 40<446 489 489 489> 559 40<54 73 44 78.5>
LayerCount: 2
Fore
SplineSet
233 292 m 1
 197 268 l 1
 148 219 l 1
 125 173 l 1
 125 104 l 1
 146 61 l 1
 189 40 l 1
 258 40 l 1
 304 62 l 1
 353 111 l 1
 357 118 l 1
 247 272 l 1
 233 292 l 1
263 550 m 1
 225 532 l 1
 204 489 l 1
 204 446 l 1
 227 399 l 1
 257 358 l 1
 300 400 l 1
 322 446 l 1
 322 489 l 1
 301 532 l 1
 263 550 l 1
262 592 m 2
 263 592 l 2
 266 592 270 591 272 590 c 2
 325 564 l 2
 328 562 331 558 333 555 c 2
 360 502 l 2
 361 500 362 497 362 494 c 2
 362 441 l 2
 362 438 361 434 360 432 c 2
 333 379 l 2
 332 377 331 375 330 374 c 2
 281 325 l 1
 393 171 l 1
 403 187 l 1
 455 317 l 1
 456 318 l 1
 482 371 l 2
 483 373 485 375 486 376 c 2
 512 402 l 2
 515 405 522 408 526 408 c 2
 553 408 l 2
 557 408 564 405 567 402 c 2
 593 376 l 2
 596 373 599 366 599 362 c 2
 599 336 l 2
 599 332 596 325 593 322 c 2
 567 295 l 2
 564 292 558 290 553 290 c 0
 548 290 542 292 539 295 c 2
 512 322 l 2
 510 324 508 329 507 332 c 2
 492 301 l 1
 439 170 l 2
 439 169 439 168 438 167 c 2
 418 137 l 1
 436 112 l 1
 485 62 l 1
 531 40 l 1
 544 40 l 1
 559 54 l 1
 559 73 l 2
 559 84 568 93 579 93 c 0
 590 93 599 84 599 73 c 2
 599 46 l 2
 599 42 596 35 593 32 c 2
 567 6 l 2
 564 3 557 0 553 0 c 2
 529 0 l 1
 527 0 l 2
 526 0 523 1 522 1 c 2
 520 1 l 1
 519 1 l 1
 441 28 l 2
 439 29 435 30 433 32 c 2
 382 84 l 1
 330 32 l 2
 329 31 327 30 325 29 c 2
 272 2 l 2
 270 1 266 0 263 0 c 2
 187 0 l 1
 185 0 l 2
 184 0 181 1 180 1 c 2
 178 1 l 1
 177 1 l 1
 99 28 l 2
 95 29 90 33 88 37 c 2
 61 90 l 2
 60 92 59 96 59 99 c 2
 59 178 l 2
 59 181 60 185 61 187 c 2
 88 239 l 2
 89 242 92 245 94 247 c 2
 173 299 l 1
 173 299 173 300 174 300 c 2
 212 325 l 1
 194 351 l 2
 193 352 192 355 192 356 c 2
 166 433 l 1
 166 435 l 1
 165 435 l 2
 164 437 164 439 164 441 c 2
 164 443 l 1
 164 494 l 2
 164 497 166 500 167 502 c 2
 193 555 l 2
 195 558 199 562 202 564 c 2
 254 590 l 2
 256 591 260 592 262 592 c 2
EndSplineSet
EndChar

StartChar: quotesingle
Encoding: 39 39 8
Width: 263
Flags: MW
HStem: 368 38<70 79.5> 572 20G<105 132 132 134>
VStem: 59 119<520 523 523 546 465 548>
LayerCount: 2
Fore
SplineSet
105 592 m 2
 132 592 l 2
 136 592 143 590 146 587 c 2
 172 560 l 2
 175 557 178 550 178 546 c 2
 178 523 l 1
 178 520 l 1
 178 517 l 1
 178 470 l 1
 178 467 l 2
 178 463 176 459 174 456 c 2
 150 407 l 2
 148 403 143 398 138 396 c 2
 88 371 l 2
 86 370 81 368 78 368 c 0
 67 368 58 377 58 388 c 0
 58 395 64 403 70 406 c 2
 115 428 l 1
 125 472 l 1
 123 474 l 1
 105 474 l 2
 101 474 94 477 91 480 c 2
 65 506 l 2
 62 509 59 516 59 520 c 2
 59 546 l 2
 59 550 62 557 65 560 c 2
 91 587 l 2
 94 590 101 592 105 592 c 2
EndSplineSet
EndChar

StartChar: parenleft
Encoding: 40 40 9
Width: 368
Flags: MW
HStem: -184 21G<286.5 294.5>
VStem: 86 65<200 307 206 307 206 309 206 313 206 313>
LayerCount: 2
Fore
SplineSet
289 698 m 2
 290 698 l 2
 301 698 309 689 309 678 c 0
 309 673 306 667 303 664 c 2
 253 613 l 1
 203 512 l 1
 177 436 l 1
 151 307 l 1
 151 206 l 1
 177 78 l 1
 203 1 l 1
 253 -100 l 1
 303 -150 l 2
 306 -153 309 -159 309 -164 c 0
 309 -175 300 -184 289 -184 c 0
 284 -184 278 -181 275 -178 c 2
 224 -127 l 1
 223 -126 l 1
 222 -124 l 1
 221 -124 l 1
 221 -123 l 1
 220 -123 l 1
 220 -122 l 1
 168 -44 l 2
 168 -43 167 -43 167 -42 c 2
 114 64 l 2
 113 65 112 68 112 69 c 2
 86 200 l 1
 86 204 l 1
 86 309 l 1
 86 313 l 1
 112 445 l 2
 112 446 113 449 114 450 c 2
 167 555 l 2
 167 556 168 556 168 557 c 2
 220 636 l 1
 221 636 l 2
 222 637 222 638 223 639 c 2
 223 640 l 1
 224 640 l 1
 275 692 l 2
 278 695 285 698 289 698 c 2
EndSplineSet
EndChar

StartChar: parenright
Encoding: 41 41 10
Width: 368
Flags: MW
HStem: -184 21G<73.5 81.5>
VStem: 217 66<206 307 307 307>
LayerCount: 2
Fore
SplineSet
79 698 m 0
 84 698 90 695 93 692 c 2
 144 640 l 1
 146 639 l 1
 147 638 l 1
 147 637 l 1
 148 636 l 1
 201 557 l 2
 201 556 202 556 202 555 c 2
 254 450 l 2
 255 449 256 446 256 445 c 2
 283 313 l 1
 283 309 l 1
 283 204 l 1
 283 200 l 1
 256 69 l 2
 256 68 255 65 254 64 c 2
 202 -42 l 2
 202 -43 201 -43 201 -44 c 2
 148 -123 l 2
 147 -124 147 -125 146 -126 c 2
 145 -126 l 1
 145 -127 l 1
 93 -178 l 2
 90 -181 84 -184 79 -184 c 0
 68 -184 59 -175 59 -164 c 0
 59 -159 62 -153 65 -150 c 2
 115 -100 l 1
 166 1 l 1
 191 78 l 1
 217 206 l 1
 217 307 l 1
 191 436 l 1
 166 512 l 1
 115 613 l 1
 65 664 l 2
 62 667 59 673 59 678 c 0
 59 689 68 698 79 698 c 0
EndSplineSet
EndChar

StartChar: asterisk
Encoding: 42 42 11
Width: 421
Flags: MW
HStem: 573 20G<210 211 211 212>
VStem: 164 93<280.5 283.5 545.5 548.5>
LayerCount: 2
Fore
SplineSet
210 593 m 2
 211 593 l 2
 213 593 215 592 216 592 c 0
 217 592 218 591 218 591 c 1
 220 590 l 1
 221 589 l 2
 223 588 226 586 227 584 c 2
 251 560 l 2
 254 557 257 551 257 546 c 0
 257 545 256 543 256 542 c 2
 240 461 l 1
 304 509 l 2
 307 511 312 513 316 513 c 2
 339 513 l 2
 340 513 341 514 342 514 c 0
 344 514 346 513 348 512 c 2
 350 512 l 1
 351 512 l 1
 352 511 l 1
 354 510 l 1
 355 509 l 1
 359 505 l 1
 360 503 l 1
 360 502 l 1
 361 501 l 1
 361 500 l 1
 361 499 l 2
 361 498 362 498 362 497 c 2
 362 495 l 1
 362 494 l 1
 362 493 l 1
 362 491 l 1
 362 490 l 1
 362 467 l 2
 362 460 356 452 349 449 c 2
 264 415 l 1
 349 380 l 2
 356 377 362 369 362 362 c 2
 362 339 l 1
 362 337 l 1
 362 336 l 1
 362 335 l 1
 362 333 l 1
 362 331 l 1
 361 330 l 1
 361 328 l 2
 361 327 360 326 360 326 c 1
 359 325 l 2
 358 323 356 320 354 319 c 2
 353 319 l 1
 352 319 l 1
 351 318 l 2
 349 317 345 316 342 316 c 2
 339 316 l 1
 316 316 l 2
 312 316 307 318 304 320 c 2
 240 368 l 1
 256 287 l 2
 256 286 257 284 257 283 c 0
 257 278 254 272 251 269 c 2
 227 245 l 2
 226 243 222 240 220 239 c 2
 219 239 l 2
 218 239 218 238 217 238 c 0
 215 237 213 237 211 237 c 0
 209 237 206 238 205 238 c 2
 204 238 l 1
 203 238 l 1
 201 239 l 1
 200 240 l 2
 198 241 195 243 194 245 c 2
 170 269 l 2
 167 272 164 278 164 283 c 0
 164 284 165 286 165 287 c 2
 181 368 l 1
 117 320 l 2
 114 318 109 316 105 316 c 2
 82 316 l 1
 79 316 l 2
 77 316 75 316 73 317 c 2
 71 317 l 1
 70 318 l 1
 69 318 l 1
 69 319 l 1
 68 319 l 1
 66 320 l 2
 65 321 64 323 63 324 c 2
 61 326 l 1
 61 328 l 1
 60 329 l 1
 60 331 l 2
 60 332 59 331 59 332 c 2
 59 334 l 1
 59 335 l 1
 59 336 l 1
 59 338 l 1
 59 339 l 1
 59 362 l 2
 59 369 65 377 72 380 c 2
 157 415 l 1
 72 449 l 2
 65 452 59 460 59 467 c 2
 59 490 l 1
 59 492 l 1
 59 494 l 1
 59 495 l 1
 59 496 l 1
 59 497 l 1
 59 498 l 1
 60 499 l 1
 60 501 l 2
 60 502 61 503 61 503 c 1
 62 504 l 2
 63 506 66 509 68 510 c 2
 68 511 l 1
 69 511 l 1
 70 512 l 2
 72 513 76 514 79 514 c 0
 80 514 81 513 82 513 c 2
 105 513 l 2
 109 513 114 511 117 509 c 2
 181 461 l 1
 165 542 l 2
 165 543 164 545 164 546 c 0
 164 551 167 557 170 560 c 2
 194 584 l 2
 195 586 199 589 201 590 c 2
 202 590 l 2
 203 590 203 592 204 592 c 0
 206 592 208 593 210 593 c 2
EndSplineSet
EndChar

StartChar: plus
Encoding: 43 43 12
Width: 684
Flags: MW
HStem: 237 66<99.5 109 105 109 109 296 362 549 549 553>
VStem: 296 66<46 49 49 237 303 490 490 494>
LayerCount: 2
Fore
SplineSet
315 514 m 2
 316 514 l 2
 317 514 318 513 319 513 c 2
 342 513 l 2
 353 513 362 505 362 494 c 2
 362 303 l 1
 553 303 l 2
 564 303 572 294 572 283 c 2
 572 260 l 2
 572 259 573 258 573 257 c 0
 573 253 570 246 567 243 c 2
 566 242 l 1
 565 241 l 2
 562 238 557 237 553 237 c 2
 549 237 l 1
 362 237 l 1
 362 49 l 1
 362 46 l 2
 362 42 360 35 357 32 c 2
 356 32 l 1
 355 31 l 2
 352 28 346 26 342 26 c 2
 339 26 l 1
 316 26 l 2
 305 26 296 35 296 46 c 2
 296 237 l 1
 105 237 l 2
 94 237 86 246 86 257 c 2
 86 280 l 2
 86 281 85 282 85 283 c 0
 85 287 88 294 91 297 c 2
 92 298 l 2
 95 301 101 303 105 303 c 2
 109 303 l 1
 296 303 l 1
 296 490 l 1
 296 494 l 2
 296 498 298 504 301 507 c 2
 302 507 l 1
 302 508 l 1
 303 509 l 2
 306 512 311 514 315 514 c 2
EndSplineSet
EndChar

StartChar: comma
Encoding: 44 44 13
Width: 315
Flags: MW
HStem: -105 37<96 106.5>
VStem: 86 118<46 49 49 73 -9 75>
LayerCount: 2
Fore
SplineSet
132 119 m 2
 158 119 l 2
 162 119 169 116 172 113 c 2
 198 87 l 2
 201 84 204 77 204 73 c 2
 204 49 l 1
 204 46 l 1
 204 44 l 1
 204 -4 l 1
 204 -7 l 2
 204 -11 202 -15 200 -18 c 2
 176 -67 l 2
 174 -71 169 -76 164 -78 c 2
 114 -103 l 2
 112 -104 108 -105 105 -105 c 0
 94 -105 85 -97 85 -86 c 0
 85 -79 90 -71 96 -68 c 2
 141 -45 l 1
 152 -2 l 1
 150 0 l 1
 132 0 l 2
 128 0 121 3 118 6 c 2
 91 32 l 2
 88 35 86 42 86 46 c 2
 86 73 l 2
 86 77 88 84 91 87 c 2
 118 113 l 2
 121 116 128 119 132 119 c 2
EndSplineSet
EndChar

StartChar: hyphen
Encoding: 45 45 14
Width: 684
Flags: MW
HStem: 237 39<99.5 579 105 579>
LayerCount: 2
Fore
SplineSet
105 276 m 2
 579 276 l 2
 590 276 599 268 599 257 c 0
 599 246 590 237 579 237 c 2
 105 237 l 2
 94 237 85 246 85 257 c 0
 85 268 94 276 105 276 c 2
EndSplineSet
EndChar

StartChar: period
Encoding: 46 46 15
Width: 315
Flags: MW
HStem: 0 119<131 132 131 132 132 134 134 158>
VStem: 86 118<46 73 44 75>
LayerCount: 2
Fore
SplineSet
131 119 m 2
 132 119 l 1
 134 119 l 1
 158 119 l 2
 162 119 169 116 172 113 c 2
 198 87 l 2
 201 84 204 77 204 73 c 2
 204 46 l 2
 204 42 201 35 198 32 c 2
 172 6 l 2
 169 3 162 0 158 0 c 2
 132 0 l 2
 128 0 121 3 118 6 c 2
 91 32 l 2
 88 35 86 42 86 46 c 2
 86 73 l 2
 86 77 88 84 91 87 c 2
 116 111 l 2
 118 113 121 116 124 117 c 0
 126 118 129 119 131 119 c 2
EndSplineSet
EndChar

StartChar: slash
Encoding: 47 47 16
Width: 631
Flags: MW
HStem: -184 21G<47.5 53 53 76 76 79>
VStem: 517 55<676.5 696 676.5 696>
LayerCount: 2
Fore
SplineSet
526 698 m 2
 529 698 l 1
 553 698 l 2
 564 698 572 689 572 678 c 0
 572 675 571 670 570 668 c 2
 98 -171 l 2
 97 -175 92 -180 88 -182 c 0
 86 -183 82 -184 79 -184 c 2
 76 -184 l 1
 53 -184 l 2
 42 -184 33 -175 33 -164 c 0
 33 -161 34 -157 35 -155 c 2
 508 685 l 2
 509 689 513 693 517 695 c 1
 517 696 l 2
 519 697 523 698 526 698 c 2
EndSplineSet
EndChar

StartChar: zero
Encoding: 48 48 17
Width: 526
Flags: MW
HStem: 0 66<236 286 240 286 240 289> 526 66<240 240 240 286>
VStem: 59 66<259 334 259 336 259 336.5> 401 66<259 334 334 334>
LayerCount: 2
Fore
SplineSet
240 526 m 1
 182 507 l 1
 150 460 l 1
 125 334 l 1
 125 259 l 1
 150 133 l 1
 182 85 l 1
 240 66 l 1
 286 66 l 1
 344 85 l 1
 376 133 l 1
 401 259 l 1
 401 334 l 1
 376 460 l 1
 344 507 l 1
 286 526 l 1
 240 526 l 1
238 592 m 1
 239 592 l 1
 289 592 l 2
 291 592 294 592 296 591 c 2
 375 565 l 2
 379 564 383 560 385 557 c 2
 438 478 l 2
 439 476 440 473 440 471 c 2
 467 340 l 1
 467 336 l 1
 467 257 l 1
 467 253 l 1
 440 121 l 2
 440 119 439 116 438 114 c 2
 385 35 l 2
 383 32 379 29 375 28 c 2
 296 1 l 2
 294 0 291 0 289 0 c 2
 237 0 l 2
 235 0 233 0 231 1 c 2
 152 28 l 2
 148 29 143 32 141 35 c 2
 89 114 l 2
 88 116 86 119 86 121 c 2
 60 253 l 2
 60 254 59 256 59 257 c 2
 59 336 l 2
 59 337 60 339 60 340 c 2
 86 471 l 2
 86 473 88 476 89 478 c 2
 141 557 l 2
 143 560 148 564 152 565 c 2
 228 591 l 2
 229 591 231 592 232 592 c 2
 234 592 l 1
 235 592 l 1
 238 592 l 1
EndSplineSet
EndChar

StartChar: one
Encoding: 49 49 18
Width: 526
Flags: MW
HStem: 0 21G<257.5 263 263 286 286 289> 572 20G<287 294.5>
VStem: 243 66<20 23 23 472 472 472>
LayerCount: 2
Fore
SplineSet
289 592 m 0
 300 592 309 584 309 573 c 2
 309 23 l 1
 309 20 l 2
 309 16 307 9 304 6 c 2
 302 5 l 2
 299 2 293 0 289 0 c 2
 286 0 l 1
 263 0 l 2
 252 0 243 9 243 20 c 2
 243 472 l 1
 225 453 l 2
 224 452 221 451 219 450 c 2
 167 423 l 2
 165 422 161 421 158 421 c 0
 147 421 138 430 138 441 c 2
 138 464 l 1
 138 467 l 2
 138 470 139 474 140 476 c 2
 141 478 l 1
 142 479 l 2
 144 482 148 485 152 486 c 2
 199 510 l 1
 275 587 l 2
 278 590 285 592 289 592 c 0
EndSplineSet
EndChar

StartChar: two
Encoding: 50 50 19
Width: 526
Flags: MW
HStem: 0 66<105 447 173 444 444 447> 526 66<215 311 215 215>
VStem: 86 65<444 463 435.5 467 435.5 468.5> 375 66<419 463 463 463>
LayerCount: 2
Fore
SplineSet
211 592 m 2
 316 592 l 2
 319 592 323 591 325 590 c 2
 377 564 l 2
 379 563 381 561 382 560 c 2
 409 534 l 2
 410 533 411 531 412 529 c 2
 439 476 l 2
 440 474 441 470 441 467 c 2
 441 415 l 2
 441 412 440 408 439 406 c 2
 412 353 l 2
 412 352 411 352 411 351 c 2
 359 272 l 2
 359 271 358 271 357 270 c 2
 173 66 l 1
 447 66 l 2
 458 66 467 57 467 46 c 2
 467 23 l 1
 467 20 l 2
 467 16 465 9 462 6 c 2
 460 5 l 2
 457 2 451 0 447 0 c 2
 444 0 l 1
 108 0 l 1
 105 0 l 1
 102 0 l 1
 82 0 l 1
 79 0 l 2
 73 0 66 3 63 8 c 2
 62 9 l 1
 62 10 l 1
 61 11 l 1
 60 13 l 2
 59 15 59 18 59 20 c 0
 59 25 62 32 66 35 c 2
 300 295 l 1
 351 372 l 1
 375 419 l 1
 375 463 l 1
 354 505 l 1
 311 526 l 1
 215 526 l 1
 173 505 l 1
 151 463 l 1
 151 441 l 2
 151 430 143 421 132 421 c 2
 109 421 l 1
 105 421 l 2
 101 421 95 424 92 427 c 2
 91 427 l 1
 90 428 l 2
 87 431 85 437 85 441 c 0
 85 442 86 443 86 444 c 2
 86 467 l 2
 86 470 87 474 88 476 c 2
 114 529 l 2
 115 531 117 533 118 534 c 2
 144 560 l 2
 145 561 147 563 149 564 c 2
 202 590 l 2
 204 591 208 592 211 592 c 2
EndSplineSet
EndChar

StartChar: three
Encoding: 51 51 20
Width: 526
Flags: MW
HStem: 0 66<210 286 214 286 214 289> 526 66<126.5 392 135 334>
VStem: 401 66<181 201 201 201>
LayerCount: 2
Fore
SplineSet
131 593 m 2
 132 593 l 2
 133 593 134 592 135 592 c 2
 392 592 l 1
 395 592 l 1
 398 592 l 1
 421 592 l 2
 432 592 441 584 441 573 c 0
 441 569 439 563 437 560 c 2
 297 380 l 1
 375 354 l 2
 377 353 380 352 382 350 c 2
 435 297 l 2
 437 295 439 291 440 289 c 2
 466 210 l 2
 467 208 467 206 467 204 c 2
 467 178 l 2
 467 176 467 174 466 172 c 2
 440 93 l 2
 439 91 437 87 435 85 c 2
 382 32 l 2
 380 30 377 29 375 28 c 2
 296 1 l 2
 294 0 291 0 289 0 c 2
 211 0 l 2
 209 0 206 0 204 1 c 2
 125 28 l 2
 123 29 120 30 118 32 c 2
 91 59 l 2
 90 60 89 62 88 64 c 2
 61 116 l 2
 60 118 59 122 59 125 c 0
 59 136 68 145 79 145 c 2
 102 145 l 1
 105 145 l 2
 108 145 112 144 114 143 c 2
 116 142 l 1
 117 141 l 2
 120 139 123 135 124 131 c 2
 140 99 l 1
 167 82 l 1
 214 66 l 1
 286 66 l 1
 333 82 l 1
 365 103 l 1
 386 134 l 1
 401 181 l 1
 401 201 l 1
 386 248 l 1
 365 279 l 1
 333 300 l 1
 286 316 l 1
 240 316 l 1
 237 316 l 1
 234 316 l 1
 213 316 l 1
 210 316 l 2
 204 316 197 319 194 324 c 2
 193 326 l 1
 192 327 l 2
 191 329 191 334 191 336 c 0
 191 341 193 347 196 350 c 2
 334 526 l 1
 132 526 l 2
 121 526 112 535 112 546 c 2
 112 569 l 1
 112 573 l 2
 112 577 114 583 117 586 c 2
 117 587 l 1
 119 588 l 2
 122 591 127 593 131 593 c 2
EndSplineSet
EndChar

StartChar: four
Encoding: 52 52 21
Width: 526
Flags: MW
HStem: 0 21G<336.5 342 342 365 365 368> 132 66<79 322 102 322 105 322 161 322 161 322 388 470> 573 20G<365 388>
VStem: 322 66<20 23 23 132 198 430 430 430>
LayerCount: 2
Fore
SplineSet
322 430 m 1
 161 198 l 1
 322 198 l 1
 322 430 l 1
368 593 m 0
 369 593 369 592 370 592 c 2
 372 592 l 1
 374 592 l 1
 376 591 l 2
 377 591 378 590 379 589 c 0
 384 586 388 579 388 573 c 2
 388 570 l 1
 388 198 l 1
 474 198 l 2
 485 198 493 189 493 178 c 2
 493 155 l 2
 493 154 494 152 494 151 c 0
 494 147 491 141 488 138 c 2
 487 136 l 1
 486 136 l 2
 483 133 478 131 474 131 c 0
 473 131 471 132 470 132 c 2
 388 132 l 1
 388 23 l 1
 388 20 l 2
 388 16 386 9 383 6 c 2
 381 5 l 2
 378 2 372 0 368 0 c 2
 365 0 l 1
 342 0 l 2
 331 0 322 9 322 20 c 2
 322 132 l 1
 108 132 l 1
 105 132 l 1
 102 132 l 1
 79 132 l 2
 68 132 59 140 59 151 c 0
 59 154 61 160 63 163 c 2
 351 582 l 2
 354 588 362 593 368 593 c 0
EndSplineSet
EndChar

StartChar: five
Encoding: 53 53 22
Width: 526
Flags: MW
HStem: 0 66<210 286 214 286 214 289> 342 66<211 286 189 289> 526 66<175 391 175 175 391 395>
VStem: 401 66<181 227 227 227>
LayerCount: 2
Fore
SplineSet
132 593 m 0
 133 593 134 592 135 592 c 2
 395 592 l 2
 406 592 414 584 414 573 c 2
 414 549 l 2
 414 548 415 547 415 546 c 0
 415 542 412 535 409 532 c 2
 408 531 l 2
 405 528 399 526 395 526 c 2
 391 526 l 1
 175 526 l 1
 156 391 l 1
 204 407 l 2
 206 408 209 408 211 408 c 2
 289 408 l 2
 291 408 294 408 296 407 c 2
 375 381 l 2
 377 380 380 378 382 376 c 2
 435 323 l 2
 437 321 439 318 440 316 c 2
 466 237 l 2
 467 235 467 232 467 230 c 2
 467 178 l 2
 467 176 467 174 466 172 c 2
 440 93 l 2
 439 91 437 87 435 85 c 2
 382 32 l 2
 380 30 377 29 375 28 c 2
 296 1 l 2
 294 0 291 0 289 0 c 2
 211 0 l 2
 209 0 206 0 204 1 c 2
 125 28 l 2
 123 29 120 30 118 32 c 2
 91 59 l 2
 90 60 89 62 88 64 c 2
 61 116 l 2
 60 118 59 122 59 125 c 0
 59 136 68 145 79 145 c 2
 102 145 l 1
 105 145 l 2
 108 145 112 144 114 143 c 2
 116 142 l 1
 117 141 l 2
 120 139 123 135 124 131 c 2
 140 99 l 1
 167 82 l 1
 214 66 l 1
 286 66 l 1
 333 82 l 1
 365 103 l 1
 386 134 l 1
 401 181 l 1
 401 227 l 1
 386 274 l 1
 365 306 l 1
 333 327 l 1
 286 342 l 1
 189 342 l 1
 140 318 l 2
 138 317 135 316 132 316 c 2
 108 316 l 1
 105 316 l 2
 101 316 94 318 91 321 c 2
 91 322 l 1
 90 323 l 2
 87 326 85 332 85 336 c 0
 85 337 86 340 86 341 c 2
 112 572 l 1
 112 573 l 2
 112 577 114 583 117 586 c 2
 117 587 l 1
 119 588 l 2
 122 591 128 593 132 593 c 0
EndSplineSet
EndChar

StartChar: six
Encoding: 54 54 23
Width: 526
Flags: MW
HStem: 0 66<262 286 266 286 266 289> 316 66<266 266 266 286> 526 66<266 313 266 266>
VStem: 86 65<331 334 331 336 331 340 331 340> 401 66<181 201 201 201>
LayerCount: 2
Fore
SplineSet
266 316 m 1
 219 300 l 1
 188 279 l 1
 167 248 l 1
 152 203 l 1
 171 128 l 1
 188 103 l 1
 219 82 l 1
 266 66 l 1
 286 66 l 1
 333 82 l 1
 365 103 l 1
 386 134 l 1
 401 181 l 1
 401 201 l 1
 386 248 l 1
 365 279 l 1
 333 300 l 1
 286 316 l 1
 266 316 l 1
263 592 m 2
 316 592 l 2
 318 592 320 592 322 591 c 2
 401 565 l 2
 405 564 410 559 412 555 c 2
 439 502 l 2
 440 500 441 497 441 494 c 0
 441 483 432 474 421 474 c 2
 395 474 l 2
 388 474 380 479 377 485 c 2
 365 509 l 1
 313 526 l 1
 266 526 l 1
 208 507 l 1
 177 460 l 1
 151 334 l 1
 151 331 l 1
 170 350 l 2
 172 352 176 353 178 354 c 2
 257 381 l 2
 259 382 261 382 263 382 c 2
 289 382 l 2
 291 382 294 382 296 381 c 2
 375 354 l 2
 377 353 380 352 382 350 c 2
 435 297 l 2
 437 295 439 291 440 289 c 2
 466 210 l 2
 467 208 467 206 467 204 c 2
 467 178 l 2
 467 176 467 174 466 172 c 2
 440 93 l 2
 439 91 437 87 435 85 c 2
 382 32 l 2
 380 30 377 29 375 28 c 2
 296 1 l 2
 294 0 291 0 289 0 c 2
 263 0 l 2
 261 0 259 0 257 1 c 2
 178 28 l 2
 176 29 172 30 170 32 c 2
 118 85 l 2
 116 87 113 91 112 94 c 2
 86 199 l 1
 86 204 l 1
 86 336 l 1
 86 340 l 1
 112 471 l 2
 112 473 114 476 115 478 c 2
 168 557 l 2
 170 560 174 564 178 565 c 2
 257 591 l 2
 259 592 261 592 263 592 c 2
EndSplineSet
EndChar

StartChar: seven
Encoding: 55 55 24
Width: 526
Flags: MW
HStem: 0 21G<152.5 158 158 181 181 184> 526 66<73.5 418 82 377>
LayerCount: 2
Fore
SplineSet
79 593 m 0
 80 593 81 592 82 592 c 2
 418 592 l 1
 421 592 l 1
 424 592 l 1
 447 592 l 2
 458 592 467 584 467 573 c 0
 467 571 466 566 465 564 c 2
 203 14 l 2
 202 11 199 6 196 4 c 2
 195 3 l 1
 194 2 l 2
 192 1 187 0 184 0 c 2
 181 0 l 1
 158 0 l 2
 147 0 138 9 138 20 c 0
 138 22 139 26 140 28 c 2
 377 526 l 1
 79 526 l 2
 68 526 59 535 59 546 c 2
 59 569 l 1
 59 573 l 2
 59 577 62 583 65 586 c 2
 65 587 l 1
 66 588 l 2
 69 591 75 593 79 593 c 0
EndSplineSet
EndChar

StartChar: eight
Encoding: 56 56 25
Width: 526
Flags: MW
HStem: 0 66<210 313 214 313 214 316> 526 66<214 214 214 313>
VStem: 59 66<130 199> 86 65<446 489 446 494 446 495.5> 375 66<446 489 489 489> 401 66<130 199 199 199>
LayerCount: 2
Fore
SplineSet
263 302 m 1xe4
 217 291 l 1
 170 267 l 1
 148 245 l 1
 125 199 l 1
 125 130 l 1
 140 99 l 1
 167 82 l 1
 214 66 l 1
 313 66 l 1
 360 82 l 1
 386 99 l 1
 401 130 l 1
 401 199 l 1
 378 245 l 1
 357 267 l 1
 309 291 l 1
 263 302 l 1xe4
214 526 m 1
 161 509 l 1
 151 489 l 1
 151 446 l 1
 173 403 l 1
 217 381 l 1
 263 369 l 1
 309 381 l 1
 354 403 l 1
 375 446 l 1
 375 489 l 1xd8
 365 509 l 1
 313 526 l 1
 214 526 l 1
211 592 m 1
 212 592 l 1
 316 592 l 2
 318 592 320 592 322 591 c 2
 401 565 l 2xe4
 405 564 410 559 412 555 c 2
 439 502 l 2
 440 500 441 497 441 494 c 2
 441 441 l 2xc8
 441 438 440 434 439 432 c 2
 412 379 l 2
 411 377 410 375 409 374 c 2
 382 348 l 2
 381 347 379 345 377 344 c 2
 360 336 l 1
 377 327 l 2
 379 326 381 324 382 323 c 2
 435 271 l 2
 436 270 438 268 439 266 c 2
 465 213 l 2
 466 211 467 207 467 204 c 2
 467 125 l 2
 467 122 466 118 465 116 c 2
 439 64 l 2
 438 62 436 60 435 59 c 2
 409 32 l 2
 407 30 403 29 401 28 c 2
 322 1 l 2
 320 0 318 0 316 0 c 2
 211 0 l 2
 209 0 206 0 204 1 c 2
 125 28 l 2
 123 29 120 30 118 32 c 2
 91 59 l 2
 90 60 89 62 88 64 c 2
 61 116 l 2
 60 118 59 122 59 125 c 2
 59 204 l 2xe4
 59 207 60 211 61 213 c 2
 88 266 l 2
 89 268 90 270 91 271 c 2
 144 323 l 2
 145 324 147 326 149 327 c 2
 166 336 l 1
 149 344 l 2
 147 345 145 347 144 348 c 2
 118 374 l 2
 117 375 115 377 114 379 c 2
 88 432 l 2
 87 434 86 438 86 441 c 2
 86 494 l 2xd0
 86 497 87 500 88 502 c 2
 114 555 l 2
 116 559 121 564 125 565 c 2xe0
 202 591 l 2
 203 591 205 592 206 592 c 2
 207 592 l 1
 208 592 l 1
 209 592 l 1
 211 592 l 1
EndSplineSet
EndChar

StartChar: nine
Encoding: 57 57 26
Width: 526
Flags: MW
HStem: 0 66<210 260 214 260 214 263> 211 65<236 260 240 260 240 263> 526 66<240 240 240 260>
VStem: 59 66<392 411> 375 66<259 262 262 262>
LayerCount: 2
Fore
SplineSet
240 526 m 1
 193 511 l 1
 162 490 l 1
 141 458 l 1
 125 411 l 1
 125 392 l 1
 141 344 l 1
 162 313 l 1
 193 292 l 1
 240 276 l 1
 260 276 l 1
 307 292 l 1
 338 313 l 1
 359 344 l 1
 374 389 l 1
 355 464 l 1
 338 490 l 1
 307 511 l 1
 260 526 l 1
 240 526 l 1
237 592 m 2
 263 592 l 2
 265 592 267 592 269 591 c 2
 348 565 l 2
 350 564 354 562 356 560 c 2
 409 508 l 2
 411 506 413 501 414 498 c 2
 440 393 l 2
 440 392 441 389 441 388 c 2
 441 257 l 2
 441 256 440 254 440 253 c 2
 414 121 l 2
 414 119 412 116 411 114 c 2
 359 35 l 2
 357 32 352 29 348 28 c 2
 269 1 l 2
 267 0 265 0 263 0 c 2
 211 0 l 2
 209 0 206 0 204 1 c 2
 125 28 l 2
 121 29 116 33 114 37 c 2
 88 90 l 2
 87 92 86 96 86 99 c 0
 86 110 94 119 105 119 c 2
 132 119 l 2
 139 119 146 114 149 108 c 2
 161 83 l 1
 214 66 l 1
 260 66 l 1
 318 85 l 1
 350 133 l 1
 375 259 l 1
 375 262 l 1
 356 243 l 2
 354 241 350 239 348 238 c 2
 269 212 l 2
 267 211 265 211 263 211 c 2
 237 211 l 2
 235 211 233 211 231 212 c 2
 152 238 l 2
 150 239 146 241 144 243 c 2
 91 295 l 2
 89 297 88 301 87 303 c 2
 60 382 l 2
 59 384 59 386 59 388 c 2
 59 415 l 2
 59 417 59 419 60 421 c 2
 87 500 l 2
 88 502 89 506 91 508 c 2
 144 560 l 2
 146 562 150 564 152 565 c 2
 231 591 l 2
 233 592 235 592 237 592 c 2
EndSplineSet
EndChar

StartChar: colon
Encoding: 58 58 27
Width: 315
Flags: MW
HStem: 0 119<131 132 131 132 132 134 134 158> 290 118<131 132 131 132 132 134 134 158>
VStem: 86 118<46 73 44 75 336 362>
LayerCount: 2
Fore
SplineSet
131 119 m 2
 132 119 l 1
 134 119 l 1
 158 119 l 2
 162 119 169 116 172 113 c 2
 198 87 l 2
 201 84 204 77 204 73 c 2
 204 46 l 2
 204 42 201 35 198 32 c 2
 172 6 l 2
 169 3 162 0 158 0 c 2
 132 0 l 2
 128 0 121 3 118 6 c 2
 91 32 l 2
 88 35 86 42 86 46 c 2
 86 73 l 2
 86 77 88 84 91 87 c 2
 116 111 l 2
 118 113 121 116 124 117 c 0
 126 118 129 119 131 119 c 2
131 408 m 2
 132 408 l 1
 134 408 l 1
 158 408 l 2
 162 408 169 405 172 402 c 2
 198 376 l 2
 201 373 204 366 204 362 c 2
 204 336 l 2
 204 332 201 325 198 322 c 2
 172 295 l 2
 169 292 162 290 158 290 c 2
 132 290 l 2
 128 290 121 292 118 295 c 2
 91 322 l 2
 88 325 86 332 86 336 c 2
 86 362 l 2
 86 366 88 373 91 376 c 2
 116 400 l 2
 118 402 121 405 124 406 c 2
 124 407 l 2
 126 408 129 408 131 408 c 2
EndSplineSet
EndChar

StartChar: semicolon
Encoding: 59 59 28
Width: 315
Flags: MW
HStem: -105 37<96 106.5> 290 118<131 132 131 132 132 134 134 158>
VStem: 86 118<46 49 49 73 -9 75 336 362>
LayerCount: 2
Fore
SplineSet
132 119 m 2
 158 119 l 2
 162 119 169 116 172 113 c 2
 198 87 l 2
 201 84 204 77 204 73 c 2
 204 49 l 1
 204 46 l 1
 204 44 l 1
 204 -4 l 1
 204 -7 l 2
 204 -11 202 -15 200 -18 c 2
 176 -67 l 2
 174 -71 169 -76 164 -78 c 2
 114 -103 l 2
 112 -104 108 -105 105 -105 c 0
 94 -105 85 -97 85 -86 c 0
 85 -79 90 -71 96 -68 c 2
 141 -45 l 1
 152 -2 l 1
 150 0 l 1
 132 0 l 2
 128 0 121 3 118 6 c 2
 91 32 l 2
 88 35 86 42 86 46 c 2
 86 73 l 2
 86 77 88 84 91 87 c 2
 118 113 l 2
 121 116 128 119 132 119 c 2
131 408 m 2
 132 408 l 1
 134 408 l 1
 158 408 l 2
 162 408 169 405 172 402 c 2
 198 376 l 2
 201 373 204 366 204 362 c 2
 204 336 l 2
 204 332 201 325 198 322 c 2
 172 295 l 2
 169 292 162 290 158 290 c 2
 132 290 l 2
 128 290 121 292 118 295 c 2
 91 322 l 2
 88 325 86 332 86 336 c 2
 86 362 l 2
 86 366 88 373 91 376 c 2
 116 400 l 2
 118 402 121 405 124 406 c 2
 124 407 l 2
 126 408 129 408 131 408 c 2
EndSplineSet
EndChar

StartChar: less
Encoding: 60 60 29
Width: 631
Flags: MW
HStem: 0 21G<524.5 531.5>
LayerCount: 2
Fore
SplineSet
525 513 m 2
 527 513 l 2
 538 513 546 505 546 494 c 0
 546 488 542 479 536 476 c 2
 146 257 l 1
 536 37 l 2
 542 34 546 26 546 20 c 0
 546 9 537 0 526 0 c 0
 523 0 519 2 517 3 c 2
 96 240 l 2
 90 243 86 251 86 257 c 0
 86 263 90 271 96 274 c 2
 517 511 l 2
 519 512 522 513 525 513 c 2
EndSplineSet
EndChar

StartChar: equal
Encoding: 61 61 30
Width: 684
Flags: MW
HStem: 132 66<99.5 109 105 109 109 549> 342 66<99.5 109 105 109 109 549 549 553>
LayerCount: 2
Fore
SplineSet
105 198 m 2
 109 198 l 1
 553 198 l 2
 564 198 572 189 572 178 c 2
 572 155 l 2
 572 154 573 152 573 151 c 0
 573 147 570 141 567 138 c 2
 566 136 l 1
 565 136 l 2
 562 133 557 131 553 131 c 0
 552 131 550 132 549 132 c 2
 105 132 l 2
 94 132 86 140 86 151 c 2
 86 175 l 2
 86 176 85 177 85 178 c 0
 85 182 88 189 91 192 c 2
 92 193 l 2
 95 196 101 198 105 198 c 2
105 408 m 2
 109 408 l 1
 553 408 l 2
 564 408 572 399 572 388 c 2
 572 365 l 2
 572 364 573 363 573 362 c 0
 573 358 570 351 567 348 c 2
 566 347 l 1
 565 347 l 2
 562 344 557 342 553 342 c 2
 549 342 l 1
 105 342 l 2
 94 342 86 351 86 362 c 2
 86 385 l 2
 86 386 85 387 85 388 c 0
 85 392 88 399 91 402 c 2
 92 404 l 2
 95 407 101 408 105 408 c 2
EndSplineSet
EndChar

StartChar: greater
Encoding: 62 62 31
Width: 631
Flags: MW
HStem: 0 21G<99.5 106.5>
LayerCount: 2
Fore
SplineSet
106 513 m 2
 109 513 113 512 115 511 c 2
 536 274 l 2
 542 271 546 263 546 257 c 0
 546 251 542 243 536 240 c 2
 115 3 l 2
 113 2 108 0 105 0 c 0
 94 0 86 9 86 20 c 0
 86 26 90 34 96 37 c 2
 486 257 l 1
 96 476 l 2
 90 479 85 487 85 494 c 0
 85 505 94 513 105 513 c 2
 106 513 l 2
EndSplineSet
EndChar

StartChar: question
Encoding: 63 63 32
Width: 526
Flags: MW
HStem: 0 119<236 237 236 237 237 240 240 263> 526 66<214 286 214 214>
VStem: 59 66<441 444 444 463 435.5 467 435.5 468.5> 191 118<46 73 44 75> 217 66<204 278> 375 66<419 463 463 463>
LayerCount: 2
Fore
SplineSet
236 119 m 2xf4
 237 119 l 1
 240 119 l 1
 263 119 l 2
 267 119 274 116 277 113 c 2
 303 87 l 2
 306 84 309 77 309 73 c 2
 309 46 l 2
 309 42 306 35 303 32 c 2
 277 6 l 2
 274 3 267 0 263 0 c 2
 237 0 l 2
 233 0 226 3 223 6 c 2
 197 32 l 2
 194 35 191 42 191 46 c 2
 191 73 l 2
 191 77 194 84 197 87 c 2
 221 111 l 2
 223 113 226 116 229 117 c 2
 230 117 l 2
 232 118 234 119 236 119 c 2xf4
211 592 m 2
 289 592 l 2
 291 592 294 592 296 591 c 2
 375 565 l 2
 377 564 380 562 382 560 c 2
 409 534 l 2
 410 533 411 531 412 529 c 2
 439 476 l 2
 440 474 441 470 441 467 c 2
 441 415 l 2
 441 412 440 408 439 406 c 2
 412 353 l 2
 411 351 410 349 409 348 c 2
 382 322 l 2
 381 321 379 319 377 318 c 2
 325 292 l 2
 324 292 323 291 322 291 c 2
 283 278 l 1
 283 204 l 2
 283 193 274 184 263 184 c 2
 237 184 l 2
 226 184 217 193 217 204 c 2
 217 280 l 1
 217 283 l 1
 217 286 l 1
 217 306 l 1
 217 309 l 2xec
 217 312 218 317 220 320 c 2
 221 321 l 1
 221 322 l 1
 222 323 l 2
 225 326 230 328 234 329 c 2
 308 354 l 1
 332 366 l 1
 358 385 l 1
 375 419 l 1
 375 463 l 1
 360 493 l 1
 333 511 l 1
 286 526 l 1
 214 526 l 1
 167 511 l 1
 140 493 l 1
 125 463 l 1
 125 441 l 2
 125 430 116 421 105 421 c 2
 82 421 l 1
 79 421 l 2
 75 421 68 424 65 427 c 2
 64 428 l 2
 61 431 59 437 59 441 c 2
 59 444 l 1
 59 467 l 2
 59 470 60 474 61 476 c 2
 88 529 l 2
 89 531 90 533 91 534 c 2
 118 560 l 2
 120 562 123 564 125 565 c 2
 204 591 l 2
 206 592 209 592 211 592 c 2
EndSplineSet
EndChar

StartChar: at
Encoding: 64 64 33
Width: 736
Flags: MW
HStem: 0 40<315 392 319 392 319 395> 132 39<288.5 364 290 364 298 364 298 368 508 544> 421 40<324 324 324 390> 553 39<319 392 319 319>
VStem: 59 40<260 332 260 336 260 337> 191 66<235 306 235 309 235 310> 454 66<438 443> 612 39<286 332 332 332>
LayerCount: 2
Fore
SplineSet
324 421 m 1
 280 378 l 1
 257 306 l 1
 257 235 l 1
 279 189 l 1
 298 171 l 1
 364 171 l 1
 406 192 l 1
 428 236 l 1
 445 374 l 1
 433 400 l 1
 390 421 l 1
 324 421 l 1
316 592 m 2
 395 592 l 2
 397 592 399 592 401 591 c 2
 480 565 l 2
 481 565 482 564 483 564 c 2
 535 538 l 2
 537 537 539 535 540 534 c 2
 593 481 l 2
 594 480 596 478 597 476 c 2
 623 423 l 2
 623 422 624 422 624 421 c 2
 650 342 l 2
 651 340 651 338 651 336 c 2
 651 283 l 2
 651 281 651 279 650 277 c 2
 624 198 l 2
 623 196 621 192 619 190 c 2
 567 137 l 2
 564 134 557 132 553 132 c 2
 503 132 l 1
 500 132 l 2
 497 132 493 133 490 135 c 2
 439 160 l 2
 438 161 435 162 434 163 c 1
 433 162 431 161 430 160 c 2
 377 134 l 2
 375 133 371 132 368 132 c 2
 292 132 l 1
 290 132 l 2
 287 132 282 133 279 135 c 2
 228 160 l 2
 225 162 221 166 219 169 c 2
 193 222 l 2
 192 224 191 227 191 230 c 2
 191 309 l 2
 191 311 191 314 192 316 c 2
 218 395 l 2
 219 397 221 400 223 402 c 2
 249 429 l 2
 250 430 252 431 254 432 c 2
 306 458 l 2
 309 460 313 461 316 461 c 2
 319 461 l 1
 395 461 l 2
 398 461 402 460 404 459 c 2
 453 434 l 1
 454 443 l 2
 455 453 464 461 474 461 c 0
 478 461 484 459 487 456 c 1
 490 459 496 461 500 461 c 0
 511 461 520 452 520 441 c 2
 520 438 l 1
 493 229 l 1
 493 186 l 1
 508 171 l 1
 544 171 l 1
 588 215 l 1
 612 286 l 1
 612 332 l 1
 587 407 l 1
 563 456 l 1
 515 504 l 1
 466 528 l 1
 392 553 l 1
 319 553 l 1
 244 528 l 1
 196 504 l 1
 148 456 l 1
 124 407 l 1
 99 332 l 1
 99 260 l 1
 124 185 l 1
 148 137 l 1
 196 89 l 1
 244 65 l 1
 319 40 l 1
 392 40 l 1
 466 65 l 1
 515 89 l 1
 539 113 l 2
 542 116 548 119 553 119 c 0
 564 119 572 110 572 99 c 0
 572 94 570 88 567 85 c 2
 540 59 l 2
 539 58 537 56 535 55 c 2
 483 29 l 2
 482 29 481 28 480 28 c 2
 401 1 l 2
 399 0 397 0 395 0 c 2
 316 0 l 2
 314 0 312 0 310 1 c 2
 231 28 l 2
 230 28 229 29 228 29 c 2
 175 55 l 2
 173 56 171 58 170 59 c 2
 118 111 l 2
 117 112 115 114 114 116 c 2
 88 169 l 2
 88 170 87 171 87 172 c 2
 60 251 l 2
 59 253 59 255 59 257 c 2
 59 336 l 2
 59 338 59 340 60 342 c 2
 87 421 l 2
 87 422 88 422 88 423 c 2
 114 476 l 2
 115 478 117 480 118 481 c 2
 170 534 l 2
 171 535 173 537 175 538 c 2
 228 564 l 2
 229 564 230 565 231 565 c 2
 310 591 l 2
 312 592 314 592 316 592 c 2
EndSplineSet
EndChar

StartChar: A
Encoding: 65 65 34
Width: 526
Flags: MW
HStem: 0 21G<51 53 53 56 56 79 443.5 447 447 471 471 474> 132 66<169 357 169 383 144 357> 573 20G<262 263 263 263.5>
LayerCount: 2
Fore
SplineSet
263 439 m 1
 169 198 l 1
 357 198 l 1
 263 439 l 1
263 517 m 1
 262 514 l 1
 263 514 l 1
 264 514 l 1
 263 517 l 1
262 593 m 1
 263 593 l 2
 264 593 266 592 267 592 c 2
 269 592 l 2
 275 590 282 583 283 577 c 2
 491 30 l 2
 492 27 494 23 494 20 c 0
 494 18 493 14 492 12 c 0
 492 11 491 10 490 9 c 2
 489 7 l 2
 486 3 479 0 474 0 c 2
 471 0 l 1
 447 0 l 2
 440 0 432 6 429 13 c 2
 383 132 l 1
 144 132 l 1
 97 13 l 2
 94 6 86 0 79 0 c 2
 56 0 l 1
 53 0 l 2
 49 0 42 3 39 6 c 2
 37 7 l 1
 36 8 l 1
 36 10 l 1
 35 10 l 2
 33 13 33 17 33 20 c 0
 33 23 34 28 35 30 c 2
 244 577 l 2
 245 583 250 589 256 591 c 0
 257 591 257 592 258 592 c 2
 260 592 l 1
 262 592 l 1
 262 593 l 1
EndSplineSet
EndChar

StartChar: B
Encoding: 66 66 35
Width: 526
Flags: MW
HStem: 0 66<103 313 105 313 151 313 151 316> 263 66<151 313 151 313> 526 66<151 151 151 313>
VStem: 86 65<66 263 329 526> 401 66<130 199 199 199 393 463 463 463>
CounterMasks: 1 e0
LayerCount: 2
Fore
SplineSet
151 263 m 1
 151 66 l 1
 313 66 l 1
 381 89 l 1
 401 130 l 1
 401 199 l 1
 381 241 l 1
 313 263 l 1
 151 263 l 1
151 526 m 1
 151 329 l 1
 313 329 l 1
 381 352 l 1
 401 393 l 1
 401 463 l 1
 381 504 l 1
 313 526 l 1
 151 526 l 1
105 593 m 0
 106 593 108 592 109 592 c 2
 316 592 l 2
 318 592 320 592 322 591 c 2
 401 565 l 2
 403 564 407 562 409 560 c 2
 435 534 l 2
 436 533 438 531 439 529 c 2
 465 476 l 2
 466 474 467 470 467 467 c 2
 467 388 l 2
 467 385 466 381 465 379 c 2
 439 327 l 2
 438 325 436 323 435 322 c 2
 410 296 l 1
 435 271 l 2
 436 270 438 268 439 266 c 2
 465 213 l 2
 466 211 467 207 467 204 c 2
 467 125 l 2
 467 122 466 118 465 116 c 2
 439 64 l 2
 438 62 436 60 435 59 c 2
 409 32 l 2
 407 30 403 29 401 28 c 2
 322 1 l 2
 320 0 318 0 316 0 c 2
 109 0 l 1
 105 0 l 2
 101 0 95 2 92 5 c 2
 91 6 l 1
 90 7 l 2
 87 10 85 16 85 20 c 0
 85 21 86 22 86 23 c 2
 86 569 l 2
 86 570 85 572 85 573 c 0
 85 577 88 583 91 586 c 2
 91 587 l 1
 92 588 l 2
 95 591 101 593 105 593 c 0
EndSplineSet
EndChar

StartChar: C
Encoding: 67 67 36
Width: 578
Flags: MW
HStem: 0 66<235.5 337 242 337 242 342> 526 66<242 337 242 242>
VStem: 59 66<234 359 234 362 234 363>
LayerCount: 2
Fore
SplineSet
237 592 m 2
 342 592 l 2
 345 592 349 591 351 590 c 2
 404 564 l 2
 406 563 408 561 409 560 c 2
 461 508 l 2
 462 507 464 504 465 502 c 2
 490 453 l 2
 492 450 494 445 494 441 c 0
 494 439 493 435 492 433 c 2
 491 432 l 1
 491 431 l 1
 490 430 l 1
 489 428 l 2
 486 424 479 421 474 421 c 2
 471 421 l 1
 447 421 l 2
 440 421 433 426 430 432 c 2
 405 482 l 1
 383 504 l 1
 337 526 l 1
 242 526 l 1
 198 505 l 1
 149 432 l 1
 125 359 l 1
 125 234 l 1
 149 160 l 1
 198 88 l 1
 242 66 l 1
 337 66 l 1
 383 89 l 1
 405 111 l 1
 430 160 l 2
 433 166 440 171 447 171 c 2
 471 171 l 1
 474 171 l 2
 480 171 487 168 490 163 c 2
 491 162 l 1
 492 160 l 2
 493 158 494 153 494 151 c 0
 494 147 492 143 490 140 c 2
 465 90 l 2
 464 88 462 86 461 85 c 2
 409 32 l 2
 408 31 406 30 404 29 c 2
 351 2 l 2
 349 1 345 0 342 0 c 2
 237 0 l 2
 234 0 230 1 228 2 c 2
 175 29 l 2
 173 30 171 31 170 32 c 2
 118 85 l 2
 117 86 115 88 114 90 c 2
 88 143 l 2
 88 144 87 144 87 145 c 2
 60 224 l 2
 59 226 59 228 59 230 c 2
 59 362 l 2
 59 364 59 366 60 368 c 2
 87 447 l 2
 87 448 88 449 88 450 c 2
 114 502 l 2
 115 504 117 507 118 508 c 2
 170 560 l 2
 171 561 173 563 175 564 c 2
 228 590 l 2
 230 591 234 592 237 592 c 2
EndSplineSet
EndChar

StartChar: D
Encoding: 68 68 37
Width: 578
Flags: MW
HStem: 0 66<103 286 105 286 151 286 151 289> 526 66<151 151 151 286>
VStem: 86 65<66 526 66 569 66 569.5> 428 65<234 359 359 359>
LayerCount: 2
Fore
SplineSet
151 526 m 1
 151 66 l 1
 286 66 l 1
 358 90 l 1
 378 111 l 1
 403 159 l 1
 428 234 l 1
 428 359 l 1
 403 433 l 1
 378 482 l 1
 358 503 l 1
 286 526 l 1
 151 526 l 1
105 593 m 0
 106 593 108 592 109 592 c 2
 289 592 l 2
 291 592 294 592 296 591 c 2
 375 565 l 2
 377 564 380 562 382 560 c 2
 435 508 l 2
 436 507 438 504 439 502 c 2
 465 450 l 2
 465 449 466 448 466 447 c 2
 492 368 l 2
 493 366 493 364 493 362 c 2
 493 230 l 2
 493 228 493 226 492 224 c 2
 466 145 l 2
 466 144 465 144 465 143 c 2
 439 90 l 2
 438 88 436 86 435 85 c 2
 382 32 l 2
 380 30 377 29 375 28 c 2
 296 1 l 2
 294 0 291 0 289 0 c 2
 109 0 l 1
 105 0 l 2
 101 0 95 2 92 5 c 2
 91 6 l 1
 90 7 l 2
 87 10 85 16 85 20 c 0
 85 21 86 22 86 23 c 2
 86 569 l 2
 86 570 85 572 85 573 c 0
 85 577 88 583 91 586 c 2
 91 587 l 1
 92 588 l 2
 95 591 101 593 105 593 c 0
EndSplineSet
EndChar

StartChar: E
Encoding: 69 69 38
Width: 526
Flags: MW
HStem: 0 66<103 421 105 421 151 418 418 421> 263 66<151 286 151 289 286 289> 526 66<151 418 418 418.5 109 421 151 151>
VStem: 86 65<66 263 329 526>
CounterMasks: 1 e0
LayerCount: 2
Fore
SplineSet
105 593 m 0
 106 593 108 592 109 592 c 2
 418 592 l 2
 419 592 420 593 421 593 c 0
 425 593 432 590 435 587 c 2
 436 585 l 2
 439 582 441 577 441 573 c 2
 441 569 l 1
 441 546 l 2
 441 535 432 526 421 526 c 2
 151 526 l 1
 151 329 l 1
 289 329 l 2
 300 329 309 320 309 309 c 2
 309 286 l 1
 309 283 l 2
 309 279 307 272 304 269 c 2
 302 268 l 2
 299 265 293 263 289 263 c 2
 286 263 l 1
 151 263 l 1
 151 66 l 1
 421 66 l 2
 432 66 441 57 441 46 c 2
 441 23 l 1
 441 20 l 2
 441 16 438 9 435 6 c 2
 434 5 l 2
 431 2 425 0 421 0 c 2
 418 0 l 1
 109 0 l 1
 105 0 l 2
 101 0 95 2 92 5 c 2
 91 6 l 1
 90 7 l 2
 87 10 85 16 85 20 c 0
 85 21 86 22 86 23 c 2
 86 569 l 2
 86 570 85 572 85 573 c 0
 85 577 88 583 91 586 c 2
 91 587 l 1
 92 588 l 2
 95 591 101 593 105 593 c 0
EndSplineSet
EndChar

StartChar: F
Encoding: 70 70 39
Width: 473
Flags: MW
HStem: 0 21G<103 105 105 109 109 132> 263 66<151 286 151 289 286 289> 526 66<151 418 418 418.5 109 421 151 151>
VStem: 85 66<18 20 20 20.5>
LayerCount: 2
Fore
SplineSet
105 593 m 0
 106 593 108 592 109 592 c 2
 418 592 l 2
 419 592 420 593 421 593 c 0
 425 593 432 590 435 587 c 2
 436 585 l 2
 439 582 441 577 441 573 c 2
 441 569 l 1
 441 546 l 2
 441 535 432 526 421 526 c 2
 151 526 l 1
 151 329 l 1
 289 329 l 2
 300 329 309 320 309 309 c 2
 309 286 l 1
 309 283 l 2
 309 279 307 272 304 269 c 2
 302 268 l 2
 299 265 293 263 289 263 c 2
 286 263 l 1
 151 263 l 1
 151 20 l 2
 151 9 143 0 132 0 c 2
 109 0 l 1
 105 0 l 2
 101 0 95 2 92 5 c 2
 91 6 l 1
 90 7 l 2
 87 10 85 16 85 20 c 0
 85 21 86 22 86 23 c 2
 86 569 l 2
 86 570 85 572 85 573 c 0
 85 577 88 583 91 586 c 2
 91 587 l 1
 92 588 l 2
 95 591 101 593 105 593 c 0
EndSplineSet
EndChar

StartChar: G
Encoding: 71 71 40
Width: 578
Flags: MW
HStem: 0 66<235.5 337 242 337 242 342> 211 65<336.5 474 345 428> 526 66<242 337 242 242>
VStem: 59 66<234 359 234 362 234 363> 322 171<230 253 253 257 149.5 259> 428 65<156 211 211 211>
LayerCount: 2
Fore
SplineSet
237 592 m 2xf4
 342 592 l 2
 345 592 349 591 351 590 c 2
 404 564 l 2
 406 563 408 561 409 560 c 2
 461 508 l 2
 462 507 464 504 465 502 c 2
 490 453 l 2
 492 450 494 445 494 441 c 0
 494 439 493 435 492 433 c 2
 491 432 l 1
 491 431 l 1
 490 430 l 1
 489 428 l 2
 486 424 479 421 474 421 c 2
 471 421 l 1
 447 421 l 2
 440 421 433 426 430 432 c 2
 405 482 l 1
 383 504 l 1
 337 526 l 1
 242 526 l 1
 196 504 l 1
 174 482 l 1
 150 433 l 1
 125 359 l 1
 125 234 l 1
 150 159 l 1
 174 111 l 1
 196 89 l 1
 242 66 l 1
 337 66 l 1
 383 89 l 1
 405 111 l 1
 428 156 l 1
 428 211 l 1xf4
 342 211 l 2
 331 211 322 219 322 230 c 2
 322 253 l 1
 322 257 l 2
 322 261 325 267 328 270 c 2
 328 271 l 1
 329 272 l 2
 332 275 338 277 342 277 c 0
 343 277 344 276 345 276 c 2
 474 276 l 2
 485 276 493 268 493 257 c 2xf8
 493 151 l 2
 493 148 492 145 491 143 c 2
 465 90 l 2
 464 88 462 86 461 85 c 2
 409 32 l 2
 408 31 406 30 404 29 c 2
 351 2 l 2
 349 1 345 0 342 0 c 2
 237 0 l 2
 234 0 230 1 228 2 c 2
 175 29 l 2
 173 30 171 31 170 32 c 2
 118 85 l 2
 117 86 115 88 114 90 c 2
 88 143 l 2
 88 144 87 144 87 145 c 2
 60 224 l 2
 59 226 59 228 59 230 c 2
 59 362 l 2
 59 364 59 366 60 368 c 2
 87 447 l 2
 87 448 88 449 88 450 c 2
 114 502 l 2
 115 504 117 507 118 508 c 2
 170 560 l 2
 171 561 173 563 175 564 c 2
 228 590 l 2
 230 591 234 592 237 592 c 2xf4
EndSplineSet
EndChar

StartChar: H
Encoding: 72 72 41
Width: 578
Flags: MW
HStem: 0 21G<103 105 105 109 109 132 441.5 447 447 470 470 474> 263 66<151 428 151 428> 573 20G
VStem: 86 65<23 263 329 569 569 569.5> 428 65<22.5 23 23 263 263 263 329 569>
LayerCount: 2
Fore
SplineSet
105 593 m 0
 106 593 108 592 109 592 c 2
 132 592 l 2
 143 592 151 584 151 573 c 2
 151 329 l 1
 428 329 l 1
 428 573 l 2
 428 584 436 592 447 592 c 2
 470 592 l 2
 471 592 473 593 474 593 c 0
 478 593 484 590 487 587 c 2
 488 587 l 1
 489 585 l 2
 492 582 494 577 494 573 c 0
 494 572 493 570 493 569 c 2
 493 23 l 2
 493 22 494 21 494 20 c 0
 494 16 491 9 488 6 c 2
 487 5 l 1
 486 5 l 2
 483 2 478 0 474 0 c 2
 470 0 l 1
 447 0 l 2
 436 0 428 9 428 20 c 2
 428 263 l 1
 151 263 l 1
 151 20 l 2
 151 9 143 0 132 0 c 2
 109 0 l 1
 105 0 l 2
 101 0 95 2 92 5 c 2
 91 6 l 1
 90 7 l 2
 87 10 85 16 85 20 c 0
 85 21 86 22 86 23 c 2
 86 569 l 2
 86 570 85 572 85 573 c 0
 85 577 88 583 91 586 c 2
 91 587 l 1
 92 588 l 2
 95 591 101 593 105 593 c 0
EndSplineSet
EndChar

StartChar: I
Encoding: 73 73 42
Width: 263
Flags: MW
HStem: 0 21G<99.5 105 105 128 128 132> 573 20G
VStem: 86 65<22.5 23 23 569 569 569.5>
LayerCount: 2
Fore
SplineSet
105 593 m 0
 106 593 108 592 109 592 c 2
 132 592 l 2
 143 592 151 584 151 573 c 2
 151 23 l 2
 151 22 152 21 152 20 c 0
 152 16 149 9 146 6 c 2
 145 5 l 1
 144 5 l 2
 141 2 136 0 132 0 c 2
 128 0 l 1
 105 0 l 2
 94 0 86 9 86 20 c 2
 86 569 l 2
 86 570 85 572 85 573 c 0
 85 577 88 583 91 586 c 2
 91 587 l 1
 92 588 l 2
 95 591 101 593 105 593 c 0
EndSplineSet
EndChar

StartChar: J
Encoding: 74 74 43
Width: 473
Flags: MW
HStem: 0 66<189 232> 573 20G<296 316>
VStem: 296 66<155 569 569 573>
LayerCount: 2
Fore
SplineSet
315 593 m 2
 316 593 l 2
 317 593 318 592 319 592 c 2
 342 592 l 2
 353 592 362 584 362 573 c 2
 362 151 l 2
 362 149 362 147 361 145 c 2
 334 66 l 2
 333 64 332 61 330 59 c 2
 303 32 l 2
 302 31 300 30 298 29 c 2
 246 2 l 2
 244 1 240 0 237 0 c 2
 184 0 l 2
 181 0 177 1 175 2 c 2
 123 29 l 2
 121 30 119 31 118 32 c 2
 91 59 l 2
 89 61 88 64 87 66 c 2
 61 142 l 2
 60 144 59 148 59 151 c 0
 59 154 60 158 61 160 c 2
 62 162 l 1
 63 163 l 1
 63 164 l 1
 64 164 l 1
 67 168 74 171 79 171 c 2
 82 171 l 1
 105 171 l 2
 113 171 122 165 124 158 c 2
 148 87 l 1
 189 66 l 1
 232 66 l 1
 273 87 l 1
 296 155 l 1
 296 569 l 1
 296 573 l 2
 296 577 298 583 301 586 c 2
 302 586 l 1
 302 587 l 1
 303 588 l 2
 306 591 311 593 315 593 c 2
EndSplineSet
EndChar

StartChar: K
Encoding: 75 75 44
Width: 578
Flags: MW
HStem: 0 21G<99.5 105 105 128 128 132 444.5 447 447 471 471 474> 573 21G<151 151>
VStem: 86 65<22.5 23 23 222 304 569 569 569.5>
LayerCount: 2
Fore
SplineSet
105 593 m 0
 106 593 108 592 109 592 c 2
 132 592 l 2
 143 592 151 584 151 573 c 2
 151 304 l 1
 194 347 l 1
 194 348 l 2
 195 349 198 351 199 352 c 2
 433 587 l 2
 436 590 443 592 447 592 c 2
 471 592 l 1
 474 592 l 2
 480 592 488 588 491 582 c 2
 492 580 l 1
 492 580 493 580 493 579 c 0
 494 577 494 575 494 573 c 0
 494 568 490 560 486 557 c 2
 263 334 l 1
 488 34 l 2
 491 31 494 25 494 20 c 0
 494 19 493 17 493 16 c 2
 493 14 l 1
 492 12 l 1
 491 11 l 1
 490 9 l 1
 489 7 l 2
 486 3 479 0 474 0 c 2
 471 0 l 1
 447 0 l 2
 442 0 435 4 432 8 c 2
 220 291 l 1
 151 222 l 1
 151 23 l 2
 151 22 152 21 152 20 c 0
 152 16 149 9 146 6 c 2
 145 5 l 1
 144 5 l 2
 141 2 136 0 132 0 c 2
 128 0 l 1
 105 0 l 2
 94 0 86 9 86 20 c 2
 86 569 l 2
 86 570 85 572 85 573 c 0
 85 577 88 583 91 586 c 2
 91 587 l 1
 92 588 l 2
 95 591 101 593 105 593 c 0
EndSplineSet
EndChar

StartChar: L
Encoding: 76 76 45
Width: 447
Flags: MW
HStem: 0 66<77 395 79 395 125 391 391 395> 573 20G<59 79.5>
VStem: 59 66<20 573 66 569 569 573 66 575>
LayerCount: 2
Fore
SplineSet
79 593 m 0
 80 593 81 592 82 592 c 2
 105 592 l 2
 116 592 125 584 125 573 c 2
 125 66 l 1
 395 66 l 2
 406 66 414 57 414 46 c 2
 414 23 l 2
 414 22 415 21 415 20 c 0
 415 16 412 9 409 6 c 2
 408 5 l 2
 405 2 399 0 395 0 c 2
 391 0 l 1
 82 0 l 1
 79 0 l 2
 75 0 68 2 65 5 c 2
 65 6 l 1
 64 7 l 2
 61 10 59 16 59 20 c 2
 59 23 l 1
 59 569 l 1
 59 573 l 2
 59 577 62 583 65 586 c 2
 65 587 l 1
 66 588 l 2
 69 591 75 593 79 593 c 0
EndSplineSet
EndChar

StartChar: M
Encoding: 77 77 46
Width: 631
Flags: MW
HStem: 0 21G<103 105 105 109 109 132 314 315 314 314 315 316 316 318 318 320 494.5 500 500 523 523 526> 573 20G<85 105>
VStem: 85 66<18 20 20 20.5> 86 39<460 479 460 571> 480 66<20 23 23 347 347 347> 507 39<460 479 479 479>
LayerCount: 2
Fore
SplineSet
311 79 m 1xc0
 316 69 l 1
 320 79 l 1
 318 79 l 1
 316 79 l 1
 315 79 l 1
 313 79 l 1
 312 79 l 1
 311 79 l 1xc0
507 479 m 1xc4
 498 461 l 1
 500 461 l 1
 502 461 l 1
 504 461 l 1
 506 460 l 1
 507 460 l 1
 507 479 l 1xc4
125 479 m 1xd0
 125 460 l 1
 127 460 l 1
 129 461 l 1
 130 461 l 1
 131 461 l 1
 133 461 l 1
 125 479 l 1xd0
104 593 m 2
 105 593 l 1
 106 592 l 1
 108 592 l 2
 110 592 113 591 114 590 c 0
 118 588 123 583 124 579 c 2
 316 147 l 1
 508 579 l 2
 510 585 517 591 523 592 c 2
 525 592 l 1
 526 593 l 1
 527 593 l 1
 528 592 l 1
 530 592 l 1
 532 592 l 1
 534 591 l 2
 535 591 536 590 536 590 c 1
 537 589 l 2
 542 586 546 579 546 573 c 2
 546 571 l 1xe4
 546 23 l 1
 546 20 l 2
 546 16 544 9 541 6 c 2
 539 5 l 2
 536 2 530 0 526 0 c 2
 523 0 l 1
 500 0 l 2
 489 0 480 9 480 20 c 2
 480 347 l 1
 335 14 l 2
 333 8 327 1 320 0 c 2
 318 0 l 1
 316 0 l 1
 315 0 l 1
 314 0 l 2
 306 1 299 7 297 14 c 2
 151 347 l 1
 151 20 l 2
 151 9 143 0 132 0 c 2
 109 0 l 1
 105 0 l 2
 101 0 95 2 92 5 c 2
 91 6 l 1
 90 7 l 2
 87 10 85 16 85 20 c 0xe8
 85 21 86 22 86 23 c 2
 86 571 l 1xd0
 85 573 l 2xe0
 85 577 88 583 91 586 c 2
 92 588 l 1
 94 589 l 1
 96 590 l 1
 97 591 l 1
 99 591 l 1
 99 592 l 1
 100 592 l 1
 101 592 l 1
 102 592 l 1
 103 592 l 2
 104 592 103 593 104 593 c 2
EndSplineSet
EndChar

StartChar: N
Encoding: 78 78 47
Width: 578
Flags: MW
HStem: 0 21G<103 105 105 109 109 132 470 473 473 474 474 475 475 477> 573 20G
VStem: 85 66<18 20 20 20.5> 428 65<160 569 569 569.5>
LayerCount: 2
Fore
SplineSet
105 593 m 1
 106 592 l 1
 112 592 120 587 123 582 c 2
 428 160 l 1
 428 569 l 2
 428 570 427 572 427 573 c 0
 427 577 430 583 433 586 c 2
 433 587 l 1
 435 588 l 2
 438 591 443 593 447 593 c 0
 448 593 450 592 451 592 c 2
 474 592 l 2
 485 592 493 584 493 573 c 2
 493 22 l 2
 493 21 494 21 494 20 c 0
 494 14 490 6 485 3 c 2
 483 2 l 1
 482 2 l 1
 480 1 l 1
 479 1 l 2
 478 1 478 0 477 0 c 2
 475 0 l 1
 474 0 l 1
 473 0 l 2
 467 0 459 5 456 10 c 2
 151 433 l 1
 151 20 l 2
 151 9 143 0 132 0 c 2
 109 0 l 1
 105 0 l 2
 101 0 95 2 92 5 c 2
 91 6 l 1
 90 7 l 2
 87 10 85 16 85 20 c 0
 85 21 86 22 86 23 c 2
 86 570 l 2
 86 571 85 572 85 573 c 0
 85 579 89 586 94 589 c 2
 96 590 l 1
 97 591 l 1
 99 591 l 2
 100 591 99 592 100 592 c 2
 102 592 l 1
 104 592 l 1
 105 593 l 1
EndSplineSet
EndChar

StartChar: O
Encoding: 79 79 48
Width: 578
Flags: MW
HStem: 0 66<235.5 313 266 313 266 342> 526 66<266 266 266 313>
VStem: 59 66<234 359 234 362 234 363> 454 66<234 359 359 359>
LayerCount: 2
Fore
SplineSet
266 526 m 1
 197 503 l 1
 149 432 l 1
 125 359 l 1
 125 234 l 1
 149 160 l 1
 197 89 l 1
 266 66 l 1
 313 66 l 1
 382 89 l 1
 429 160 l 1
 454 234 l 1
 454 359 l 1
 429 432 l 1
 382 503 l 1
 313 526 l 1
 266 526 l 1
237 592 m 1
 239 592 l 1
 342 592 l 2
 345 592 349 591 351 590 c 2
 404 564 l 2
 406 563 408 561 409 560 c 2
 461 508 l 2
 462 507 464 504 465 502 c 2
 491 450 l 2
 491 449 492 448 492 447 c 2
 519 368 l 2
 520 366 520 364 520 362 c 2
 520 230 l 2
 520 228 520 226 519 224 c 2
 492 145 l 2
 492 144 491 144 491 143 c 2
 465 90 l 2
 464 88 462 86 461 85 c 2
 409 32 l 2
 408 31 406 30 404 29 c 2
 351 2 l 2
 349 1 345 0 342 0 c 2
 237 0 l 2
 234 0 230 1 228 2 c 2
 175 29 l 2
 173 30 171 31 170 32 c 2
 118 85 l 2
 117 86 115 88 114 90 c 2
 88 143 l 2
 88 144 87 144 87 145 c 2
 60 224 l 2
 59 226 59 228 59 230 c 2
 59 362 l 2
 59 364 59 366 60 368 c 2
 87 447 l 2
 87 448 88 449 88 450 c 2
 114 502 l 2
 115 504 117 507 118 508 c 2
 170 560 l 2
 171 561 173 563 175 564 c 2
 226 589 l 2
 227 590 229 591 231 591 c 2
 232 592 l 1
 233 592 l 1
 237 592 l 1
EndSplineSet
EndChar

StartChar: P
Encoding: 80 80 49
Width: 526
Flags: MW
HStem: 0 21G<103 105 105 109 109 132> 263 66<151 337 151 342 151 337> 526 66<151 151 151 337>
VStem: 85 66<18 20 20 20.5> 401 66<393 463 463 463>
LayerCount: 2
Fore
SplineSet
151 526 m 1
 151 329 l 1
 337 329 l 1
 380 350 l 1
 401 393 l 1
 401 463 l 1
 380 505 l 1
 337 526 l 1
 151 526 l 1
105 593 m 0
 106 593 108 592 109 592 c 2
 342 592 l 2
 345 592 349 591 351 590 c 2
 404 564 l 2
 406 563 408 561 409 560 c 2
 435 534 l 2
 436 533 438 531 439 529 c 2
 465 476 l 2
 466 474 467 470 467 467 c 2
 467 388 l 2
 467 385 466 381 465 379 c 2
 439 327 l 2
 438 325 436 323 435 322 c 2
 409 295 l 2
 408 294 406 293 404 292 c 2
 351 265 l 2
 349 264 345 263 342 263 c 2
 151 263 l 1
 151 20 l 2
 151 9 143 0 132 0 c 2
 109 0 l 1
 105 0 l 2
 101 0 95 2 92 5 c 2
 91 6 l 1
 90 7 l 2
 87 10 85 16 85 20 c 0
 85 21 86 22 86 23 c 2
 86 569 l 2
 86 570 85 572 85 573 c 0
 85 577 88 583 91 586 c 2
 91 587 l 1
 92 588 l 2
 95 591 101 593 105 593 c 0
EndSplineSet
EndChar

StartChar: Q
Encoding: 81 81 50
Width: 578
Flags: MW
HStem: 0 66<235.5 313 266 313 266 342> 0 119<235.5 318 316 318 318 342> 526 66<266 266 266 313>
VStem: 59 66<234 359 234 362 234 363> 454 66<234 359 359 359>
LayerCount: 2
Fore
SplineSet
266 526 m 1x78
 197 503 l 1
 149 432 l 1
 125 359 l 1
 125 234 l 1
 149 160 l 1
 197 89 l 1
 266 66 l 1
 313 66 l 1xb8
 319 68 l 1
 303 83 l 2
 299 86 296 94 296 99 c 0
 296 101 297 103 297 104 c 2
 297 105 l 1
 297 106 l 1
 298 108 l 1
 299 110 l 2
 302 115 310 119 316 119 c 2
 318 119 l 1
 342 119 l 2
 346 119 353 116 356 113 c 2
 380 89 l 1
 382 89 l 1
 429 160 l 1
 454 234 l 1
 454 359 l 1
 429 432 l 1
 382 503 l 1
 313 526 l 1
 266 526 l 1x78
237 592 m 1
 239 592 l 1
 342 592 l 2
 345 592 349 591 351 590 c 2
 404 564 l 2
 406 563 408 561 409 560 c 2
 461 508 l 2
 462 507 464 504 465 502 c 2
 491 450 l 2
 491 449 492 448 492 447 c 2
 519 368 l 2
 520 366 520 364 520 362 c 2
 520 230 l 2
 520 228 520 226 519 224 c 2
 492 145 l 2
 492 144 491 144 491 143 c 2
 465 90 l 2
 464 88 462 86 461 85 c 2
 423 46 l 1
 486 -17 l 2
 490 -20 494 -28 494 -33 c 0
 494 -35 493 -37 493 -38 c 0
 493 -39 492 -40 492 -40 c 1
 491 -42 l 1
 490 -44 l 2
 487 -49 480 -53 474 -53 c 0
 473 -53 472 -52 471 -52 c 2
 447 -52 l 2
 443 -52 436 -50 433 -47 c 2
 373 13 l 1
 351 2 l 2
 349 1 345 0 342 0 c 2x78
 237 0 l 2
 234 0 230 1 228 2 c 2
 175 29 l 2
 173 30 171 31 170 32 c 2
 118 85 l 2
 117 86 115 88 114 90 c 2
 88 143 l 2
 88 144 87 144 87 145 c 2
 60 224 l 2
 59 226 59 228 59 230 c 2
 59 362 l 2
 59 364 59 366 60 368 c 2
 87 447 l 2
 87 448 88 449 88 450 c 2
 114 502 l 2
 115 504 117 507 118 508 c 2
 170 560 l 2
 171 561 173 563 175 564 c 2
 226 589 l 2
 227 590 229 591 231 591 c 2
 232 592 l 1
 233 592 l 1
 237 592 l 1
EndSplineSet
EndChar

StartChar: R
Encoding: 82 82 51
Width: 526
Flags: MW
HStem: 0 21G<103 105 105 109 109 132 418 421 421 444 444 447> 263 66<151 252 151 313> 526 66<151 151 151 313>
VStem: 85 66<18 20 20 20.5> 401 66<393 463 463 463>
LayerCount: 2
Fore
SplineSet
151 526 m 1
 151 329 l 1
 313 329 l 1
 381 352 l 1
 401 393 l 1
 401 463 l 1
 381 504 l 1
 313 526 l 1
 151 526 l 1
105 593 m 0
 106 593 108 592 109 592 c 2
 316 592 l 2
 318 592 320 592 322 591 c 2
 401 565 l 2
 403 564 407 562 409 560 c 2
 435 534 l 2
 436 533 438 531 439 529 c 2
 465 476 l 2
 466 474 467 470 467 467 c 2
 467 388 l 2
 467 385 466 381 465 379 c 2
 439 327 l 2
 438 325 436 323 435 322 c 2
 409 295 l 2
 407 293 403 292 401 291 c 2
 323 265 l 1
 463 32 l 2
 465 29 467 24 467 20 c 0
 467 18 467 16 466 14 c 2
 466 12 l 1
 465 11 l 1
 465 10 l 1
 464 9 l 1
 464 8 l 1
 463 7 l 2
 460 3 452 0 447 0 c 2
 444 0 l 1
 421 0 l 2
 415 0 407 5 404 10 c 2
 252 263 l 1
 151 263 l 1
 151 20 l 2
 151 9 143 0 132 0 c 2
 109 0 l 1
 105 0 l 2
 101 0 95 2 92 5 c 2
 91 6 l 1
 90 7 l 2
 87 10 85 16 85 20 c 0
 85 21 86 22 86 23 c 2
 86 569 l 2
 86 570 85 572 85 573 c 0
 85 577 88 583 91 586 c 2
 91 587 l 1
 92 588 l 2
 95 591 101 593 105 593 c 0
EndSplineSet
EndChar

StartChar: S
Encoding: 83 83 52
Width: 526
Flags: MW
HStem: 0 66<210 313 215 313 215 316> 526 66<214 311 214 214>
VStem: 59 66<446 485> 401 66<107 173 173 173>
LayerCount: 2
Fore
SplineSet
211 592 m 2
 316 592 l 2
 318 592 320 592 322 591 c 2
 401 565 l 2
 403 564 407 562 409 560 c 2
 460 509 l 2
 464 506 467 499 467 494 c 2
 467 488 l 2
 467 487 466 486 466 486 c 1
 465 484 l 1
 464 483 l 2
 461 478 454 474 448 474 c 2
 445 474 l 1
 395 474 l 2
 391 474 384 477 381 480 c 2
 357 504 l 1
 311 526 l 1
 214 526 l 1
 142 503 l 1
 125 485 l 1
 125 446 l 1
 146 403 l 1
 192 380 l 1
 323 328 l 1
 325 327 l 1
 377 301 l 2
 379 300 381 298 382 297 c 2
 435 244 l 2
 436 243 438 241 439 239 c 2
 465 187 l 2
 466 185 467 181 467 178 c 2
 467 99 l 2
 467 95 464 88 461 85 c 2
 409 32 l 2
 407 30 403 29 401 28 c 2
 322 1 l 2
 320 0 318 0 316 0 c 2
 211 0 l 2
 209 0 206 0 204 1 c 2
 125 28 l 2
 123 29 120 30 118 32 c 2
 67 83 l 2
 63 86 59 94 59 99 c 0
 59 101 60 103 60 104 c 2
 60 105 l 1
 60 106 l 1
 61 108 l 1
 62 110 l 2
 65 115 73 119 79 119 c 2
 81 119 l 1
 132 119 l 2
 136 119 143 116 146 113 c 2
 170 89 l 1
 215 66 l 1
 313 66 l 1
 384 90 l 1
 401 107 l 1
 401 173 l 1
 378 219 l 1
 357 240 l 1
 308 265 l 1
 177 317 l 1
 175 318 l 1
 123 344 l 2
 121 345 119 347 118 348 c 2
 91 374 l 2
 90 375 89 377 88 379 c 2
 61 432 l 2
 60 434 59 438 59 441 c 2
 59 494 l 2
 59 498 62 505 65 508 c 2
 118 560 l 2
 120 562 123 564 125 565 c 2
 204 591 l 2
 206 592 209 592 211 592 c 2
EndSplineSet
EndChar

StartChar: T
Encoding: 84 84 53
Width: 473
Flags: MW
HStem: 0 21G<209 211 211 214 214 237> 526 66<47.5 395 56 191 257 391 257 257 391 395>
VStem: 191 66<20 23 23 526>
LayerCount: 2
Fore
SplineSet
52 593 m 2
 53 593 l 2
 54 593 55 592 56 592 c 2
 395 592 l 2
 406 592 414 584 414 573 c 2
 414 549 l 2
 414 548 415 547 415 546 c 0
 415 542 412 535 409 532 c 2
 408 531 l 2
 405 528 399 526 395 526 c 2
 391 526 l 1
 257 526 l 1
 257 20 l 2
 257 9 248 0 237 0 c 2
 214 0 l 1
 211 0 l 2
 207 0 200 2 197 5 c 2
 197 6 l 1
 196 6 l 1
 195 7 l 2
 192 10 191 16 191 20 c 2
 191 23 l 1
 191 526 l 1
 53 526 l 2
 42 526 33 535 33 546 c 2
 33 569 l 1
 33 573 l 2
 33 577 35 583 38 586 c 2
 38 587 l 1
 40 588 l 2
 43 591 48 593 52 593 c 2
EndSplineSet
EndChar

StartChar: U
Encoding: 85 85 54
Width: 578
Flags: MW
HStem: 0 66<262 313 266 313 266 316> 573 20G
VStem: 86 65<181 569 569 569.5> 428 65<181 569>
LayerCount: 2
Fore
SplineSet
105 593 m 0
 106 593 108 592 109 592 c 2
 132 592 l 2
 143 592 151 584 151 573 c 2
 151 181 l 1
 175 109 l 1
 195 90 l 1
 266 66 l 1
 313 66 l 1
 384 90 l 1
 404 109 l 1
 428 181 l 1
 428 573 l 2
 428 584 436 592 447 592 c 2
 470 592 l 2
 471 592 473 593 474 593 c 0
 478 593 484 590 487 587 c 2
 488 587 l 1
 489 585 l 2
 492 582 494 577 494 573 c 0
 494 572 493 570 493 569 c 2
 493 178 l 2
 493 176 493 174 492 172 c 2
 466 93 l 2
 465 91 463 87 461 85 c 2
 409 32 l 2
 407 30 403 29 401 28 c 2
 322 1 l 2
 320 0 318 0 316 0 c 2
 263 0 l 2
 261 0 259 0 257 1 c 2
 178 28 l 2
 176 29 172 30 170 32 c 2
 118 85 l 2
 116 87 114 91 113 93 c 2
 87 172 l 2
 86 174 86 176 86 178 c 2
 86 569 l 2
 86 570 85 572 85 573 c 0
 85 577 88 583 91 586 c 2
 91 587 l 1
 92 588 l 2
 95 591 101 593 105 593 c 0
EndSplineSet
EndChar

StartChar: V
Encoding: 86 86 55
Width: 526
Flags: MW
HStem: 0 21G<258.5 259 259 263 263 264 264 265 265 266> 573 20G<50.5 53.5 473.5 476>
LayerCount: 2
Fore
SplineSet
264 79 m 1
 263 79 l 1
 262 79 l 1
 263 75 l 1
 264 79 l 1
53 593 m 0
 54 593 55 592 56 592 c 2
 79 592 l 2
 86 592 94 587 97 580 c 2
 263 153 l 1
 429 580 l 2
 432 587 440 592 447 592 c 2
 471 592 l 2
 472 592 473 593 474 593 c 0
 478 593 485 590 488 587 c 2
 489 585 l 1
 490 584 l 1
 491 583 l 2
 493 580 494 576 494 573 c 0
 494 570 492 565 491 563 c 2
 282 15 l 2
 281 9 276 3 270 1 c 2
 268 1 l 1
 268 1 267 0 266 0 c 2
 265 0 l 1
 264 0 l 1
 263 0 l 1
 259 0 l 2
 258 0 258 1 257 1 c 0
 251 3 245 9 244 15 c 2
 35 563 l 2
 34 566 33 569 33 572 c 0
 33 574 33 578 34 580 c 0
 34 581 35 583 36 584 c 2
 37 585 l 2
 40 589 48 593 53 593 c 0
EndSplineSet
EndChar

StartChar: W
Encoding: 87 87 56
Width: 684
Flags: MW
HStem: 0 21G<209 210 209 209 210 211 211 212 212 213 213 215 468.5 469 469 470 470 471 471 472 472 473 473 474 474 475 475 476 476 477 477 478> 573 20G<50.5 53.5 342 342.5 631.5 634.5>
LayerCount: 2
Fore
SplineSet
53 593 m 0
 54 593 55 592 56 592 c 2
 79 592 l 2
 87 592 96 586 98 578 c 2
 211 173 l 1
 323 576 l 2
 324 582 330 589 336 591 c 0
 337 591 336 592 337 592 c 2
 339 592 l 1
 341 592 l 1
 342 593 l 2
 343 593 343 592 344 592 c 2
 346 592 l 2
 347 592 349 591 350 591 c 2
 352 590 l 2
 357 587 361 581 362 576 c 2
 474 173 l 1
 586 578 l 2
 588 586 597 592 605 592 c 2
 628 592 l 2
 629 592 631 593 632 593 c 0
 637 593 644 590 647 586 c 2
 647 585 l 1
 648 584 l 2
 650 581 652 576 652 573 c 0
 652 571 651 566 650 564 c 2
 493 17 l 2
 492 11 486 3 480 1 c 0
 479 1 479 0 478 0 c 2
 477 0 l 1
 476 0 l 1
 475 0 l 1
 474 0 l 1
 473 0 l 1
 472 0 l 1
 471 0 l 1
 470 0 l 1
 469 0 l 2
 468 0 467 2 466 2 c 0
 461 4 455 10 454 16 c 2
 342 420 l 1
 230 17 l 2
 229 11 224 4 219 2 c 2
 219 2 218 1 217 1 c 0
 216 1 216 0 215 0 c 2
 213 0 l 1
 212 0 l 1
 211 0 l 1
 210 0 l 1
 209 0 l 2
 201 1 192 9 191 17 c 2
 35 564 l 2
 34 566 33 571 33 573 c 0
 33 576 34 580 35 582 c 2
 36 584 l 1
 37 585 l 2
 40 589 48 593 53 593 c 0
EndSplineSet
EndChar

StartChar: X
Encoding: 88 88 57
Width: 526
Flags: MW
HStem: 0 21G<76 79 79 82 82 105 418 421 421 445 445 447> 573 21G
LayerCount: 2
Fore
SplineSet
447 593 m 0
 453 593 461 589 464 584 c 2
 465 583 l 1
 465 582 l 1
 465 581 l 2
 466 579 467 575 467 573 c 0
 467 569 466 563 463 560 c 2
 300 296 l 1
 463 33 l 2
 466 30 467 24 467 20 c 0
 467 18 467 16 466 14 c 2
 466 12 l 1
 465 11 l 1
 465 10 l 1
 464 9 l 1
 463 7 l 2
 460 3 452 0 447 0 c 2
 445 0 l 1
 421 0 l 2
 415 0 407 5 404 10 c 2
 263 237 l 1
 122 10 l 2
 119 5 111 0 105 0 c 2
 82 0 l 1
 79 0 l 2
 73 0 66 3 63 8 c 2
 62 9 l 1
 62 10 l 1
 61 11 l 2
 60 13 59 18 59 20 c 0
 59 24 61 30 64 33 c 2
 227 296 l 1
 64 560 l 2
 61 563 59 569 59 573 c 0
 59 575 59 577 60 579 c 0
 60 580 61 580 61 580 c 1
 61 581 l 1
 61 582 l 1
 62 583 l 1
 63 585 l 2
 66 589 72 592 77 592 c 2
 79 592 l 1
 82 592 l 1
 105 592 l 2
 111 592 119 588 122 583 c 2
 263 355 l 1
 404 583 l 2
 407 588 415 592 421 592 c 2
 444 592 l 2
 445 592 446 593 447 593 c 0
EndSplineSet
EndChar

StartChar: Y
Encoding: 89 89 58
Width: 526
Flags: MW
HStem: 0 21G<231.5 237 237 260 260 263> 572 20G<52 53 53 55 55 79 79 82 421 445 445 447 447 449.5>
VStem: 217 66<20 23 23 303>
LayerCount: 2
Fore
SplineSet
52 592 m 2
 53 592 l 1
 55 592 l 1
 79 592 l 2
 85 592 92 589 95 584 c 2
 250 363 l 1
 405 584 l 2
 408 589 415 592 421 592 c 2
 445 592 l 1
 447 592 l 2
 452 592 460 589 463 585 c 2
 464 584 l 1
 464 583 l 1
 465 582 l 1
 465 581 l 2
 466 579 467 576 467 573 c 0
 467 569 465 562 462 559 c 2
 283 303 l 1
 283 23 l 1
 283 20 l 2
 283 16 281 9 278 6 c 2
 277 6 l 1
 276 5 l 2
 273 2 267 0 263 0 c 2
 260 0 l 1
 237 0 l 2
 226 0 217 9 217 20 c 2
 217 303 l 1
 38 559 l 2
 35 562 33 569 33 573 c 2
 33 578 l 1
 34 579 l 1
 34 580 l 1
 35 582 l 1
 36 583 l 1
 37 585 l 2
 40 589 47 592 52 592 c 2
EndSplineSet
EndChar

StartChar: Z
Encoding: 90 90 59
Width: 526
Flags: MW
HStem: 0 66<82 447 102 447 105 447 157 444 444 447> 526 66<73.5 418 82 369>
LayerCount: 2
Fore
SplineSet
79 593 m 0
 80 593 81 592 82 592 c 2
 418 592 l 1
 421 592 l 1
 424 592 l 1
 444 592 l 2
 445 592 446 593 447 593 c 0
 453 593 461 589 464 584 c 2
 465 582 l 1
 465 581 l 2
 466 579 467 575 467 573 c 0
 467 569 466 563 463 560 c 2
 157 66 l 1
 447 66 l 2
 458 66 467 57 467 46 c 2
 467 23 l 1
 467 20 l 2
 467 16 465 9 462 6 c 2
 460 5 l 2
 457 2 451 0 447 0 c 2
 444 0 l 1
 108 0 l 1
 105 0 l 1
 102 0 l 1
 82 0 l 1
 79 0 l 2
 73 0 66 3 63 8 c 2
 62 9 l 1
 62 10 l 1
 61 11 l 2
 60 13 59 18 59 20 c 0
 59 24 61 30 64 33 c 2
 369 526 l 1
 79 526 l 2
 68 526 59 535 59 546 c 2
 59 569 l 1
 59 573 l 2
 59 577 62 583 65 586 c 2
 65 587 l 1
 66 588 l 2
 69 591 75 593 79 593 c 0
EndSplineSet
EndChar

StartChar: bracketleft
Encoding: 91 91 60
Width: 368
Flags: MW
HStem: -184 39<109 289 128 289 132 289 151 289 151 289 289 290> 658 40<151 289 151 151 289 290>
VStem: 86 65<-145 658 -145 675 -145 675.5>
LayerCount: 2
Fore
SplineSet
105 698 m 2
 109 698 l 1
 128 698 l 1
 132 698 l 1
 135 698 l 1
 289 698 l 1
 290 698 l 2
 301 698 309 689 309 678 c 0
 309 667 301 658 290 658 c 2
 289 658 l 1
 151 658 l 1
 151 -145 l 1
 289 -145 l 1
 290 -145 l 2
 301 -145 309 -153 309 -164 c 0
 309 -175 301 -184 290 -184 c 2
 289 -184 l 1
 135 -184 l 1
 132 -184 l 1
 128 -184 l 1
 109 -184 l 1
 105 -184 l 2
 101 -184 95 -182 92 -179 c 2
 91 -179 l 1
 91 -178 l 1
 90 -177 l 2
 87 -174 85 -168 85 -164 c 0
 85 -163 86 -162 86 -161 c 2
 86 675 l 2
 86 676 85 677 85 678 c 0
 85 682 88 689 91 692 c 2
 92 693 l 2
 95 696 101 698 105 698 c 2
EndSplineSet
EndChar

StartChar: backslash
Encoding: 92 92 61
Width: 368
Flags: MW
HStem: 572 20G<-1 0 0 3>
LayerCount: 2
Fore
SplineSet
-1 592 m 2
 0 592 l 2
 6 592 14 588 17 582 c 2
 385 -49 l 2
 387 -52 388 -56 388 -59 c 0
 388 -70 380 -79 369 -79 c 0
 363 -79 354 -74 351 -69 c 2
 -17 563 l 2
 -19 566 -20 570 -20 573 c 0
 -20 583 -11 592 -1 592 c 2
EndSplineSet
EndChar

StartChar: bracketright
Encoding: 93 93 62
Width: 368
Flags: MW
HStem: -184 39<73.5 217 79 217 79 234 79 237 79 240 79 260> 658 40<73.5 234 79 217>
VStem: 217 66<-145 658 658 658>
LayerCount: 2
Fore
SplineSet
237 698 m 1
 240 698 l 1
 260 698 l 1
 263 698 l 2
 267 698 274 695 277 692 c 2
 278 691 l 2
 281 688 283 682 283 678 c 2
 283 675 l 1
 283 -161 l 1
 283 -164 l 2
 283 -168 281 -175 278 -178 c 2
 277 -178 l 1
 276 -179 l 1
 276 -180 l 2
 273 -183 267 -184 263 -184 c 2
 260 -184 l 1
 240 -184 l 1
 237 -184 l 1
 234 -184 l 1
 79 -184 l 2
 68 -184 59 -175 59 -164 c 0
 59 -153 68 -145 79 -145 c 2
 217 -145 l 1
 217 658 l 1
 79 658 l 2
 68 658 59 667 59 678 c 0
 59 689 68 698 79 698 c 2
 234 698 l 1
 237 698 l 1
EndSplineSet
EndChar

StartChar: asciicircum
Encoding: 94 94 63
Width: 578
Flags: MW
HStem: 395 171<127.5 291 128 291 131 291 132 291 287 444 287 442 287 445 287 447 287 448 287 451>
LayerCount: 2
Fore
SplineSet
289 566 m 0
 293 566 299 564 302 561 c 2
 459 430 l 1
 460 430 l 1
 462 428 l 1
 462 427 l 1
 464 426 l 1
 464 425 l 1
 465 424 l 1
 466 423 l 1
 466 422 l 1
 466 421 l 1
 466 420 l 1
 467 419 l 1
 467 417 l 1
 467 415 l 1
 467 414 l 1
 467 411 l 1
 467 409 l 1
 466 407 l 1
 465 405 l 1
 464 404 l 1
 463 402 l 1
 462 401 l 1
 460 399 l 1
 459 399 l 1
 459 398 l 1
 457 397 l 2
 456 397 454 396 453 396 c 2
 451 395 l 1
 448 395 l 1
 447 395 l 1
 445 395 l 1
 444 395 l 1
 442 395 l 1
 442 396 l 2
 441 396 439 396 438 397 c 2
 437 398 l 1
 436 398 l 1
 289 496 l 1
 143 399 l 1
 143 398 l 1
 142 398 l 1
 141 397 l 1
 140 397 l 2
 139 397 137 395 136 395 c 2
 132 395 l 1
 131 395 l 1
 128 395 l 2
 127 395 125 396 124 396 c 2
 123 397 l 1
 122 397 l 1
 121 397 l 1
 121 398 l 1
 119 399 l 1
 118 400 l 1
 116 402 l 1
 115 403 l 1
 114 405 l 2
 114 406 113 407 113 408 c 0
 113 409 112 409 112 410 c 2
 112 411 l 1
 112 412 l 1
 112 415 l 1
 112 416 l 1
 112 418 l 2
 112 420 113 423 114 424 c 0
 115 425 115 426 116 427 c 2
 119 430 l 1
 277 561 l 2
 280 564 285 566 289 566 c 0
EndSplineSet
EndChar

StartChar: underscore
Encoding: 95 95 64
Width: 526
Flags: MW
HStem: -158 40<-5.5 526 0 526 526 527>
LayerCount: 2
Fore
SplineSet
0 -118 m 2
 526 -118 l 1
 527 -118 l 2
 538 -118 546 -127 546 -138 c 0
 546 -149 538 -158 527 -158 c 2
 526 -158 l 1
 0 -158 l 2
 -11 -158 -20 -149 -20 -138 c 0
 -20 -127 -11 -118 0 -118 c 2
EndSplineSet
EndChar

StartChar: grave
Encoding: 96 96 65
Width: 315
Flags: MW
HStem: 395 197<105 233 105 237 105 239 105 241>
VStem: 59 195<404 548>
LayerCount: 2
Fore
SplineSet
105 592 m 2
 107 592 l 2
 113 592 119 588 122 583 c 2
 251 428 l 1
 254 425 l 2
 255 424 256 422 256 421 c 2
 256 419 l 2
 256 418 257 418 257 417 c 2
 257 415 l 1
 257 414 l 1
 257 413 l 1
 257 412 l 1
 257 411 l 1
 256 411 l 1
 256 409 l 1
 256 407 l 2
 256 406 255 405 254 404 c 2
 253 402 l 1
 252 402 l 1
 251 401 l 1
 250 399 l 1
 248 398 l 2
 247 398 247 397 246 397 c 2
 245 396 l 1
 244 396 l 2
 243 396 242 395 241 395 c 2
 239 395 l 1
 237 395 l 1
 233 395 l 2
 232 395 232 396 231 396 c 2
 229 396 l 1
 227 397 l 2
 226 398 225 398 224 399 c 2
 224 400 l 1
 66 531 l 2
 62 534 59 541 59 546 c 0
 59 550 62 557 65 560 c 2
 89 584 l 2
 92 588 100 592 105 592 c 2
EndSplineSet
EndChar

StartChar: a
Encoding: 97 97 66
Width: 526
Flags: MW
HStem: 0 66<209.5 285 215 285 215 289> 342 66<215 215 215 285>
VStem: 59 66<181 227 181 230 181 231> 375 66<20 23 23 51 51 51 111 297 297 297 357 385 385 388>
LayerCount: 2
Fore
SplineSet
215 342 m 1
 170 319 l 1
 149 299 l 1
 125 227 l 1
 125 181 l 1
 149 109 l 1
 170 89 l 1
 215 66 l 1
 285 66 l 1
 375 111 l 1
 375 297 l 1
 285 342 l 1
 215 342 l 1
394 408 m 2
 395 408 l 1
 398 408 l 1
 421 408 l 2
 432 408 441 399 441 388 c 2
 441 23 l 1
 441 20 l 2
 441 16 438 9 435 6 c 2
 434 5 l 2
 431 2 425 0 421 0 c 2
 418 0 l 1
 395 0 l 2
 384 0 375 9 375 20 c 2
 375 51 l 1
 356 32 l 2
 355 31 353 30 351 29 c 2
 298 2 l 2
 296 1 292 0 289 0 c 2
 211 0 l 2
 208 0 204 1 202 2 c 2
 149 29 l 2
 147 30 145 31 144 32 c 2
 91 85 l 2
 89 87 88 91 87 93 c 2
 60 172 l 2
 59 174 59 176 59 178 c 2
 59 230 l 2
 59 232 59 235 60 237 c 2
 87 316 l 2
 88 318 89 321 91 323 c 2
 144 376 l 2
 145 377 147 379 149 380 c 2
 202 406 l 2
 204 407 208 408 211 408 c 2
 289 408 l 2
 292 408 296 407 298 406 c 2
 351 380 l 2
 353 379 355 377 356 376 c 2
 375 357 l 1
 375 385 l 1
 375 388 l 2
 375 392 377 399 380 402 c 2
 381 402 l 1
 382 404 l 2
 385 407 390 408 394 408 c 2
EndSplineSet
EndChar

StartChar: b
Encoding: 98 98 67
Width: 526
Flags: MW
HStem: 0 66<235.5 311 242 311 242 316> 342 66<242 242 242 311> 573 20G
VStem: 86 65<22.5 23 23 51 111 297 357 569 569 569.5> 401 66<181 227 227 227>
LayerCount: 2
Fore
SplineSet
242 342 m 1
 151 297 l 1
 151 111 l 1
 242 66 l 1
 311 66 l 1
 357 89 l 1
 377 109 l 1
 401 181 l 1
 401 227 l 1
 377 299 l 1
 357 319 l 1
 311 342 l 1
 242 342 l 1
105 593 m 0
 106 593 108 592 109 592 c 2
 132 592 l 2
 143 592 151 584 151 573 c 2
 151 357 l 1
 170 376 l 2
 171 377 173 379 175 380 c 2
 228 406 l 2
 230 407 234 408 237 408 c 2
 316 408 l 2
 319 408 323 407 325 406 c 2
 377 380 l 2
 379 379 381 377 382 376 c 2
 435 323 l 2
 437 321 439 318 440 316 c 2
 466 237 l 2
 467 235 467 232 467 230 c 2
 467 178 l 2
 467 176 467 174 466 172 c 2
 440 93 l 2
 439 91 437 87 435 85 c 2
 382 32 l 2
 381 31 379 30 377 29 c 2
 325 2 l 2
 323 1 319 0 316 0 c 2
 237 0 l 2
 234 0 230 1 228 2 c 2
 175 29 l 2
 173 30 171 31 170 32 c 2
 151 51 l 1
 151 23 l 2
 151 22 152 21 152 20 c 0
 152 16 149 9 146 6 c 2
 145 5 l 1
 144 5 l 2
 141 2 136 0 132 0 c 2
 128 0 l 1
 105 0 l 2
 94 0 86 9 86 20 c 2
 86 569 l 2
 86 570 85 572 85 573 c 0
 85 577 88 583 91 586 c 2
 91 587 l 1
 92 588 l 2
 95 591 101 593 105 593 c 0
EndSplineSet
EndChar

StartChar: c
Encoding: 99 99 68
Width: 473
Flags: MW
HStem: 0 66<209.5 285 215 285 215 289> 342 66<215 285 215 215>
VStem: 59 66<181 227 181 230 181 231>
LayerCount: 2
Fore
SplineSet
211 408 m 2
 289 408 l 2
 292 408 296 407 298 406 c 2
 351 380 l 2
 353 379 355 377 356 376 c 2
 407 325 l 2
 411 322 414 317 415 312 c 2
 415 310 l 1
 415 309 l 2
 415 303 411 296 407 293 c 2
 382 269 l 2
 379 266 373 263 368 263 c 0
 361 263 354 268 351 274 c 2
 327 321 l 1
 285 342 l 1
 215 342 l 1
 170 319 l 1
 149 299 l 1
 125 227 l 1
 125 181 l 1
 149 109 l 1
 170 89 l 1
 215 66 l 1
 285 66 l 1
 327 87 l 1
 351 134 l 2
 354 140 361 145 368 145 c 0
 373 145 379 142 382 139 c 2
 407 115 l 2
 411 112 414 106 415 101 c 2
 415 100 l 1
 415 99 l 2
 415 93 411 86 407 83 c 2
 356 32 l 2
 355 31 353 30 351 29 c 2
 298 2 l 2
 296 1 292 0 289 0 c 2
 211 0 l 2
 208 0 204 1 202 2 c 2
 149 29 l 2
 147 30 145 31 144 32 c 2
 91 85 l 2
 89 87 88 91 87 93 c 2
 60 172 l 2
 59 174 59 176 59 178 c 2
 59 230 l 2
 59 232 59 235 60 237 c 2
 87 316 l 2
 88 318 89 321 91 323 c 2
 144 376 l 2
 145 377 147 379 149 380 c 2
 202 406 l 2
 204 407 208 408 211 408 c 2
EndSplineSet
EndChar

StartChar: d
Encoding: 100 100 69
Width: 526
Flags: MW
HStem: 0 66<209.5 285 215 285 215 289> 342 66<215 215 215 285> 573 20G<375 395>
VStem: 59 66<181 227 181 230 181 231> 375 66<20 23 23 51 51 51 111 297 297 297 357 569 569 573>
LayerCount: 2
Fore
SplineSet
215 342 m 1
 170 319 l 1
 149 299 l 1
 125 227 l 1
 125 181 l 1
 149 109 l 1
 170 89 l 1
 215 66 l 1
 285 66 l 1
 375 111 l 1
 375 297 l 1
 285 342 l 1
 215 342 l 1
394 593 m 2
 395 593 l 2
 396 593 397 592 398 592 c 2
 421 592 l 2
 432 592 441 584 441 573 c 2
 441 23 l 1
 441 20 l 2
 441 16 438 9 435 6 c 2
 434 5 l 2
 431 2 425 0 421 0 c 2
 418 0 l 1
 395 0 l 2
 384 0 375 9 375 20 c 2
 375 51 l 1
 356 32 l 2
 355 31 353 30 351 29 c 2
 298 2 l 2
 296 1 292 0 289 0 c 2
 211 0 l 2
 208 0 204 1 202 2 c 2
 149 29 l 2
 147 30 145 31 144 32 c 2
 91 85 l 2
 89 87 88 91 87 93 c 2
 60 172 l 2
 59 174 59 176 59 178 c 2
 59 230 l 2
 59 232 59 235 60 237 c 2
 87 316 l 2
 88 318 89 321 91 323 c 2
 144 376 l 2
 145 377 147 379 149 380 c 2
 202 406 l 2
 204 407 208 408 211 408 c 2
 289 408 l 2
 292 408 296 407 298 406 c 2
 351 380 l 2
 353 379 355 377 356 376 c 2
 375 357 l 1
 375 569 l 1
 375 573 l 2
 375 577 377 583 380 586 c 2
 381 587 l 1
 382 588 l 2
 385 591 390 593 394 593 c 2
EndSplineSet
EndChar

StartChar: e
Encoding: 101 101 70
Width: 473
Flags: MW
HStem: 0 66<209.5 285 215 285 215 289> 184 66<133 349 133 395 125 349> 342 66<215 215 215 285>
VStem: 349 65<250 278 278 278>
LayerCount: 2
Fore
SplineSet
215 342 m 1
 170 319 l 1
 149 299 l 1
 133 250 l 1
 349 250 l 1
 349 278 l 1
 327 321 l 1
 285 342 l 1
 215 342 l 1
211 408 m 2
 289 408 l 2
 292 408 296 407 298 406 c 2
 351 380 l 2
 353 379 355 377 356 376 c 2
 382 350 l 2
 383 349 385 347 386 345 c 2
 412 292 l 2
 413 290 414 286 414 283 c 2
 414 204 l 2
 414 193 406 184 395 184 c 2
 125 184 l 1
 125 181 l 1
 149 109 l 1
 170 89 l 1
 215 66 l 1
 285 66 l 1
 327 87 l 1
 351 134 l 2
 354 140 361 145 368 145 c 0
 373 145 379 142 382 139 c 2
 407 115 l 2
 411 112 414 106 415 101 c 2
 415 100 l 1
 415 99 l 2
 415 93 411 86 407 83 c 2
 356 32 l 2
 355 31 353 30 351 29 c 2
 298 2 l 2
 296 1 292 0 289 0 c 2
 211 0 l 2
 208 0 204 1 202 2 c 2
 149 29 l 2
 147 30 145 31 144 32 c 2
 91 85 l 2
 89 87 88 91 87 93 c 2
 60 172 l 2
 59 174 59 176 59 178 c 2
 59 230 l 2
 59 232 59 235 60 237 c 2
 87 316 l 2
 88 318 89 321 91 323 c 2
 144 376 l 2
 145 377 147 379 149 380 c 2
 202 406 l 2
 204 407 208 408 211 408 c 2
EndSplineSet
EndChar

StartChar: f
Encoding: 102 102 71
Width: 421
Flags: MW
HStem: 0 21G<152.5 158 158 181 181 184> 342 66<73.5 82 79 82 82 138 204 260 260 263> 526 66<242 286 286 286.5 237 289 242 242>
VStem: 138 66<20 23 23 342 408 464>
LayerCount: 2
Fore
SplineSet
289 593 m 0
 293 593 300 590 303 587 c 2
 305 585 l 2
 308 582 309 577 309 573 c 2
 309 569 l 1
 309 546 l 2
 309 535 300 526 289 526 c 2
 242 526 l 1
 221 516 l 1
 204 464 l 1
 204 408 l 1
 263 408 l 2
 274 408 283 399 283 388 c 2
 283 365 l 1
 283 362 l 2
 283 358 281 351 278 348 c 2
 277 348 l 1
 276 347 l 2
 273 344 267 342 263 342 c 2
 260 342 l 1
 204 342 l 1
 204 23 l 1
 204 20 l 2
 204 16 202 9 199 6 c 2
 198 6 l 1
 197 5 l 2
 194 2 188 0 184 0 c 2
 181 0 l 1
 158 0 l 2
 147 0 138 9 138 20 c 2
 138 342 l 1
 79 342 l 2
 68 342 59 351 59 362 c 2
 59 385 l 1
 59 388 l 2
 59 392 62 399 65 402 c 2
 66 404 l 2
 69 407 75 408 79 408 c 2
 82 408 l 1
 138 408 l 1
 138 467 l 2
 138 469 138 471 139 473 c 2
 166 552 l 2
 167 556 171 562 175 564 c 2
 228 590 l 2
 230 591 234 592 237 592 c 2
 286 592 l 2
 287 592 288 593 289 593 c 0
EndSplineSet
EndChar

StartChar: g
Encoding: 103 103 72
Width: 526
Flags: MW
HStem: -184 66<209.5 285 242 285 242 289> 0 66<209.5 285 215 285 215 289> 342 66<215 215 215 285>
VStem: 59 66<181 227 181 230 181 231> 375 66<-3 51 51 51 111 297 297 297 357 385 385 388>
LayerCount: 2
Fore
SplineSet
215 342 m 1
 170 319 l 1
 149 299 l 1
 125 227 l 1
 125 181 l 1
 149 109 l 1
 170 89 l 1
 215 66 l 1
 285 66 l 1
 375 111 l 1
 375 297 l 1
 285 342 l 1
 215 342 l 1
421 408 m 2
 425 408 432 406 435 403 c 2
 436 401 l 2
 439 398 441 392 441 388 c 2
 441 385 l 1
 441 -6 l 2
 441 -8 441 -11 440 -13 c 2
 413 -92 l 2
 412 -94 411 -97 409 -99 c 2
 356 -152 l 2
 355 -153 353 -155 351 -156 c 2
 298 -182 l 2
 296 -183 292 -184 289 -184 c 2
 211 -184 l 2
 208 -184 204 -183 202 -182 c 2
 149 -156 l 2
 147 -155 145 -153 144 -152 c 2
 93 -101 l 2
 89 -98 85 -90 85 -85 c 0
 85 -83 86 -81 86 -80 c 2
 86 -79 l 1
 87 -78 l 1
 87 -76 l 1
 88 -76 l 1
 88 -75 l 1
 89 -74 l 2
 92 -69 99 -65 105 -65 c 0
 106 -65 107 -66 108 -66 c 2
 158 -66 l 2
 162 -66 169 -68 172 -71 c 2
 196 -95 l 1
 242 -118 l 1
 285 -118 l 1
 330 -95 l 1
 351 -75 l 1
 375 -3 l 1
 375 51 l 1
 356 32 l 2
 355 31 353 30 351 29 c 2
 298 2 l 2
 296 1 292 0 289 0 c 2
 211 0 l 2
 208 0 204 1 202 2 c 2
 149 29 l 2
 147 30 145 31 144 32 c 2
 91 85 l 2
 89 87 88 91 87 93 c 2
 60 172 l 2
 59 174 59 176 59 178 c 2
 59 230 l 2
 59 232 59 235 60 237 c 2
 87 316 l 2
 88 318 89 321 91 323 c 2
 144 376 l 2
 145 377 147 379 149 380 c 2
 202 406 l 2
 204 407 208 408 211 408 c 2
 289 408 l 2
 292 408 296 407 298 406 c 2
 351 380 l 2
 353 379 355 377 356 376 c 2
 375 357 l 1
 375 388 l 2
 375 399 384 408 395 408 c 2
 418 408 l 1
 421 408 l 2
EndSplineSet
EndChar

StartChar: h
Encoding: 104 104 73
Width: 526
Flags: MW
HStem: 0 21G<99.5 105 105 128 128 132 389.5 395 395 418 418 421> 342 66<268 311 268 268> 573 20G
VStem: 86 65<22.5 23 23 272 331 569 569 569.5> 375 66<20 23 23 278 278 278>
LayerCount: 2
Fore
SplineSet
105 593 m 0
 106 593 108 592 109 592 c 2
 132 592 l 2
 143 592 151 584 151 573 c 2
 151 331 l 1
 197 376 l 2
 198 377 200 379 202 380 c 2
 254 406 l 2
 256 407 260 408 263 408 c 2
 342 408 l 2
 345 408 349 407 351 406 c 2
 404 380 l 2
 408 378 412 372 413 368 c 2
 440 289 l 2
 441 287 441 285 441 283 c 2
 441 23 l 1
 441 20 l 2
 441 16 438 9 435 6 c 2
 434 5 l 2
 431 2 425 0 421 0 c 2
 418 0 l 1
 395 0 l 2
 384 0 375 9 375 20 c 2
 375 278 l 1
 354 321 l 1
 311 342 l 1
 268 342 l 1
 220 319 l 1
 151 272 l 1
 151 23 l 2
 151 22 152 21 152 20 c 0
 152 16 149 9 146 6 c 2
 145 5 l 1
 144 5 l 2
 141 2 136 0 132 0 c 2
 128 0 l 1
 105 0 l 2
 94 0 86 9 86 20 c 2
 86 569 l 2
 86 570 85 572 85 573 c 0
 85 577 88 583 91 586 c 2
 91 587 l 1
 92 588 l 2
 95 591 101 593 105 593 c 0
EndSplineSet
EndChar

StartChar: i
Encoding: 105 105 74
Width: 263
Flags: MW
HStem: 0 21G<99.5 105 105 128 128 132> 388 20G 474 118<103 108 105 108 108 132>
VStem: 59 119<520 546 518 548> 86 65<22.5 23 23 385 385 385.5>
LayerCount: 2
Fore
SplineSet
105 408 m 2xe8
 109 408 l 1
 132 408 l 2
 143 408 151 399 151 388 c 2
 151 23 l 2
 151 22 152 21 152 20 c 0
 152 16 149 9 146 6 c 2
 145 5 l 1
 144 5 l 2
 141 2 136 0 132 0 c 2
 128 0 l 1
 105 0 l 2
 94 0 86 9 86 20 c 2
 86 385 l 2
 86 386 85 387 85 388 c 0
 85 392 88 399 91 402 c 2
 92 404 l 2
 95 407 101 408 105 408 c 2xe8
105 592 m 2
 108 592 l 1
 132 592 l 2
 136 592 143 590 146 587 c 2
 172 560 l 2
 175 557 178 550 178 546 c 2
 178 520 l 2
 178 516 175 509 172 506 c 2
 146 480 l 2
 143 477 136 474 132 474 c 2
 105 474 l 2
 101 474 94 477 91 480 c 2
 65 506 l 2
 62 509 59 516 59 520 c 2
 59 546 l 2xf0
 59 550 62 557 65 560 c 2
 89 585 l 2
 91 587 94 590 97 591 c 2
 98 591 l 2
 100 592 103 592 105 592 c 2
EndSplineSet
EndChar

StartChar: j
Encoding: 106 106 75
Width: 263
Flags: MW
HStem: -184 21G<99.5 105 105 128 128 132> 388 20G 474 118<103 108 105 108 108 132>
VStem: 59 119<520 546 518 548> 86 65<-161.5 -161 -161 385 385 385.5>
LayerCount: 2
Fore
SplineSet
105 408 m 2xe8
 109 408 l 1
 132 408 l 2
 143 408 151 399 151 388 c 2
 151 -161 l 2
 151 -162 152 -163 152 -164 c 0
 152 -168 149 -175 146 -178 c 2
 145 -179 l 1
 144 -180 l 2
 141 -183 136 -184 132 -184 c 2
 128 -184 l 1
 105 -184 l 2
 94 -184 86 -175 86 -164 c 2
 86 385 l 2
 86 386 85 387 85 388 c 0
 85 392 88 399 91 402 c 2
 92 404 l 2
 95 407 101 408 105 408 c 2xe8
105 592 m 2
 108 592 l 1
 132 592 l 2
 136 592 143 590 146 587 c 2
 172 560 l 2
 175 557 178 550 178 546 c 2
 178 520 l 2
 178 516 175 509 172 506 c 2
 146 480 l 2
 143 477 136 474 132 474 c 2
 105 474 l 2
 101 474 94 477 91 480 c 2
 65 506 l 2
 62 509 59 516 59 520 c 2
 59 546 l 2xf0
 59 550 62 557 65 560 c 2
 89 585 l 2
 91 587 94 590 97 591 c 2
 98 591 l 2
 100 592 103 592 105 592 c 2
EndSplineSet
EndChar

StartChar: k
Encoding: 107 107 76
Width: 473
Flags: MW
HStem: 0 21G<99.5 105 105 128 128 132 365.5 368 368 418 418 421> 388 20G<395 418 418 421 421 424> 573 20G
VStem: 86 65<22.5 23 23 91 173 569 569 569.5>
LayerCount: 2
Fore
SplineSet
105 593 m 0
 106 593 108 592 109 592 c 2
 132 592 l 2
 143 592 151 584 151 573 c 2
 151 173 l 1
 194 216 l 2
 195 217 198 219 199 220 c 2
 221 242 l 2
 222 243 224 246 225 247 c 2
 381 402 l 2
 384 405 391 408 395 408 c 2
 418 408 l 1
 421 408 l 2
 427 408 436 404 439 398 c 2
 439 396 l 1
 439 396 440 395 440 394 c 0
 441 392 441 390 441 388 c 0
 441 383 437 376 433 373 c 2
 276 215 l 1
 434 35 l 2
 438 32 441 25 441 20 c 0
 441 19 440 16 440 15 c 2
 440 13 l 1
 440 12 l 1
 439 11 l 1
 438 9 l 1
 437 8 l 1
 437 7 l 2
 434 3 426 0 421 0 c 2
 418 0 l 1
 368 0 l 2
 363 0 356 3 353 7 c 2
 222 161 l 1
 151 91 l 1
 151 23 l 2
 151 22 152 21 152 20 c 0
 152 16 149 9 146 6 c 2
 145 5 l 1
 144 5 l 2
 141 2 136 0 132 0 c 2
 128 0 l 1
 105 0 l 2
 94 0 86 9 86 20 c 2
 86 569 l 2
 86 570 85 572 85 573 c 0
 85 577 88 583 91 586 c 2
 91 587 l 1
 92 588 l 2
 95 591 101 593 105 593 c 0
EndSplineSet
EndChar

StartChar: l
Encoding: 108 108 77
Width: 263
Flags: MW
HStem: 0 21G<99.5 105 105 128 128 132> 573 20G
VStem: 86 65<22.5 23 23 569 569 569.5>
LayerCount: 2
Fore
SplineSet
105 593 m 0
 106 593 108 592 109 592 c 2
 132 592 l 2
 143 592 151 584 151 573 c 2
 151 23 l 2
 151 22 152 21 152 20 c 0
 152 16 149 9 146 6 c 2
 145 5 l 1
 144 5 l 2
 141 2 136 0 132 0 c 2
 128 0 l 1
 105 0 l 2
 94 0 86 9 86 20 c 2
 86 569 l 2
 86 570 85 572 85 573 c 0
 85 577 88 583 91 586 c 2
 91 587 l 1
 92 588 l 2
 95 591 101 593 105 593 c 0
EndSplineSet
EndChar

StartChar: m
Encoding: 109 109 78
Width: 842
Flags: MW
HStem: 0 21G<99.5 105 105 128 128 132 389.5 395 395 418 418 421 678.5 684 684 707 707 711> 342 66<268 311 268 268 557 601 557 557>
VStem: 86 65<22.5 23 23 272 331 385 385 385.5> 375 66<20 23 23 272> 664 66<22.5 23 23 278 278 278>
LayerCount: 2
Fore
SplineSet
105 408 m 2
 109 408 l 1
 132 408 l 2
 143 408 151 399 151 388 c 2
 151 331 l 1
 197 376 l 2
 198 377 200 379 202 380 c 2
 254 406 l 2
 256 407 260 408 263 408 c 2
 342 408 l 2
 345 408 349 407 351 406 c 2
 404 380 l 2
 408 378 412 372 413 368 c 2
 430 320 l 1
 486 376 l 2
 487 377 489 379 491 380 c 2
 544 406 l 2
 546 407 550 408 553 408 c 2
 632 408 l 2
 635 408 638 407 640 406 c 2
 693 380 l 2
 697 378 702 372 703 368 c 2
 729 289 l 2
 730 287 730 285 730 283 c 2
 730 23 l 2
 730 22 731 21 731 20 c 0
 731 16 728 9 725 6 c 2
 723 5 l 2
 720 2 715 0 711 0 c 2
 707 0 l 1
 684 0 l 2
 673 0 664 9 664 20 c 2
 664 278 l 1
 643 321 l 1
 601 342 l 1
 557 342 l 1
 510 319 l 1
 441 272 l 1
 441 23 l 1
 441 20 l 2
 441 16 438 9 435 6 c 2
 434 5 l 2
 431 2 425 0 421 0 c 2
 418 0 l 1
 395 0 l 2
 384 0 375 9 375 20 c 2
 375 278 l 1
 354 321 l 1
 311 342 l 1
 268 342 l 1
 220 319 l 1
 151 272 l 1
 151 23 l 2
 151 22 152 21 152 20 c 0
 152 16 149 9 146 6 c 2
 145 5 l 1
 144 5 l 2
 141 2 136 0 132 0 c 2
 128 0 l 1
 105 0 l 2
 94 0 86 9 86 20 c 2
 86 385 l 2
 86 386 85 387 85 388 c 0
 85 392 88 399 91 402 c 2
 92 404 l 2
 95 407 101 408 105 408 c 2
EndSplineSet
EndChar

StartChar: n
Encoding: 110 110 79
Width: 526
Flags: MW
HStem: 0 21G<99.5 105 105 128 128 132 389.5 395 395 418 418 421> 342 66<268 311 268 268>
VStem: 86 65<22.5 23 23 272 331 385 385 385.5> 375 66<20 23 23 278 278 278>
LayerCount: 2
Fore
SplineSet
105 408 m 2
 109 408 l 1
 132 408 l 2
 143 408 151 399 151 388 c 2
 151 331 l 1
 197 376 l 2
 198 377 200 379 202 380 c 2
 254 406 l 2
 256 407 260 408 263 408 c 2
 342 408 l 2
 345 408 349 407 351 406 c 2
 404 380 l 2
 408 378 412 372 413 368 c 2
 440 289 l 2
 441 287 441 285 441 283 c 2
 441 23 l 1
 441 20 l 2
 441 16 438 9 435 6 c 2
 434 5 l 2
 431 2 425 0 421 0 c 2
 418 0 l 1
 395 0 l 2
 384 0 375 9 375 20 c 2
 375 278 l 1
 354 321 l 1
 311 342 l 1
 268 342 l 1
 220 319 l 1
 151 272 l 1
 151 23 l 2
 151 22 152 21 152 20 c 0
 152 16 149 9 146 6 c 2
 145 5 l 1
 144 5 l 2
 141 2 136 0 132 0 c 2
 128 0 l 1
 105 0 l 2
 94 0 86 9 86 20 c 2
 86 385 l 2
 86 386 85 387 85 388 c 0
 85 392 88 399 91 402 c 2
 92 404 l 2
 95 407 101 408 105 408 c 2
EndSplineSet
EndChar

StartChar: o
Encoding: 111 111 80
Width: 526
Flags: MW
HStem: 0 66<209.5 285 215 285 215 289> 342 66<215 215 215 285>
VStem: 59 66<181 227 181 230 181 231> 375 66<181 227 227 227>
LayerCount: 2
Fore
SplineSet
215 342 m 1
 170 319 l 1
 149 299 l 1
 125 227 l 1
 125 181 l 1
 149 109 l 1
 170 89 l 1
 215 66 l 1
 285 66 l 1
 330 89 l 1
 351 109 l 1
 375 181 l 1
 375 227 l 1
 351 299 l 1
 330 319 l 1
 285 342 l 1
 215 342 l 1
211 408 m 1
 213 408 l 1
 289 408 l 2
 292 408 296 407 298 406 c 2
 351 380 l 2
 353 379 355 377 356 376 c 2
 409 323 l 2
 411 321 412 318 413 316 c 2
 440 237 l 2
 441 235 441 232 441 230 c 2
 441 178 l 2
 441 176 441 174 440 172 c 2
 413 93 l 2
 412 91 411 87 409 85 c 2
 356 32 l 2
 355 31 353 30 351 29 c 2
 298 2 l 2
 296 1 292 0 289 0 c 2
 211 0 l 2
 208 0 204 1 202 2 c 2
 149 29 l 2
 147 30 145 31 144 32 c 2
 91 85 l 2
 89 87 88 91 87 93 c 2
 60 172 l 2
 59 174 59 176 59 178 c 2
 59 230 l 2
 59 232 59 235 60 237 c 2
 87 316 l 2
 88 318 89 321 91 323 c 2
 144 376 l 2
 145 377 147 379 149 380 c 2
 199 405 l 2
 200 406 203 407 205 407 c 2
 206 407 l 1
 207 408 l 1
 211 408 l 1
EndSplineSet
EndChar

StartChar: p
Encoding: 112 112 81
Width: 526
Flags: MW
HStem: -184 21G<99.5 105 105 128 128 132> 0 66<235.5 311 242 311 242 316> 342 66<242 242 242 311>
VStem: 86 65<-161.5 -161 -161 51 111 297 357 385 385 385.5> 401 66<181 227 227 227>
LayerCount: 2
Fore
SplineSet
242 342 m 1
 151 297 l 1
 151 111 l 1
 242 66 l 1
 311 66 l 1
 357 89 l 1
 377 109 l 1
 401 181 l 1
 401 227 l 1
 377 299 l 1
 357 319 l 1
 311 342 l 1
 242 342 l 1
105 408 m 2
 109 408 l 1
 132 408 l 2
 143 408 151 399 151 388 c 2
 151 357 l 1
 170 376 l 2
 171 377 173 379 175 380 c 2
 228 406 l 2
 230 407 234 408 237 408 c 2
 316 408 l 2
 319 408 323 407 325 406 c 2
 377 380 l 2
 379 379 381 377 382 376 c 2
 435 323 l 2
 437 321 439 318 440 316 c 2
 466 237 l 2
 467 235 467 232 467 230 c 2
 467 178 l 2
 467 176 467 174 466 172 c 2
 440 93 l 2
 439 91 437 87 435 85 c 2
 382 32 l 2
 381 31 379 30 377 29 c 2
 325 2 l 2
 323 1 319 0 316 0 c 2
 237 0 l 2
 234 0 230 1 228 2 c 2
 175 29 l 2
 173 30 171 31 170 32 c 2
 151 51 l 1
 151 -161 l 2
 151 -162 152 -163 152 -164 c 0
 152 -168 149 -175 146 -178 c 2
 145 -179 l 1
 144 -180 l 2
 141 -183 136 -184 132 -184 c 2
 128 -184 l 1
 105 -184 l 2
 94 -184 86 -175 86 -164 c 2
 86 385 l 2
 86 386 85 387 85 388 c 0
 85 392 88 399 91 402 c 2
 92 404 l 2
 95 407 101 408 105 408 c 2
EndSplineSet
EndChar

StartChar: q
Encoding: 113 113 82
Width: 526
Flags: MW
HStem: -184 21G<389.5 395 395 418 418 421> 0 66<209.5 285 215 285 215 289> 342 66<215 215 215 285>
VStem: 59 66<181 227 181 230 181 231> 375 66<-164 -161 -161 51 51 51 111 297 297 297 357 385 385 388>
LayerCount: 2
Fore
SplineSet
215 342 m 1
 170 319 l 1
 149 299 l 1
 125 227 l 1
 125 181 l 1
 149 109 l 1
 170 89 l 1
 215 66 l 1
 285 66 l 1
 375 111 l 1
 375 297 l 1
 285 342 l 1
 215 342 l 1
394 408 m 2
 395 408 l 1
 398 408 l 1
 421 408 l 2
 432 408 441 399 441 388 c 2
 441 -161 l 1
 441 -164 l 2
 441 -168 438 -175 435 -178 c 2
 434 -179 l 1
 434 -180 l 2
 431 -183 425 -184 421 -184 c 2
 418 -184 l 1
 395 -184 l 2
 384 -184 375 -175 375 -164 c 2
 375 51 l 1
 356 32 l 2
 355 31 353 30 351 29 c 2
 298 2 l 2
 296 1 292 0 289 0 c 2
 211 0 l 2
 208 0 204 1 202 2 c 2
 149 29 l 2
 147 30 145 31 144 32 c 2
 91 85 l 2
 89 87 88 91 87 93 c 2
 60 172 l 2
 59 174 59 176 59 178 c 2
 59 230 l 2
 59 232 59 235 60 237 c 2
 87 316 l 2
 88 318 89 321 91 323 c 2
 144 376 l 2
 145 377 147 379 149 380 c 2
 202 406 l 2
 204 407 208 408 211 408 c 2
 289 408 l 2
 292 408 296 407 298 406 c 2
 351 380 l 2
 353 379 355 377 356 376 c 2
 375 357 l 1
 375 385 l 1
 375 388 l 2
 375 392 377 399 380 402 c 2
 381 402 l 1
 382 404 l 2
 385 407 390 408 394 408 c 2
EndSplineSet
EndChar

StartChar: r
Encoding: 114 114 83
Width: 368
Flags: MW
HStem: 0 21G<99.5 105 105 128 128 132> 342 66<268 339 339 342 268 268>
VStem: 86 65<22.5 23 23 226 331 385 385 385.5>
LayerCount: 2
Fore
SplineSet
105 408 m 2
 109 408 l 1
 132 408 l 2
 143 408 151 399 151 388 c 2
 151 331 l 1
 197 376 l 2
 198 377 200 379 202 380 c 2
 254 406 l 2
 256 407 260 408 263 408 c 2
 339 408 l 1
 342 408 l 2
 346 408 353 406 356 403 c 2
 357 401 l 2
 360 398 362 392 362 388 c 2
 362 385 l 1
 362 362 l 2
 362 351 353 342 342 342 c 2
 268 342 l 1
 222 319 l 1
 174 271 l 1
 151 226 l 1
 151 23 l 2
 151 22 152 21 152 20 c 0
 152 16 149 9 146 6 c 2
 145 5 l 1
 144 5 l 2
 141 2 136 0 132 0 c 2
 128 0 l 1
 105 0 l 2
 94 0 86 9 86 20 c 2
 86 385 l 2
 86 386 85 387 85 388 c 0
 85 392 88 399 91 402 c 2
 92 404 l 2
 95 407 101 408 105 408 c 2
EndSplineSet
EndChar

StartChar: s
Encoding: 115 115 84
Width: 473
Flags: MW
HStem: 0 66<183 260 187 260 187 263> 342 66<187 260 187 187>
VStem: 61 327<107 108 108 108 97.5 301 97.5 318>
LayerCount: 2
Fore
SplineSet
184 408 m 2
 263 408 l 2
 265 408 267 408 269 407 c 2
 348 381 l 2
 352 380 358 375 360 371 c 2
 385 321 l 2
 387 318 388 313 388 309 c 0
 388 307 388 304 387 302 c 2
 386 300 l 1
 385 298 l 1
 384 297 l 2
 381 293 374 289 369 289 c 0
 368 289 366 290 365 290 c 2
 342 290 l 2
 335 290 327 295 324 301 c 2
 312 325 l 1
 260 342 l 1
 187 342 l 1
 135 325 l 1
 127 309 l 1
 137 289 l 1
 166 275 l 1
 297 222 l 1
 298 222 l 1
 351 195 l 2
 354 193 358 190 360 187 c 2
 386 134 l 2
 387 132 388 128 388 125 c 2
 388 99 l 2
 388 96 387 92 386 90 c 2
 360 37 l 2
 358 33 352 29 348 28 c 2
 269 1 l 2
 267 0 265 0 263 0 c 2
 184 0 l 2
 182 0 180 0 178 1 c 2
 99 28 l 2
 95 29 90 33 88 37 c 2
 63 87 l 2
 61 90 59 95 59 99 c 0
 59 101 60 105 61 107 c 2
 61 108 l 1
 62 110 l 1
 63 111 l 2
 66 115 74 119 79 119 c 2
 82 119 l 1
 105 119 l 2
 112 119 120 114 123 108 c 2
 135 83 l 1
 187 66 l 1
 260 66 l 1
 312 83 l 1
 322 104 l 1
 322 120 l 1
 310 146 l 1
 281 160 l 1
 151 212 l 1
 149 213 l 1
 96 239 l 2
 93 241 90 245 88 248 c 2
 61 301 l 2
 60 303 59 306 59 309 c 0
 59 312 60 316 61 318 c 2
 88 371 l 2
 90 375 95 380 99 381 c 2
 178 407 l 2
 180 408 182 408 184 408 c 2
EndSplineSet
EndChar

StartChar: t
Encoding: 116 116 85
Width: 315
Flags: MW
HStem: 0 21G<126.5 132 132 155 155 158> 342 66<47.5 56 53 56 56 112 178 234 234 237> 573 20G<112 132>
VStem: 112 66<20 23 23 342 408 569 569 573>
LayerCount: 2
Fore
SplineSet
131 593 m 2
 132 593 l 2
 133 593 134 592 135 592 c 2
 158 592 l 2
 169 592 178 584 178 573 c 2
 178 408 l 1
 237 408 l 2
 248 408 257 399 257 388 c 2
 257 365 l 1
 257 362 l 2
 257 358 254 351 251 348 c 2
 250 347 l 2
 247 344 241 342 237 342 c 2
 234 342 l 1
 178 342 l 1
 178 23 l 1
 178 20 l 2
 178 16 175 9 172 6 c 2
 171 5 l 2
 168 2 162 0 158 0 c 2
 155 0 l 1
 132 0 l 2
 121 0 112 9 112 20 c 2
 112 342 l 1
 53 342 l 2
 42 342 33 351 33 362 c 2
 33 385 l 1
 33 388 l 2
 33 392 35 399 38 402 c 2
 40 404 l 2
 43 407 49 408 53 408 c 2
 56 408 l 1
 112 408 l 1
 112 569 l 1
 112 573 l 2
 112 577 114 583 117 586 c 2
 117 587 l 1
 119 588 l 2
 122 591 127 593 131 593 c 2
EndSplineSet
EndChar

StartChar: u
Encoding: 117 117 86
Width: 526
Flags: MW
HStem: 0 66<182.5 258 215 258 215 263> 388 20G
VStem: 86 65<130 385 385 385.5> 375 66<20 23 23 77 77 77 136 385 385 388>
LayerCount: 2
Fore
SplineSet
105 408 m 2
 109 408 l 1
 132 408 l 2
 143 408 151 399 151 388 c 2
 151 130 l 1
 173 87 l 1
 215 66 l 1
 258 66 l 1
 306 90 l 1
 375 136 l 1
 375 385 l 1
 375 388 l 2
 375 392 377 399 380 402 c 2
 381 402 l 1
 382 404 l 2
 385 407 391 408 395 408 c 2
 398 408 l 1
 421 408 l 2
 432 408 441 399 441 388 c 2
 441 23 l 1
 441 20 l 2
 441 16 438 9 435 6 c 2
 434 5 l 2
 431 2 425 0 421 0 c 2
 418 0 l 1
 395 0 l 2
 384 0 375 9 375 20 c 2
 375 77 l 1
 330 32 l 2
 329 31 327 30 325 29 c 2
 272 2 l 2
 270 1 266 0 263 0 c 2
 184 0 l 2
 181 0 177 1 175 2 c 2
 123 29 l 2
 119 31 114 36 113 40 c 2
 87 119 l 2
 86 121 86 123 86 125 c 2
 86 385 l 2
 86 386 85 387 85 388 c 0
 85 392 88 399 91 402 c 2
 92 404 l 2
 95 407 101 408 105 408 c 2
EndSplineSet
EndChar

StartChar: v
Encoding: 118 118 87
Width: 421
Flags: MW
HStem: 0 21G<207 209 207 207 209 210 210 211 211 212 212 213 213 215> 388 20G<52 56 56 79 79 82.5 342 365 365 369 369 372>
LayerCount: 2
Fore
SplineSet
52 408 m 2
 56 408 l 1
 79 408 l 2
 86 408 94 403 97 396 c 2
 211 124 l 1
 324 396 l 2
 327 403 335 408 342 408 c 2
 365 408 l 1
 369 408 l 2
 375 408 382 405 385 400 c 2
 385 399 l 1
 386 398 l 2
 387 396 388 391 388 388 c 0
 388 385 387 381 385 378 c 2
 230 14 l 2
 228 8 222 1 215 0 c 2
 213 0 l 1
 212 0 l 1
 211 0 l 1
 210 0 l 1
 209 0 l 1
 207 0 l 2
 200 1 193 7 191 14 c 2
 36 378 l 2
 34 381 33 385 33 388 c 0
 33 390 33 393 34 395 c 0
 34 396 35 397 35 397 c 1
 36 399 l 1
 36 400 l 1
 37 401 l 2
 40 405 47 408 52 408 c 2
EndSplineSet
EndChar

StartChar: w
Encoding: 119 119 88
Width: 631
Flags: MW
HStem: 0 21G<206 210 210 214 418 420 418 418 420 421 421 422> 388 20G<78 79 79 82 82 105 105 109 312 313 313 316 316 318 318 318 526 550 550 553 553 555.5>
LayerCount: 2
Fore
SplineSet
421 79 m 1
 421 78 l 1
 421 79 l 1
211 79 m 1
 210 79 l 1
 211 78 l 1
 211 79 l 1
316 331 m 1
 315 329 l 1
 316 329 l 1
 316 331 l 1
78 408 m 2
 79 408 l 1
 82 408 l 1
 105 408 l 2
 113 408 121 402 124 395 c 2
 211 157 l 1
 296 393 l 2
 298 400 305 407 312 408 c 2
 313 408 l 1
 316 408 l 1
 318 408 l 2
 326 407 333 400 335 393 c 2
 421 157 l 1
 508 395 l 2
 511 402 518 408 526 408 c 2
 550 408 l 1
 553 408 l 2
 558 408 565 405 568 401 c 2
 569 400 l 1
 570 399 l 1
 571 397 l 2
 572 395 573 391 573 388 c 0
 573 385 571 381 570 379 c 2
 440 16 l 2
 438 8 430 1 422 0 c 2
 421 0 l 1
 420 0 l 1
 418 0 l 2
 410 1 404 8 402 15 c 2
 316 252 l 1
 230 15 l 2
 229 9 222 3 216 1 c 0
 215 1 215 0 214 0 c 2
 210 0 l 2
 202 0 193 7 191 15 c 2
 61 379 l 2
 60 381 59 385 59 388 c 0
 59 390 60 394 61 396 c 0
 61 397 62 398 62 398 c 1
 63 400 l 1
 64 401 l 2
 67 405 73 408 78 408 c 2
EndSplineSet
EndChar

StartChar: x
Encoding: 120 120 89
Width: 473
Flags: MW
HStem: 0 21G<76 79 79 82 82 105 365.5 368 368 392 392 395> 388 20G<79 82 82 105 105 107.5 368 392 392 395 395 398>
LayerCount: 2
Fore
SplineSet
79 408 m 2
 82 408 l 1
 105 408 l 2
 110 408 118 404 121 400 c 2
 237 253 l 1
 353 400 l 2
 356 404 363 408 368 408 c 2
 392 408 l 1
 395 408 l 2
 401 408 408 405 411 400 c 2
 412 398 l 1
 413 397 l 1
 413 396 l 1
 414 395 l 2
 415 393 415 390 415 388 c 0
 415 383 412 377 409 374 c 2
 275 204 l 1
 409 34 l 2
 412 31 415 25 415 20 c 0
 415 18 414 14 413 12 c 2
 413 11 l 1
 412 11 l 1
 412 10 l 1
 411 9 l 2
 408 4 401 0 395 0 c 2
 392 0 l 1
 368 0 l 2
 363 0 356 4 353 8 c 2
 237 155 l 1
 121 8 l 2
 118 4 110 0 105 0 c 2
 82 0 l 1
 79 0 l 2
 73 0 66 3 63 8 c 2
 62 10 l 1
 61 10 l 1
 61 12 l 1
 60 13 l 2
 59 15 59 18 59 20 c 0
 59 25 62 31 65 34 c 2
 199 204 l 1
 65 374 l 2
 62 377 59 383 59 388 c 0
 59 390 59 394 60 396 c 2
 61 397 l 1
 61 398 l 1
 62 399 l 2
 65 404 73 408 79 408 c 2
EndSplineSet
EndChar

StartChar: y
Encoding: 121 121 90
Width: 421
Flags: MW
HStem: -184 21G<102 105 105 108 108 132> 388 20G<52 56 56 79 79 82.5 342 365 365 369 369 372>
LayerCount: 2
Fore
SplineSet
52 408 m 2
 56 408 l 1
 79 408 l 2
 86 408 94 403 97 396 c 2
 211 124 l 1
 324 396 l 2
 327 403 335 408 342 408 c 2
 365 408 l 1
 369 408 l 2
 375 408 382 405 385 400 c 2
 385 399 l 1
 386 398 l 2
 387 396 388 391 388 388 c 0
 388 385 387 381 385 378 c 2
 230 14 l 2
 230 13 229 10 228 9 c 2
 227 9 l 1
 150 -172 l 2
 147 -179 139 -184 132 -184 c 2
 108 -184 l 1
 105 -184 l 2
 99 -184 92 -181 89 -176 c 2
 89 -175 l 1
 88 -173 l 1
 88 -173 87 -173 87 -172 c 0
 86 -170 85 -166 85 -164 c 0
 85 -161 87 -156 89 -153 c 2
 177 47 l 1
 36 378 l 2
 34 381 33 385 33 388 c 0
 33 390 33 393 34 395 c 0
 34 396 35 397 35 397 c 1
 36 399 l 1
 36 400 l 1
 37 401 l 2
 40 405 47 408 52 408 c 2
EndSplineSet
EndChar

StartChar: z
Encoding: 122 122 91
Width: 473
Flags: MW
HStem: 0 66<172 391 391 395> 342 66<73.5 82 79 82 82 302>
LayerCount: 2
Fore
SplineSet
79 408 m 2
 82 408 l 1
 392 408 l 1
 395 408 l 2
 400 408 407 405 410 401 c 0
 411 400 411 399 412 398 c 2
 413 397 l 1
 413 397 414 396 414 395 c 0
 415 393 415 390 415 388 c 0
 415 383 412 377 409 374 c 2
 172 66 l 1
 395 66 l 2
 406 66 414 57 414 46 c 2
 414 23 l 2
 414 22 415 21 415 20 c 0
 415 16 412 9 409 6 c 2
 408 5 l 2
 405 2 399 0 395 0 c 2
 391 0 l 1
 82 0 l 1
 79 0 l 2
 74 0 67 3 64 7 c 0
 63 8 63 9 62 10 c 2
 61 11 l 1
 61 11 60 12 60 13 c 0
 59 15 59 18 59 20 c 0
 59 25 62 31 65 34 c 2
 302 342 l 1
 79 342 l 2
 68 342 59 351 59 362 c 2
 59 385 l 1
 59 388 l 2
 59 392 62 399 65 402 c 2
 66 404 l 2
 69 407 75 408 79 408 c 2
EndSplineSet
EndChar

StartChar: braceleft
Encoding: 123 123 92
Width: 368
Flags: MW
HStem: -184 21G<259.5 268.5>
VStem: 245 38<-172 -163>
LayerCount: 2
Fore
SplineSet
263 698 m 0
 274 698 283 689 283 678 c 0
 283 676 282 672 281 670 c 2
 100 257 l 1
 281 -156 l 2
 282 -158 283 -162 283 -164 c 0
 283 -175 274 -184 263 -184 c 0
 256 -184 248 -179 245 -172 c 2
 61 249 l 2
 60 251 59 255 59 257 c 0
 59 259 60 263 61 265 c 2
 245 686 l 2
 248 693 256 698 263 698 c 0
EndSplineSet
EndChar

StartChar: bar
Encoding: 124 124 93
Width: 210
Flags: MW
HStem: -184 21G<99.5 110.5>
VStem: 86 39<-165 -164 -164 678>
LayerCount: 2
Fore
SplineSet
105 698 m 0
 116 698 125 689 125 678 c 2
 125 -164 l 1
 125 -165 l 2
 125 -176 116 -184 105 -184 c 0
 94 -184 86 -176 86 -165 c 2
 86 -164 l 1
 86 678 l 2
 86 689 94 698 105 698 c 0
EndSplineSet
EndChar

StartChar: braceright
Encoding: 125 125 94
Width: 368
Flags: MW
HStem: -184 21G<99.5 108.5>
VStem: 86 37<-172 -163>
LayerCount: 2
Fore
SplineSet
105 698 m 0
 112 698 120 693 123 686 c 2
 308 265 l 2
 309 263 309 259 309 257 c 0
 309 255 309 251 308 249 c 2
 123 -172 l 2
 120 -179 112 -184 105 -184 c 0
 94 -184 86 -175 86 -164 c 0
 86 -162 86 -158 87 -156 c 2
 268 257 l 1
 87 670 l 2
 86 672 85 676 85 678 c 0
 85 689 94 698 105 698 c 0
EndSplineSet
EndChar

StartChar: asciitilde
Encoding: 126 126 95
Width: 631
Flags: MW
HStem: 158 66<419.5 469 426 469 426 474> 290 65<163 206 163 163>
VStem: 59 40<178 226> 533 39<288 336>
LayerCount: 2
Fore
SplineSet
552 356 m 2
 553 356 l 2
 564 356 572 347 572 336 c 2
 572 286 l 1
 572 284 l 1
 572 279 l 2
 572 278 571 278 571 277 c 2
 571 276 l 1
 545 198 l 2
 544 194 539 188 535 186 c 2
 483 160 l 2
 481 159 477 158 474 158 c 2
 421 158 l 2
 418 158 414 159 412 160 c 2
 360 186 l 2
 359 186 358 187 357 188 c 2
 253 266 l 1
 206 290 l 1
 163 290 l 1
 120 268 l 1
 99 226 l 1
 99 178 l 2
 99 167 90 158 79 158 c 0
 68 158 59 167 59 178 c 2
 59 228 l 1
 59 230 l 2
 59 231 60 234 60 235 c 2
 60 237 l 1
 61 238 l 1
 87 316 l 2
 88 320 92 325 96 327 c 2
 149 353 l 2
 151 354 155 355 158 355 c 2
 211 355 l 2
 214 355 217 354 219 353 c 2
 272 327 l 2
 273 327 274 326 275 325 c 2
 379 247 l 1
 426 224 l 1
 469 224 l 1
 512 245 l 1
 533 288 l 1
 533 336 l 2
 533 347 541 356 552 356 c 2
EndSplineSet
EndChar

StartChar: uni007F
Encoding: 127 127 96
Width: 421
Flags: MW
HStem: 0 21G<-5.5 0 0 26 51 53 53 79 103 105 105 132 156 158 158 184 209 211 211 237 261 263 263 289 314 316 316 342 366 368 368 395 419 426.5> 573 21G<-20 -20 441 441>
VStem: -20 461<20 573>
LayerCount: 2
Fore
SplineSet
0 593 m 0
 4 593 10 590 13 587 c 1
 16 590 22 592 26 592 c 2
 53 592 l 2
 57 592 63 590 66 587 c 1
 69 590 75 592 79 592 c 2
 105 592 l 2
 109 592 115 590 118 587 c 1
 121 590 128 592 132 592 c 2
 158 592 l 2
 162 592 168 590 171 587 c 1
 174 590 180 592 184 592 c 2
 211 592 l 2
 215 592 221 590 224 587 c 1
 227 590 233 592 237 592 c 2
 263 592 l 2
 267 592 273 590 276 587 c 1
 279 590 285 592 289 592 c 2
 316 592 l 2
 320 592 326 590 329 587 c 1
 332 590 338 592 342 592 c 2
 368 592 l 2
 372 592 379 590 382 587 c 1
 385 590 391 592 395 592 c 2
 421 592 l 2
 432 592 441 584 441 573 c 2
 441 20 l 2
 441 9 432 0 421 0 c 0
 417 0 411 2 408 5 c 1
 405 2 399 0 395 0 c 2
 368 0 l 2
 364 0 358 2 355 5 c 1
 352 2 346 0 342 0 c 2
 316 0 l 2
 312 0 306 2 303 5 c 1
 300 2 293 0 289 0 c 2
 263 0 l 2
 259 0 253 2 250 5 c 1
 247 2 241 0 237 0 c 2
 211 0 l 2
 207 0 200 2 197 5 c 1
 194 2 188 0 184 0 c 2
 158 0 l 2
 154 0 148 2 145 5 c 1
 142 2 136 0 132 0 c 2
 105 0 l 2
 101 0 95 2 92 5 c 1
 89 2 83 0 79 0 c 2
 53 0 l 2
 49 0 42 2 39 5 c 1
 36 2 30 0 26 0 c 2
 0 0 l 2
 -11 0 -20 9 -20 20 c 2
 -20 573 l 2
 -20 584 -11 593 0 593 c 0
EndSplineSet
EndChar

StartChar: dieresis
Encoding: 168 168 97
Width: 394
Flags: MW
HStem: 448 118<103 108 105 108 108 132 263 266 266 289 289 290>
VStem: 59 119<494 520 492 522> 217 119<494 520 492 522>
LayerCount: 2
Fore
SplineSet
263 566 m 2
 266 566 l 1
 289 566 l 1
 290 566 l 2
 294 566 300 563 303 560 c 2
 330 534 l 2
 333 531 336 524 336 520 c 2
 336 494 l 2
 336 490 333 483 330 480 c 2
 303 453 l 2
 300 450 294 448 290 448 c 2
 289 448 l 1
 263 448 l 2
 259 448 252 450 249 453 c 2
 223 480 l 2
 220 483 217 490 217 494 c 2
 217 520 l 2
 217 524 220 531 223 534 c 2
 247 558 l 2
 249 560 252 563 255 564 c 2
 255 565 l 1
 256 565 l 2
 258 566 261 566 263 566 c 2
105 566 m 2
 108 566 l 1
 132 566 l 2
 136 566 143 563 146 560 c 2
 172 534 l 2
 175 531 178 524 178 520 c 2
 178 494 l 2
 178 490 175 483 172 480 c 2
 146 453 l 2
 143 450 136 448 132 448 c 2
 105 448 l 2
 101 448 94 450 91 453 c 2
 65 480 l 2
 62 483 59 490 59 494 c 2
 59 520 l 2
 59 524 62 531 65 534 c 2
 89 558 l 2
 91 560 94 563 97 564 c 2
 98 565 l 2
 100 566 103 566 105 566 c 2
EndSplineSet
EndChar

StartChar: copyright
Encoding: 169 169 98
Width: 631
Flags: MW
HStem: -52 39<262 365 266 365 266 368> 53 39<287.5 337 294 337 294 342> 395 39<294 337 294 294> 500 40<266 266 266 365>
VStem: 59 40<207 281 207 283 207 283.5> 190 38 428 39<184 303 303 303> 533 39<207 281 281 281>
LayerCount: 2
Fore
SplineSet
289 434 m 2
 342 434 l 2
 345 434 349 433 351 432 c 2
 404 406 l 2
 407 405 409 401 411 399 c 2
 464 320 l 2
 466 317 467 312 467 309 c 2
 467 178 l 2
 467 175 466 170 464 167 c 2
 411 88 l 2
 409 86 407 82 404 81 c 2
 351 55 l 2
 349 54 345 53 342 53 c 2
 289 53 l 2
 286 53 283 54 281 55 c 2
 228 81 l 2
 226 82 224 84 223 85 c 2
 197 111 l 2
 194 114 191 120 191 125 c 0
 191 136 200 145 211 145 c 0
 216 145 222 142 225 139 c 2
 249 115 l 1
 294 92 l 1
 337 92 l 1
 381 114 l 1
 428 184 l 1
 428 303 l 1
 381 373 l 1
 337 395 l 1
 294 395 l 1
 252 374 l 1
 228 327 l 2
 225 321 217 315 210 315 c 0
 199 315 190 324 190 335 c 0
 190 338 192 343 193 345 c 2
 219 397 l 2
 221 400 225 404 228 406 c 2
 281 432 l 2
 283 433 286 434 289 434 c 2
266 500 m 1
 195 476 l 1
 148 429 l 1
 124 381 l 1
 99 281 l 1
 99 207 l 1
 124 106 l 1
 148 58 l 1
 195 11 l 1
 266 -13 l 1
 365 -13 l 1
 437 11 l 1
 484 58 l 1
 508 106 l 1
 533 207 l 1
 533 281 l 1
 508 381 l 1
 484 429 l 1
 437 476 l 1
 365 500 l 1
 266 500 l 1
369 540 m 2
 370 540 371 539 372 539 c 2
 373 539 l 2
 374 539 376 538 377 538 c 2
 454 512 l 2
 456 511 459 510 461 508 c 2
 514 455 l 2
 515 454 517 452 518 450 c 2
 544 397 l 2
 545 396 545 394 545 393 c 2
 572 288 l 1
 572 283 l 1
 572 204 l 1
 572 199 l 1
 545 94 l 2
 545 93 545 91 544 90 c 2
 518 37 l 2
 517 35 515 33 514 32 c 2
 461 -20 l 2
 459 -22 456 -24 454 -25 c 2
 375 -51 l 2
 373 -52 370 -52 368 -52 c 2
 263 -52 l 2
 261 -52 259 -52 257 -51 c 2
 178 -25 l 2
 176 -24 172 -22 170 -20 c 2
 118 32 l 2
 117 33 115 35 114 37 c 2
 88 90 l 2
 87 91 86 93 86 94 c 2
 60 199 l 2
 60 200 59 203 59 204 c 2
 59 283 l 2
 59 284 60 287 60 288 c 2
 86 393 l 2
 86 394 87 396 88 397 c 2
 114 450 l 2
 115 452 117 454 118 455 c 2
 170 508 l 2
 172 510 176 511 178 512 c 2
 257 539 l 2
 259 540 261 540 263 540 c 2
 366 540 l 1
 368 540 l 1
 369 540 l 2
EndSplineSet
EndChar

StartChar: guillemotleft
Encoding: 171 171 99
Width: 368
Flags: MW
HStem: 388 20G<180 181 181 184 184 186 186 188 188 189 189 190 190 190 338 339 339 342 342 344 344 346 346 347 347 348 348 348>
LayerCount: 2
Fore
SplineSet
342 408 m 1
 344 408 l 1
 346 408 l 1
 347 408 l 1
 348 408 l 1
 348 407 l 1
 349 407 l 1
 350 407 l 1
 351 406 l 1
 353 405 l 1
 355 404 l 1
 356 403 l 1
 357 401 l 1
 358 401 l 2
 359 400 360 399 360 398 c 2
 360 397 l 1
 360 396 l 1
 361 395 l 2
 361 394 362 394 362 393 c 2
 362 392 l 1
 362 390 l 1
 362 389 l 1
 362 386 l 1
 362 385 l 1
 362 384 l 2
 362 383 361 384 361 383 c 0
 361 382 360 382 360 381 c 2
 360 379 l 2
 360 378 358 377 357 376 c 2
 357 375 l 1
 236 230 l 1
 357 85 l 1
 358 84 l 1
 359 82 l 1
 360 81 l 1
 361 79 l 1
 361 78 l 1
 361 77 l 1
 362 77 l 1
 362 75 l 1
 362 72 l 1
 362 71 l 1
 362 70 l 1
 362 69 l 1
 361 67 l 1
 361 65 l 1
 360 64 l 1
 360 63 l 1
 359 62 l 1
 358 60 l 1
 356 59 l 1
 355 57 l 1
 354 57 l 2
 353 56 351 55 350 54 c 2
 348 54 l 1
 348 53 l 1
 346 53 l 1
 344 53 l 1
 342 53 l 1
 340 53 l 2
 338 53 337 53 335 54 c 2
 334 54 l 2
 333 54 332 56 331 56 c 2
 330 57 l 1
 328 58 l 1
 328 59 l 1
 170 216 l 2
 167 219 164 225 164 230 c 0
 164 235 167 241 170 244 c 2
 328 402 l 1
 329 403 l 1
 332 406 l 1
 334 406 l 2
 335 406 337 408 338 408 c 2
 339 408 l 1
 342 408 l 1
184 408 m 1
 186 408 l 1
 188 408 l 1
 189 408 l 1
 190 408 l 1
 190 407 l 1
 192 407 l 1
 193 406 l 1
 194 406 l 1
 195 405 l 1
 197 404 l 1
 198 403 l 1
 199 401 l 1
 200 401 l 2
 201 400 202 399 202 398 c 2
 202 397 l 1
 203 396 l 1
 203 395 l 2
 203 394 204 394 204 393 c 2
 204 392 l 1
 204 390 l 1
 204 389 l 1
 204 386 l 1
 204 385 l 1
 204 384 l 2
 204 383 203 384 203 383 c 2
 203 381 l 1
 202 379 l 2
 202 378 201 377 200 376 c 2
 199 376 l 1
 199 375 l 1
 78 230 l 1
 199 85 l 1
 200 84 l 1
 201 82 l 1
 202 81 l 1
 203 79 l 1
 203 78 l 1
 204 77 l 1
 204 75 l 1
 204 72 l 1
 204 71 l 1
 204 70 l 1
 204 69 l 1
 203 67 l 1
 203 65 l 1
 202 64 l 1
 202 63 l 1
 201 62 l 1
 200 60 l 1
 199 59 l 1
 197 57 l 1
 196 57 l 2
 195 56 193 55 192 54 c 2
 190 54 l 1
 190 53 l 1
 188 53 l 1
 186 53 l 1
 185 53 l 1
 184 53 l 1
 182 53 l 1
 181 53 l 1
 179 53 l 1
 177 54 l 1
 176 54 l 1
 175 55 l 1
 173 56 l 1
 172 57 l 1
 170 58 l 1
 170 59 l 1
 12 216 l 2
 9 219 7 225 7 230 c 0
 7 235 9 241 12 244 c 2
 170 402 l 1
 171 403 l 1
 174 406 l 1
 175 406 l 1
 176 406 l 2
 177 406 179 408 180 408 c 2
 181 408 l 1
 184 408 l 1
EndSplineSet
EndChar

StartChar: acute
Encoding: 180 180 100
Width: 315
Flags: MW
HStem: 395 197<73 211 73 211 75 211 76 211 78 211 79 211 80 211 81 211>
VStem: 59 198<410 548 411 548 413 548 414 548 418 548>
LayerCount: 2
Fore
SplineSet
210 592 m 2
 211 592 l 2
 216 592 223 589 226 585 c 2
 251 560 l 2
 254 557 257 550 257 546 c 0
 257 541 253 534 249 531 c 2
 92 400 l 2
 91 399 90 399 89 398 c 0
 88 397 86 396 85 396 c 0
 84 396 84 395 83 395 c 2
 81 395 l 1
 80 395 l 1
 79 395 l 1
 78 395 l 1
 76 395 l 1
 75 395 l 1
 73 395 l 1
 72 396 l 2
 71 396 70 397 69 398 c 2
 68 398 l 1
 66 399 l 1
 65 400 l 1
 64 402 l 1
 63 402 l 1
 62 403 l 1
 62 405 l 1
 61 405 l 1
 61 407 l 1
 60 408 l 2
 60 409 59 409 59 410 c 2
 59 411 l 1
 59 413 l 1
 59 414 l 1
 59 418 l 2
 59 419 60 419 60 420 c 0
 60 421 61 421 61 422 c 2
 62 424 l 2
 63 425 63 426 64 427 c 2
 193 583 l 2
 196 588 204 592 210 592 c 2
EndSplineSet
EndChar

StartChar: cedilla
Encoding: 184 184 101
Width: 131
Flags: MW
HStem: -105 39<46.5 53 52 53 53 71 52 79>
VStem: 33 92<-90.5 -56.5 -61.5 -30.5>
LayerCount: 2
Fore
SplineSet
105 40 m 2
 106 40 l 2
 117 40 125 31 125 20 c 0
 125 15 122 9 119 6 c 2
 94 -20 l 1
 119 -45 l 2
 122 -48 125 -54 125 -59 c 0
 125 -64 122 -70 119 -73 c 2
 93 -99 l 2
 90 -102 83 -105 79 -105 c 2
 53 -105 l 1
 52 -105 l 2
 41 -105 33 -96 33 -85 c 0
 33 -74 41 -66 52 -66 c 2
 53 -66 l 1
 71 -66 l 1
 77 -59 l 1
 71 -52 l 1
 53 -52 l 2
 42 -52 33 -44 33 -33 c 0
 33 -28 36 -22 39 -19 c 2
 91 34 l 2
 94 37 101 40 105 40 c 2
EndSplineSet
EndChar

StartChar: guillemotright
Encoding: 187 187 102
Width: 368
Flags: MW
HStem: 388 20G<22 24 24 26 26 28 28 30 30 30>
VStem: 9 195<62.5 232.5 82 232.5 227.5 379 227.5 379 227.5 399 227.5 399>
LayerCount: 2
Fore
SplineSet
26 408 m 1
 28 408 l 1
 30 408 l 1
 32 407 l 1
 34 407 l 2
 35 407 36 406 37 405 c 2
 39 404 l 1
 39 403 l 1
 40 402 l 1
 198 244 l 2
 201 241 204 235 204 230 c 0
 204 225 201 219 198 216 c 2
 41 59 l 1
 40 59 l 1
 40 58 l 1
 39 58 l 1
 36 55 l 1
 34 54 l 2
 33 54 32 53 31 53 c 2
 30 53 l 1
 27 53 l 1
 26 53 l 1
 25 53 l 1
 23 53 l 1
 21 53 l 2
 20 53 18 55 17 55 c 2
 16 56 l 1
 15 56 l 1
 14 57 l 1
 13 58 l 1
 12 58 l 1
 11 60 l 2
 10 61 9 62 9 63 c 2
 8 65 l 2
 8 66 7 67 7 68 c 2
 7 69 l 1
 7 70 l 1
 6 71 l 1
 6 72 l 2
 6 73 7 73 7 74 c 2
 7 76 l 1
 7 78 l 2
 7 79 8 80 8 80 c 1
 9 82 l 2
 9 83 10 84 11 85 c 2
 132 230 l 1
 11 375 l 1
 11 376 l 1
 10 377 l 1
 9 378 l 1
 9 379 l 1
 8 380 l 1
 8 381 l 1
 7 382 l 1
 7 384 l 1
 7 386 l 2
 7 387 6 388 6 389 c 2
 6 390 l 1
 7 391 l 1
 7 392 l 1
 7 394 l 2
 7 395 8 396 8 397 c 2
 9 397 l 1
 9 399 l 1
 10 399 l 1
 11 401 l 1
 12 402 l 1
 13 403 l 1
 13 404 l 1
 15 405 l 1
 16 406 l 1
 17 406 l 1
 18 407 l 1
 19 407 l 1
 20 407 l 1
 21 407 l 1
 22 408 l 1
 24 408 l 1
 26 408 l 1
EndSplineSet
EndChar

StartChar: Acircumflex
Encoding: 194 194 105
Width: 526
Flags: MW
HStem: 0 21G<51 53 53 56 56 79 443.5 447 447 471 471 474> 132 66<169 357 169 383 144 357> 573 20G<262 263 263 263.5> 645 171<102.5 266 103 266 106 266 107 266 262 419 262 417 262 420 262 422 262 423 262 426>
LayerCount: 2
Fore
SplineSet
264 816 m 0
 268 816 274 814 277 811 c 2
 434 680 l 1
 435 680 l 1
 437 678 l 1
 437 677 l 1
 439 676 l 1
 439 675 l 1
 440 674 l 1
 441 673 l 1
 441 672 l 1
 441 671 l 1
 441 670 l 1
 442 669 l 1
 442 667 l 1
 442 665 l 1
 442 664 l 1
 442 661 l 1
 442 659 l 1
 441 657 l 1
 440 655 l 1
 439 654 l 1
 438 652 l 1
 437 651 l 1
 435 649 l 1
 434 649 l 1
 434 648 l 1
 432 647 l 2
 431 647 429 646 428 646 c 2
 426 645 l 1
 423 645 l 1
 422 645 l 1
 420 645 l 1
 419 645 l 1
 417 645 l 1
 417 646 l 2
 416 646 414 646 413 647 c 2
 412 648 l 1
 411 648 l 1
 264 746 l 1
 118 649 l 1
 118 648 l 1
 117 648 l 1
 116 647 l 1
 115 647 l 2
 114 647 112 645 111 645 c 2
 107 645 l 1
 106 645 l 1
 103 645 l 2
 102 645 100 646 99 646 c 2
 98 647 l 1
 97 647 l 1
 96 647 l 1
 96 648 l 1
 94 649 l 1
 93 650 l 1
 91 652 l 1
 90 653 l 1
 89 655 l 2
 89 656 88 657 88 658 c 0
 88 659 87 659 87 660 c 2
 87 661 l 1
 87 662 l 1
 87 665 l 1
 87 666 l 1
 87 668 l 2
 87 670 88 673 89 674 c 0
 90 675 90 676 91 677 c 2
 94 680 l 1
 252 811 l 2
 255 814 260 816 264 816 c 0
263 439 m 1
 169 198 l 1
 357 198 l 1
 263 439 l 1
263 517 m 1
 262 514 l 1
 263 514 l 1
 264 514 l 1
 263 517 l 1
262 593 m 1
 263 593 l 2
 264 593 266 592 267 592 c 2
 269 592 l 2
 275 590 282 583 283 577 c 2
 491 30 l 2
 492 27 494 23 494 20 c 0
 494 18 493 14 492 12 c 0
 492 11 491 10 490 9 c 2
 489 7 l 2
 486 3 479 0 474 0 c 2
 471 0 l 1
 447 0 l 2
 440 0 432 6 429 13 c 2
 383 132 l 1
 144 132 l 1
 97 13 l 2
 94 6 86 0 79 0 c 2
 56 0 l 1
 53 0 l 2
 49 0 42 3 39 6 c 2
 37 7 l 1
 36 8 l 1
 36 10 l 1
 35 10 l 2
 33 13 33 17 33 20 c 0
 33 23 34 28 35 30 c 2
 244 577 l 2
 245 583 250 589 256 591 c 0
 257 591 257 592 258 592 c 2
 260 592 l 1
 262 592 l 1
 262 593 l 1
EndSplineSet
EndChar

StartChar: Atilde
Encoding: 195 195 106
Width: 526
Flags: MW
HStem: 0 21G<51 53 53 56 56 79 443.5 447 447 471 471 474> 132 66<169 357 169 383 144 357> 573 20G<262 263 263 263.5> 645 66<368.5 418 375 418 375 423> 777 65<112 155 112 112>
VStem: 8 40<665 713> 482 39<775 823>
LayerCount: 2
Fore
SplineSet
501 843 m 2
 502 843 l 2
 513 843 521 834 521 823 c 2
 521 773 l 1
 521 771 l 1
 521 766 l 2
 521 765 520 765 520 764 c 2
 520 763 l 1
 494 685 l 2
 493 681 488 675 484 673 c 2
 432 647 l 2
 430 646 426 645 423 645 c 2
 370 645 l 2
 367 645 363 646 361 647 c 2
 309 673 l 2
 308 673 307 674 306 675 c 2
 202 753 l 1
 155 777 l 1
 112 777 l 1
 69 755 l 1
 48 713 l 1
 48 665 l 2
 48 654 39 645 28 645 c 0
 17 645 8 654 8 665 c 2
 8 715 l 1
 8 717 l 2
 8 718 9 721 9 722 c 2
 9 724 l 1
 10 725 l 1
 36 803 l 2
 37 807 41 812 45 814 c 2
 98 840 l 2
 100 841 104 842 107 842 c 2
 160 842 l 2
 163 842 166 841 168 840 c 2
 221 814 l 2
 222 814 223 813 224 812 c 2
 328 734 l 1
 375 711 l 1
 418 711 l 1
 461 732 l 1
 482 775 l 1
 482 823 l 2
 482 834 490 843 501 843 c 2
263 439 m 1
 169 198 l 1
 357 198 l 1
 263 439 l 1
263 517 m 1
 262 514 l 1
 263 514 l 1
 264 514 l 1
 263 517 l 1
262 593 m 1
 263 593 l 2
 264 593 266 592 267 592 c 2
 269 592 l 2
 275 590 282 583 283 577 c 2
 491 30 l 2
 492 27 494 23 494 20 c 0
 494 18 493 14 492 12 c 0
 492 11 491 10 490 9 c 2
 489 7 l 2
 486 3 479 0 474 0 c 2
 471 0 l 1
 447 0 l 2
 440 0 432 6 429 13 c 2
 383 132 l 1
 144 132 l 1
 97 13 l 2
 94 6 86 0 79 0 c 2
 56 0 l 1
 53 0 l 2
 49 0 42 3 39 6 c 2
 37 7 l 1
 36 8 l 1
 36 10 l 1
 35 10 l 2
 33 13 33 17 33 20 c 0
 33 23 34 28 35 30 c 2
 244 577 l 2
 245 583 250 589 256 591 c 0
 257 591 257 592 258 592 c 2
 260 592 l 1
 262 592 l 1
 262 593 l 1
EndSplineSet
EndChar

StartChar: Adieresis
Encoding: 196 196 107
Width: 526
Flags: MW
HStem: 0 21G<51 53 53 56 56 79 443.5 447 447 471 471 474> 132 66<169 357 169 383 144 357> 573 20G<262 263 263 263.5> 646 118<170 175 172 175 175 199 330 333 333 356 356 357>
VStem: 126 119<692 718 690 720> 284 119<692 718 690 720>
LayerCount: 2
Fore
SplineSet
330 764 m 2
 333 764 l 1
 356 764 l 1
 357 764 l 2
 361 764 367 761 370 758 c 2
 397 732 l 2
 400 729 403 722 403 718 c 2
 403 692 l 2
 403 688 400 681 397 678 c 2
 370 651 l 2
 367 648 361 646 357 646 c 2
 356 646 l 1
 330 646 l 2
 326 646 319 648 316 651 c 2
 290 678 l 2
 287 681 284 688 284 692 c 2
 284 718 l 2
 284 722 287 729 290 732 c 2
 314 756 l 2
 316 758 319 761 322 762 c 2
 322 763 l 1
 323 763 l 2
 325 764 328 764 330 764 c 2
172 764 m 2
 175 764 l 1
 199 764 l 2
 203 764 210 761 213 758 c 2
 239 732 l 2
 242 729 245 722 245 718 c 2
 245 692 l 2
 245 688 242 681 239 678 c 2
 213 651 l 2
 210 648 203 646 199 646 c 2
 172 646 l 2
 168 646 161 648 158 651 c 2
 132 678 l 2
 129 681 126 688 126 692 c 2
 126 718 l 2
 126 722 129 729 132 732 c 2
 156 756 l 2
 158 758 161 761 164 762 c 2
 165 763 l 2
 167 764 170 764 172 764 c 2
263 439 m 1
 169 198 l 1
 357 198 l 1
 263 439 l 1
263 517 m 1
 262 514 l 1
 263 514 l 1
 264 514 l 1
 263 517 l 1
262 593 m 1
 263 593 l 2
 264 593 266 592 267 592 c 2
 269 592 l 2
 275 590 282 583 283 577 c 2
 491 30 l 2
 492 27 494 23 494 20 c 0
 494 18 493 14 492 12 c 0
 492 11 491 10 490 9 c 2
 489 7 l 2
 486 3 479 0 474 0 c 2
 471 0 l 1
 447 0 l 2
 440 0 432 6 429 13 c 2
 383 132 l 1
 144 132 l 1
 97 13 l 2
 94 6 86 0 79 0 c 2
 56 0 l 1
 53 0 l 2
 49 0 42 3 39 6 c 2
 37 7 l 1
 36 8 l 1
 36 10 l 1
 35 10 l 2
 33 13 33 17 33 20 c 0
 33 23 34 28 35 30 c 2
 244 577 l 2
 245 583 250 589 256 591 c 0
 257 591 257 592 258 592 c 2
 260 592 l 1
 262 592 l 1
 262 593 l 1
EndSplineSet
EndChar

StartChar: Ccedilla
Encoding: 199 199 108
Width: 578
Flags: MW
HStem: -140 39<201.5 208 207 208 208 226 207 234> 0 66<235.5 337 242 337 242 342> 526 66<242 337 242 242>
VStem: 59 66<234 359 234 362 234 363> 188 92<-125.5 -91.5 -96.5 -65.5>
LayerCount: 2
Fore
SplineSet
260 5 m 2
 261 5 l 2
 272 5 280 -4 280 -15 c 0
 280 -20 277 -26 274 -29 c 2
 249 -55 l 1
 274 -80 l 2
 277 -83 280 -89 280 -94 c 0
 280 -99 277 -105 274 -108 c 2
 248 -134 l 2
 245 -137 238 -140 234 -140 c 2
 208 -140 l 1
 207 -140 l 2
 196 -140 188 -131 188 -120 c 0
 188 -109 196 -101 207 -101 c 2
 208 -101 l 1
 226 -101 l 1
 232 -94 l 1
 226 -87 l 1
 208 -87 l 2
 197 -87 188 -79 188 -68 c 0
 188 -63 191 -57 194 -54 c 2
 246 -1 l 2
 249 2 256 5 260 5 c 2
237 592 m 2
 342 592 l 2
 345 592 349 591 351 590 c 2
 404 564 l 2
 406 563 408 561 409 560 c 2
 461 508 l 2
 462 507 464 504 465 502 c 2
 490 453 l 2
 492 450 494 445 494 441 c 0
 494 439 493 435 492 433 c 2
 491 432 l 1
 491 431 l 1
 490 430 l 1
 489 428 l 2
 486 424 479 421 474 421 c 2
 471 421 l 1
 447 421 l 2
 440 421 433 426 430 432 c 2
 405 482 l 1
 383 504 l 1
 337 526 l 1
 242 526 l 1
 198 505 l 1
 149 432 l 1
 125 359 l 1
 125 234 l 1
 149 160 l 1
 198 88 l 1
 242 66 l 1
 337 66 l 1
 383 89 l 1
 405 111 l 1
 430 160 l 2
 433 166 440 171 447 171 c 2
 471 171 l 1
 474 171 l 2
 480 171 487 168 490 163 c 2
 491 162 l 1
 492 160 l 2
 493 158 494 153 494 151 c 0
 494 147 492 143 490 140 c 2
 465 90 l 2
 464 88 462 86 461 85 c 2
 409 32 l 2
 408 31 406 30 404 29 c 2
 351 2 l 2
 349 1 345 0 342 0 c 2
 237 0 l 2
 234 0 230 1 228 2 c 2
 175 29 l 2
 173 30 171 31 170 32 c 2
 118 85 l 2
 117 86 115 88 114 90 c 2
 88 143 l 2
 88 144 87 144 87 145 c 2
 60 224 l 2
 59 226 59 228 59 230 c 2
 59 362 l 2
 59 364 59 366 60 368 c 2
 87 447 l 2
 87 448 88 449 88 450 c 2
 114 502 l 2
 115 504 117 507 118 508 c 2
 170 560 l 2
 171 561 173 563 175 564 c 2
 228 590 l 2
 230 591 234 592 237 592 c 2
EndSplineSet
EndChar

StartChar: Ecircumflex
Encoding: 202 202 111
Width: 526
Flags: MW
HStem: 0 66<103 421 105 421 151 418 418 421> 263 66<151 286 151 289 286 289> 526 66<151 418 418 418.5 109 421 151 151> 645 171<101.5 265 102 265 105 265 106 265 261 418 261 416 261 419 261 421 261 422 261 425>
VStem: 86 65<66 263 329 526>
LayerCount: 2
Fore
SplineSet
263 816 m 0
 267 816 273 814 276 811 c 2
 433 680 l 1
 434 680 l 1
 436 678 l 1
 436 677 l 1
 438 676 l 1
 438 675 l 1
 439 674 l 1
 440 673 l 1
 440 672 l 1
 440 671 l 1
 440 670 l 1
 441 669 l 1
 441 667 l 1
 441 665 l 1
 441 664 l 1
 441 661 l 1
 441 659 l 1
 440 657 l 1
 439 655 l 1
 438 654 l 1
 437 652 l 1
 436 651 l 1
 434 649 l 1
 433 649 l 1
 433 648 l 1
 431 647 l 2
 430 647 428 646 427 646 c 2
 425 645 l 1
 422 645 l 1
 421 645 l 1
 419 645 l 1
 418 645 l 1
 416 645 l 1
 416 646 l 2
 415 646 413 646 412 647 c 2
 411 648 l 1
 410 648 l 1
 263 746 l 1
 117 649 l 1
 117 648 l 1
 116 648 l 1
 115 647 l 1
 114 647 l 2
 113 647 111 645 110 645 c 2
 106 645 l 1
 105 645 l 1
 102 645 l 2
 101 645 99 646 98 646 c 2
 97 647 l 1
 96 647 l 1
 95 647 l 1
 95 648 l 1
 93 649 l 1
 92 650 l 1
 90 652 l 1
 89 653 l 1
 88 655 l 2
 88 656 87 657 87 658 c 0
 87 659 86 659 86 660 c 2
 86 661 l 1
 86 662 l 1
 86 665 l 1
 86 666 l 1
 86 668 l 2
 86 670 87 673 88 674 c 0
 89 675 89 676 90 677 c 2
 93 680 l 1
 251 811 l 2
 254 814 259 816 263 816 c 0
105 593 m 0
 106 593 108 592 109 592 c 2
 418 592 l 2
 419 592 420 593 421 593 c 0
 425 593 432 590 435 587 c 2
 436 585 l 2
 439 582 441 577 441 573 c 2
 441 569 l 1
 441 546 l 2
 441 535 432 526 421 526 c 2
 151 526 l 1
 151 329 l 1
 289 329 l 2
 300 329 309 320 309 309 c 2
 309 286 l 1
 309 283 l 2
 309 279 307 272 304 269 c 2
 302 268 l 2
 299 265 293 263 289 263 c 2
 286 263 l 1
 151 263 l 1
 151 66 l 1
 421 66 l 2
 432 66 441 57 441 46 c 2
 441 23 l 1
 441 20 l 2
 441 16 438 9 435 6 c 2
 434 5 l 2
 431 2 425 0 421 0 c 2
 418 0 l 1
 109 0 l 1
 105 0 l 2
 101 0 95 2 92 5 c 2
 91 6 l 1
 90 7 l 2
 87 10 85 16 85 20 c 0
 85 21 86 22 86 23 c 2
 86 569 l 2
 86 570 85 572 85 573 c 0
 85 577 88 583 91 586 c 2
 91 587 l 1
 92 588 l 2
 95 591 101 593 105 593 c 0
EndSplineSet
EndChar

StartChar: Edieresis
Encoding: 203 203 112
Width: 526
Flags: MW
HStem: 0 66<103 421 105 421 151 418 418 421> 263 66<151 286 151 289 286 289> 526 66<151 418 418 418.5 109 421 151 151> 646 118<169 174 171 174 174 198 329 332 332 355 355 356>
VStem: 86 65<66 263 329 526> 125 119<692 718 690 720> 283 119<692 718 690 720>
LayerCount: 2
Fore
SplineSet
329 764 m 2x16
 332 764 l 1
 355 764 l 1
 356 764 l 2
 360 764 366 761 369 758 c 2
 396 732 l 2
 399 729 402 722 402 718 c 2
 402 692 l 2
 402 688 399 681 396 678 c 2
 369 651 l 2
 366 648 360 646 356 646 c 2
 355 646 l 1
 329 646 l 2
 325 646 318 648 315 651 c 2
 289 678 l 2
 286 681 283 688 283 692 c 2
 283 718 l 2
 283 722 286 729 289 732 c 2
 313 756 l 2
 315 758 318 761 321 762 c 2
 321 763 l 1
 322 763 l 2
 324 764 327 764 329 764 c 2x16
171 764 m 2
 174 764 l 1
 198 764 l 2
 202 764 209 761 212 758 c 2
 238 732 l 2
 241 729 244 722 244 718 c 2
 244 692 l 2
 244 688 241 681 238 678 c 2
 212 651 l 2
 209 648 202 646 198 646 c 2
 171 646 l 2
 167 646 160 648 157 651 c 2
 131 678 l 2
 128 681 125 688 125 692 c 2
 125 718 l 2
 125 722 128 729 131 732 c 2
 155 756 l 2
 157 758 160 761 163 762 c 2
 164 763 l 2
 166 764 169 764 171 764 c 2
105 593 m 0xe8
 106 593 108 592 109 592 c 2
 418 592 l 2
 419 592 420 593 421 593 c 0
 425 593 432 590 435 587 c 2
 436 585 l 2
 439 582 441 577 441 573 c 2
 441 569 l 1
 441 546 l 2
 441 535 432 526 421 526 c 2
 151 526 l 1
 151 329 l 1
 289 329 l 2
 300 329 309 320 309 309 c 2
 309 286 l 1
 309 283 l 2
 309 279 307 272 304 269 c 2
 302 268 l 2
 299 265 293 263 289 263 c 2
 286 263 l 1
 151 263 l 1
 151 66 l 1
 421 66 l 2
 432 66 441 57 441 46 c 2
 441 23 l 1
 441 20 l 2
 441 16 438 9 435 6 c 2
 434 5 l 2
 431 2 425 0 421 0 c 2
 418 0 l 1
 109 0 l 1
 105 0 l 2
 101 0 95 2 92 5 c 2
 91 6 l 1
 90 7 l 2
 87 10 85 16 85 20 c 0
 85 21 86 22 86 23 c 2
 86 569 l 2
 86 570 85 572 85 573 c 0
 85 577 88 583 91 586 c 2
 91 587 l 1
 92 588 l 2
 95 591 101 593 105 593 c 0xe8
EndSplineSet
EndChar

StartChar: igrave
Encoding: 236 236 135
Width: 263
Flags: HMW
HStem: 0 21G<99.5 105 105 128 128 132> 388 20G 474 118<103 108 105 108 108 132> 645 197<208 336 208 340 208 342 208 344>
VStem: 59 119<520 546 518 548> 86 65<22.5 23 23 385 385 385.5> 162 195<654 798>
LayerCount: 2
Fore
SplineSet
105 408 m 2xe8
 109 408 l 1
 132 408 l 2
 143 408 151 399 151 388 c 2
 151 23 l 2
 151 22 152 21 152 20 c 0
 152 16 149 9 146 6 c 2
 145 5 l 1
 144 5 l 2
 141 2 136 0 132 0 c 2
 128 0 l 1
 105 0 l 2
 94 0 86 9 86 20 c 2
 86 385 l 2
 86 386 85 387 85 388 c 0
 85 392 88 399 91 402 c 2
 92 404 l 2
 95 407 101 408 105 408 c 2xe8
EndSplineSet
Refer: 65 96 N 1 0 0 1 -40 78 2
EndChar

StartChar: iacute
Encoding: 237 237 136
Width: 263
Flags: HMW
HStem: 0 21G<99.5 105 105 128 128 132> 388 20G 474 118<103 108 105 108 108 132> 645 197<176 314 176 314 178 314 179 314 181 314 182 314 183 314 184 314>
VStem: 59 119<520 546 518 548> 86 65<22.5 23 23 385 385 385.5> 162 198<660 798 661 798 663 798 664 798 668 798>
LayerCount: 2
Fore
SplineSet
105 408 m 2xe8
 109 408 l 1
 132 408 l 2
 143 408 151 399 151 388 c 2
 151 23 l 2
 151 22 152 21 152 20 c 0
 152 16 149 9 146 6 c 2
 145 5 l 1
 144 5 l 2
 141 2 136 0 132 0 c 2
 128 0 l 1
 105 0 l 2
 94 0 86 9 86 20 c 2
 86 385 l 2
 86 386 85 387 85 388 c 0
 85 392 88 399 91 402 c 2
 92 404 l 2
 95 407 101 408 105 408 c 2xe8
EndSplineSet
Refer: 100 180 N 1 0 0 1 -20.5 79 2
EndChar

StartChar: icircumflex
Encoding: 238 238 137
Width: 263
Flags: HMW
HStem: 0 21G<99.5 105 105 128 128 132> 388 20G 474 118<103 108 105 108 108 132> 645 171<-58.5 105 -58 105 -55 105 -54 105 101 258 101 256 101 259 101 261 101 262 101 265>
VStem: 59 119<520 546 518 548> 86 65<22.5 23 23 385 385 385.5>
LayerCount: 2
Fore
SplineSet
105 408 m 2xe8
 109 408 l 1
 132 408 l 2
 143 408 151 399 151 388 c 2
 151 23 l 2
 151 22 152 21 152 20 c 0
 152 16 149 9 146 6 c 2
 145 5 l 1
 144 5 l 2
 141 2 136 0 132 0 c 2
 128 0 l 1
 105 0 l 2
 94 0 86 9 86 20 c 2
 86 385 l 2
 86 386 85 387 85 388 c 0
 85 392 88 399 91 402 c 2
 92 404 l 2
 95 407 101 408 105 408 c 2xe8
EndSplineSet
Refer: 63 94 N 1 0 0 1 -171 79 2
EndChar

StartChar: idieresis
Encoding: 239 239 138
Width: 263
Flags: HMW
HStem: 0 21G<99.5 105 105 128 128 132> 388 20G 474 118<103 108 105 108 108 132> 646 118<9 14 11 14 14 38 169 172 172 195 195 196>
VStem: -35 119<692 718 690 720> 59 119<520 546 518 548> 86 65<22.5 23 23 385 385 385.5> 123 119<692 718 690 720>
LayerCount: 2
Fore
SplineSet
105 408 m 2xe8
 109 408 l 1
 132 408 l 2
 143 408 151 399 151 388 c 2
 151 23 l 2
 151 22 152 21 152 20 c 0
 152 16 149 9 146 6 c 2
 145 5 l 1
 144 5 l 2
 141 2 136 0 132 0 c 2
 128 0 l 1
 105 0 l 2
 94 0 86 9 86 20 c 2
 86 385 l 2
 86 386 85 387 85 388 c 0
 85 392 88 399 91 402 c 2
 92 404 l 2
 95 407 101 408 105 408 c 2xe8
EndSplineSet
Refer: 97 168 N 1 0 0 1 -68 26 2
EndChar

StartChar: ucircumflex
Encoding: 251 251 144
Width: 526
Flags: MW
HStem: 0 66<182.5 258 215 258 215 263> 388 20G 461 171<89.5 253 90 253 93 253 94 253 249 406 249 404 249 407 249 409 249 410 249 413>
VStem: 86 65<130 385 385 385.5> 375 66<20 23 23 77 77 77 136 385 385 388>
LayerCount: 2
Fore
SplineSet
251 632 m 0
 255 632 261 630 264 627 c 2
 421 496 l 1
 422 496 l 1
 424 494 l 1
 424 493 l 1
 426 492 l 1
 426 491 l 1
 427 490 l 1
 428 489 l 1
 428 488 l 1
 428 487 l 1
 428 486 l 1
 429 485 l 1
 429 483 l 1
 429 481 l 1
 429 480 l 1
 429 477 l 1
 429 475 l 1
 428 473 l 1
 427 471 l 1
 426 470 l 1
 425 468 l 1
 424 467 l 1
 422 465 l 1
 421 465 l 1
 421 464 l 1
 419 463 l 2
 418 463 416 462 415 462 c 2
 413 461 l 1
 410 461 l 1
 409 461 l 1
 407 461 l 1
 406 461 l 1
 404 461 l 1
 404 462 l 2
 403 462 401 462 400 463 c 2
 399 464 l 1
 398 464 l 1
 251 562 l 1
 105 465 l 1
 105 464 l 1
 104 464 l 1
 103 463 l 1
 102 463 l 2
 101 463 99 461 98 461 c 2
 94 461 l 1
 93 461 l 1
 90 461 l 2
 89 461 87 462 86 462 c 2
 85 463 l 1
 84 463 l 1
 83 463 l 1
 83 464 l 1
 81 465 l 1
 80 466 l 1
 78 468 l 1
 77 469 l 1
 76 471 l 2
 76 472 75 473 75 474 c 0
 75 475 74 475 74 476 c 2
 74 477 l 1
 74 478 l 1
 74 481 l 1
 74 482 l 1
 74 484 l 2
 74 486 75 489 76 490 c 0
 77 491 77 492 78 493 c 2
 81 496 l 1
 239 627 l 2
 242 630 247 632 251 632 c 0
105 408 m 2
 109 408 l 1
 132 408 l 2
 143 408 151 399 151 388 c 2
 151 130 l 1
 173 87 l 1
 215 66 l 1
 258 66 l 1
 306 90 l 1
 375 136 l 1
 375 385 l 1
 375 388 l 2
 375 392 377 399 380 402 c 2
 381 402 l 1
 382 404 l 2
 385 407 391 408 395 408 c 2
 398 408 l 1
 421 408 l 2
 432 408 441 399 441 388 c 2
 441 23 l 1
 441 20 l 2
 441 16 438 9 435 6 c 2
 434 5 l 2
 431 2 425 0 421 0 c 2
 418 0 l 1
 395 0 l 2
 384 0 375 9 375 20 c 2
 375 77 l 1
 330 32 l 2
 329 31 327 30 325 29 c 2
 272 2 l 2
 270 1 266 0 263 0 c 2
 184 0 l 2
 181 0 177 1 175 2 c 2
 123 29 l 2
 119 31 114 36 113 40 c 2
 87 119 l 2
 86 121 86 123 86 125 c 2
 86 385 l 2
 86 386 85 387 85 388 c 0
 85 392 88 399 91 402 c 2
 92 404 l 2
 95 407 101 408 105 408 c 2
EndSplineSet
EndChar

StartChar: udieresis
Encoding: 252 252 145
Width: 526
Flags: MW
HStem: 0 66<182.5 258 215 258 215 263> 388 20G 461 118<157 162 159 162 162 186 317 320 320 343 343 344>
VStem: 86 65<130 385 385 385.5> 113 119<507 533 505 535> 271 119<507 533 505 535> 375 66<20 23 23 77 77 77 136 385 385 388>
LayerCount: 2
Fore
SplineSet
317 579 m 2x2c
 320 579 l 1
 343 579 l 1
 344 579 l 2
 348 579 354 576 357 573 c 2
 384 547 l 2
 387 544 390 537 390 533 c 2
 390 507 l 2
 390 503 387 496 384 493 c 2
 357 466 l 2
 354 463 348 461 344 461 c 2
 343 461 l 1
 317 461 l 2
 313 461 306 463 303 466 c 2
 277 493 l 2
 274 496 271 503 271 507 c 2
 271 533 l 2
 271 537 274 544 277 547 c 2
 301 571 l 2
 303 573 306 576 309 577 c 2
 309 578 l 1
 310 578 l 2
 312 579 315 579 317 579 c 2x2c
159 579 m 2
 162 579 l 1
 186 579 l 2
 190 579 197 576 200 573 c 2
 226 547 l 2
 229 544 232 537 232 533 c 2
 232 507 l 2
 232 503 229 496 226 493 c 2
 200 466 l 2
 197 463 190 461 186 461 c 2
 159 461 l 2
 155 461 148 463 145 466 c 2
 119 493 l 2
 116 496 113 503 113 507 c 2
 113 533 l 2
 113 537 116 544 119 547 c 2
 143 571 l 2
 145 573 148 576 151 577 c 2
 152 578 l 2
 154 579 157 579 159 579 c 2
105 408 m 2xd2
 109 408 l 1
 132 408 l 2
 143 408 151 399 151 388 c 2
 151 130 l 1
 173 87 l 1
 215 66 l 1
 258 66 l 1
 306 90 l 1
 375 136 l 1
 375 385 l 1
 375 388 l 2
 375 392 377 399 380 402 c 2
 381 402 l 1
 382 404 l 2
 385 407 391 408 395 408 c 2
 398 408 l 1
 421 408 l 2
 432 408 441 399 441 388 c 2
 441 23 l 1
 441 20 l 2
 441 16 438 9 435 6 c 2
 434 5 l 2
 431 2 425 0 421 0 c 2
 418 0 l 1
 395 0 l 2
 384 0 375 9 375 20 c 2
 375 77 l 1
 330 32 l 2
 329 31 327 30 325 29 c 2
 272 2 l 2
 270 1 266 0 263 0 c 2
 184 0 l 2
 181 0 177 1 175 2 c 2
 123 29 l 2
 119 31 114 36 113 40 c 2
 87 119 l 2
 86 121 86 123 86 125 c 2
 86 385 l 2
 86 386 85 387 85 388 c 0
 85 392 88 399 91 402 c 2
 92 404 l 2
 95 407 101 408 105 408 c 2xd2
EndSplineSet
EndChar

StartChar: glyph10
Encoding: 339 339 146
Width: 789
Flags: MW
HStem: 0 66<209.5 285 215 285 215 289 531 601> 184 66<448 664 448 711 441 664> 342 66<215 215 215 285 531 531 531 601>
VStem: 59 66<181 227 181 230 181 231> 664 66<250 278 278 278>
LayerCount: 2
Fore
SplineSet
531 342 m 1
 485 319 l 1
 465 299 l 1
 448 250 l 1
 664 250 l 1
 664 278 l 1
 643 321 l 1
 601 342 l 1
 531 342 l 1
215 342 m 1
 170 319 l 1
 149 299 l 1
 125 227 l 1
 125 181 l 1
 149 109 l 1
 170 89 l 1
 215 66 l 1
 285 66 l 1
 330 89 l 1
 351 109 l 1
 375 181 l 1
 375 227 l 1
 351 299 l 1
 330 319 l 1
 285 342 l 1
 215 342 l 1
211 408 m 1
 213 408 l 1
 289 408 l 2
 292 408 296 407 298 406 c 2
 351 380 l 2
 353 379 355 377 356 376 c 2
 408 324 l 1
 460 376 l 2
 461 377 463 379 465 380 c 2
 517 406 l 2
 519 407 523 408 526 408 c 2
 605 408 l 2
 608 408 612 407 614 406 c 2
 667 380 l 2
 669 379 671 377 672 376 c 2
 698 350 l 2
 699 349 701 347 702 345 c 2
 728 292 l 2
 729 290 730 286 730 283 c 2
 730 204 l 2
 730 193 722 184 711 184 c 2
 441 184 l 1
 441 181 l 1
 465 109 l 1
 485 89 l 1
 531 66 l 1
 601 66 l 1
 643 87 l 1
 667 134 l 2
 670 140 677 145 684 145 c 0
 689 145 695 142 698 139 c 2
 722 115 l 2
 726 112 729 106 730 101 c 2
 730 100 l 1
 730 99 l 2
 730 93 726 86 722 83 c 2
 672 32 l 2
 671 31 669 30 667 29 c 2
 614 2 l 2
 612 1 608 0 605 0 c 2
 526 0 l 2
 523 0 519 1 517 2 c 2
 465 29 l 2
 463 30 461 31 460 32 c 2
 408 84 l 1
 356 32 l 2
 355 31 353 30 351 29 c 2
 298 2 l 2
 296 1 292 0 289 0 c 2
 211 0 l 2
 208 0 204 1 202 2 c 2
 149 29 l 2
 147 30 145 31 144 32 c 2
 91 85 l 2
 89 87 88 91 87 93 c 2
 60 172 l 2
 59 174 59 176 59 178 c 2
 59 230 l 2
 59 232 59 235 60 237 c 2
 87 316 l 2
 88 318 89 321 91 323 c 2
 144 376 l 2
 145 377 147 379 149 380 c 2
 199 405 l 2
 200 406 203 407 205 407 c 2
 206 407 l 1
 207 408 l 1
 211 408 l 1
EndSplineSet
EndChar

StartChar: glyph21
Encoding: 338 338 147
Width: 736
Flags: MW
HStem: 0 66<235.5 322 266 322 266 339 266 342 266 345 388 655 655 658> 263 66<388 523 388 526 523 526> 526 66<266 266 266 322 388 388 388 655 655 655.5>
VStem: 59 66<234 359 234 362 234 363> 322 66<66 263 329 526>
CounterMasks: 1 e0
LayerCount: 2
Fore
SplineSet
266 526 m 1
 197 503 l 1
 149 432 l 1
 125 359 l 1
 125 234 l 1
 149 160 l 1
 197 89 l 1
 266 66 l 1
 322 66 l 1
 322 526 l 1
 266 526 l 1
342 593 m 0
 343 593 344 592 345 592 c 2
 655 592 l 2
 656 592 657 593 658 593 c 0
 662 593 669 590 672 587 c 2
 673 585 l 2
 676 582 678 577 678 573 c 2
 678 569 l 1
 678 546 l 2
 678 535 669 526 658 526 c 2
 388 526 l 1
 388 329 l 1
 526 329 l 2
 537 329 546 320 546 309 c 2
 546 286 l 1
 546 283 l 2
 546 279 544 272 541 269 c 2
 539 268 l 2
 536 265 530 263 526 263 c 2
 523 263 l 1
 388 263 l 1
 388 66 l 1
 658 66 l 2
 669 66 678 57 678 46 c 2
 678 23 l 1
 678 20 l 2
 678 16 675 9 672 6 c 2
 671 5 l 2
 668 2 662 0 658 0 c 2
 655 0 l 1
 345 0 l 1
 342 0 l 1
 339 0 l 1
 237 0 l 2
 234 0 230 1 228 2 c 2
 175 29 l 2
 173 30 171 31 170 32 c 2
 118 85 l 2
 117 86 115 88 114 90 c 2
 88 143 l 2
 88 144 87 144 87 145 c 2
 60 224 l 2
 59 226 59 228 59 230 c 2
 59 362 l 2
 59 364 59 366 60 368 c 2
 87 447 l 2
 87 448 88 449 88 450 c 2
 114 502 l 2
 115 504 117 507 118 508 c 2
 170 560 l 2
 171 561 173 563 175 564 c 2
 226 589 l 2
 227 590 229 591 231 591 c 2
 232 592 l 1
 233 592 l 1
 237 592 l 1
 239 592 l 1
 339 592 l 2
 340 592 341 593 342 593 c 0
EndSplineSet
EndChar

StartChar: glyph23
Encoding: 8220 8220 148
Width: 394
Flags: MW
HStem: 369 118<103 132 113 132 113 132 271 289 289 290> 555 37<156.5 167>
VStem: 59 119<415 438 438 441 413 443 413 491 413 494 413 496> 217 119<415 438 438 441 413 443 413 491 413 494 413 496>
LayerCount: 2
Fore
SplineSet
316 592 m 0
 327 592 336 584 336 573 c 0
 336 566 331 558 325 555 c 2
 280 533 l 1
 269 489 l 1
 271 487 l 1
 289 487 l 1
 290 487 l 2
 294 487 300 484 303 481 c 2
 330 455 l 2
 333 452 336 445 336 441 c 2
 336 415 l 2
 336 411 333 404 330 401 c 2
 303 374 l 2
 300 371 294 369 290 369 c 2
 289 369 l 1
 263 369 l 2
 259 369 252 371 249 374 c 2
 223 401 l 2
 220 404 217 411 217 415 c 2
 217 438 l 1
 217 441 l 1
 217 443 l 1
 217 491 l 1
 217 494 l 2
 217 498 219 502 221 505 c 2
 245 554 l 2
 247 558 252 563 257 565 c 2
 307 590 l 2
 309 591 313 592 316 592 c 0
158 592 m 0
 169 592 178 584 178 573 c 0
 178 566 173 558 167 555 c 2
 122 533 l 1
 111 489 l 1
 113 487 l 1
 132 487 l 2
 136 487 143 484 146 481 c 2
 172 455 l 2
 175 452 178 445 178 441 c 2
 178 415 l 2
 178 411 175 404 172 401 c 2
 146 374 l 2
 143 371 136 369 132 369 c 2
 105 369 l 2
 101 369 94 371 91 374 c 2
 65 401 l 2
 62 404 59 411 59 415 c 2
 59 438 l 1
 59 441 l 1
 59 443 l 1
 59 491 l 1
 59 494 l 2
 59 498 61 502 63 505 c 2
 87 554 l 2
 89 558 94 563 99 565 c 2
 149 590 l 2
 151 591 155 592 158 592 c 0
EndSplineSet
EndChar

StartChar: glyph37
Encoding: 8221 8221 149
Width: 394
Flags: MW
HStem: 368 38<70 79.5> 474 118<103 132 105 123 263 281>
VStem: 59 119<520 523 523 546 465 548> 217 119<520 523 523 546 465 548>
LayerCount: 2
Fore
SplineSet
263 592 m 2
 289 592 l 1
 290 592 l 2
 294 592 300 590 303 587 c 2
 330 560 l 2
 333 557 336 550 336 546 c 2
 336 523 l 1
 336 520 l 1
 336 517 l 1
 336 470 l 1
 336 467 l 2
 336 463 334 459 332 456 c 2
 308 407 l 2
 306 403 301 398 296 396 c 2
 246 371 l 2
 244 370 239 368 236 368 c 0
 225 368 216 377 216 388 c 0
 216 395 222 403 228 406 c 2
 273 428 l 1
 283 472 l 1
 281 474 l 1
 263 474 l 2
 259 474 252 477 249 480 c 2
 223 506 l 2
 220 509 217 516 217 520 c 2
 217 546 l 2
 217 550 220 557 223 560 c 2
 249 587 l 2
 252 590 259 592 263 592 c 2
105 592 m 2
 132 592 l 2
 136 592 143 590 146 587 c 2
 172 560 l 2
 175 557 178 550 178 546 c 2
 178 523 l 1
 178 520 l 1
 178 517 l 1
 178 470 l 1
 178 467 l 2
 178 463 176 459 174 456 c 2
 150 407 l 2
 148 403 143 398 138 396 c 2
 88 371 l 2
 86 370 81 368 78 368 c 0
 67 368 58 377 58 388 c 0
 58 395 64 403 70 406 c 2
 115 428 l 1
 125 472 l 1
 123 474 l 1
 105 474 l 2
 101 474 94 477 91 480 c 2
 65 506 l 2
 62 509 59 516 59 520 c 2
 59 546 l 2
 59 550 62 557 65 560 c 2
 91 587 l 2
 94 590 101 592 105 592 c 2
EndSplineSet
EndChar

StartChar: glyph38
Encoding: 8208 8208 150
Width: 684
Flags: MW
HStem: 237 39<99.5 579 105 579>
LayerCount: 2
Fore
SplineSet
105 276 m 2
 579 276 l 2
 590 276 599 268 599 257 c 0
 599 246 590 237 579 237 c 2
 105 237 l 2
 94 237 85 246 85 257 c 0
 85 268 94 276 105 276 c 2
EndSplineSet
EndChar

StartChar: glyph46
Encoding: 8201 8201 151
Width: 131
Flags: W
LayerCount: 2
Fore
SplineSet
0 599 m 1024,0,0
EndSplineSet
EndChar

StartChar: glyph55
Encoding: 8212 8212 152
Width: 684
Flags: MW
HStem: 237 39<-5.5 684 0 684>
LayerCount: 2
Fore
SplineSet
0 276 m 2
 684 276 l 2
 695 276 704 268 704 257 c 0
 704 246 695 237 684 237 c 2
 0 237 l 2
 -11 237 -20 246 -20 257 c 0
 -20 268 -11 276 0 276 c 2
EndSplineSet
EndChar

StartChar: glyph152
Encoding: 350 350 153
Width: 526
Flags: MW
HStem: -140 39<161.5 168 167 168 168 186 167 194> 0 66<210 313 215 313 215 316> 526 66<214 311 214 214>
VStem: 59 66<446 485> 148 92<-125.5 -91.5 -96.5 -65.5> 401 66<107 173 173 173>
LayerCount: 2
Fore
SplineSet
220 5 m 2
 221 5 l 2
 232 5 240 -4 240 -15 c 0
 240 -20 237 -26 234 -29 c 2
 209 -55 l 1
 234 -80 l 2
 237 -83 240 -89 240 -94 c 0
 240 -99 237 -105 234 -108 c 2
 208 -134 l 2
 205 -137 198 -140 194 -140 c 2
 168 -140 l 1
 167 -140 l 2
 156 -140 148 -131 148 -120 c 0
 148 -109 156 -101 167 -101 c 2
 168 -101 l 1
 186 -101 l 1
 192 -94 l 1
 186 -87 l 1
 168 -87 l 2
 157 -87 148 -79 148 -68 c 0
 148 -63 151 -57 154 -54 c 2
 206 -1 l 2
 209 2 216 5 220 5 c 2
211 592 m 2
 316 592 l 2
 318 592 320 592 322 591 c 2
 401 565 l 2
 403 564 407 562 409 560 c 2
 460 509 l 2
 464 506 467 499 467 494 c 2
 467 488 l 2
 467 487 466 486 466 486 c 1
 465 484 l 1
 464 483 l 2
 461 478 454 474 448 474 c 2
 445 474 l 1
 395 474 l 2
 391 474 384 477 381 480 c 2
 357 504 l 1
 311 526 l 1
 214 526 l 1
 142 503 l 1
 125 485 l 1
 125 446 l 1
 146 403 l 1
 192 380 l 1
 323 328 l 1
 325 327 l 1
 377 301 l 2
 379 300 381 298 382 297 c 2
 435 244 l 2
 436 243 438 241 439 239 c 2
 465 187 l 2
 466 185 467 181 467 178 c 2
 467 99 l 2
 467 95 464 88 461 85 c 2
 409 32 l 2
 407 30 403 29 401 28 c 2
 322 1 l 2
 320 0 318 0 316 0 c 2
 211 0 l 2
 209 0 206 0 204 1 c 2
 125 28 l 2
 123 29 120 30 118 32 c 2
 67 83 l 2
 63 86 59 94 59 99 c 0
 59 101 60 103 60 104 c 2
 60 105 l 1
 60 106 l 1
 61 108 l 1
 62 110 l 2
 65 115 73 119 79 119 c 2
 81 119 l 1
 132 119 l 2
 136 119 143 116 146 113 c 2
 170 89 l 1
 215 66 l 1
 313 66 l 1
 384 90 l 1
 401 107 l 1
 401 173 l 1
 378 219 l 1
 357 240 l 1
 308 265 l 1
 177 317 l 1
 175 318 l 1
 123 344 l 2
 121 345 119 347 118 348 c 2
 91 374 l 2
 90 375 89 377 88 379 c 2
 61 432 l 2
 60 434 59 438 59 441 c 2
 59 494 l 2
 59 498 62 505 65 508 c 2
 118 560 l 2
 120 562 123 564 125 565 c 2
 204 591 l 2
 206 592 209 592 211 592 c 2
EndSplineSet
EndChar

StartChar: glyph153
Encoding: 351 351 154
Width: 473
Flags: MW
HStem: -140 39<122.5 129 128 129 129 147 128 155> 0 66<183 260 187 260 187 263> 342 66<187 260 187 187>
VStem: 61 327<107 108 108 108 97.5 301 97.5 318> 109 92<-125.5 -91.5 -96.5 -65.5>
LayerCount: 2
Fore
SplineSet
181 5 m 2x88
 182 5 l 2
 193 5 201 -4 201 -15 c 0
 201 -20 198 -26 195 -29 c 2
 170 -55 l 1
 195 -80 l 2
 198 -83 201 -89 201 -94 c 0
 201 -99 198 -105 195 -108 c 2
 169 -134 l 2
 166 -137 159 -140 155 -140 c 2
 129 -140 l 1
 128 -140 l 2
 117 -140 109 -131 109 -120 c 0
 109 -109 117 -101 128 -101 c 2
 129 -101 l 1
 147 -101 l 1
 153 -94 l 1
 147 -87 l 1
 129 -87 l 2
 118 -87 109 -79 109 -68 c 0
 109 -63 112 -57 115 -54 c 2
 167 -1 l 2
 170 2 177 5 181 5 c 2x88
184 408 m 2x70
 263 408 l 2
 265 408 267 408 269 407 c 2
 348 381 l 2
 352 380 358 375 360 371 c 2
 385 321 l 2
 387 318 388 313 388 309 c 0
 388 307 388 304 387 302 c 2
 386 300 l 1
 385 298 l 1
 384 297 l 2
 381 293 374 289 369 289 c 0
 368 289 366 290 365 290 c 2
 342 290 l 2
 335 290 327 295 324 301 c 2
 312 325 l 1
 260 342 l 1
 187 342 l 1
 135 325 l 1
 127 309 l 1
 137 289 l 1
 166 275 l 1
 297 222 l 1
 298 222 l 1
 351 195 l 2
 354 193 358 190 360 187 c 2
 386 134 l 2
 387 132 388 128 388 125 c 2
 388 99 l 2
 388 96 387 92 386 90 c 2
 360 37 l 2
 358 33 352 29 348 28 c 2
 269 1 l 2
 267 0 265 0 263 0 c 2
 184 0 l 2
 182 0 180 0 178 1 c 2
 99 28 l 2
 95 29 90 33 88 37 c 2
 63 87 l 2
 61 90 59 95 59 99 c 0
 59 101 60 105 61 107 c 2
 61 108 l 1
 62 110 l 1
 63 111 l 2
 66 115 74 119 79 119 c 2
 82 119 l 1
 105 119 l 2
 112 119 120 114 123 108 c 2
 135 83 l 1
 187 66 l 1
 260 66 l 1
 312 83 l 1
 322 104 l 1
 322 120 l 1
 310 146 l 1
 281 160 l 1
 151 212 l 1
 149 213 l 1
 96 239 l 2
 93 241 90 245 88 248 c 2
 61 301 l 2
 60 303 59 306 59 309 c 0
 59 312 60 316 61 318 c 2
 88 371 l 2
 90 375 95 380 99 381 c 2
 178 407 l 2
 180 408 182 408 184 408 c 2x70
EndSplineSet
EndChar
