<?xml version="1.0" standalone="no"?>
<!DOCTYPE svg PUBLIC "-//W3C//DTD SVG 1.1//EN" "http://www.w3.org/Graphics/SVG/1.1/DTD/svg11.dtd" >
<svg xmlns="http://www.w3.org/2000/svg" xmlns:xlink="http://www.w3.org/1999/xlink" version="1.1">
<metadata>
Created by FontForge 20170924 at Thu Mar 12 11:06:59 2020
 By cedr,,,
by Luuse (contact@luuse.io), SIL Open Font License
</metadata>
<defs>
<font id="Hershey-Noailles-Times-Simplex-Regular" horiz-adv-x="578" >
  <font-face 
    font-family="Hershey-Noailles-Times"
    font-weight="400"
    font-stretch="normal"
    units-per-em="1100"
    panose-1="2 0 5 3 0 0 0 0 0 0"
    ascent="800"
    descent="-300"
    x-height="463"
    cap-height="666"
    bbox="-88.9502 -205 840 926.8"
    underline-thickness="26.4"
    underline-position="0"
    stemh="58"
    stemv="58"
    unicode-range="U+0020-2026"
  />
<missing-glyph horiz-adv-x="550" 
d="M55 0v540h440v-540h-440zM110 55h330v430h-330v-430z" />
    <glyph glyph-name=".notdef" horiz-adv-x="550" 
d="M55 0v540h440v-540h-440zM110 55h330v430h-330v-430z" />
    <glyph glyph-name="space" unicode=" " horiz-adv-x="346" 
 />
    <glyph glyph-name="exclam" unicode="!" horiz-adv-x="289" 
d="M144 116h1h2c8 -1 17 -7 21 -13l27 -25c4 -4 7 -14 7 -21s-3 -16 -7 -20l-30 -29c-4 -4 -13 -8 -20 -8s-17 4 -21 8l-28 29c-4 4 -9 13 -9 20s5 17 9 21l25 25c4 7 15 13 23 13zM144 666h1c16 0 29 -13 29 -29v-406c0 -16 -13 -30 -29 -30s-29 14 -29 30v406
c0 15 13 29 28 29z" />
    <glyph glyph-name="quotedbl" unicode="&#x22;" horiz-adv-x="463" 
d="M346 666h2c16 0 28 -13 28 -29v-204c0 -16 -12 -28 -28 -28s-30 12 -30 28v204c0 15 13 29 28 29zM116 666c16 0 29 -13 29 -29v-204c0 -16 -13 -28 -29 -28s-29 12 -29 28v204c0 15 14 29 29 29z" />
    <glyph glyph-name="numbersign" unicode="#" horiz-adv-x="635" 
d="M260 346l-26 -115h115l25 115h-114zM493 782c15 0 28 -13 28 -28c0 -2 -1 -6 -1 -8l-74 -341h75c16 0 29 -13 29 -29s-13 -30 -29 -30h-88l-25 -115h84h1c16 0 28 -13 28 -29s-12 -29 -28 -29h-1h-97l-77 -353c-2 -13 -16 -25 -29 -25c-16 0 -28 14 -28 30v7l75 341h-115
l-77 -353c-2 -13 -15 -25 -28 -25c-16 0 -29 14 -29 30c0 2 1 5 1 7l74 341h-75c-16 0 -30 13 -30 29s14 29 30 29h88l25 115h-84c-16 0 -29 14 -29 30s13 29 29 29h96l78 353c2 13 16 23 29 23c15 0 29 -14 29 -29c0 -2 -2 -4 -2 -6l-74 -341h114l78 353c2 13 16 24 29 24z
" />
    <glyph glyph-name="dollar" unicode="$" 
d="M376 315v-247l40 13l47 72v71l-24 48l-22 22zM261 355v-298h57v279zM202 596l-41 -14l-45 -44v-34l46 -46l40 -21v159zM261 607v-191l57 -19v210h-57zM231 781h1c16 0 29 -13 29 -29v-86h57v86c0 16 14 29 30 29s28 -13 28 -29v-95l67 -22c3 -1 9 -5 11 -7l59 -58
c4 -4 8 -13 8 -20v-25v-5c0 -8 -4 -19 -11 -23l-26 -26c-4 -4 -14 -8 -21 -8c-16 0 -29 13 -29 29v28c0 11 9 24 19 28l-35 34l-42 14v-219l9 -3c1 0 3 -1 4 -1l59 -29c2 -1 4 -3 6 -5l30 -30c2 -2 5 -5 6 -7l28 -58c2 -3 3 -10 3 -13v-87c0 -4 -3 -11 -5 -15l-57 -87
c-3 -4 -10 -10 -16 -12l-67 -22v-95v-1c0 -16 -12 -29 -28 -29s-30 13 -30 29v1v87h-57v-87v-1c0 -16 -13 -29 -29 -29s-30 13 -30 29v1v95l-67 22c-3 1 -9 5 -11 7l-58 58c-4 4 -8 14 -8 21v24c0 1 -1 3 -1 4c0 8 5 19 12 23l27 27c4 4 13 8 20 8c16 0 29 -13 29 -29v-29
c0 -11 -10 -22 -20 -26l36 -36l41 -14v306l-8 3c-1 0 -4 1 -5 1l-57 30c-2 1 -6 4 -8 6l-55 55c-3 2 -7 8 -9 11v1c-1 3 -3 8 -3 11c0 1 1 3 1 4v54c0 7 4 16 8 20l58 58c2 2 8 6 11 7l67 22v95c0 15 14 29 29 29z" />
    <glyph glyph-name="percent" unicode="%" horiz-adv-x="694" 
d="M499 202l-44 -22l-21 -42v-40l41 -41h39l44 22l21 43v40l-41 40h-39zM492 261h1c1 0 2 -1 3 -1h54c7 0 17 -4 21 -8l57 -58c4 -4 9 -14 9 -21v-57c0 -3 -1 -11 -3 -14l-29 -58c-2 -4 -9 -10 -13 -12l-58 -30c-3 -2 -10 -2 -13 -2h-58c-7 0 -17 4 -21 8l-57 58
c-4 4 -9 14 -9 21v57c0 3 2 10 4 13l28 59c2 4 9 10 13 12l54 27h1c2 1 7 4 10 5c1 0 5 1 6 1zM180 607l-42 -21l-22 -44v-38l40 -41h40l43 21l22 43v39l-41 41h-40zM608 666c4 0 11 -2 14 -4c2 -1 5 -3 7 -5l1 -1v-2c0 -1 2 -1 2 -2s2 -1 2 -2s1 -2 1 -3c1 -1 2 -5 2 -6v-4
c0 -7 -5 -17 -9 -21v-1l-519 -605c-4 -6 -14 -10 -22 -10c-16 0 -29 13 -29 29c0 6 4 14 7 18l441 515l-34 -11c-2 -1 -7 -1 -9 -1h-87c-2 0 -7 0 -9 1l-49 17v-48c0 -3 0 -10 -2 -13l-30 -57c-2 -4 -8 -11 -12 -13l-58 -29c-3 -2 -11 -3 -14 -3h-57c-7 0 -17 5 -21 9
l-58 57c-4 4 -8 14 -8 21v58c0 3 0 9 2 12l30 58c2 4 8 12 12 14l59 28c3 2 10 4 13 4h54h3c4 0 12 -3 15 -5l54 -26l81 -28h78l80 28l54 26c3 2 11 5 15 5z" />
    <glyph glyph-name="ampersand" unicode="&#x26;" horiz-adv-x="665" 
d="M226 318l-117 -78l-22 -44v-74l21 -41l70 -24h76l47 24l53 53l1 1l-119 166zM261 604l-37 -18l-22 -44v-46l27 -78l13 -20l53 53l23 47v44l-21 44zM260 666h1c3 0 10 -2 13 -4l57 -28c4 -2 11 -10 13 -14l29 -58c2 -3 3 -9 3 -12v-58c0 -3 -1 -11 -3 -14l-29 -57
c-1 -2 -3 -5 -5 -7l-59 -59c-1 -1 -3 -2 -4 -3l-2 -2l10 -16l105 -147l19 29l57 142c0 1 1 1 1 2l29 58c1 2 3 6 5 8l29 28c4 4 14 9 21 9h29c7 0 17 -5 21 -9l28 -28c4 -4 9 -14 9 -21v-24v-5c0 -8 -4 -19 -11 -23l-26 -26c-4 -4 -14 -9 -21 -9c-16 0 -29 12 -29 28v30
c0 11 9 23 19 27l-3 2h-4l-18 -18l-26 -51l-57 -145c-1 -1 -1 -4 -2 -5l-33 -50l2 -2l50 -52l76 -25h12l13 12v18c0 16 13 29 29 29s29 -13 29 -29v-30c0 -7 -5 -16 -9 -20l-28 -29c-4 -4 -14 -8 -21 -8h-29c-2 0 -7 0 -9 1l-87 29c-3 1 -10 5 -12 7l-52 52l-51 -52
c-2 -2 -6 -4 -8 -5l-57 -30c-3 -2 -10 -2 -13 -2h-87c-2 0 -7 0 -9 1l-87 29c-7 2 -15 8 -18 14l-28 58c-2 3 -3 11 -3 14v86c0 3 1 11 3 14l28 57c2 3 7 9 10 11l124 82l-16 22c-1 2 -2 6 -3 8l-29 87c-1 2 -1 7 -1 9v58c0 3 0 9 2 12l30 58c2 4 8 12 12 14l59 28
c3 1 9 4 12 4z" />
    <glyph glyph-name="quotesingle" unicode="'" horiz-adv-x="289" 
d="M144 666h1c16 0 29 -13 29 -29v-145c0 -16 -13 -30 -29 -30s-29 14 -29 30v145c0 15 13 29 28 29z" />
    <glyph glyph-name="parenleft" unicode="(" horiz-adv-x="404" 
d="M318 781h1c16 0 29 -13 29 -29c0 -7 -5 -16 -9 -20l-56 -57l-55 -82l-55 -111l-28 -138v-110l28 -138l55 -111l55 -83l56 -56c4 -4 9 -14 9 -21c0 -16 -13 -29 -29 -29c-7 0 -17 5 -21 9l-58 59l-4 4l-58 87c-1 1 -1 1 -1 2l-58 117c-1 2 -2 4 -2 6l-30 146v5v115v7
l30 144c0 2 1 6 2 8l58 115c0 1 0 3 1 4l58 87l4 4l58 57c4 4 13 9 20 9z" />
    <glyph glyph-name="parenright" unicode=")" horiz-adv-x="404" 
d="M87 781c7 0 17 -5 21 -9l57 -57c1 -1 2 -3 3 -4l59 -87c1 -1 2 -3 2 -4l57 -115c1 -2 3 -6 3 -8l29 -144v-7v-115v-5l-29 -146c0 -2 -2 -4 -3 -6l-57 -117c0 -1 -1 -1 -2 -2l-59 -87c-1 -1 -2 -3 -3 -4l-57 -59c-4 -4 -14 -9 -21 -9c-16 0 -30 13 -30 29c0 7 5 17 9 21
l56 56l55 83l56 111l28 138v110l-28 138l-56 111l-55 82l-56 57c-4 4 -9 13 -9 20c0 16 14 29 30 29z" />
    <glyph glyph-name="asterisk" unicode="*" horiz-adv-x="463" 
d="M231 492h1c16 0 29 -13 29 -29v-123l101 60c4 2 11 5 15 5c16 0 29 -13 29 -29c0 -10 -5 -21 -14 -25l-104 -62l104 -62c9 -4 14 -16 14 -26c0 -16 -13 -28 -29 -28c-4 0 -11 2 -15 4l-101 61v-122v-2c0 -16 -13 -28 -29 -28s-30 12 -30 28v2v122l-101 -61
c-4 -2 -11 -4 -15 -4c-16 0 -29 12 -29 28c0 10 6 22 15 26l103 62l-103 62c-9 4 -15 15 -15 25c0 16 13 29 29 29c4 0 11 -3 15 -5l101 -60v123c0 15 14 29 29 29z" />
    <glyph glyph-name="plus" unicode="+" horiz-adv-x="752" 
d="M376 579c16 0 29 -13 29 -29v-232h232c16 0 30 -13 30 -29s-14 -29 -30 -29h-232v-231c0 -16 -13 -30 -29 -30s-28 14 -28 30v231h-232c-16 0 -29 13 -29 29s13 29 29 29h232v232c0 15 13 29 28 29z" />
    <glyph glyph-name="comma" unicode="," horiz-adv-x="231" 
d="M116 202c7 0 16 -4 20 -8l26 -26c7 -4 12 -16 12 -24v-3v-54c0 -7 -5 -17 -9 -21l-57 -58c-4 -4 -14 -9 -21 -9c-16 0 -30 14 -30 30c0 7 5 17 9 21l40 38c-3 1 -8 5 -10 7l-30 29c-4 4 -8 13 -8 20s4 17 8 21l30 29c4 4 13 8 20 8z" />
    <glyph glyph-name="hyphen" unicode="-" horiz-adv-x="259" 
d="M29 289h203c16 0 29 -13 29 -29s-13 -29 -29 -29h-203c-16 0 -29 13 -29 29s13 29 29 29z" />
    <glyph glyph-name="period" unicode="." horiz-adv-x="231" 
d="M114 202h2h3c8 -1 17 -6 21 -12l25 -25c4 -4 9 -14 9 -21s-5 -16 -9 -20l-29 -29c-4 -4 -13 -8 -20 -8s-16 4 -20 8l-30 29c-4 4 -8 13 -8 20s4 17 8 21l26 25c4 7 14 12 22 12z" />
    <glyph glyph-name="slash" unicode="/" horiz-adv-x="635" 
d="M579 781c16 0 29 -13 29 -29c0 -4 -2 -11 -4 -14l-520 -926c-4 -9 -17 -16 -27 -16c-16 0 -28 13 -28 29c0 4 2 12 4 15l520 927c4 9 16 14 26 14z" />
    <glyph glyph-name="zero" unicode="0" horiz-adv-x="520" 
d="M236 607l-73 -24l-49 -74l-27 -136v-81l27 -137l49 -74l73 -24h49l73 24l49 74l27 137v81l-27 136l-49 74l-73 24h-49zM233 666h1h55c2 0 7 -1 9 -2l87 -29c6 -2 12 -7 15 -11l59 -87c2 -2 3 -8 4 -11l29 -144v-6v-87v-5l-29 -145c-1 -3 -2 -8 -4 -10l-59 -87
c-3 -4 -9 -10 -15 -12l-87 -29c-2 -1 -7 -1 -9 -1h-57h-1c-2 0 -7 0 -9 1l-87 29c-6 2 -11 8 -14 12l-58 87c-2 2 -4 7 -5 10l-28 145c0 1 -1 4 -1 5v87c0 1 1 5 1 6l28 144c1 3 3 9 5 11l58 87c3 4 8 9 14 11l85 28c2 1 5 1 7 1c1 0 1 2 2 2h3h1z" />
    <glyph glyph-name="one" unicode="1" horiz-adv-x="463" 
d="M231 666h1c16 0 29 -13 29 -29v-580h87c16 0 28 -12 28 -28s-12 -29 -28 -29h-112c-1 0 -4 -1 -5 -1s-3 1 -4 1h-111c-16 0 -29 13 -29 29s13 28 29 28h86v484l-4 -7c-2 -3 -8 -8 -11 -10l-58 -29c-3 -2 -10 -3 -13 -3c-16 0 -29 12 -29 28c0 10 6 23 15 27l52 25l54 80
c4 7 14 14 23 14z" />
    <glyph glyph-name="two" unicode="2" 
d="M232 666h116c2 0 6 -1 8 -2l87 -29c3 -1 9 -5 11 -7l30 -28c2 -2 5 -6 6 -8l28 -58c2 -3 3 -11 3 -14v-57c0 -3 -1 -10 -3 -13l-28 -58c-2 -3 -7 -9 -10 -11l-87 -59c-1 -1 -5 -1 -6 -2l-144 -57l-53 -27l-49 -49l-15 -43h44h4c2 0 6 0 8 -1h2c2 -1 5 -3 7 -4l136 -82h95
l17 18l24 47v51v1c0 16 13 28 29 28s29 -12 29 -28v-1v-57c0 -3 -1 -11 -3 -14l-28 -58c-1 -2 -4 -5 -6 -7l-30 -29c-4 -4 -13 -8 -20 -8h-116c-4 0 -11 1 -14 3l-138 84h-38l-12 -12v-46c0 -16 -13 -30 -29 -30s-29 14 -29 30v53c0 1 -1 3 -1 4s1 3 1 4v26c0 2 0 6 1 8
l29 87c1 3 6 9 8 11l57 58c2 2 6 5 8 6l58 29c1 0 1 1 2 1l142 57l78 52l22 45v44l-24 47l-21 21l-75 25h-107l-75 -25l-21 -21l-21 -41c14 -1 26 -14 26 -28v-29c0 -16 -13 -30 -29 -30c-7 0 -16 5 -20 9l-27 27c-7 4 -12 15 -12 23c0 1 1 3 1 4v24c0 3 0 11 2 14l30 58
c1 2 4 6 6 8l28 28c2 2 8 6 11 7l87 29c2 1 7 2 9 2h1z" />
    <glyph glyph-name="three" unicode="3" horiz-adv-x="548" 
d="M232 666h86h1c2 0 7 -1 9 -2l87 -29c7 -2 13 -9 16 -15l29 -58c2 -3 3 -9 3 -12v-87c0 -3 -1 -10 -3 -13l-29 -58c-3 -6 -9 -13 -16 -15l-21 -6l3 -4l57 -58c2 -2 5 -5 6 -7l30 -58c2 -3 2 -10 2 -13v-87c0 -3 0 -10 -2 -13l-30 -57c-1 -2 -4 -6 -6 -8l-28 -29
c-2 -2 -8 -6 -11 -7l-87 -29c-2 -1 -7 -1 -9 -1h-1h-86h-1c-2 0 -7 0 -9 1l-87 29c-3 1 -9 5 -11 7l-28 29c-2 2 -5 6 -6 8l-30 57c-2 3 -2 10 -2 13v24c0 1 -1 4 -1 5c0 8 5 19 12 23l27 26c4 4 13 9 20 9c16 0 29 -13 29 -29v-29c0 -14 -12 -28 -26 -29l21 -41l21 -21
l75 -25h78l75 25l21 21l24 48v73l-24 48l-50 51l-49 23h-50h-1c-16 0 -29 14 -29 30s13 29 29 29h1h53l71 24l20 41v72l-20 42l-71 23h-78l-75 -25l-21 -21l-21 -41c14 -1 26 -14 26 -28v-29c0 -16 -13 -30 -29 -30c-7 0 -16 5 -20 9l-27 27c-7 4 -12 15 -12 23c0 1 1 3 1 4
v24c0 3 0 11 2 14l30 58c1 2 4 6 6 8l28 28c2 2 8 6 11 7l87 29c2 1 7 2 9 2h1z" />
    <glyph glyph-name="four" unicode="4" 
d="M318 541l-206 -310h206v310zM346 666h2h2c1 0 4 -2 5 -2s3 -1 4 -1c10 -4 17 -15 17 -26v-3v-403h116h1c16 0 28 -13 28 -29s-12 -29 -28 -29h-1h-116v-116h58c16 0 29 -12 29 -28s-13 -29 -29 -29h-82c-1 0 -3 -1 -4 -1s-5 1 -6 1h-81h-1c-16 0 -29 13 -29 29
s13 28 29 28h1h57v116h-260c-16 0 -29 13 -29 29c0 4 3 12 5 16l287 432c4 9 15 16 25 16z" />
    <glyph glyph-name="five" unicode="5" horiz-adv-x="520" 
d="M116 666h5h284h1c16 0 28 -13 28 -29s-12 -30 -28 -30h-1h-265l-36 -176c1 0 2 1 3 1l87 29c2 1 6 2 8 2h87c2 0 7 -1 9 -2l87 -29c3 -1 10 -4 12 -6l57 -59c2 -2 7 -8 8 -11l29 -86c1 -2 1 -8 1 -10v-58c0 -2 0 -8 -1 -10l-29 -85c-1 -3 -6 -10 -8 -12l-57 -58
c-2 -2 -9 -6 -12 -7l-87 -29c-2 -1 -7 -1 -9 -1h-87c-2 0 -6 0 -8 1l-87 29c-3 1 -9 5 -11 7l-30 29c-2 2 -5 6 -6 8l-28 57c-2 3 -3 10 -3 13v24v5c0 8 4 19 11 23l26 26c4 4 14 9 21 9c16 0 29 -13 29 -29v-29c0 -14 -12 -28 -26 -29l21 -41l21 -21l75 -25h78l76 25l48 49
l25 76v48l-25 76l-48 49l-76 25h-78l-75 -25l-52 -51c-4 -7 -14 -11 -22 -11c-2 0 -6 0 -8 1c-1 0 -4 1 -5 2h-1l-2 1c-1 0 -1 2 -2 2c-6 4 -11 14 -11 22c0 2 0 7 1 9l57 283c0 7 4 17 10 21h1c4 3 12 7 18 7z" />
    <glyph glyph-name="six" unicode="6" 
d="M267 376l-47 -24l-52 -52l-50 -100l23 -69l48 -49l76 -25h49l75 25l49 49l25 76v20l-25 75l-50 50l-47 24h-74zM289 666h87c3 0 10 -2 13 -4l59 -28c4 -2 10 -10 12 -14l30 -58c2 -3 2 -9 2 -12v-25c0 -1 1 -4 1 -5c0 -8 -5 -19 -12 -23l-27 -26c-4 -4 -13 -8 -20 -8
c-16 0 -29 13 -29 29v28c0 14 12 28 26 29l-19 37l-42 21h-76l-76 -25l-50 -50l-25 -50l-27 -110v-48l3 7c1 2 3 6 5 8l59 57c2 2 4 5 6 6l59 29c3 2 10 2 13 2h87c3 0 10 0 13 -2l57 -29c2 -1 6 -4 8 -6l58 -57c2 -2 6 -9 7 -12l28 -87c1 -2 2 -7 2 -9v-29
c0 -2 -1 -8 -2 -10l-28 -85c-1 -3 -5 -10 -7 -12l-58 -58c-2 -2 -8 -6 -11 -7l-87 -29c-2 -1 -7 -1 -9 -1h-1h-57c-2 0 -7 0 -9 1l-87 29c-3 1 -10 5 -12 7l-57 58c-2 2 -7 9 -8 12l-28 82c-1 3 -3 10 -3 13c0 1 1 2 1 3v171v7l30 115c0 2 1 6 2 7l29 57c1 2 3 6 5 8l59 58
c2 2 8 6 11 7l86 29c2 1 7 2 9 2z" />
    <glyph glyph-name="seven" unicode="7" horiz-adv-x="520" 
d="M57 666h1c16 0 29 -13 29 -29v-18l37 38c4 4 14 9 21 9h57c4 0 13 -3 16 -5l137 -82h39l16 16l26 52c3 9 13 18 23 19h3h1h1h1h1h2c1 0 1 -2 2 -2h1h1c1 0 1 -1 2 -1s1 -1 2 -1s3 -1 4 -1c8 -4 13 -15 13 -24c0 -1 -1 -2 -1 -3v-84c0 -2 0 -8 -1 -10l-29 -87
c-1 -2 -4 -7 -6 -9l-113 -142l-26 -53l-28 -81v-139c0 -16 -12 -30 -28 -30s-29 14 -29 30v144v1c0 2 0 7 1 9l29 87c0 1 2 2 2 3l29 58c1 1 2 5 3 6l112 139l18 53c-4 -4 -14 -9 -21 -9h-57c-4 0 -13 3 -16 5l-137 82h-39l-45 -46l-24 -47v-51v-1c0 -16 -13 -29 -29 -29
s-29 13 -29 29v1v54v3v4v113c0 15 13 29 28 29z" />
    <glyph glyph-name="eight" unicode="8" horiz-adv-x="491" 
d="M208 346l-76 -25l-21 -21l-24 -47v-102l24 -48l21 -21l75 -25h78l76 25l21 21l23 48v102l-23 47l-21 21l-76 25h-77zM208 607l-72 -23l-20 -42v-72l20 -41l71 -24h78l70 24l21 41v72l-21 42l-70 23h-77zM204 666h2h83c2 0 7 -1 9 -2l87 -29c7 -2 15 -9 18 -15l28 -58
c2 -3 3 -9 3 -12v-87c0 -3 -1 -10 -3 -13l-28 -58c-3 -6 -11 -13 -18 -15l-4 -1l4 -2c3 -1 10 -5 12 -7l29 -28c2 -2 4 -6 5 -8l29 -58c2 -3 3 -10 3 -13v-116c0 -3 -1 -10 -3 -13l-29 -57c-1 -2 -3 -6 -5 -8l-29 -29c-2 -2 -9 -6 -12 -7l-87 -29c-2 -1 -7 -1 -9 -1h-87
c-2 0 -6 0 -8 1l-87 29c-3 1 -9 5 -11 7l-30 29c-2 2 -5 6 -6 8l-28 57c-2 3 -3 10 -3 13v116c0 3 1 10 3 13l28 58c1 2 4 6 6 8l30 28c2 2 8 6 11 7l4 2l-4 1c-7 2 -14 9 -17 15l-30 58c-2 3 -2 10 -2 13v87c0 3 0 9 2 12l30 58c3 6 10 13 17 15l84 28c2 1 5 1 7 1
c1 0 1 2 2 2h4z" />
    <glyph glyph-name="nine" unicode="9" horiz-adv-x="491" 
d="M236 607l-75 -25l-49 -48l-25 -76v-19l25 -76l49 -48l75 -26h20l76 26l48 48l25 76v19l-25 76l-48 48l-76 25h-20zM232 666h29c2 0 7 -1 9 -2l86 -29c3 -1 9 -5 11 -7l59 -58c2 -2 5 -8 6 -11l30 -87c1 -2 1 -7 1 -9v-26v-3v-3v-142c0 -2 -1 -5 -1 -7l-29 -116
c0 -2 -1 -4 -2 -5l-28 -59c-1 -2 -4 -5 -6 -7l-58 -58c-2 -2 -6 -4 -8 -5l-57 -30c-3 -2 -10 -2 -13 -2h-87c-3 0 -10 0 -13 2l-59 30c-4 2 -10 8 -12 12l-30 58c-2 3 -2 11 -2 14v24c0 1 -1 3 -1 4c0 8 5 19 12 23l27 27c4 4 13 8 20 8c16 0 29 -13 29 -29v-29
c0 -14 -12 -27 -26 -28l19 -37l42 -22h74l47 24l51 51l26 52l27 109v13l-38 -38c-2 -2 -8 -5 -11 -6l-86 -30c-2 -1 -7 -1 -9 -1h-29h-1c-2 0 -7 0 -9 1l-87 30c-3 1 -9 4 -11 6l-58 59c-2 2 -6 8 -7 11l-28 87c-1 2 -2 6 -2 8v30c0 2 1 7 2 9l28 87c1 3 5 9 7 11l58 58
c2 2 8 6 11 7l87 29c2 1 7 2 9 2h1z" />
    <glyph glyph-name="colon" unicode=":" horiz-adv-x="231" 
d="M114 202h2h3c8 -1 17 -6 21 -12l25 -25c4 -4 9 -14 9 -21s-5 -16 -9 -20l-29 -29c-4 -4 -13 -8 -20 -8s-16 4 -20 8l-30 29c-4 4 -8 13 -8 20s4 17 8 21l26 25c4 7 14 12 22 12zM114 405h2h3c8 -1 17 -5 21 -12l25 -26c4 -4 9 -14 9 -21s-5 -15 -9 -19l-29 -30
c-4 -4 -13 -8 -20 -8s-16 4 -20 8l-30 30c-4 4 -8 12 -8 19s4 17 8 21l26 26c4 7 14 12 22 12z" />
    <glyph glyph-name="semicolon" unicode=";" horiz-adv-x="231" 
d="M116 202c7 0 16 -4 20 -8l26 -26c7 -4 12 -16 12 -24v-3v-54c0 -7 -5 -17 -9 -21l-57 -58c-4 -4 -14 -9 -21 -9c-16 0 -30 14 -30 30c0 7 5 17 9 21l40 38c-3 1 -8 5 -10 7l-30 29c-4 4 -8 13 -8 20s4 17 8 21l30 29c4 4 13 8 20 8zM114 405h2h3c8 -1 17 -5 21 -12
l25 -26c4 -4 9 -14 9 -21s-5 -15 -9 -19l-29 -30c-4 -4 -13 -8 -20 -8s-16 4 -20 8l-30 30c-4 4 -8 12 -8 19s4 17 8 21l26 26c4 7 14 12 22 12z" />
    <glyph glyph-name="less" unicode="&#x3c;" horiz-adv-x="694" 
d="M578 579h2c16 0 28 -13 28 -29c0 -10 -6 -21 -15 -25l-418 -236l418 -235c9 -4 15 -16 15 -26c0 -16 -12 -29 -28 -29c-4 0 -13 2 -16 4l-463 261c-8 4 -14 16 -14 25s6 22 14 26l463 260c3 2 11 4 14 4z" />
    <glyph glyph-name="equal" unicode="=" horiz-adv-x="752" 
d="M116 231h521c16 0 30 -13 30 -29s-14 -29 -30 -29h-521c-16 0 -29 13 -29 29s13 29 29 29zM116 405h521c16 0 30 -13 30 -29s-14 -30 -30 -30h-521c-16 0 -29 14 -29 30s13 29 29 29z" />
    <glyph glyph-name="greater" unicode="&#x3e;" horiz-adv-x="694" 
d="M117 579c4 0 10 -2 13 -4l463 -260c8 -4 15 -17 15 -26s-7 -21 -15 -25l-463 -261c-3 -2 -10 -4 -14 -4c-16 0 -30 13 -30 29c0 10 6 22 15 26l419 235l-419 236c-9 4 -14 15 -14 25c0 16 13 29 29 29h1z" />
    <glyph glyph-name="question" unicode="?" horiz-adv-x="433" 
d="M231 116h1h2c8 -1 17 -7 21 -13l25 -25c4 -4 9 -14 9 -21s-5 -16 -9 -20l-28 -29c-4 -4 -13 -8 -20 -8s-17 4 -21 8l-28 29c-4 4 -9 13 -9 20s5 17 9 21l25 25c4 7 15 13 23 13zM174 666h87c3 0 10 -2 13 -4l57 -28c2 -1 6 -4 8 -6l28 -28c2 -2 5 -6 6 -8l30 -58
c2 -3 2 -11 2 -14v-57c0 -3 0 -10 -2 -13l-30 -58c-1 -2 -4 -6 -6 -8l-28 -29c-1 -1 -4 -2 -5 -3l-73 -50v-71c0 -16 -13 -30 -29 -30s-30 14 -30 30v87c0 9 7 20 14 24l84 56l23 24l25 48v44l-25 47l-22 23l-47 23h-74l-47 -23l-22 -23l-21 -41c14 -1 26 -14 26 -28v-29
c0 -16 -13 -30 -29 -30c-7 0 -17 5 -21 9l-26 27c-7 4 -11 15 -11 23v4v24c0 3 1 11 3 14l28 58c1 2 4 6 6 8l30 28c2 2 4 5 6 6l59 28c3 2 10 4 13 4z" />
    <glyph glyph-name="at" unicode="@" horiz-adv-x="809" 
d="M354 463l-47 -24l-21 -21l-25 -76v-75l21 -44l44 -21h72l43 21l23 45l21 166c-1 0 -4 2 -5 3l-52 26h-74zM352 607l-80 -26l-52 -27l-52 -50l-25 -52l-27 -81v-77l27 -81l25 -51l52 -52l52 -25l80 -28h77l81 28l52 25l25 25c3 4 11 8 17 9h-54c-3 0 -10 1 -13 3l-57 29
l-3 1l-1 -1l-58 -29c-3 -2 -10 -3 -13 -3h-87c-3 0 -9 1 -12 3l-58 29c-4 2 -12 9 -14 13l-28 59c-2 3 -4 9 -4 12v86c0 2 2 8 3 10l28 87c1 3 5 9 7 11l30 29c2 2 4 4 6 5l58 29c3 2 11 3 14 3h86c3 0 11 -1 14 -3l45 -22c1 14 14 26 28 26c16 0 29 -13 29 -29v-4l-29 -228
v-3v-37l36 -18h39l44 44l26 76v49l-27 81l-26 52l-51 50l-52 27l-81 26h-77zM348 666h86c2 0 7 -1 9 -2l87 -29c1 0 3 -1 4 -1l58 -30c2 -1 6 -2 8 -4l58 -59c2 -2 3 -5 4 -7l30 -59c0 -1 1 -2 1 -3l30 -87c1 -2 1 -7 1 -9v-58c0 -2 0 -7 -1 -9l-30 -87c-1 -3 -5 -10 -7 -12
l-58 -57c-4 -4 -12 -8 -18 -9c14 -1 27 -14 27 -28c0 -7 -5 -17 -9 -21l-28 -29c-2 -2 -6 -5 -8 -6l-58 -28c-1 0 -3 -2 -4 -2l-87 -29c-2 -1 -7 -1 -9 -1h-86c-2 0 -8 0 -10 1l-86 29c-1 0 -3 2 -4 2l-59 28c-2 1 -4 4 -6 6l-59 58c-2 2 -4 5 -5 7l-29 58c0 1 -2 2 -2 3
l-29 87c-1 2 -1 8 -1 10v87c0 2 0 7 1 9l29 87c0 1 2 2 2 3l29 59c1 2 3 5 5 7l59 59c2 2 4 3 6 4l59 30c1 0 3 1 4 1l86 29c2 1 8 2 10 2z" />
    <glyph glyph-name="A" unicode="A" 
d="M289 544l-104 -313h209zM288 666h1h1h2h2c1 0 4 -1 5 -2c9 -3 17 -13 19 -22l142 -426c1 -2 3 -7 3 -9l50 -150h37c16 0 30 -12 30 -28s-14 -29 -30 -29h-53c-1 0 -4 -1 -5 -1s-4 1 -5 1h-82c-16 0 -29 13 -29 29s13 28 29 28h47l-38 116h-248l-40 -116h48
c16 0 30 -12 30 -28s-14 -29 -30 -29h-83c-1 0 -3 -1 -4 -1s-4 1 -5 1h-53c-16 0 -29 13 -29 29s13 28 29 28h37l50 150c0 2 2 7 3 9l142 426c2 11 14 23 26 24h1z" />
    <glyph glyph-name="B" unicode="B" horiz-adv-x="607" 
d="M174 318v-261h198l76 25l21 21l23 48v73l-23 48l-21 21l-76 25h-198zM174 607v-231h198l76 26l21 20l23 48v44l-23 47l-21 21l-76 25h-198zM144 666h1h5h226c2 0 7 -1 9 -2l87 -29c3 -1 10 -5 12 -7l29 -28c2 -2 4 -6 5 -8l29 -58c2 -3 3 -11 3 -14v-57
c0 -3 -1 -10 -3 -13l-29 -58c-1 -2 -3 -6 -5 -8l-29 -29c-2 -2 -9 -5 -12 -6l-4 -3l4 -1c3 -1 10 -4 12 -6l29 -30c2 -2 4 -5 5 -7l29 -58c2 -3 3 -10 3 -13v-87c0 -3 -1 -10 -3 -13l-29 -57c-1 -2 -3 -6 -5 -8l-29 -29c-2 -2 -9 -6 -12 -7l-87 -29c-2 -1 -7 -1 -9 -1h-226
c-1 0 -5 -1 -6 -1s-3 1 -4 1h-82h-1c-16 0 -28 13 -28 29s12 28 28 28h1h58v285v4v6v255h-58h-1c-16 0 -28 14 -28 30s12 29 28 29h1h82h4z" />
    <glyph glyph-name="C" unicode="C" 
d="M520 666h1c16 0 29 -13 29 -29v-174c0 -16 -13 -30 -29 -30c-11 0 -24 9 -27 20l-28 81l-48 48l-75 25h-49l-76 -25l-50 -50l-25 -51l-27 -81v-135l27 -80l25 -53l50 -50l76 -25h49l75 25l51 50l26 54c4 9 16 16 26 16c16 0 29 -13 29 -29c0 -3 -1 -9 -3 -12l-29 -59
c-1 -2 -3 -5 -5 -7l-59 -58c-2 -2 -8 -6 -11 -7l-87 -29c-2 -1 -6 -1 -8 -1h-59c-2 0 -7 0 -9 1l-86 29c-3 1 -9 5 -11 7l-59 58c-2 2 -4 5 -5 7l-29 59c0 1 -2 2 -2 3l-29 87c-1 2 -1 7 -1 9v145c0 2 0 7 1 9l29 86c0 1 2 4 2 5l29 57c1 2 3 6 5 8l59 58c2 2 8 6 11 7
l86 29c2 1 7 2 9 2h59c2 0 6 -1 8 -2l87 -29c3 -1 9 -5 11 -7l38 -37v46c0 15 13 29 28 29z" />
    <glyph glyph-name="D" unicode="D" horiz-adv-x="607" 
d="M174 607v-550h140l75 25l50 50l26 53l27 80v135l-27 81l-26 51l-50 50l-75 25h-140zM144 666h1h5h168h1c2 0 7 -1 9 -2l87 -29c3 -1 9 -5 11 -7l58 -58c2 -2 5 -6 6 -8l28 -57c0 -1 1 -4 1 -5l30 -86c1 -2 1 -7 1 -9v-145c0 -2 0 -7 -1 -9l-30 -87c0 -1 -1 -2 -1 -3
l-28 -59c-1 -2 -4 -5 -6 -7l-58 -58c-2 -2 -8 -6 -11 -7l-87 -29c-2 -1 -7 -1 -9 -1h-1h-168c-1 0 -5 -1 -6 -1s-3 1 -4 1h-82h-1c-16 0 -28 13 -28 29s12 28 28 28h1h58v550h-58h-1c-16 0 -28 14 -28 30s12 29 28 29h1h82h4z" />
    <glyph glyph-name="E" unicode="E" horiz-adv-x="548" 
d="M144 666h1h5h342c16 0 29 -13 29 -29v-117c0 -16 -13 -28 -29 -28s-29 12 -29 28v87h-289v-231h115v57v1c0 16 13 29 29 29s30 -13 30 -29v-1v-81v-6v-4v-82c0 -16 -14 -29 -30 -29s-29 13 -29 29v58h-115v-261h289v87v1c0 16 13 29 29 29s29 -13 29 -29v-1v-115
c0 -16 -13 -29 -29 -29h-342c-1 0 -5 -1 -6 -1s-3 1 -4 1h-82h-1c-16 0 -28 13 -28 29s12 28 28 28h1h58v285v4v6v255h-58h-1c-16 0 -28 14 -28 30s12 29 28 29h1h82h4z" />
    <glyph glyph-name="F" unicode="F" horiz-adv-x="491" 
d="M144 666h1h5h342c16 0 29 -13 29 -29v-145c0 -16 -13 -30 -29 -30s-29 14 -29 30v115h-289v-231h115v57v1c0 16 13 29 29 29s30 -13 30 -29v-1v-81v-6v-4v-82c0 -16 -14 -29 -30 -29s-29 13 -29 29v58h-115v-261h87c16 0 29 -12 29 -28s-13 -29 -29 -29h-111
c-1 0 -5 -1 -6 -1s-3 1 -4 1h-82h-1c-16 0 -28 13 -28 29s12 28 28 28h1h58v285v4v6v255h-58h-1c-16 0 -28 14 -28 30s12 29 28 29h1h82h4z" />
    <glyph glyph-name="G" unicode="G" horiz-adv-x="694" 
d="M520 666h1c16 0 29 -13 29 -29v-174c0 -16 -13 -30 -29 -30c-11 0 -24 9 -27 20l-28 81l-48 48l-75 25h-49l-76 -25l-50 -50l-25 -51l-27 -81v-135l27 -80l25 -53l50 -50l76 -25h49l75 25l74 74v75h-58h-1c-16 0 -28 13 -28 29s12 29 28 29h1h83h4h5h82
c16 0 29 -13 29 -29s-13 -29 -29 -29h-58v-83v-4v-3v-112c0 -16 -13 -30 -29 -30s-29 14 -29 30v46l-38 -38c-2 -2 -8 -6 -11 -7l-87 -29c-2 -1 -6 -1 -8 -1h-59c-2 0 -7 0 -9 1l-86 29c-3 1 -9 5 -11 7l-59 58c-2 2 -4 5 -5 7l-29 59c0 1 -2 2 -2 3l-29 87c-1 2 -1 7 -1 9
v145c0 2 0 7 1 9l29 86c0 1 2 4 2 5l29 57c1 2 3 6 5 8l59 58c2 2 8 6 11 7l86 29c2 1 7 2 9 2h59c2 0 6 -1 8 -2l87 -29c3 -1 9 -5 11 -7l38 -37v46c0 15 13 29 28 29z" />
    <glyph glyph-name="H" unicode="H" horiz-adv-x="665" 
d="M144 666h1h5h82c16 0 29 -13 29 -29s-13 -30 -29 -30h-58v-231h318v231h-58h-1c-16 0 -28 14 -28 30s12 29 28 29h1h83h4h5h82c16 0 29 -13 29 -29s-13 -30 -29 -30h-58v-255v-6v-4v-285h58c16 0 29 -12 29 -28s-13 -29 -29 -29h-82c-1 0 -4 -1 -5 -1s-4 1 -5 1h-82h-1
c-16 0 -28 13 -28 29s12 28 28 28h1h58v261h-318v-261h58c16 0 29 -12 29 -28s-13 -29 -29 -29h-82c-1 0 -5 -1 -6 -1s-3 1 -4 1h-82h-1c-16 0 -28 13 -28 29s12 28 28 28h1h58v285v4v6v255h-58h-1c-16 0 -28 14 -28 30s12 29 28 29h1h82h4z" />
    <glyph glyph-name="I" unicode="I" horiz-adv-x="289" 
d="M144 666h1h5h82c16 0 29 -13 29 -29s-13 -30 -29 -30h-58v-550h58c16 0 29 -12 29 -28s-13 -29 -29 -29h-82c-1 0 -5 -1 -6 -1s-3 1 -4 1h-82h-1c-16 0 -28 13 -28 29s12 28 28 28h1h58v550h-58h-1c-16 0 -28 14 -28 30s12 29 28 29h1h82h4z" />
    <glyph glyph-name="J" unicode="J" horiz-adv-x="404" 
d="M260 666h1h4h83c16 0 28 -13 28 -29s-12 -30 -28 -30h-59v-463c0 -2 0 -7 -1 -9l-28 -87c-2 -7 -10 -13 -16 -16l-57 -30c-3 -2 -10 -2 -13 -2h-58c-3 0 -11 0 -14 2l-57 30c-4 2 -11 8 -13 12l-29 58c-2 3 -3 11 -3 14v52v5c0 8 4 19 11 23l26 26c4 4 14 9 21 9
c16 0 29 -13 29 -29v-29c0 -16 -13 -29 -29 -29v-22l21 -43l43 -22h45l41 21l24 70v459h-58c-16 0 -30 14 -30 30s14 29 30 29h82h4z" />
    <glyph glyph-name="K" unicode="K" 
d="M144 666h1h5h82c16 0 29 -13 29 -29s-13 -30 -29 -30h-58v-277l62 63c1 2 5 5 7 6l208 208h-17h-1c-16 0 -28 14 -28 30s12 29 28 29h1h83h4h5h53h1c16 0 28 -13 28 -29s-12 -30 -28 -30h-1h-45l-236 -235l209 -315h72h1c16 0 28 -12 28 -28s-12 -29 -28 -29h-1h-83
c-1 0 -2 -1 -3 -1s-4 1 -5 1h-83c-16 0 -29 13 -29 29s13 28 29 28h33l-182 273l-82 -81v-192h58c16 0 29 -12 29 -28s-13 -29 -29 -29h-82c-1 0 -5 -1 -6 -1s-3 1 -4 1h-82h-1c-16 0 -28 13 -28 29s12 28 28 28h1h58v199v4v4v343h-58h-1c-16 0 -28 14 -28 30s12 29 28 29h1
h82h4z" />
    <glyph glyph-name="L" unicode="L" horiz-adv-x="520" 
d="M144 666h1h5h82c16 0 29 -13 29 -29s-13 -30 -29 -30h-58v-550h260v87v1c0 16 13 29 29 29s29 -13 29 -29v-1v-115c0 -16 -13 -29 -29 -29h-313c-1 0 -5 -1 -6 -1s-3 1 -4 1h-82h-1c-16 0 -28 13 -28 29s12 28 28 28h1h58v550h-58h-1c-16 0 -28 14 -28 30s12 29 28 29h1
h82h4z" />
    <glyph glyph-name="M" unicode="M" horiz-adv-x="694" 
d="M143 666h1h3h3c1 0 4 -1 5 -2c3 -1 8 -4 10 -6v-1c3 -3 8 -10 9 -16l174 -521l173 521c1 4 5 13 8 16c2 2 7 5 10 6c1 0 1 1 2 1s2 2 3 2h4h2h2h2h83c16 0 30 -13 30 -29s-14 -30 -30 -30h-58v-550h58c16 0 30 -12 30 -28s-14 -29 -30 -29h-83c-1 0 -3 -1 -4 -1
s-3 1 -4 1h-83c-16 0 -30 13 -30 29s14 28 30 28h58v401l-145 -436c-2 -11 -14 -22 -26 -23h-2h-2h-1c-1 0 -1 1 -2 1s-4 0 -5 1c-9 3 -17 12 -19 21l-145 436v-401h58c16 0 29 -12 29 -28s-13 -29 -29 -29h-82c-1 0 -5 -1 -6 -1s-3 1 -4 1h-82h-1c-16 0 -28 13 -28 29
s12 28 28 28h1h58v550h-58h-1c-16 0 -28 14 -28 30s12 29 28 29h1h82h1h2z" />
    <glyph glyph-name="N" unicode="N" horiz-adv-x="635" 
d="M144 666h2c6 0 15 -4 19 -8v-1c2 -2 6 -7 7 -10l291 -509v469h-58c-16 0 -29 14 -29 30s13 29 29 29h82h5h5h82h1c16 0 28 -13 28 -29s-12 -30 -28 -30h-1h-58v-575v-3c0 -10 -7 -22 -15 -26c-1 0 -1 -2 -2 -2h-2c-1 0 -2 -1 -3 -1h-1c-1 0 -1 -1 -2 -1h-3h-2
c-10 1 -22 8 -26 17l-291 511v-470h58c16 0 29 -12 29 -28s-13 -29 -29 -29h-82c-1 0 -5 -1 -6 -1s-3 1 -4 1h-82h-1c-16 0 -28 13 -28 29s12 28 28 28h1h58v550h-58h-1c-16 0 -28 14 -28 30s12 29 28 29h1h82h1h2h1z" />
    <glyph glyph-name="O" unicode="O" horiz-adv-x="635" 
d="M294 607l-76 -25l-50 -50l-25 -50l-27 -110v-79l27 -109l25 -52l50 -50l76 -25h49l75 25l51 50l25 52l27 109v79l-27 110l-25 50l-51 50l-75 25h-49zM290 666h3h55c2 0 6 -1 8 -2l87 -29c3 -1 9 -5 11 -7l59 -58c2 -2 4 -6 5 -8l29 -57c1 -1 2 -5 2 -7l30 -115v-7v-87v-7
l-30 -116c0 -2 -1 -4 -2 -5l-29 -59c-1 -2 -3 -5 -5 -7l-59 -58c-2 -2 -8 -6 -11 -7l-87 -29c-2 -1 -6 -1 -8 -1h-59c-2 0 -7 0 -9 1l-86 29c-3 1 -9 5 -11 7l-59 58c-2 2 -4 5 -5 7l-29 59c-1 1 -2 3 -2 5l-30 116v7v87v7l30 115c0 2 1 6 2 7l29 57c1 2 3 6 5 8l59 58
c2 2 8 6 11 7l84 28c2 1 5 1 7 1c1 0 1 2 2 2h3z" />
    <glyph glyph-name="P" unicode="P" 
d="M174 607v-261h169l75 26l21 21l24 48v73l-24 47l-21 21l-75 25h-169zM144 666h1h5h198c2 0 6 -1 8 -2l87 -29c3 -1 9 -5 11 -7l30 -28c2 -2 5 -6 6 -8l28 -58c2 -3 3 -11 3 -14v-87c0 -3 -1 -9 -3 -12l-28 -58c-1 -2 -4 -6 -6 -8l-30 -28c-2 -2 -8 -7 -11 -8l-87 -29
c-2 -1 -6 -1 -8 -1h-174v-232h58c16 0 29 -12 29 -28s-13 -29 -29 -29h-82c-1 0 -5 -1 -6 -1s-3 1 -4 1h-82h-1c-16 0 -28 13 -28 29s12 28 28 28h1h58v257v4v4v285h-58h-1c-16 0 -28 14 -28 30s12 29 28 29h1h82h4z" />
    <glyph glyph-name="Q" unicode="Q" horiz-adv-x="635" 
d="M296 173l-43 -21l-21 -43v-31l62 -21h49l46 16l-11 31l-24 48l-43 21h-15zM294 607l-76 -25l-50 -50l-25 -50l-27 -110v-79l27 -109l25 -52l8 -7c0 1 1 3 1 4l29 57c2 4 9 11 13 13l57 29c3 2 10 3 13 3h29c3 0 10 -1 13 -3l58 -29c4 -2 12 -9 14 -13l27 -56l1 -1l1 -3
v-2l1 -1l7 -20l29 29l25 52l27 109v79l-27 110l-25 50l-51 50l-75 25h-49zM290 666h3h55c2 0 6 -1 8 -2l87 -29c3 -1 9 -5 11 -7l59 -58c2 -2 4 -6 5 -8l29 -57c1 -1 2 -5 2 -7l30 -115v-7v-87v-7l-30 -116c0 -2 -1 -4 -2 -5l-29 -59c-1 -2 -3 -5 -5 -7l-53 -52l1 -3l26 -52
l17 -18h5l20 21c4 4 14 9 21 9c16 0 30 -13 30 -29c0 -7 -5 -17 -9 -21l-30 -29c-4 -4 -13 -8 -20 -8h-29c-7 0 -16 4 -20 8l-30 29c-2 2 -3 5 -4 7l-30 58c0 1 -1 2 -1 3l-51 -17c-2 -1 -6 -1 -8 -1h-59c-2 0 -7 0 -9 1l-82 28c-7 1 -16 5 -19 11l-55 55c-2 2 -4 5 -5 7
l-29 59c-1 1 -2 3 -2 5l-30 116v7v87v7l30 115c0 2 1 6 2 7l29 57c1 2 3 6 5 8l59 58c2 2 8 6 11 7l84 28c2 1 5 1 7 1c1 0 1 2 2 2h3z" />
    <glyph glyph-name="R" unicode="R" horiz-adv-x="607" 
d="M174 607v-231h112h3h4h79l76 26l21 20l23 48v44l-23 47l-21 21l-76 25h-198zM144 666h1h5h226c2 0 7 -1 9 -2l87 -29c3 -1 10 -5 12 -7l29 -28c2 -2 4 -6 5 -8l29 -58c2 -3 3 -11 3 -14v-57c0 -3 -1 -10 -3 -13l-29 -58c-1 -2 -3 -6 -5 -8l-29 -29c-2 -2 -9 -5 -12 -6
l-86 -29l11 -11c2 -2 6 -7 7 -10l84 -225l16 -17h5l12 12v18c0 16 13 29 29 29s29 -13 29 -29v-25c0 -1 1 -4 1 -5c0 -3 -1 -7 -2 -10v-1h-2c-1 -4 -5 -10 -8 -12l-27 -26c-4 -4 -13 -8 -20 -8h-29c-7 0 -16 4 -20 8l-30 29c-2 2 -5 7 -6 10l-85 226l-21 21l-47 24h-109
v-261h58c16 0 29 -12 29 -28s-13 -29 -29 -29h-82c-1 0 -5 -1 -6 -1s-3 1 -4 1h-82h-1c-16 0 -28 13 -28 29s12 28 28 28h1h58v285v4v6v255h-58h-1c-16 0 -28 14 -28 30s12 29 28 29h1h82h4z" />
    <glyph glyph-name="S" unicode="S" 
d="M492 666c16 0 29 -13 29 -29v-174c0 -16 -13 -30 -29 -30c-11 0 -25 9 -28 20l-26 81l-49 48l-75 25h-78l-75 -25l-45 -44v-63l46 -46l49 -25l170 -29c2 0 6 -1 8 -2l59 -29c2 -1 4 -3 6 -5l30 -30c2 -2 5 -5 6 -7l28 -58c2 -3 3 -10 3 -13v-87c0 -4 -3 -11 -5 -15
l-57 -87c-3 -4 -10 -10 -16 -12l-87 -29c-2 -1 -6 -1 -8 -1h-87c-2 0 -7 0 -9 1l-87 29c-3 1 -10 5 -12 7l-37 38v-46c0 -16 -13 -30 -29 -30s-29 14 -29 30v173c0 16 13 29 29 29c11 0 24 -9 27 -20l27 -80l48 -49l76 -25h78l73 24l47 72v71l-24 48l-22 22l-50 25l-169 29
c-2 0 -7 1 -9 2l-57 28c-2 1 -6 4 -8 6l-58 58c-4 4 -8 14 -8 21v87c0 7 4 16 8 20l58 58c2 2 8 6 11 7l87 29c2 1 7 2 9 2h1h86h1c2 0 7 -1 9 -2l87 -29c3 -1 9 -5 11 -7l37 -37v46c0 15 14 29 29 29z" />
    <glyph glyph-name="T" unicode="T" horiz-adv-x="520" 
d="M260 666h1h4h198c16 0 29 -13 29 -29v-117c0 -16 -13 -28 -29 -28s-29 12 -29 28v87h-145v-550h59c16 0 28 -12 28 -28s-12 -29 -28 -29h-83c-1 0 -3 -1 -4 -1s-5 1 -6 1h-81c-16 0 -30 13 -30 29s14 28 30 28h58v550h-145v-87c0 -16 -13 -28 -29 -28s-29 12 -29 28v117
c0 16 13 29 29 29h198h4z" />
    <glyph glyph-name="U" unicode="U" horiz-adv-x="665" 
d="M144 666h1h5h82c16 0 29 -13 29 -29s-13 -30 -29 -30h-58v-400l25 -76l50 -50l47 -24h74l47 24l49 50l26 76v400h-58h-1c-16 0 -28 14 -28 30s12 29 28 29h1h83h4h5h82c16 0 29 -13 29 -29s-13 -30 -29 -30h-58v-405c0 -2 0 -8 -1 -10l-30 -85c-1 -3 -4 -10 -6 -12
l-59 -58c-2 -2 -4 -4 -6 -5l-59 -30c-3 -2 -10 -2 -13 -2h-87c-3 0 -10 0 -13 2l-57 30c-2 1 -6 3 -8 5l-58 58c-2 2 -6 9 -7 12l-28 85c-1 2 -2 8 -2 10v405h-58h-1c-16 0 -28 14 -28 30s12 29 28 29h1h82h4z" />
    <glyph glyph-name="V" unicode="V" 
d="M86 666h1h4h83c16 0 30 -13 30 -29s-14 -30 -30 -30h-48l163 -487l163 487h-47c-16 0 -29 14 -29 30s13 29 29 29h82h5h5h53c16 0 30 -13 30 -29s-14 -30 -30 -30h-37l-195 -585c-2 -11 -13 -22 -25 -23h-1h-3h-1h-1c-1 0 -1 1 -2 1s-5 0 -6 1c-9 3 -16 12 -18 21
l-195 585h-37c-16 0 -29 14 -29 30s13 29 29 29h53h4z" />
    <glyph glyph-name="W" unicode="W" horiz-adv-x="694" 
d="M116 666h4h82h2c16 0 28 -13 28 -29s-12 -30 -28 -30h-2h-51l81 -423l87 456c1 9 8 20 17 23c1 0 1 1 2 1s2 2 3 2h2h1h2h2h2c1 0 4 -2 5 -2c10 -3 20 -14 21 -25l87 -455l80 423h-51c-16 0 -29 14 -29 30s13 29 29 29h82h6h4h82h1c16 0 28 -13 28 -29s-12 -30 -28 -30
h-1h-63l-111 -582c-1 -9 -8 -20 -17 -23c-1 0 -2 -1 -3 -1s-1 -1 -2 -1s-1 -1 -2 -1h-2h-2h-1h-2h-1c-1 0 -5 1 -6 1c-10 3 -19 14 -20 25l-86 457l-87 -457c-1 -9 -9 -20 -18 -23c-1 0 -1 -1 -2 -1s-2 -1 -3 -1s-2 -1 -3 -1h-1h-2h-1h-2c-1 0 -5 1 -6 1
c-10 3 -20 14 -21 25l-111 582h-62c-16 0 -29 14 -29 30s13 29 29 29h82h5z" />
    <glyph glyph-name="X" unicode="X" 
d="M87 666h4h83c16 0 30 -13 30 -29s-14 -30 -30 -30h-33l148 -222l149 222h-33c-16 0 -29 14 -29 30s13 29 29 29h83h4h4h54c16 0 30 -13 30 -29s-14 -30 -30 -30h-43l-183 -275l183 -275h43c16 0 30 -12 30 -28s-14 -29 -30 -29h-54c-1 0 -2 -1 -3 -1s-4 1 -5 1h-83
c-16 0 -29 13 -29 29s13 28 29 28h33l-149 223l-148 -223h33c16 0 30 -12 30 -28s-14 -29 -30 -29h-83c-1 0 -3 -1 -4 -1s-4 1 -5 1h-53c-16 0 -29 13 -29 29s13 28 29 28h43l183 275l-183 275h-43c-16 0 -29 14 -29 30s13 29 29 29h53h5z" />
    <glyph glyph-name="Y" unicode="Y" 
d="M87 666h4h83c16 0 30 -13 30 -29s-14 -30 -30 -30h-34l149 -235l150 235h-34c-16 0 -29 14 -29 30s13 29 29 29h82h5h5h53c16 0 30 -13 30 -29s-14 -30 -30 -30h-42l-190 -298v-252h58c16 0 30 -12 30 -28s-14 -29 -30 -29h-82c-1 0 -4 -1 -5 -1s-3 1 -4 1h-83
c-16 0 -28 13 -28 29s12 28 28 28h59v252l-189 298h-43c-16 0 -29 14 -29 30s13 29 29 29h53h5z" />
    <glyph glyph-name="Z" unicode="Z" 
d="M492 666h1c10 0 21 -7 25 -16c2 -3 3 -9 3 -13c0 -7 -3 -16 -7 -20l-373 -560h322v87v1c0 16 13 29 29 29s29 -13 29 -29v-1v-115c0 -16 -13 -29 -29 -29h-401c-1 0 -3 -1 -4 -1c-10 0 -21 6 -25 15l-2 1c-2 3 -3 10 -3 14c0 7 4 14 8 18l373 560h-322v-87
c0 -16 -13 -28 -29 -28s-29 12 -29 28v117c0 16 13 29 29 29h401h4z" />
    <glyph glyph-name="bracketleft" unicode="[" horiz-adv-x="404" 
d="M116 781h5h197h1c16 0 29 -13 29 -29s-13 -29 -29 -29h-1h-173v-868h173h1c16 0 29 -13 29 -29s-13 -30 -29 -30h-1h-198h-4c-7 0 -16 4 -20 8v1c-4 4 -9 14 -9 21v5v917v4c0 7 4 16 8 20s14 9 21 9z" />
    <glyph glyph-name="backslash" unicode="\" horiz-adv-x="404" 
d="M-1 666h1c9 0 21 -7 25 -15l405 -695c2 -4 4 -11 4 -15c0 -16 -12 -29 -28 -29c-10 0 -21 6 -25 15l-406 695c-2 3 -4 11 -4 15c0 15 13 28 28 29z" />
    <glyph glyph-name="bracketright" unicode="]" horiz-adv-x="404" 
d="M289 781c7 0 16 -4 20 -8h1c4 -4 9 -14 9 -21c0 -1 -1 -4 -1 -5v-916c0 -1 1 -4 1 -5c0 -7 -4 -17 -8 -21h-1c-4 -4 -14 -9 -21 -9h-4h-198c-16 0 -30 14 -30 30s14 29 30 29h174v868h-174c-16 0 -30 13 -30 29s14 29 30 29h198h4z" />
    <glyph glyph-name="asciicircum" unicode="^" horiz-adv-x="463" 
d="M231 550h1h2c8 -1 17 -5 21 -12l171 -171c4 -4 8 -14 8 -21c0 -16 -12 -28 -28 -28c-7 0 -17 5 -21 9l-153 153l-154 -153c-4 -4 -14 -9 -21 -9c-16 0 -28 12 -28 28c0 7 4 17 8 21l171 171c4 7 15 12 23 12z" />
    <glyph glyph-name="underscore" unicode="_" 
d="M0 -117h579h1c16 0 28 -12 28 -28s-12 -29 -28 -29h-1h-579c-16 0 -30 13 -30 29s14 28 30 28z" />
    <glyph glyph-name="grave" unicode="`" horiz-adv-x="346" 
d="M87 637c6 0 15 -5 19 -8l173 -144c7 -4 11 -15 11 -23c0 -16 -13 -29 -29 -29c-6 0 -15 3 -19 7l-174 145c-6 4 -11 14 -11 22c0 16 14 30 30 30z" />
    <glyph glyph-name="a" unicode="a" horiz-adv-x="491" 
d="M348 242l-17 -8c-3 -2 -10 -3 -13 -3h-166l-43 -22l-22 -43v-44l22 -43l43 -22h75l75 25l46 46v114zM174 463h115c3 0 10 -1 13 -3l59 -29c4 -2 10 -9 12 -13l27 -55c1 -2 4 -7 5 -10c0 -2 1 -5 1 -7c0 -1 -1 -2 -1 -3v-49c0 -1 1 -4 1 -5s-1 -3 -1 -4v-163l24 -47
l18 -18h16c16 0 30 -12 30 -28s-14 -29 -30 -29h-29c-7 0 -16 4 -20 8l-29 29c-2 2 -4 5 -5 7l-12 22l-29 -29c-2 -2 -8 -6 -11 -7l-87 -29c-2 -1 -7 -1 -9 -1h-87c-3 0 -10 0 -13 2l-58 30c-4 2 -12 8 -14 12l-28 58c-2 3 -3 11 -3 14v57c0 3 1 10 3 13l28 58
c2 4 10 11 14 13l58 29c3 2 10 3 13 3h166l37 18v33l-22 43l-43 22h-103l-37 -19c1 -2 2 -7 2 -10v-30c0 -16 -13 -28 -29 -28h-29c-16 0 -29 12 -29 28v30c0 7 4 16 8 20l30 30c2 2 4 4 6 5l59 29c3 2 10 3 13 3z" />
    <glyph glyph-name="b" unicode="b" horiz-adv-x="520" 
d="M239 405l-49 -24l-45 -47v-206l45 -47l49 -24h72l49 24l49 50l25 76v76l-24 47l-50 51l-49 24h-72zM116 666c7 0 15 -4 19 -8h1v-1c4 -4 9 -13 9 -20v-6v-214l8 9c2 2 6 4 8 5l58 29c3 2 10 3 13 3h86c3 0 10 -1 13 -3l58 -29c2 -1 6 -3 8 -5l57 -59c2 -2 5 -5 6 -7
l30 -58c2 -3 2 -10 2 -13v-87c0 -2 0 -8 -1 -10l-29 -85c-1 -3 -6 -10 -8 -12l-57 -58c-2 -2 -6 -4 -8 -5l-58 -30c-3 -2 -10 -2 -13 -2h-86c-3 0 -10 0 -13 2l-58 30c-2 1 -6 3 -8 5l-8 8v-16c0 -16 -13 -30 -29 -30s-29 14 -29 30v82v5v4v223v3v5v256h-58
c-16 0 -29 14 -29 30s13 29 29 29h82h5z" />
    <glyph glyph-name="c" unicode="c" horiz-adv-x="520" 
d="M232 463h86c3 0 10 -1 13 -3l58 -29c2 -1 6 -3 8 -5l57 -59c4 -4 9 -14 9 -21v-24v-4c0 -8 -4 -19 -11 -23l-26 -27c-4 -4 -14 -8 -21 -8s-16 4 -20 8l-30 29c-4 4 -7 14 -7 21c0 16 12 28 28 28h18l-34 35l-49 24h-72l-49 -24l-49 -50l-25 -76v-48l25 -76l49 -50l49 -24
h72l49 24l54 54c4 4 13 10 20 10c16 0 29 -13 29 -29c0 -7 -5 -17 -9 -21l-57 -58c-2 -2 -6 -4 -8 -5l-58 -30c-3 -2 -10 -2 -13 -2h-86c-3 0 -10 0 -13 2l-58 30c-2 1 -6 3 -8 5l-57 58c-2 2 -7 9 -8 12l-29 85c-1 2 -1 8 -1 10v58c0 2 0 8 1 10l29 86c1 3 6 9 8 11l57 59
c2 2 6 4 8 5l58 29c3 2 10 3 13 3z" />
    <glyph glyph-name="d" unicode="d" horiz-adv-x="548" 
d="M209 405l-47 -24l-50 -50l-25 -76v-48l25 -76l50 -50l47 -24h74l47 24l46 47v206l-46 47l-47 24h-74zM405 666c7 0 17 -4 21 -8v-1c4 -4 8 -13 8 -20v-6v-168v-112v-5v-3v-223v-4v-4v-55h58h1c16 0 28 -12 28 -28s-12 -29 -28 -29h-1h-82c-1 0 -4 -1 -5 -1
c-7 0 -16 5 -20 9s-9 14 -9 21v4v12l-9 -8c-2 -2 -4 -4 -6 -5l-59 -30c-3 -2 -10 -2 -13 -2h-87c-3 0 -10 0 -13 2l-57 30c-2 1 -6 3 -8 5l-58 58c-2 2 -6 9 -7 12l-28 85c-1 2 -2 8 -2 10v58c0 2 1 8 2 10l28 86c1 3 5 9 7 11l58 59c2 2 6 4 8 5l57 29c3 2 10 3 13 3h87
c3 0 10 -1 13 -3l59 -29c2 -1 4 -3 6 -5l9 -9v46v144h-58c-16 0 -29 14 -29 30s13 29 29 29h82h5z" />
    <glyph glyph-name="e" unicode="e" horiz-adv-x="463" 
d="M209 405l-47 -24l-50 -50l-14 -42h278v22l-24 48l-22 22l-47 24h-74zM202 463h87c3 0 10 -1 13 -3l59 -29c2 -1 4 -3 6 -5l30 -30c2 -2 5 -6 6 -8l28 -57c2 -3 3 -10 3 -13v-58c0 -16 -13 -29 -29 -29h-318v-24l25 -76l50 -50l47 -24h74l47 24l55 54c4 4 14 10 21 10
c16 0 28 -13 28 -29c0 -7 -4 -17 -8 -21l-59 -58c-2 -2 -4 -4 -6 -5l-59 -30c-3 -2 -10 -2 -13 -2h-87c-3 0 -10 0 -13 2l-57 30c-2 1 -6 3 -8 5l-58 58c-2 2 -6 9 -7 12l-28 85c-1 2 -2 8 -2 10v53v5c0 4 1 11 3 14l27 82c1 3 5 9 7 11l58 59c2 2 6 4 8 5l57 29
c3 2 10 3 13 3z" />
    <glyph glyph-name="f" unicode="f" horiz-adv-x="346" 
d="M232 666h57c7 0 17 -5 21 -9l29 -29c4 -4 9 -14 9 -21v-24v-4c0 -8 -4 -19 -11 -23l-27 -27c-4 -4 -14 -9 -21 -9c-16 0 -28 14 -28 30v29c0 11 8 23 18 27l-2 1h-38l-43 -21l-22 -44v-79h58c16 0 29 -14 29 -30s-13 -28 -29 -28h-58v-348h58c16 0 29 -12 29 -28
s-13 -29 -29 -29h-82c-1 0 -5 -1 -6 -1s-3 1 -4 1h-82h-1c-16 0 -28 13 -28 29s12 28 28 28h1h58v348h-58h-1c-16 0 -28 12 -28 28s12 30 28 30h1h58v87c0 3 1 9 3 12l28 58c2 4 10 12 14 14l58 28c3 2 10 4 13 4z" />
    <glyph glyph-name="g" unicode="g" horiz-adv-x="520" 
d="M187 3c-1 -1 -3 -2 -4 -2l-75 -25l-21 -41v-15l21 -41l70 -24h165l71 24l20 41v15l-20 41l-71 24h-141c-2 0 -6 0 -8 1zM239 405l-49 -24l-22 -22l-23 -48v-44l23 -48l22 -22l49 -24h44l47 24l22 22l24 48v44l-24 48l-22 22l-47 24h-44zM232 463h3h54c3 0 10 -1 13 -3
l59 -29c2 -1 4 -3 6 -5l9 -9l9 9c2 2 6 4 8 5l57 29c3 2 10 3 13 3c16 0 29 -14 29 -30v-28c0 -16 -13 -29 -29 -29h-29h-1c-4 0 -10 2 -13 4l-9 -10l20 -39c2 -3 3 -10 3 -13v-58c0 -3 -1 -9 -3 -12l-28 -59c-1 -2 -4 -5 -6 -7l-30 -29c-2 -2 -4 -5 -6 -6l-59 -28
c-3 -2 -10 -3 -13 -3h-57c-3 0 -10 1 -13 3l-58 28c-2 1 -6 4 -8 6l-8 9l-5 -6l-24 -47v-11l16 -16l75 -25h141c2 0 6 0 8 -1l87 -28c7 -2 14 -10 17 -16l30 -57c2 -3 2 -10 2 -13v-29c0 -3 0 -10 -2 -13l-30 -58c-3 -6 -10 -13 -17 -15l-87 -28c-2 -1 -6 -3 -8 -3h-174
c-2 0 -7 2 -9 3l-87 28c-7 2 -15 9 -18 15l-28 58c-2 3 -3 10 -3 13v29c0 3 1 10 3 13l28 57c3 6 11 14 18 16l21 6l-3 3l-27 26c-3 2 -7 8 -9 11v1c-1 3 -3 9 -3 12c0 1 1 2 1 3v26c0 3 0 10 2 13l30 57c1 2 4 6 6 8l14 14l-20 40c-2 3 -3 9 -3 12v58c0 3 1 10 3 13l29 57
c1 2 3 6 5 8l29 30c2 2 6 4 8 5l55 27c2 1 7 3 10 4c1 0 5 1 6 1z" />
    <glyph glyph-name="h" unicode="h" 
d="M144 666h1c7 0 16 -4 20 -8v-1c4 -4 9 -13 9 -20v-6v-217l4 7c2 3 8 8 11 10l59 29c3 2 10 3 13 3h87c3 0 10 -1 13 -3l57 -29c4 -2 11 -9 13 -13l29 -58c2 -3 3 -11 3 -14v-289h58c16 0 29 -12 29 -28s-13 -29 -29 -29h-82c-1 0 -4 -1 -5 -1s-4 1 -5 1h-81h-2
c-16 0 -28 13 -28 29s12 28 28 28h2h57v283l-21 43l-43 22h-74l-45 -22l-48 -74v-252h58c16 0 29 -12 29 -28s-13 -29 -29 -29h-82c-1 0 -5 -1 -6 -1s-3 1 -4 1h-82h-1c-16 0 -28 13 -28 29s12 28 28 28h1h58v258v3v3v286h-58h-1c-16 0 -28 14 -28 30s12 29 28 29h1h82h4z
" />
    <glyph glyph-name="i" unicode="i" horiz-adv-x="289" 
d="M144 463h1c7 0 16 -4 20 -8v-1c4 -4 9 -14 9 -21v-4v-372h58c16 0 29 -12 29 -28s-13 -29 -29 -29h-82c-1 0 -5 -1 -6 -1s-3 1 -4 1h-82h-1c-16 0 -28 13 -28 29s12 28 28 28h1h58v348h-58h-1c-16 0 -28 12 -28 28s12 30 28 30h1h82h4zM114 666h2h3c8 -1 17 -7 21 -13
l25 -25c4 -4 9 -14 9 -21s-5 -16 -9 -20l-29 -29c-4 -4 -13 -8 -20 -8s-16 4 -20 8l-30 29c-4 4 -8 13 -8 20s4 17 8 21l26 25c4 7 14 13 22 13z" />
    <glyph glyph-name="j" unicode="j" horiz-adv-x="289" 
d="M202 463c7 0 16 -4 20 -8l1 -1c4 -4 9 -14 9 -21v-4v-516c0 -3 -1 -10 -3 -13l-30 -58c-2 -4 -8 -12 -12 -14l-58 -28c-3 -2 -10 -4 -13 -4h-58c-7 0 -17 5 -21 9l-28 29c-4 4 -9 14 -9 21v24v4c0 8 4 19 11 23l26 27c4 4 14 9 21 9c16 0 29 -13 29 -29v-30
c0 -11 -9 -22 -19 -26l2 -2h39l43 22l22 43v485h-87c-16 0 -30 12 -30 28s14 30 30 30h111h4zM173 666h1h2c8 -1 18 -7 22 -13l25 -25c4 -4 9 -14 9 -21s-5 -16 -9 -20l-28 -29c-4 -4 -14 -8 -21 -8s-17 4 -21 8l-29 29c-4 4 -8 13 -8 20s4 17 8 21l26 25c4 7 15 13 23 13z
" />
    <glyph glyph-name="k" unicode="k" 
d="M144 666h1c7 0 16 -4 20 -8v-1c4 -4 9 -13 9 -20v-6v-417l62 63c1 2 5 6 7 7l121 121h-16h-2c-16 0 -28 12 -28 28s12 30 28 30h2h82h4h5h82c16 0 29 -14 29 -30s-13 -28 -29 -28h-74l-148 -148l150 -200h72c16 0 29 -12 29 -28s-13 -29 -29 -29h-82c-1 0 -4 -1 -5 -1
s-3 1 -4 1h-82h-2c-16 0 -28 13 -28 29s12 28 28 28h2h28l-119 159l-83 -84v-75h58c16 0 29 -12 29 -28s-13 -29 -29 -29h-82c-1 0 -5 -1 -6 -1s-3 1 -4 1h-82h-1c-16 0 -28 13 -28 29s12 28 28 28h1h58v83v4v3v460h-58h-1c-16 0 -28 14 -28 30s12 29 28 29h1h82h4z" />
    <glyph glyph-name="l" unicode="l" horiz-adv-x="289" 
d="M144 666h1c7 0 16 -4 20 -8v-1c4 -4 9 -13 9 -20v-6v-574h58c16 0 29 -12 29 -28s-13 -29 -29 -29h-82c-1 0 -5 -1 -6 -1s-3 1 -4 1h-82h-1c-16 0 -28 13 -28 29s12 28 28 28h1h58v550h-58h-1c-16 0 -28 14 -28 30s12 29 28 29h1h82h4z" />
    <glyph glyph-name="m" unicode="m" horiz-adv-x="867" 
d="M144 463h1c7 0 16 -4 20 -8v-1c4 -4 9 -14 9 -21v-4v-12l9 9c2 2 4 4 6 5l59 29c3 2 10 3 13 3h87c3 0 10 -1 13 -3l57 -29c4 -2 11 -9 13 -13l11 -22l30 30c2 2 6 4 8 5l57 29c3 2 10 3 13 3h87c3 0 10 -1 13 -3l57 -29c4 -2 11 -9 13 -13l29 -58c2 -3 3 -11 3 -14v-289
h59c16 0 29 -12 29 -28s-13 -29 -29 -29h-83c-1 0 -3 -1 -4 -1s-5 1 -6 1h-110h-1c-16 0 -28 13 -28 29s12 28 28 28h1h87v283l-22 43l-43 22h-73l-48 -24l-46 -47v-277h58c16 0 29 -12 29 -28s-13 -29 -29 -29h-82c-1 0 -4 -1 -5 -1s-4 1 -5 1h-81h-2c-16 0 -28 13 -28 29
s12 28 28 28h2h57v283l-21 43l-43 22h-74l-47 -24l-46 -47v-277h58c16 0 29 -12 29 -28s-13 -29 -29 -29h-82c-1 0 -5 -1 -6 -1s-3 1 -4 1h-82h-1c-16 0 -28 13 -28 29s12 28 28 28h1h58v286v3v5v54h-58h-1c-16 0 -28 12 -28 28s12 30 28 30h1h82h4z" />
    <glyph glyph-name="n" unicode="n" 
d="M144 463h1c7 0 16 -4 20 -8v-1c4 -4 9 -14 9 -21v-4v-15l4 7c2 3 8 8 11 10l59 29c3 2 10 3 13 3h87c3 0 10 -1 13 -3l57 -29c4 -2 11 -9 13 -13l29 -58c2 -3 3 -11 3 -14v-289h58c16 0 29 -12 29 -28s-13 -29 -29 -29h-82c-1 0 -4 -1 -5 -1s-4 1 -5 1h-81h-2
c-16 0 -28 13 -28 29s12 28 28 28h2h57v283l-21 43l-43 22h-74l-45 -22l-48 -74v-252h58c16 0 29 -12 29 -28s-13 -29 -29 -29h-82c-1 0 -5 -1 -6 -1s-3 1 -4 1h-82h-1c-16 0 -28 13 -28 29s12 28 28 28h1h58v258v3v3v84h-58h-1c-16 0 -28 12 -28 28s12 30 28 30h1h82h4z
" />
    <glyph glyph-name="o" unicode="o" horiz-adv-x="520" 
d="M236 405l-75 -25l-49 -49l-25 -76v-48l25 -76l49 -49l75 -25h49l76 25l48 49l25 76v48l-25 76l-48 49l-76 25h-49zM233 463h1h55c2 0 7 -1 9 -2l87 -29c3 -1 10 -4 12 -6l57 -59c2 -2 7 -8 8 -11l29 -86c1 -2 1 -8 1 -10v-58c0 -2 0 -8 -1 -10l-29 -85
c-1 -3 -6 -10 -8 -12l-57 -58c-2 -2 -9 -6 -12 -7l-87 -29c-2 -1 -7 -1 -9 -1h-57h-1c-2 0 -7 0 -9 1l-87 29c-3 1 -9 5 -11 7l-58 58c-2 2 -6 9 -7 12l-28 85c-1 2 -2 8 -2 10v58c0 2 1 8 2 10l28 86c1 3 5 9 7 11l58 59c2 2 8 5 11 6l85 29c2 1 5 1 7 1c1 0 1 1 2 1h3h1z
" />
    <glyph glyph-name="p" unicode="p" horiz-adv-x="548" 
d="M267 405l-47 -24l-46 -47v-206l46 -47l47 -24h74l47 24l50 50l25 76v76l-24 47l-51 51l-47 24h-74zM144 463h1c7 0 16 -4 20 -8v-1c4 -4 9 -14 9 -21v-4v-12l9 9c2 2 4 4 6 5l59 29c3 2 10 3 13 3h87c3 0 10 -1 13 -3l57 -29c2 -1 6 -3 8 -5l58 -59c2 -2 5 -5 6 -7
l28 -58c2 -3 3 -10 3 -13v-87c0 -2 -1 -8 -2 -10l-28 -85c-1 -3 -5 -10 -7 -12l-58 -58c-2 -2 -6 -4 -8 -5l-57 -30c-3 -2 -10 -2 -13 -2h-87c-3 0 -10 0 -13 2l-59 30c-2 1 -4 3 -6 5l-9 8v-190h58c16 0 29 -13 29 -29s-13 -30 -29 -30h-82h-6h-4h-82h-1
c-16 0 -28 14 -28 30s12 29 28 29h1h58v256v5v4v223v3v5v54h-58h-1c-16 0 -28 12 -28 28s12 30 28 30h1h82h4z" />
    <glyph glyph-name="q" unicode="q" horiz-adv-x="548" 
d="M209 405l-47 -24l-50 -50l-25 -76v-48l25 -76l50 -50l47 -24h74l47 24l46 47v206l-46 47l-47 24h-74zM405 463c16 0 29 -13 29 -29v-1v-82v-5v-3v-223v-4v-4v-257h58h1c16 0 28 -13 28 -29s-12 -30 -28 -30h-1h-82h-5h-5h-82c-16 0 -29 14 -29 30s13 29 29 29h58v190
l-9 -8c-2 -2 -4 -4 -6 -5l-59 -30c-3 -2 -10 -2 -13 -2h-87c-3 0 -10 0 -13 2l-57 30c-2 1 -6 3 -8 5l-58 58c-2 2 -6 9 -7 12l-28 85c-1 2 -2 8 -2 10v58c0 2 1 8 2 10l28 86c1 3 5 9 7 11l58 59c2 2 6 4 8 5l57 29c3 2 10 3 13 3h87c3 0 10 -1 13 -3l59 -29
c2 -1 4 -3 6 -5l9 -9v16v1c0 15 14 29 29 29z" />
    <glyph glyph-name="r" unicode="r" horiz-adv-x="463" 
d="M144 463h1c7 0 16 -4 20 -8v-1c4 -4 9 -14 9 -21v-4v-41l37 38c2 2 6 4 8 5l57 29c3 2 10 3 13 3h87c7 0 17 -5 21 -9l29 -28c4 -4 8 -14 8 -21v-29c0 -7 -4 -17 -8 -21l-29 -28c-4 -4 -14 -9 -21 -9c-16 0 -28 12 -28 28v30c0 11 8 24 18 28l-2 1h-68l-47 -24l-50 -50
l-25 -76v-198h58c16 0 29 -12 29 -28s-13 -29 -29 -29h-82c-1 0 -5 -1 -6 -1s-3 1 -4 1h-82h-1c-16 0 -28 13 -28 29s12 28 28 28h1h58v200v3v2v143h-58h-1c-16 0 -28 12 -28 28s12 30 28 30h1h82h4z" />
    <glyph glyph-name="s" unicode="s" horiz-adv-x="520" 
d="M174 463h115c3 0 10 -1 13 -3l59 -29c2 -1 4 -3 6 -5l11 -11c3 11 16 19 27 19c16 0 29 -13 29 -29v-87c0 -16 -13 -29 -29 -29c-10 0 -21 7 -25 16l-28 54l-22 22l-47 24h-103l-47 -24l-17 -17v-34l17 -18l51 -24l140 -28c2 0 5 -2 7 -3l58 -29c2 -1 6 -4 8 -6l29 -28
c4 -4 8 -14 8 -21v-86c0 -7 -4 -17 -8 -21l-29 -29c-2 -2 -6 -4 -8 -5l-58 -30c-3 -2 -10 -2 -13 -2h-116c-3 0 -10 0 -13 2l-57 30c-2 1 -6 3 -8 5l-8 8v-16c0 -16 -13 -30 -29 -30s-29 14 -29 30v115c0 16 13 29 29 29c10 0 21 -7 25 -16l28 -54l22 -22l47 -24h102l49 24
l16 17v64l-16 16l-51 26l-141 28c-2 0 -5 1 -7 2l-59 29c-2 1 -4 3 -6 5l-30 29c-4 4 -8 14 -8 21v58c0 7 4 16 8 20l30 30c2 2 4 4 6 5l59 29c3 2 10 3 13 3z" />
    <glyph glyph-name="t" unicode="t" horiz-adv-x="404" 
d="M144 666h1c16 0 29 -13 29 -29v-174h87c16 0 29 -14 29 -30s-13 -28 -29 -28h-87v-257l23 -70l42 -21h44l51 27c3 2 11 3 14 3c16 0 28 -14 28 -30c0 -10 -6 -21 -15 -25l-59 -30c-3 -2 -10 -2 -13 -2h-57c-3 0 -10 0 -13 2l-58 30c-6 3 -13 9 -15 16l-28 87
c-1 2 -2 7 -2 9v261h-58h-1c-16 0 -28 12 -28 28s12 30 28 30h1h58v174c0 15 13 29 28 29z" />
    <glyph glyph-name="u" unicode="u" horiz-adv-x="607" 
d="M144 463h1c7 0 16 -4 20 -8v-1c4 -4 9 -14 9 -21v-4v-307l22 -43l43 -22h75l75 25l45 46v277h-86h-2c-16 0 -28 12 -28 28s12 30 28 30h2h111h4c7 0 16 -4 20 -8v-1h1c4 -4 9 -14 9 -21c0 -1 -1 -3 -1 -4v-309c0 -1 1 -3 1 -4s-1 -3 -1 -4v-55h58c16 0 30 -12 30 -28
s-14 -29 -30 -29h-82c-1 0 -4 -1 -5 -1c-7 0 -16 5 -20 9h-1c-4 4 -9 14 -9 21c0 1 1 3 1 4v12l-8 -8c-2 -2 -8 -6 -11 -7l-87 -29c-2 -1 -7 -1 -9 -1h-1h-86c-3 0 -10 0 -13 2l-58 30c-4 2 -12 8 -14 12l-28 58c-2 3 -3 11 -3 14v289h-58h-1c-16 0 -28 12 -28 28
s12 30 28 30h1h82h4z" />
    <glyph glyph-name="v" unicode="v" horiz-adv-x="520" 
d="M86 463h5h83c16 0 30 -14 30 -30s-14 -28 -30 -28h-43l130 -303l129 303h-42h-2c-16 0 -28 12 -28 28s12 30 28 30h2h82h4h5h53h1c16 0 28 -14 28 -30s-12 -28 -28 -28h-1h-39l-165 -384c-3 -11 -13 -21 -24 -22h-1h-2h-3c-1 0 -4 1 -5 1c-9 2 -19 12 -21 21l-164 384
h-39c-16 0 -29 12 -29 28s13 30 29 30h53h4z" />
    <glyph glyph-name="w" unicode="w" horiz-adv-x="694" 
d="M116 463h4h82h2c16 0 28 -14 28 -30s-12 -28 -28 -28h-2h-48l78 -271l87 305c2 11 11 21 21 23h1c1 0 1 1 2 1h2h3h2h1c1 0 1 -1 2 -1h3c10 -3 19 -13 20 -23l87 -305l77 271h-48c-16 0 -29 12 -29 28s13 30 29 30h82h5h5h82h1c16 0 28 -14 28 -30s-12 -28 -28 -28h-1
h-65l-109 -382c-2 -11 -12 -21 -22 -23c-1 0 -1 -1 -2 -1h-3h-2h-2h-1c-1 0 -1 1 -2 1h-4c-10 3 -19 13 -20 23l-86 306l-87 -306c-2 -11 -12 -21 -22 -23h-1c-1 0 -2 -1 -3 -1h-2h-1h-1h-2h-1c-1 0 -1 1 -2 1h-3c-10 3 -18 13 -19 23l-110 382h-65c-16 0 -29 12 -29 28
s13 30 29 30h82h5z" />
    <glyph glyph-name="x" unicode="x" horiz-adv-x="548" 
d="M117 463h3h82h2c16 0 28 -14 28 -30s-12 -28 -28 -28h-2h-27l100 -127l100 127h-27h-2c-16 0 -28 12 -28 28s12 30 28 30h2h82h4h5h53h1c16 0 28 -14 28 -30s-12 -28 -28 -28h-1h-43l-138 -174l138 -174h43h1c16 0 28 -12 28 -28s-12 -29 -28 -29h-1h-53
c-1 0 -4 -1 -5 -1s-3 1 -4 1h-82h-2c-16 0 -28 13 -28 29s12 28 28 28h2h27l-100 127l-100 -127h27h2c16 0 28 -12 28 -28s-12 -29 -28 -29h-2h-82c-1 0 -3 -1 -4 -1s-4 1 -5 1h-53h-1c-16 0 -28 13 -28 29s12 28 28 28h1h43l138 174l-138 174h-43h-1c-16 0 -28 12 -28 28
s12 30 28 30h1h53h5h1z" />
    <glyph glyph-name="y" unicode="y" horiz-adv-x="520" 
d="M116 463h4h82h2c16 0 28 -14 28 -30s-12 -28 -28 -28h-2h-42l129 -303l130 303h-43c-16 0 -30 12 -30 28s14 30 30 30h83h4h5h53c16 0 29 -14 29 -30s-13 -28 -29 -28h-39l-164 -384l-4 -9l-57 -112c-1 -2 -3 -6 -5 -8l-57 -58c-2 -2 -6 -5 -8 -6l-58 -28
c-3 -2 -10 -4 -13 -4h-29c-7 0 -17 5 -21 9l-29 29c-4 4 -8 14 -8 21s4 17 8 21l29 28c4 4 14 9 21 9c16 0 29 -14 29 -30v-25l40 21l52 51l49 100l-160 375h-39h-1c-16 0 -28 12 -28 28s12 30 28 30h1h53h5z" />
    <glyph glyph-name="z" unicode="z" horiz-adv-x="433" 
d="M375 463h1c8 0 18 -4 22 -10c1 -1 3 -4 4 -5c0 -1 1 -1 1 -2s1 -2 1 -3c1 -2 2 -8 2 -10c0 -7 -5 -17 -9 -21l-279 -355h230v30c0 16 12 29 28 29s29 -13 29 -29v-58c0 -16 -13 -29 -29 -29h-314c-1 0 -4 -1 -5 -1c-8 0 -18 5 -22 11c-1 1 -2 3 -3 4c0 1 -1 1 -1 2
s-1 2 -1 3c-1 2 -1 8 -1 10c0 7 4 17 8 21l280 355h-230v-29v-1c0 -16 -13 -29 -29 -29s-29 13 -29 29v1v57c0 16 13 30 29 30h314h3z" />
    <glyph glyph-name="braceleft" unicode="{" horiz-adv-x="404" 
d="M261 781c16 0 28 -13 28 -29c0 -10 -6 -22 -15 -26l-54 -26l-22 -22l-24 -49v-44l24 -47l25 -25c2 -2 5 -6 6 -8l28 -58c2 -3 4 -11 4 -14v-57c0 -7 -5 -17 -9 -21l-56 -56c-1 -1 -4 -3 -6 -4l-1 -1c-1 -1 -4 -3 -5 -4l-4 -1l4 -2c2 -1 5 -2 6 -3l2 -1c1 -1 3 -4 4 -5
l56 -56c4 -4 9 -13 9 -20v-58c0 -3 -2 -10 -4 -13l-28 -57c-1 -2 -4 -6 -6 -8l-25 -25l-24 -49v-44l24 -47l22 -22l54 -27c9 -4 15 -16 15 -26c0 -16 -12 -30 -28 -30c-3 0 -10 2 -13 4l-59 28c-2 1 -4 4 -6 6l-30 30c-2 2 -5 5 -6 7l-28 57c-2 3 -3 11 -3 14v58
c0 3 1 9 3 12l28 58c1 2 4 6 6 8l26 25l23 48v39l-46 46l-54 27c-9 4 -15 16 -15 26s6 22 15 26l54 27l46 46v39l-23 47l-26 26c-2 2 -5 5 -6 7l-28 58c-2 3 -3 11 -3 14v58c0 3 1 9 3 12l28 58c1 2 4 6 6 8l30 29c2 2 4 4 6 5l59 29c3 2 10 3 13 3z" />
    <glyph glyph-name="bar" unicode="|" horiz-adv-x="231" 
d="M116 781c16 0 29 -13 29 -29v-926v-1c0 -16 -13 -29 -29 -29s-29 13 -29 29v1v926c0 15 14 29 29 29z" />
    <glyph glyph-name="braceright" unicode="}" horiz-adv-x="404" 
d="M144 781c4 0 10 -1 13 -3l59 -29c2 -1 5 -3 7 -5l29 -29c2 -2 4 -6 5 -8l29 -58c2 -3 3 -9 3 -12v-58c0 -3 -1 -11 -3 -14l-29 -58c-1 -2 -3 -5 -5 -7l-25 -26l-25 -47v-39l47 -46l53 -27c9 -4 16 -16 16 -26s-7 -22 -16 -26l-53 -27l-47 -46v-39l25 -48l25 -25
c2 -2 4 -6 5 -8l29 -58c2 -3 3 -9 3 -12v-58c0 -3 -1 -11 -3 -14l-29 -57c-1 -2 -3 -5 -5 -7l-29 -30c-2 -2 -5 -5 -7 -6l-59 -28c-3 -2 -9 -4 -12 -4c-16 0 -29 14 -29 30c0 10 7 22 16 26l54 27l22 22l24 47v44l-24 49l-25 25c-2 2 -5 6 -6 8l-30 57c-2 3 -2 10 -2 13v58
c0 7 4 16 8 20l56 56c1 1 3 5 5 6l2 1c1 1 4 1 5 2l3 2l-3 1c-2 1 -6 4 -7 5l-1 1c-1 1 -3 2 -4 3l-56 56c-4 4 -8 14 -8 21v57c0 3 0 11 2 14l30 58c1 2 4 6 6 8l25 25l24 47v44l-24 49l-22 22l-54 26c-9 4 -16 16 -16 26c0 15 13 29 28 29z" />
    <glyph glyph-name="asciitilde" unicode="~" horiz-adv-x="694" 
d="M607 405h1c16 0 29 -13 29 -29v-55v-3v-4c0 -1 -1 -3 -1 -4l-4 -8l-27 -54c-2 -4 -9 -12 -13 -14l-58 -28c-3 -2 -10 -4 -13 -4h-58c-3 0 -10 2 -13 4l-57 28c-1 1 -4 1 -5 2l-114 86l-50 24h-44l-40 -19l-24 -72v-53v-1c0 -16 -13 -28 -29 -28s-29 12 -29 28v1v58
c0 2 0 8 1 10l29 86c2 7 8 14 14 17l59 29c3 2 10 3 13 3h58c3 0 9 -1 12 -3l58 -29c1 -1 4 -2 5 -3l113 -85l50 -25h44l44 22l21 42v52c0 15 13 29 28 29z" />
    <glyph glyph-name="uni007F" horiz-adv-x="463" 
d="M0 666c4 0 11 -3 14 -5c3 2 11 5 15 5h29c4 0 12 -3 15 -5c3 2 10 5 14 5h29c4 0 11 -3 14 -5c3 2 11 5 15 5h29c4 0 11 -3 14 -5c3 2 10 5 14 5h30c4 0 11 -3 14 -5c3 2 11 5 15 5h28c4 0 12 -3 15 -5c3 2 10 5 14 5h30c4 0 11 -3 14 -5c3 2 10 5 14 5h29
c4 0 12 -3 15 -5c3 2 10 5 14 5h29c16 0 29 -13 29 -29v-608c0 -16 -13 -30 -29 -30c-4 0 -11 2 -14 4c-3 -2 -11 -3 -15 -3h-29c-4 0 -12 1 -15 3c-3 -2 -10 -3 -14 -3h-28c-4 0 -12 1 -15 3c-3 -2 -11 -3 -15 -3h-29c-4 0 -11 1 -14 3c-3 -2 -10 -3 -14 -3h-29
c-4 0 -12 1 -15 3c-3 -2 -11 -3 -15 -3h-28c-4 0 -11 1 -14 3c-3 -2 -11 -3 -15 -3h-29c-4 0 -12 1 -15 3c-3 -2 -10 -3 -14 -3h-29c-4 0 -12 1 -15 3c-3 -2 -10 -3 -14 -3h-29c-16 0 -29 13 -29 29v608c0 15 14 29 29 29z" />
    <glyph glyph-name="dieresis" unicode="&#xa8;" horiz-adv-x="433" 
d="M318 607c7 0 17 -3 21 -7l28 -30c4 -4 9 -13 9 -20s-5 -17 -9 -21l-28 -29c-4 -4 -14 -8 -21 -8s-16 4 -20 8l-28 29c-4 4 -9 14 -9 21s5 16 9 20l28 30c4 4 13 7 20 7zM116 607c7 0 16 -3 20 -7l29 -30c4 -4 9 -13 9 -20s-5 -17 -9 -21l-29 -29c-4 -4 -13 -8 -20 -8
s-16 4 -20 8l-30 29c-4 4 -8 14 -8 21s4 16 8 20l30 30c4 4 13 7 20 7z" />
    <glyph glyph-name="copyright" unicode="&#xa9;" horiz-adv-x="694" 
d="M318 492h58c3 0 10 -2 13 -4l59 -28c3 -2 9 -7 11 -10l57 -87c2 -4 5 -13 5 -17v-144c0 -4 -3 -12 -5 -16l-57 -87c-2 -3 -8 -8 -11 -10l-59 -29c-3 -2 -10 -3 -13 -3h-58c-3 0 -9 1 -12 3l-58 29c-2 1 -6 4 -8 6l-29 29c-4 4 -9 14 -9 21c0 16 13 29 29 29
c7 0 17 -5 21 -9l25 -26l49 -23h44l45 22l48 73v127l-48 73l-45 22h-44l-44 -21l-25 -49c-4 -9 -15 -17 -25 -17c-16 0 -30 14 -30 30c0 3 2 9 4 12l28 59c2 4 10 11 14 13l58 28c3 2 9 4 12 4zM294 550l-76 -25l-50 -51l-25 -50l-27 -109v-81l27 -109l25 -50l50 -50l76 -25
h106l76 25l50 50l25 50l28 109v81l-28 109l-25 50l-50 51l-76 25h-106zM406 607h3h2c1 0 5 -1 6 -2l85 -27c3 -1 9 -6 11 -8l58 -57c2 -2 4 -6 5 -8l29 -58c1 -1 2 -4 2 -6l29 -117c0 -2 1 -4 1 -6v-87c0 -2 -1 -5 -1 -7l-29 -116c0 -2 -1 -5 -2 -6l-29 -58
c-1 -2 -3 -5 -5 -7l-58 -58c-2 -2 -8 -6 -11 -7l-87 -29c-2 -1 -8 -1 -10 -1h-116c-2 0 -7 0 -9 1l-86 29c-3 1 -9 5 -11 7l-59 58c-2 2 -4 5 -5 7l-29 58c-1 1 -2 4 -2 6l-30 116v7v87v6l30 117c0 2 1 5 2 6l29 58c1 2 3 6 5 8l59 57c2 2 8 7 11 8l86 28c2 1 7 1 9 1h114h2
h1z" />
    <glyph glyph-name="guillemotleft" unicode="&#xab;" horiz-adv-x="404" 
d="M376 463c16 0 30 -13 30 -29c0 -7 -5 -16 -9 -20l-154 -154l154 -153c4 -4 9 -14 9 -21c0 -16 -14 -29 -30 -29c-7 0 -17 5 -21 9l-172 174c-4 4 -9 13 -9 20s5 16 9 20l172 174c4 4 14 9 21 9zM202 463c16 0 30 -13 30 -29c0 -7 -5 -16 -9 -20l-153 -154l153 -153
c4 -4 9 -14 9 -21c0 -16 -12 -29 -28 -29c-7 0 -17 5 -21 9l-174 174c-4 4 -9 13 -9 20s5 16 9 20l174 174c4 4 12 9 19 9z" />
    <glyph glyph-name="acute" unicode="&#xb4;" horiz-adv-x="346" 
d="M260 637h1c16 0 28 -14 28 -30c0 -8 -4 -18 -10 -22l-173 -145c-4 -4 -14 -7 -20 -7c-16 0 -29 13 -29 29c0 8 4 19 11 23l174 144c4 3 12 8 18 8z" />
    <glyph glyph-name="cedilla" unicode="&#xb8;" horiz-adv-x="144" 
d="M116 57h1c16 0 28 -12 28 -28c0 -7 -5 -17 -9 -21l-23 -23l23 -22c4 -4 9 -14 9 -21s-5 -17 -9 -21l-28 -29c-4 -4 -14 -9 -21 -9h-29h-1c-16 0 -28 14 -28 30s12 29 28 29h1c-16 0 -29 12 -29 28c0 7 4 17 8 21l59 59c4 4 13 7 20 7z" />
    <glyph glyph-name="guillemotright" unicode="&#xbb;" horiz-adv-x="404" 
d="M202 463c7 0 17 -5 21 -9l174 -174c4 -4 8 -13 8 -20s-4 -16 -8 -20l-174 -174c-4 -4 -14 -9 -21 -9c-16 0 -28 13 -28 29c0 7 5 17 9 21l153 153l-153 154c-4 4 -9 13 -9 20c0 16 12 29 28 29zM29 463c7 0 17 -5 21 -9l173 -174c4 -4 9 -13 9 -20s-5 -16 -9 -20
l-173 -174c-4 -4 -14 -9 -21 -9c-16 0 -29 13 -29 29c0 7 5 17 9 21l153 153l-153 154c-4 4 -9 13 -9 20c0 16 13 29 29 29z" />
    <glyph glyph-name="Agrave" unicode="&#xc0;" 
d="M118.05 877.1c5 0 13 -4 17 -7l158 -131c6 -4 10 -14 10 -21c0 -15 -12 -26 -27 -26c-5 0 -13 2 -17 6l-158 132c-5 4 -10 13 -10 20c0 15 12 27 27 27zM263 495l-95 -285h190zM262 605h1h1h1h2c1 0 4 0 5 -1c8 -3 15 -12 17 -20l129 -388c1 -2 3 -6 3 -8l45 -136h34
c15 0 27 -11 27 -26s-12 -26 -27 -26h-48c-1 0 -4 -1 -5 -1s-3 1 -4 1h-75c-15 0 -26 11 -26 26s11 26 26 26h43l-35 105h-225l-36 -105h43c15 0 27 -11 27 -26s-12 -26 -27 -26h-75c-1 0 -3 -1 -4 -1s-3 1 -4 1h-49c-15 0 -26 11 -26 26s11 26 26 26h34l45 136c0 2 2 6 3 8
l129 388c2 10 13 20 24 21h1z" />
    <glyph glyph-name="Aacute" unicode="&#xc1;" 
d="M430.7 877.1h1c15 0 26 -12 26 -27c0 -7 -4 -16 -9 -20l-158 -132c-4 -4 -13 -6 -18 -6c-15 0 -26 11 -26 26c0 7 4 17 10 21l158 131c4 3 11 7 16 7zM263 495l-95 -285h190zM262 605h1h1h1h2c1 0 4 0 5 -1c8 -3 15 -12 17 -20l129 -388c1 -2 3 -6 3 -8l45 -136h34
c15 0 27 -11 27 -26s-12 -26 -27 -26h-48c-1 0 -4 -1 -5 -1s-3 1 -4 1h-75c-15 0 -26 11 -26 26s11 26 26 26h43l-35 105h-225l-36 -105h43c15 0 27 -11 27 -26s-12 -26 -27 -26h-75c-1 0 -3 -1 -4 -1s-3 1 -4 1h-49c-15 0 -26 11 -26 26s11 26 26 26h34l45 136c0 2 2 6 3 8
l129 388c2 10 13 20 24 21h1z" />
    <glyph glyph-name="Acircumflex" unicode="&#xc2;" 
d="M268.85 913.6h1h2c7 -1 15 -5 19 -11l155 -155c4 -4 8 -13 8 -19c0 -15 -11 -26 -26 -26c-6 0 -15 4 -19 8l-139 139l-140 -139c-4 -4 -13 -8 -19 -8c-15 0 -26 11 -26 26c0 6 4 15 8 19l155 155c4 6 14 11 21 11zM263 495l-95 -285h190zM262 605h1h1h1h2c1 0 4 0 5 -1
c8 -3 15 -12 17 -20l129 -388c1 -2 3 -6 3 -8l45 -136h34c15 0 27 -11 27 -26s-12 -26 -27 -26h-48c-1 0 -4 -1 -5 -1s-3 1 -4 1h-75c-15 0 -26 11 -26 26s11 26 26 26h43l-35 105h-225l-36 -105h43c15 0 27 -11 27 -26s-12 -26 -27 -26h-75c-1 0 -3 -1 -4 -1s-3 1 -4 1h-49
c-15 0 -26 11 -26 26s11 26 26 26h34l45 136c0 2 2 6 3 8l129 388c2 10 13 20 24 21h1z" />
    <glyph glyph-name="Atilde" unicode="&#xc3;" 
d="M494.8 926.8h1c15 0 26 -11 26 -26v-50v-3v-4c0 -1 -1 -2 -1 -3c-1 -2 -2 -5 -3 -7l-25 -50c-2 -4 -8 -10 -12 -12l-53 -26c-3 -2 -8 -3 -11 -3h-53c-3 0 -9 1 -12 3l-52 26c-1 1 -3 1 -4 2l-104 78l-45 22h-40l-37 -18l-22 -65v-48v-1c0 -15 -11 -26 -26 -26
s-26 11 -26 26v1v52c0 2 0 7 1 9l26 79c2 6 8 12 13 15l53 26c3 2 9 3 12 3h53c3 0 8 -1 11 -3l53 -26c1 -1 3 -2 4 -3l103 -77l45 -23h40l40 20l19 39v47c0 14 12 26 26 26zM263 495l-95 -285h190zM262 605h1h1h1h2c1 0 4 0 5 -1c8 -3 15 -12 17 -20l129 -388
c1 -2 3 -6 3 -8l45 -136h34c15 0 27 -11 27 -26s-12 -26 -27 -26h-48c-1 0 -4 -1 -5 -1s-3 1 -4 1h-75c-15 0 -26 11 -26 26s11 26 26 26h43l-35 105h-225l-36 -105h43c15 0 27 -11 27 -26s-12 -26 -27 -26h-75c-1 0 -3 -1 -4 -1s-3 1 -4 1h-49c-15 0 -26 11 -26 26
s11 26 26 26h34l45 136c0 2 2 6 3 8l129 388c2 10 13 20 24 21h1z" />
    <glyph glyph-name="Adieresis" unicode="&#xc4;" 
d="M362.15 791.8c6 0 15 -3 19 -7l26 -27c4 -4 8 -12 8 -18s-4 -15 -8 -19l-26 -26c-4 -4 -13 -8 -19 -8s-14 4 -18 8l-26 26c-4 4 -8 13 -8 19s4 14 8 18l26 27c4 4 12 7 18 7zM178.15 791.8c6 0 15 -3 19 -7l26 -27c4 -4 8 -12 8 -18s-4 -15 -8 -19l-26 -26
c-4 -4 -13 -8 -19 -8s-14 4 -18 8l-27 26c-4 4 -7 13 -7 19s3 14 7 18l27 27c4 4 12 7 18 7zM263 495l-95 -285h190zM262 605h1h1h1h2c1 0 4 0 5 -1c8 -3 15 -12 17 -20l129 -388c1 -2 3 -6 3 -8l45 -136h34c15 0 27 -11 27 -26s-12 -26 -27 -26h-48c-1 0 -4 -1 -5 -1
s-3 1 -4 1h-75c-15 0 -26 11 -26 26s11 26 26 26h43l-35 105h-225l-36 -105h43c15 0 27 -11 27 -26s-12 -26 -27 -26h-75c-1 0 -3 -1 -4 -1s-3 1 -4 1h-49c-15 0 -26 11 -26 26s11 26 26 26h34l45 136c0 2 2 6 3 8l129 388c2 10 13 20 24 21h1z" />
    <glyph glyph-name="Ccedilla" unicode="&#xc7;" 
d="M312.9 0.59375h1c15 0 26 -11 26 -26c0 -6 -4 -15 -8 -19l-21 -21l21 -20c4 -4 8 -13 8 -19s-4 -15 -8 -19l-26 -26c-4 -4 -13 -8 -19 -8h-26h-1c-15 0 -26 12 -26 27s11 26 26 26h1c-15 0 -27 11 -27 26c0 6 4 15 8 19l53 53c4 4 12 7 18 7zM473 605h1
c15 0 26 -11 26 -26v-158c0 -15 -11 -27 -26 -27c-10 0 -22 8 -25 18l-25 73l-44 44l-68 23h-45l-69 -23l-45 -45l-23 -47l-25 -73v-123l25 -73l23 -48l45 -45l69 -23h45l68 23l46 45l24 49c4 8 15 15 24 15c15 0 26 -12 26 -27c0 -3 -1 -8 -3 -11l-26 -53
c-1 -2 -3 -5 -5 -7l-53 -52c-2 -2 -7 -6 -10 -7l-79 -26c-2 -1 -6 -1 -8 -1h-53c-2 0 -6 0 -8 1l-79 26c-3 1 -8 5 -10 7l-53 52c-2 2 -4 5 -5 7l-26 53c0 1 -2 2 -2 3l-26 79c-1 2 -1 6 -1 8v132c0 2 0 6 1 8l26 79c0 1 2 3 2 4l26 52c1 2 3 5 5 7l53 53c2 2 7 5 10 6
l79 27c2 1 6 1 8 1h53c2 0 6 0 8 -1l79 -27c3 -1 8 -4 10 -6l34 -34v42c0 14 12 26 26 26z" />
    <glyph glyph-name="Egrave" unicode="&#xc8;" horiz-adv-x="548" 
d="M102.1 877.1c5 0 13 -4 17 -7l158 -131c6 -4 10 -14 10 -21c0 -15 -12 -26 -27 -26c-5 0 -13 2 -17 6l-158 132c-5 4 -10 13 -10 20c0 15 12 27 27 27zM131 605h1h4h311c15 0 27 -11 27 -26v-106c0 -15 -12 -26 -27 -26s-26 11 -26 26v79h-263v-210h105v52v1
c0 15 11 26 26 26s27 -11 27 -26v-1v-74v-5v-4v-75c0 -15 -12 -26 -27 -26s-26 11 -26 26v53h-105v-237h263v79v1c0 15 11 26 26 26s27 -11 27 -26v-1v-105c0 -15 -12 -26 -27 -26h-311c-1 0 -4 -1 -5 -1s-3 1 -4 1h-74h-1c-15 0 -26 11 -26 26s11 26 26 26h1h52v259v4v5
v232h-52h-1c-15 0 -26 12 -26 27s11 26 26 26h1h74h4z" />
    <glyph glyph-name="Eacute" unicode="&#xc9;" horiz-adv-x="548" 
d="M414.75 877.1h1c15 0 26 -12 26 -27c0 -7 -4 -16 -9 -20l-158 -132c-4 -4 -13 -6 -18 -6c-15 0 -26 11 -26 26c0 7 4 17 10 21l158 131c4 3 11 7 16 7zM131 605h1h4h311c15 0 27 -11 27 -26v-106c0 -15 -12 -26 -27 -26s-26 11 -26 26v79h-263v-210h105v52v1
c0 15 11 26 26 26s27 -11 27 -26v-1v-74v-5v-4v-75c0 -15 -12 -26 -27 -26s-26 11 -26 26v53h-105v-237h263v79v1c0 15 11 26 26 26s27 -11 27 -26v-1v-105c0 -15 -12 -26 -27 -26h-311c-1 0 -4 -1 -5 -1s-3 1 -4 1h-74h-1c-15 0 -26 11 -26 26s11 26 26 26h1h52v259v4v5
v232h-52h-1c-15 0 -26 12 -26 27s11 26 26 26h1h74h4z" />
    <glyph glyph-name="Ecircumflex" unicode="&#xca;" horiz-adv-x="548" 
d="M252.9 913.6h1h2c7 -1 15 -5 19 -11l155 -155c4 -4 8 -13 8 -19c0 -15 -11 -26 -26 -26c-6 0 -15 4 -19 8l-139 139l-140 -139c-4 -4 -13 -8 -19 -8c-15 0 -26 11 -26 26c0 6 4 15 8 19l155 155c4 6 14 11 21 11zM131 605h1h4h311c15 0 27 -11 27 -26v-106
c0 -15 -12 -26 -27 -26s-26 11 -26 26v79h-263v-210h105v52v1c0 15 11 26 26 26s27 -11 27 -26v-1v-74v-5v-4v-75c0 -15 -12 -26 -27 -26s-26 11 -26 26v53h-105v-237h263v79v1c0 15 11 26 26 26s27 -11 27 -26v-1v-105c0 -15 -12 -26 -27 -26h-311c-1 0 -4 -1 -5 -1
s-3 1 -4 1h-74h-1c-15 0 -26 11 -26 26s11 26 26 26h1h52v259v4v5v232h-52h-1c-15 0 -26 12 -26 27s11 26 26 26h1h74h4z" />
    <glyph glyph-name="Edieresis" unicode="&#xcb;" horiz-adv-x="548" 
d="M346.2 791.8c6 0 15 -3 19 -7l26 -27c4 -4 8 -12 8 -18s-4 -15 -8 -19l-26 -26c-4 -4 -13 -8 -19 -8s-14 4 -18 8l-26 26c-4 4 -8 13 -8 19s4 14 8 18l26 27c4 4 12 7 18 7zM162.2 791.8c6 0 15 -3 19 -7l26 -27c4 -4 8 -12 8 -18s-4 -15 -8 -19l-26 -26
c-4 -4 -13 -8 -19 -8s-14 4 -18 8l-27 26c-4 4 -7 13 -7 19s3 14 7 18l27 27c4 4 12 7 18 7zM131 605h1h4h311c15 0 27 -11 27 -26v-106c0 -15 -12 -26 -27 -26s-26 11 -26 26v79h-263v-210h105v52v1c0 15 11 26 26 26s27 -11 27 -26v-1v-74v-5v-4v-75
c0 -15 -12 -26 -27 -26s-26 11 -26 26v53h-105v-237h263v79v1c0 15 11 26 26 26s27 -11 27 -26v-1v-105c0 -15 -12 -26 -27 -26h-311c-1 0 -4 -1 -5 -1s-3 1 -4 1h-74h-1c-15 0 -26 11 -26 26s11 26 26 26h1h52v259v4v5v232h-52h-1c-15 0 -26 12 -26 27s11 26 26 26h1h74h4z
" />
    <glyph glyph-name="Igrave" unicode="&#xcc;" horiz-adv-x="289" 
d="M-27.7002 877.1c5 0 13 -4 17 -7l158 -131c6 -4 10 -14 10 -21c0 -15 -12 -26 -27 -26c-5 0 -13 2 -17 6l-158 132c-5 4 -10 13 -10 20c0 15 12 27 27 27zM131 605h1h4h75c15 0 26 -11 26 -26s-11 -27 -26 -27h-53v-500h53c15 0 26 -11 26 -26s-11 -26 -26 -26h-75
c-1 0 -4 -1 -5 -1s-3 1 -4 1h-74h-1c-15 0 -26 11 -26 26s11 26 26 26h1h52v500h-52h-1c-15 0 -26 12 -26 27s11 26 26 26h1h74h4z" />
    <glyph glyph-name="Iacute" unicode="&#xcd;" horiz-adv-x="289" 
d="M284.95 877.1h1c15 0 26 -12 26 -27c0 -7 -4 -16 -9 -20l-158 -132c-4 -4 -13 -6 -18 -6c-15 0 -26 11 -26 26c0 7 4 17 10 21l158 131c4 3 11 7 16 7zM131 605h1h4h75c15 0 26 -11 26 -26s-11 -27 -26 -27h-53v-500h53c15 0 26 -11 26 -26s-11 -26 -26 -26h-75
c-1 0 -4 -1 -5 -1s-3 1 -4 1h-74h-1c-15 0 -26 11 -26 26s11 26 26 26h1h52v500h-52h-1c-15 0 -26 12 -26 27s11 26 26 26h1h74h4z" />
    <glyph glyph-name="Icircumflex" unicode="&#xce;" horiz-adv-x="289" 
d="M123.1 913.6h1h2c7 -1 15 -5 19 -11l155 -155c4 -4 8 -13 8 -19c0 -15 -11 -26 -26 -26c-6 0 -15 4 -19 8l-139 139l-140 -139c-4 -4 -13 -8 -19 -8c-15 0 -26 11 -26 26c0 6 4 15 8 19l155 155c4 6 14 11 21 11zM131 605h1h4h75c15 0 26 -11 26 -26s-11 -27 -26 -27h-53
v-500h53c15 0 26 -11 26 -26s-11 -26 -26 -26h-75c-1 0 -4 -1 -5 -1s-3 1 -4 1h-74h-1c-15 0 -26 11 -26 26s11 26 26 26h1h52v500h-52h-1c-15 0 -26 12 -26 27s11 26 26 26h1h74h4z" />
    <glyph glyph-name="Idieresis" unicode="&#xcf;" horiz-adv-x="289" 
d="M216.4 791.8c6 0 15 -3 19 -7l26 -27c4 -4 8 -12 8 -18s-4 -15 -8 -19l-26 -26c-4 -4 -13 -8 -19 -8s-14 4 -18 8l-26 26c-4 4 -8 13 -8 19s4 14 8 18l26 27c4 4 12 7 18 7zM32.4004 791.8c6 0 15 -3 19 -7l26 -27c4 -4 8 -12 8 -18s-4 -15 -8 -19l-26 -26
c-4 -4 -13 -8 -19 -8s-14 4 -18 8l-27 26c-4 4 -7 13 -7 19s3 14 7 18l27 27c4 4 12 7 18 7zM131 605h1h4h75c15 0 26 -11 26 -26s-11 -27 -26 -27h-53v-500h53c15 0 26 -11 26 -26s-11 -26 -26 -26h-75c-1 0 -4 -1 -5 -1s-3 1 -4 1h-74h-1c-15 0 -26 11 -26 26s11 26 26 26
h1h52v500h-52h-1c-15 0 -26 12 -26 27s11 26 26 26h1h74h4z" />
    <glyph glyph-name="Ograve" unicode="&#xd2;" horiz-adv-x="635" 
d="M145 877.1c5 0 13 -4 17 -7l158 -131c6 -4 10 -14 10 -21c0 -15 -12 -26 -27 -26c-5 0 -13 2 -17 6l-158 132c-5 4 -10 13 -10 20c0 15 12 27 27 27zM267 552l-69 -23l-45 -45l-23 -46l-25 -100v-72l25 -99l23 -47l45 -45l69 -23h45l68 23l46 45l23 47l25 99v72l-25 100
l-23 46l-46 45l-68 23h-45zM264 605h2h50c2 0 6 0 8 -1l79 -27c3 -1 8 -4 10 -6l53 -53c2 -2 4 -5 5 -7l26 -52c1 -1 2 -4 2 -6l27 -105v-6v-79v-7l-27 -105c0 -2 -1 -4 -2 -5l-26 -53c-1 -2 -3 -5 -5 -7l-53 -52c-2 -2 -7 -6 -10 -7l-79 -26c-2 -1 -6 -1 -8 -1h-53
c-2 0 -6 0 -8 1l-79 26c-3 1 -8 5 -10 7l-53 52c-2 2 -4 5 -5 7l-26 53c-1 1 -2 3 -2 5l-27 105v7v79v6l27 105c0 2 1 5 2 6l26 52c1 2 3 5 5 7l53 53c2 2 7 5 10 6l77 26c2 1 4 1 6 1c1 0 1 1 2 1h3z" />
    <glyph glyph-name="Oacute" unicode="&#xd3;" horiz-adv-x="635" 
d="M457.65 877.1h1c15 0 26 -12 26 -27c0 -7 -4 -16 -9 -20l-158 -132c-4 -4 -13 -6 -18 -6c-15 0 -26 11 -26 26c0 7 4 17 10 21l158 131c4 3 11 7 16 7zM267 552l-69 -23l-45 -45l-23 -46l-25 -100v-72l25 -99l23 -47l45 -45l69 -23h45l68 23l46 45l23 47l25 99v72
l-25 100l-23 46l-46 45l-68 23h-45zM264 605h2h50c2 0 6 0 8 -1l79 -27c3 -1 8 -4 10 -6l53 -53c2 -2 4 -5 5 -7l26 -52c1 -1 2 -4 2 -6l27 -105v-6v-79v-7l-27 -105c0 -2 -1 -4 -2 -5l-26 -53c-1 -2 -3 -5 -5 -7l-53 -52c-2 -2 -7 -6 -10 -7l-79 -26c-2 -1 -6 -1 -8 -1h-53
c-2 0 -6 0 -8 1l-79 26c-3 1 -8 5 -10 7l-53 52c-2 2 -4 5 -5 7l-26 53c-1 1 -2 3 -2 5l-27 105v7v79v6l27 105c0 2 1 5 2 6l26 52c1 2 3 5 5 7l53 53c2 2 7 5 10 6l77 26c2 1 4 1 6 1c1 0 1 1 2 1h3z" />
    <glyph glyph-name="Ocircumflex" unicode="&#xd4;" horiz-adv-x="635" 
d="M295.8 913.6h1h2c7 -1 15 -5 19 -11l155 -155c4 -4 8 -13 8 -19c0 -15 -11 -26 -26 -26c-6 0 -15 4 -19 8l-139 139l-140 -139c-4 -4 -13 -8 -19 -8c-15 0 -26 11 -26 26c0 6 4 15 8 19l155 155c4 6 14 11 21 11zM267 552l-69 -23l-45 -45l-23 -46l-25 -100v-72l25 -99
l23 -47l45 -45l69 -23h45l68 23l46 45l23 47l25 99v72l-25 100l-23 46l-46 45l-68 23h-45zM264 605h2h50c2 0 6 0 8 -1l79 -27c3 -1 8 -4 10 -6l53 -53c2 -2 4 -5 5 -7l26 -52c1 -1 2 -4 2 -6l27 -105v-6v-79v-7l-27 -105c0 -2 -1 -4 -2 -5l-26 -53c-1 -2 -3 -5 -5 -7
l-53 -52c-2 -2 -7 -6 -10 -7l-79 -26c-2 -1 -6 -1 -8 -1h-53c-2 0 -6 0 -8 1l-79 26c-3 1 -8 5 -10 7l-53 52c-2 2 -4 5 -5 7l-26 53c-1 1 -2 3 -2 5l-27 105v7v79v6l27 105c0 2 1 5 2 6l26 52c1 2 3 5 5 7l53 53c2 2 7 5 10 6l77 26c2 1 4 1 6 1c1 0 1 1 2 1h3z" />
    <glyph glyph-name="Otilde" unicode="&#xd5;" horiz-adv-x="635" 
d="M521.75 926.8h1c15 0 26 -11 26 -26v-50v-3v-4c0 -1 -1 -2 -1 -3c-1 -2 -2 -5 -3 -7l-25 -50c-2 -4 -8 -10 -12 -12l-53 -26c-3 -2 -8 -3 -11 -3h-53c-3 0 -9 1 -12 3l-52 26c-1 1 -3 1 -4 2l-104 78l-45 22h-40l-37 -18l-22 -65v-48v-1c0 -15 -11 -26 -26 -26
s-26 11 -26 26v1v52c0 2 0 7 1 9l26 79c2 6 8 12 13 15l53 26c3 2 9 3 12 3h53c3 0 8 -1 11 -3l53 -26c1 -1 3 -2 4 -3l103 -77l45 -23h40l40 20l19 39v47c0 14 12 26 26 26zM267 552l-69 -23l-45 -45l-23 -46l-25 -100v-72l25 -99l23 -47l45 -45l69 -23h45l68 23l46 45
l23 47l25 99v72l-25 100l-23 46l-46 45l-68 23h-45zM264 605h2h50c2 0 6 0 8 -1l79 -27c3 -1 8 -4 10 -6l53 -53c2 -2 4 -5 5 -7l26 -52c1 -1 2 -4 2 -6l27 -105v-6v-79v-7l-27 -105c0 -2 -1 -4 -2 -5l-26 -53c-1 -2 -3 -5 -5 -7l-53 -52c-2 -2 -7 -6 -10 -7l-79 -26
c-2 -1 -6 -1 -8 -1h-53c-2 0 -6 0 -8 1l-79 26c-3 1 -8 5 -10 7l-53 52c-2 2 -4 5 -5 7l-26 53c-1 1 -2 3 -2 5l-27 105v7v79v6l27 105c0 2 1 5 2 6l26 52c1 2 3 5 5 7l53 53c2 2 7 5 10 6l77 26c2 1 4 1 6 1c1 0 1 1 2 1h3z" />
    <glyph glyph-name="Odieresis" unicode="&#xd6;" horiz-adv-x="635" 
d="M389.1 791.8c6 0 15 -3 19 -7l26 -27c4 -4 8 -12 8 -18s-4 -15 -8 -19l-26 -26c-4 -4 -13 -8 -19 -8s-14 4 -18 8l-26 26c-4 4 -8 13 -8 19s4 14 8 18l26 27c4 4 12 7 18 7zM205.1 791.8c6 0 15 -3 19 -7l26 -27c4 -4 8 -12 8 -18s-4 -15 -8 -19l-26 -26
c-4 -4 -13 -8 -19 -8s-14 4 -18 8l-27 26c-4 4 -7 13 -7 19s3 14 7 18l27 27c4 4 12 7 18 7zM267 552l-69 -23l-45 -45l-23 -46l-25 -100v-72l25 -99l23 -47l45 -45l69 -23h45l68 23l46 45l23 47l25 99v72l-25 100l-23 46l-46 45l-68 23h-45zM264 605h2h50c2 0 6 0 8 -1
l79 -27c3 -1 8 -4 10 -6l53 -53c2 -2 4 -5 5 -7l26 -52c1 -1 2 -4 2 -6l27 -105v-6v-79v-7l-27 -105c0 -2 -1 -4 -2 -5l-26 -53c-1 -2 -3 -5 -5 -7l-53 -52c-2 -2 -7 -6 -10 -7l-79 -26c-2 -1 -6 -1 -8 -1h-53c-2 0 -6 0 -8 1l-79 26c-3 1 -8 5 -10 7l-53 52c-2 2 -4 5 -5 7
l-26 53c-1 1 -2 3 -2 5l-27 105v7v79v6l27 105c0 2 1 5 2 6l26 52c1 2 3 5 5 7l53 53c2 2 7 5 10 6l77 26c2 1 4 1 6 1c1 0 1 1 2 1h3z" />
    <glyph glyph-name="Ugrave" unicode="&#xd9;" horiz-adv-x="665" 
d="M160.4 877.1c5 0 13 -4 17 -7l158 -131c6 -4 10 -14 10 -21c0 -15 -12 -26 -27 -26c-5 0 -13 2 -17 6l-158 132c-5 4 -10 13 -10 20c0 15 12 27 27 27zM131 605h1h4h75c15 0 26 -11 26 -26s-11 -27 -26 -27h-53v-364l23 -69l45 -45l43 -22h67l43 22l45 45l23 69v364h-52
h-1c-15 0 -26 12 -26 27s11 26 26 26h1h75h4h4h75c15 0 26 -11 26 -26s-11 -27 -26 -27h-53v-368c0 -2 0 -7 -1 -9l-27 -78c-1 -3 -4 -9 -6 -11l-53 -52c-2 -2 -4 -4 -6 -5l-53 -27c-3 -2 -9 -2 -12 -2h-79c-3 0 -9 0 -12 2l-52 27c-2 1 -5 3 -7 5l-53 52c-2 2 -5 8 -6 11
l-26 78c-1 2 -2 7 -2 9v368h-52h-1c-15 0 -26 12 -26 27s11 26 26 26h1h74h4z" />
    <glyph glyph-name="Uacute" unicode="&#xda;" horiz-adv-x="665" 
d="M473.05 877.1h1c15 0 26 -12 26 -27c0 -7 -4 -16 -9 -20l-158 -132c-4 -4 -13 -6 -18 -6c-15 0 -26 11 -26 26c0 7 4 17 10 21l158 131c4 3 11 7 16 7zM131 605h1h4h75c15 0 26 -11 26 -26s-11 -27 -26 -27h-53v-364l23 -69l45 -45l43 -22h67l43 22l45 45l23 69v364h-52
h-1c-15 0 -26 12 -26 27s11 26 26 26h1h75h4h4h75c15 0 26 -11 26 -26s-11 -27 -26 -27h-53v-368c0 -2 0 -7 -1 -9l-27 -78c-1 -3 -4 -9 -6 -11l-53 -52c-2 -2 -4 -4 -6 -5l-53 -27c-3 -2 -9 -2 -12 -2h-79c-3 0 -9 0 -12 2l-52 27c-2 1 -5 3 -7 5l-53 52c-2 2 -5 8 -6 11
l-26 78c-1 2 -2 7 -2 9v368h-52h-1c-15 0 -26 12 -26 27s11 26 26 26h1h74h4z" />
    <glyph glyph-name="Ucircumflex" unicode="&#xdb;" horiz-adv-x="665" 
d="M311.2 913.6h1h2c7 -1 15 -5 19 -11l155 -155c4 -4 8 -13 8 -19c0 -15 -11 -26 -26 -26c-6 0 -15 4 -19 8l-139 139l-140 -139c-4 -4 -13 -8 -19 -8c-15 0 -26 11 -26 26c0 6 4 15 8 19l155 155c4 6 14 11 21 11zM131 605h1h4h75c15 0 26 -11 26 -26s-11 -27 -26 -27h-53
v-364l23 -69l45 -45l43 -22h67l43 22l45 45l23 69v364h-52h-1c-15 0 -26 12 -26 27s11 26 26 26h1h75h4h4h75c15 0 26 -11 26 -26s-11 -27 -26 -27h-53v-368c0 -2 0 -7 -1 -9l-27 -78c-1 -3 -4 -9 -6 -11l-53 -52c-2 -2 -4 -4 -6 -5l-53 -27c-3 -2 -9 -2 -12 -2h-79
c-3 0 -9 0 -12 2l-52 27c-2 1 -5 3 -7 5l-53 52c-2 2 -5 8 -6 11l-26 78c-1 2 -2 7 -2 9v368h-52h-1c-15 0 -26 12 -26 27s11 26 26 26h1h74h4z" />
    <glyph glyph-name="Udieresis" unicode="&#xdc;" horiz-adv-x="665" 
d="M404.5 791.8c6 0 15 -3 19 -7l26 -27c4 -4 8 -12 8 -18s-4 -15 -8 -19l-26 -26c-4 -4 -13 -8 -19 -8s-14 4 -18 8l-26 26c-4 4 -8 13 -8 19s4 14 8 18l26 27c4 4 12 7 18 7zM220.5 791.8c6 0 15 -3 19 -7l26 -27c4 -4 8 -12 8 -18s-4 -15 -8 -19l-26 -26
c-4 -4 -13 -8 -19 -8s-14 4 -18 8l-27 26c-4 4 -7 13 -7 19s3 14 7 18l27 27c4 4 12 7 18 7zM131 605h1h4h75c15 0 26 -11 26 -26s-11 -27 -26 -27h-53v-364l23 -69l45 -45l43 -22h67l43 22l45 45l23 69v364h-52h-1c-15 0 -26 12 -26 27s11 26 26 26h1h75h4h4h75
c15 0 26 -11 26 -26s-11 -27 -26 -27h-53v-368c0 -2 0 -7 -1 -9l-27 -78c-1 -3 -4 -9 -6 -11l-53 -52c-2 -2 -4 -4 -6 -5l-53 -27c-3 -2 -9 -2 -12 -2h-79c-3 0 -9 0 -12 2l-52 27c-2 1 -5 3 -7 5l-53 52c-2 2 -5 8 -6 11l-26 78c-1 2 -2 7 -2 9v368h-52h-1
c-15 0 -26 12 -26 27s11 26 26 26h1h74h4z" />
    <glyph glyph-name="agrave" unicode="&#xe0;" horiz-adv-x="491" 
d="M136.2 674.7c5 0 13 -4 17 -7l158 -131c6 -4 10 -14 10 -21c0 -15 -12 -26 -27 -26c-5 0 -13 2 -17 6l-158 132c-5 4 -10 13 -10 20c0 15 12 27 27 27zM316 220l-15 -7c-3 -2 -9 -3 -12 -3h-151l-39 -20l-20 -39v-40l20 -39l39 -20h68l69 23l41 41v104zM158 421h105
c3 0 9 -1 12 -3l53 -26c4 -2 9 -8 11 -12l25 -50c1 -2 3 -6 4 -9c0 -2 1 -4 1 -6c0 -1 -1 -2 -1 -3v-45c0 -1 1 -3 1 -4s-1 -3 -1 -4v-148l22 -43l16 -16h15c15 0 27 -11 27 -26s-12 -26 -27 -26h-26c-6 0 -15 3 -19 7l-26 27c-2 2 -4 4 -5 6l-10 20l-27 -26
c-2 -2 -7 -6 -10 -7l-79 -26c-2 -1 -6 -1 -8 -1h-79c-3 0 -9 0 -12 2l-53 27c-4 2 -10 7 -12 11l-26 53c-2 3 -3 9 -3 12v52c0 3 1 9 3 12l26 53c2 4 8 10 12 12l53 26c3 2 9 3 12 3h151l33 16v30l-20 39l-39 20h-93l-34 -17c1 -2 2 -6 2 -9v-27c0 -15 -12 -26 -27 -26h-26
c-15 0 -26 11 -26 26v27c0 6 3 14 7 18l27 27c2 2 4 4 6 5l53 26c3 2 9 3 12 3z" />
    <glyph glyph-name="aacute" unicode="&#xe1;" horiz-adv-x="491" 
d="M295.95 674.7h1c15 0 26 -12 26 -27c0 -7 -4 -16 -9 -20l-158 -132c-4 -4 -13 -6 -18 -6c-15 0 -26 11 -26 26c0 7 4 17 10 21l158 131c4 3 11 7 16 7zM316 220l-15 -7c-3 -2 -9 -3 -12 -3h-151l-39 -20l-20 -39v-40l20 -39l39 -20h68l69 23l41 41v104zM158 421h105
c3 0 9 -1 12 -3l53 -26c4 -2 9 -8 11 -12l25 -50c1 -2 3 -6 4 -9c0 -2 1 -4 1 -6c0 -1 -1 -2 -1 -3v-45c0 -1 1 -3 1 -4s-1 -3 -1 -4v-148l22 -43l16 -16h15c15 0 27 -11 27 -26s-12 -26 -27 -26h-26c-6 0 -15 3 -19 7l-26 27c-2 2 -4 4 -5 6l-10 20l-27 -26
c-2 -2 -7 -6 -10 -7l-79 -26c-2 -1 -6 -1 -8 -1h-79c-3 0 -9 0 -12 2l-53 27c-4 2 -10 7 -12 11l-26 53c-2 3 -3 9 -3 12v52c0 3 1 9 3 12l26 53c2 4 8 10 12 12l53 26c3 2 9 3 12 3h151l33 16v30l-20 39l-39 20h-93l-34 -17c1 -2 2 -6 2 -9v-27c0 -15 -12 -26 -27 -26h-26
c-15 0 -26 11 -26 26v27c0 6 3 14 7 18l27 27c2 2 4 4 6 5l53 26c3 2 9 3 12 3z" />
    <glyph glyph-name="acircumflex" unicode="&#xe2;" horiz-adv-x="491" 
d="M210 711.2h1h2c7 -1 15 -5 19 -11l155 -155c4 -4 8 -13 8 -19c0 -15 -11 -26 -26 -26c-6 0 -15 4 -19 8l-139 139l-140 -139c-4 -4 -13 -8 -19 -8c-15 0 -26 11 -26 26c0 6 4 15 8 19l155 155c4 6 14 11 21 11zM316 220l-15 -7c-3 -2 -9 -3 -12 -3h-151l-39 -20l-20 -39
v-40l20 -39l39 -20h68l69 23l41 41v104zM158 421h105c3 0 9 -1 12 -3l53 -26c4 -2 9 -8 11 -12l25 -50c1 -2 3 -6 4 -9c0 -2 1 -4 1 -6c0 -1 -1 -2 -1 -3v-45c0 -1 1 -3 1 -4s-1 -3 -1 -4v-148l22 -43l16 -16h15c15 0 27 -11 27 -26s-12 -26 -27 -26h-26c-6 0 -15 3 -19 7
l-26 27c-2 2 -4 4 -5 6l-10 20l-27 -26c-2 -2 -7 -6 -10 -7l-79 -26c-2 -1 -6 -1 -8 -1h-79c-3 0 -9 0 -12 2l-53 27c-4 2 -10 7 -12 11l-26 53c-2 3 -3 9 -3 12v52c0 3 1 9 3 12l26 53c2 4 8 10 12 12l53 26c3 2 9 3 12 3h151l33 16v30l-20 39l-39 20h-93l-34 -17
c1 -2 2 -6 2 -9v-27c0 -15 -12 -26 -27 -26h-26c-15 0 -26 11 -26 26v27c0 6 3 14 7 18l27 27c2 2 4 4 6 5l53 26c3 2 9 3 12 3z" />
    <glyph glyph-name="atilde" unicode="&#xe3;" horiz-adv-x="491" 
d="M435.95 724.4h1c15 0 26 -11 26 -26v-50v-3v-4c0 -1 -1 -2 -1 -3c-1 -2 -2 -5 -3 -7l-25 -50c-2 -4 -8 -10 -12 -12l-53 -26c-3 -2 -8 -3 -11 -3h-53c-3 0 -9 1 -12 3l-52 26c-1 1 -3 1 -4 2l-104 78l-45 22h-40l-37 -18l-22 -65v-48v-1c0 -15 -11 -26 -26 -26
s-26 11 -26 26v1v52c0 2 0 7 1 9l26 79c2 6 8 12 13 15l53 26c3 2 9 3 12 3h53c3 0 8 -1 11 -3l53 -26c1 -1 3 -2 4 -3l103 -77l45 -23h40l40 20l19 39v47c0 14 12 26 26 26zM316 220l-15 -7c-3 -2 -9 -3 -12 -3h-151l-39 -20l-20 -39v-40l20 -39l39 -20h68l69 23l41 41v104
zM158 421h105c3 0 9 -1 12 -3l53 -26c4 -2 9 -8 11 -12l25 -50c1 -2 3 -6 4 -9c0 -2 1 -4 1 -6c0 -1 -1 -2 -1 -3v-45c0 -1 1 -3 1 -4s-1 -3 -1 -4v-148l22 -43l16 -16h15c15 0 27 -11 27 -26s-12 -26 -27 -26h-26c-6 0 -15 3 -19 7l-26 27c-2 2 -4 4 -5 6l-10 20l-27 -26
c-2 -2 -7 -6 -10 -7l-79 -26c-2 -1 -6 -1 -8 -1h-79c-3 0 -9 0 -12 2l-53 27c-4 2 -10 7 -12 11l-26 53c-2 3 -3 9 -3 12v52c0 3 1 9 3 12l26 53c2 4 8 10 12 12l53 26c3 2 9 3 12 3h151l33 16v30l-20 39l-39 20h-93l-34 -17c1 -2 2 -6 2 -9v-27c0 -15 -12 -26 -27 -26h-26
c-15 0 -26 11 -26 26v27c0 6 3 14 7 18l27 27c2 2 4 4 6 5l53 26c3 2 9 3 12 3z" />
    <glyph glyph-name="ccedilla" unicode="&#xe7;" horiz-adv-x="520" 
d="M273.85 0.59375h1c15 0 26 -11 26 -26c0 -6 -4 -15 -8 -19l-21 -21l21 -20c4 -4 8 -13 8 -19s-4 -15 -8 -19l-26 -26c-4 -4 -13 -8 -19 -8h-26h-1c-15 0 -26 12 -26 27s11 26 26 26h1c-15 0 -27 11 -27 26c0 6 4 15 8 19l53 53c4 4 12 7 18 7zM211 421h78c3 0 9 -1 12 -3
l53 -26c2 -1 5 -3 7 -5l52 -53c4 -4 8 -13 8 -19v-22v-4c0 -7 -4 -17 -10 -21l-24 -24c-4 -4 -13 -8 -19 -8s-14 4 -18 8l-27 26c-4 4 -7 13 -7 19c0 15 11 26 26 26h16l-31 31l-44 22h-66l-44 -22l-45 -45l-23 -69v-44l23 -69l45 -45l44 -22h66l44 22l49 49c4 4 13 9 19 9
c15 0 26 -12 26 -27c0 -6 -4 -15 -8 -19l-52 -52c-2 -2 -5 -4 -7 -5l-53 -27c-3 -2 -9 -2 -12 -2h-78c-3 0 -9 0 -12 2l-53 27c-2 1 -5 3 -7 5l-52 52c-2 2 -6 8 -7 11l-26 78c-1 2 -1 7 -1 9v52c0 2 0 7 1 9l26 79c1 3 5 8 7 10l52 53c2 2 5 4 7 5l53 26c3 2 9 3 12 3z" />
    <glyph glyph-name="egrave" unicode="&#xe8;" horiz-adv-x="463" 
d="M150.5 674.7c5 0 13 -4 17 -7l158 -131c6 -4 10 -14 10 -21c0 -15 -12 -26 -27 -26c-5 0 -13 2 -17 6l-158 132c-5 4 -10 13 -10 20c0 15 12 27 27 27zM190 368l-43 -22l-45 -45l-13 -38h253v20l-22 43l-20 20l-43 22h-67zM184 421h79c3 0 9 -1 12 -3l53 -26
c2 -1 4 -3 6 -5l27 -27c2 -2 4 -5 5 -7l26 -52c2 -3 3 -9 3 -12v-53c0 -15 -12 -26 -27 -26h-289v-22l23 -69l45 -45l43 -22h67l43 22l50 49c4 4 13 9 19 9c15 0 26 -12 26 -27c0 -6 -4 -15 -8 -19l-53 -52c-2 -2 -4 -4 -6 -5l-53 -27c-3 -2 -9 -2 -12 -2h-79
c-3 0 -9 0 -12 2l-52 27c-2 1 -5 3 -7 5l-53 52c-2 2 -5 8 -6 11l-26 78c-1 2 -2 7 -2 9v48v4c0 4 1 10 3 13l25 75c1 3 4 8 6 10l53 53c2 2 5 4 7 5l52 26c3 2 9 3 12 3z" />
    <glyph glyph-name="eacute" unicode="&#xe9;" horiz-adv-x="463" 
d="M321.25 674.7h1c15 0 26 -12 26 -27c0 -7 -4 -16 -9 -20l-158 -132c-4 -4 -13 -6 -18 -6c-15 0 -26 11 -26 26c0 7 4 17 10 21l158 131c4 3 11 7 16 7zM190 368l-43 -22l-45 -45l-13 -38h253v20l-22 43l-20 20l-43 22h-67zM184 421h79c3 0 9 -1 12 -3l53 -26
c2 -1 4 -3 6 -5l27 -27c2 -2 4 -5 5 -7l26 -52c2 -3 3 -9 3 -12v-53c0 -15 -12 -26 -27 -26h-289v-22l23 -69l45 -45l43 -22h67l43 22l50 49c4 4 13 9 19 9c15 0 26 -12 26 -27c0 -6 -4 -15 -8 -19l-53 -52c-2 -2 -4 -4 -6 -5l-53 -27c-3 -2 -9 -2 -12 -2h-79
c-3 0 -9 0 -12 2l-52 27c-2 1 -5 3 -7 5l-53 52c-2 2 -5 8 -6 11l-26 78c-1 2 -2 7 -2 9v48v4c0 4 1 10 3 13l25 75c1 3 4 8 6 10l53 53c2 2 5 4 7 5l52 26c3 2 9 3 12 3z" />
    <glyph glyph-name="ecircumflex" unicode="&#xea;" horiz-adv-x="463" 
d="M224.3 711.2h1h2c7 -1 15 -5 19 -11l155 -155c4 -4 8 -13 8 -19c0 -15 -11 -26 -26 -26c-6 0 -15 4 -19 8l-139 139l-140 -139c-4 -4 -13 -8 -19 -8c-15 0 -26 11 -26 26c0 6 4 15 8 19l155 155c4 6 14 11 21 11zM190 368l-43 -22l-45 -45l-13 -38h253v20l-22 43l-20 20
l-43 22h-67zM184 421h79c3 0 9 -1 12 -3l53 -26c2 -1 4 -3 6 -5l27 -27c2 -2 4 -5 5 -7l26 -52c2 -3 3 -9 3 -12v-53c0 -15 -12 -26 -27 -26h-289v-22l23 -69l45 -45l43 -22h67l43 22l50 49c4 4 13 9 19 9c15 0 26 -12 26 -27c0 -6 -4 -15 -8 -19l-53 -52c-2 -2 -4 -4 -6 -5
l-53 -27c-3 -2 -9 -2 -12 -2h-79c-3 0 -9 0 -12 2l-52 27c-2 1 -5 3 -7 5l-53 52c-2 2 -5 8 -6 11l-26 78c-1 2 -2 7 -2 9v48v4c0 4 1 10 3 13l25 75c1 3 4 8 6 10l53 53c2 2 5 4 7 5l52 26c3 2 9 3 12 3z" />
    <glyph glyph-name="edieresis" unicode="&#xeb;" horiz-adv-x="463" 
d="M317.6 589.4c6 0 15 -3 19 -7l26 -27c4 -4 8 -12 8 -18s-4 -15 -8 -19l-26 -26c-4 -4 -13 -8 -19 -8s-14 4 -18 8l-26 26c-4 4 -8 13 -8 19s4 14 8 18l26 27c4 4 12 7 18 7zM133.6 589.4c6 0 15 -3 19 -7l26 -27c4 -4 8 -12 8 -18s-4 -15 -8 -19l-26 -26
c-4 -4 -13 -8 -19 -8s-14 4 -18 8l-27 26c-4 4 -7 13 -7 19s3 14 7 18l27 27c4 4 12 7 18 7zM190 368l-43 -22l-45 -45l-13 -38h253v20l-22 43l-20 20l-43 22h-67zM184 421h79c3 0 9 -1 12 -3l53 -26c2 -1 4 -3 6 -5l27 -27c2 -2 4 -5 5 -7l26 -52c2 -3 3 -9 3 -12v-53
c0 -15 -12 -26 -27 -26h-289v-22l23 -69l45 -45l43 -22h67l43 22l50 49c4 4 13 9 19 9c15 0 26 -12 26 -27c0 -6 -4 -15 -8 -19l-53 -52c-2 -2 -4 -4 -6 -5l-53 -27c-3 -2 -9 -2 -12 -2h-79c-3 0 -9 0 -12 2l-52 27c-2 1 -5 3 -7 5l-53 52c-2 2 -5 8 -6 11l-26 78
c-1 2 -2 7 -2 9v48v4c0 4 1 10 3 13l25 75c1 3 4 8 6 10l53 53c2 2 5 4 7 5l52 26c3 2 9 3 12 3z" />
    <glyph glyph-name="igrave" unicode="&#xec;" horiz-adv-x="289" 
d="M144 463h1c7 0 16 -4 20 -8v-1c4 -4 9 -14 9 -21v-4v-372h58c16 0 29 -12 29 -28s-13 -29 -29 -29h-82c-1 0 -5 -1 -6 -1s-3 1 -4 1h-82h-1c-16 0 -28 13 -28 29s12 28 28 28h1h58v348h-58h-1c-16 0 -28 12 -28 28s12 30 28 30h1h82h4zM21.25 695.6c5 0 13 -4 17 -7
l158 -131c6 -4 10 -14 10 -21c0 -15 -12 -26 -27 -26c-5 0 -13 2 -17 6l-158 132c-5 4 -10 13 -10 20c0 15 12 27 27 27z" />
    <glyph glyph-name="iacute" unicode="&#xed;" horiz-adv-x="289" 
d="M144 463h1c7 0 16 -4 20 -8v-1c4 -4 9 -14 9 -21v-4v-372h58c16 0 29 -12 29 -28s-13 -29 -29 -29h-82c-1 0 -5 -1 -6 -1s-3 1 -4 1h-82h-1c-16 0 -28 13 -28 29s12 28 28 28h1h58v348h-58h-1c-16 0 -28 12 -28 28s12 30 28 30h1h82h4zM178.8 695.6h1c15 0 26 -12 26 -27
c0 -7 -4 -16 -9 -20l-158 -132c-4 -4 -13 -6 -18 -6c-15 0 -26 11 -26 26c0 7 4 17 10 21l158 131c4 3 11 7 16 7z" />
    <glyph glyph-name="icircumflex" unicode="&#xee;" horiz-adv-x="289" 
d="M144 463h1c7 0 16 -4 20 -8v-1c4 -4 9 -14 9 -21v-4v-372h58c16 0 29 -12 29 -28s-13 -29 -29 -29h-82c-1 0 -5 -1 -6 -1s-3 1 -4 1h-82h-1c-16 0 -28 13 -28 29s12 28 28 28h1h58v348h-58h-1c-16 0 -28 12 -28 28s12 30 28 30h1h82h4zM95.0498 732.1h1h2
c7 -1 15 -5 19 -11l155 -155c4 -4 8 -13 8 -19c0 -15 -11 -26 -26 -26c-6 0 -15 4 -19 8l-139 139l-140 -139c-4 -4 -13 -8 -19 -8c-15 0 -26 11 -26 26c0 6 4 15 8 19l155 155c4 6 14 11 21 11z" />
    <glyph glyph-name="idieresis" unicode="&#xef;" horiz-adv-x="289" 
d="M144 463h1c7 0 16 -4 20 -8v-1c4 -4 9 -14 9 -21v-4v-372h58c16 0 29 -12 29 -28s-13 -29 -29 -29h-82c-1 0 -5 -1 -6 -1s-3 1 -4 1h-82h-1c-16 0 -28 13 -28 29s12 28 28 28h1h58v348h-58h-1c-16 0 -28 12 -28 28s12 30 28 30h1h82h4zM204.85 610.3c6 0 15 -3 19 -7
l26 -27c4 -4 8 -12 8 -18s-4 -15 -8 -19l-26 -26c-4 -4 -13 -8 -19 -8s-14 4 -18 8l-26 26c-4 4 -8 13 -8 19s4 14 8 18l26 27c4 4 12 7 18 7zM20.8496 610.3c6 0 15 -3 19 -7l26 -27c4 -4 8 -12 8 -18s-4 -15 -8 -19l-26 -26c-4 -4 -13 -8 -19 -8s-14 4 -18 8l-27 26
c-4 4 -7 13 -7 19s3 14 7 18l27 27c4 4 12 7 18 7z" />
    <glyph glyph-name="ograve" unicode="&#xf2;" horiz-adv-x="520" 
d="M86.7002 674.7c5 0 13 -4 17 -7l158 -131c6 -4 10 -14 10 -21c0 -15 -12 -26 -27 -26c-5 0 -13 2 -17 6l-158 132c-5 4 -10 13 -10 20c0 15 12 27 27 27zM215 368l-69 -23l-44 -44l-23 -69v-44l23 -69l44 -44l69 -23h44l69 23l44 44l23 69v44l-23 69l-44 44l-69 23h-44z
M212 421h1h50c2 0 6 -1 8 -2l79 -26c3 -1 9 -4 11 -6l52 -53c2 -2 6 -7 7 -10l26 -79c1 -2 1 -7 1 -9v-52c0 -2 0 -7 -1 -9l-26 -78c-1 -3 -5 -9 -7 -11l-52 -52c-2 -2 -8 -6 -11 -7l-79 -26c-2 -1 -6 -1 -8 -1h-52h-1c-2 0 -6 0 -8 1l-79 26c-3 1 -8 5 -10 7l-53 52
c-2 2 -5 8 -6 11l-26 78c-1 2 -2 7 -2 9v52c0 2 1 7 2 9l26 79c1 3 4 8 6 10l53 53c2 2 7 5 10 6l77 26c2 1 4 1 6 1c1 0 1 1 2 1h3h1z" />
    <glyph glyph-name="oacute" unicode="&#xf3;" horiz-adv-x="520" 
d="M399.35 674.7h1c15 0 26 -12 26 -27c0 -7 -4 -16 -9 -20l-158 -132c-4 -4 -13 -6 -18 -6c-15 0 -26 11 -26 26c0 7 4 17 10 21l158 131c4 3 11 7 16 7zM215 368l-69 -23l-44 -44l-23 -69v-44l23 -69l44 -44l69 -23h44l69 23l44 44l23 69v44l-23 69l-44 44l-69 23h-44z
M212 421h1h50c2 0 6 -1 8 -2l79 -26c3 -1 9 -4 11 -6l52 -53c2 -2 6 -7 7 -10l26 -79c1 -2 1 -7 1 -9v-52c0 -2 0 -7 -1 -9l-26 -78c-1 -3 -5 -9 -7 -11l-52 -52c-2 -2 -8 -6 -11 -7l-79 -26c-2 -1 -6 -1 -8 -1h-52h-1c-2 0 -6 0 -8 1l-79 26c-3 1 -8 5 -10 7l-53 52
c-2 2 -5 8 -6 11l-26 78c-1 2 -2 7 -2 9v52c0 2 1 7 2 9l26 79c1 3 4 8 6 10l53 53c2 2 7 5 10 6l77 26c2 1 4 1 6 1c1 0 1 1 2 1h3h1z" />
    <glyph glyph-name="ocircumflex" unicode="&#xf4;" horiz-adv-x="520" 
d="M237.5 711.2h1h2c7 -1 15 -5 19 -11l155 -155c4 -4 8 -13 8 -19c0 -15 -11 -26 -26 -26c-6 0 -15 4 -19 8l-139 139l-140 -139c-4 -4 -13 -8 -19 -8c-15 0 -26 11 -26 26c0 6 4 15 8 19l155 155c4 6 14 11 21 11zM215 368l-69 -23l-44 -44l-23 -69v-44l23 -69l44 -44
l69 -23h44l69 23l44 44l23 69v44l-23 69l-44 44l-69 23h-44zM212 421h1h50c2 0 6 -1 8 -2l79 -26c3 -1 9 -4 11 -6l52 -53c2 -2 6 -7 7 -10l26 -79c1 -2 1 -7 1 -9v-52c0 -2 0 -7 -1 -9l-26 -78c-1 -3 -5 -9 -7 -11l-52 -52c-2 -2 -8 -6 -11 -7l-79 -26c-2 -1 -6 -1 -8 -1
h-52h-1c-2 0 -6 0 -8 1l-79 26c-3 1 -8 5 -10 7l-53 52c-2 2 -5 8 -6 11l-26 78c-1 2 -2 7 -2 9v52c0 2 1 7 2 9l26 79c1 3 4 8 6 10l53 53c2 2 7 5 10 6l77 26c2 1 4 1 6 1c1 0 1 1 2 1h3h1z" />
    <glyph glyph-name="ugrave" unicode="&#xf9;" horiz-adv-x="607" 
d="M87.7998 674.7c5 0 13 -4 17 -7l158 -131c6 -4 10 -14 10 -21c0 -15 -12 -26 -27 -26c-5 0 -13 2 -17 6l-158 132c-5 4 -10 13 -10 20c0 15 12 27 27 27zM131 421h1c6 0 14 -3 18 -7v-1c4 -4 8 -13 8 -19v-4v-279l20 -39l39 -20h68l69 23l41 41v252h-79h-1
c-15 0 -26 11 -26 26s11 27 26 27h1h101h4c6 0 14 -3 18 -7v-1h1c4 -4 8 -13 8 -19c0 -1 -1 -3 -1 -4v-281c0 -1 1 -3 1 -4s-1 -2 -1 -3v-50h53c15 0 27 -11 27 -26s-12 -26 -27 -26h-75c-1 0 -3 -1 -4 -1c-6 0 -14 4 -18 8h-1c-4 4 -8 13 -8 19c0 1 1 3 1 4v11l-8 -7
c-2 -2 -7 -6 -10 -7l-79 -26c-2 -1 -6 -1 -8 -1h-1h-78c-3 0 -9 0 -12 2l-53 27c-4 2 -10 7 -12 11l-26 53c-2 3 -3 9 -3 12v263h-52h-1c-15 0 -26 11 -26 26s11 27 26 27h1h74h4z" />
    <glyph glyph-name="uacute" unicode="&#xfa;" horiz-adv-x="607" 
d="M400.45 674.7h1c15 0 26 -12 26 -27c0 -7 -4 -16 -9 -20l-158 -132c-4 -4 -13 -6 -18 -6c-15 0 -26 11 -26 26c0 7 4 17 10 21l158 131c4 3 11 7 16 7zM131 421h1c6 0 14 -3 18 -7v-1c4 -4 8 -13 8 -19v-4v-279l20 -39l39 -20h68l69 23l41 41v252h-79h-1
c-15 0 -26 11 -26 26s11 27 26 27h1h101h4c6 0 14 -3 18 -7v-1h1c4 -4 8 -13 8 -19c0 -1 -1 -3 -1 -4v-281c0 -1 1 -3 1 -4s-1 -2 -1 -3v-50h53c15 0 27 -11 27 -26s-12 -26 -27 -26h-75c-1 0 -3 -1 -4 -1c-6 0 -14 4 -18 8h-1c-4 4 -8 13 -8 19c0 1 1 3 1 4v11l-8 -7
c-2 -2 -7 -6 -10 -7l-79 -26c-2 -1 -6 -1 -8 -1h-1h-78c-3 0 -9 0 -12 2l-53 27c-4 2 -10 7 -12 11l-26 53c-2 3 -3 9 -3 12v263h-52h-1c-15 0 -26 11 -26 26s11 27 26 27h1h74h4z" />
    <glyph glyph-name="ucircumflex" unicode="&#xfb;" horiz-adv-x="607" 
d="M238.6 711.2h1h2c7 -1 15 -5 19 -11l155 -155c4 -4 8 -13 8 -19c0 -15 -11 -26 -26 -26c-6 0 -15 4 -19 8l-139 139l-140 -139c-4 -4 -13 -8 -19 -8c-15 0 -26 11 -26 26c0 6 4 15 8 19l155 155c4 6 14 11 21 11zM131 421h1c6 0 14 -3 18 -7v-1c4 -4 8 -13 8 -19v-4v-279
l20 -39l39 -20h68l69 23l41 41v252h-79h-1c-15 0 -26 11 -26 26s11 27 26 27h1h101h4c6 0 14 -3 18 -7v-1h1c4 -4 8 -13 8 -19c0 -1 -1 -3 -1 -4v-281c0 -1 1 -3 1 -4s-1 -2 -1 -3v-50h53c15 0 27 -11 27 -26s-12 -26 -27 -26h-75c-1 0 -3 -1 -4 -1c-6 0 -14 4 -18 8h-1
c-4 4 -8 13 -8 19c0 1 1 3 1 4v11l-8 -7c-2 -2 -7 -6 -10 -7l-79 -26c-2 -1 -6 -1 -8 -1h-1h-78c-3 0 -9 0 -12 2l-53 27c-4 2 -10 7 -12 11l-26 53c-2 3 -3 9 -3 12v263h-52h-1c-15 0 -26 11 -26 26s11 27 26 27h1h74h4z" />
    <glyph glyph-name="udieresis" unicode="&#xfc;" horiz-adv-x="607" 
d="M331.9 589.4c6 0 15 -3 19 -7l26 -27c4 -4 8 -12 8 -18s-4 -15 -8 -19l-26 -26c-4 -4 -13 -8 -19 -8s-14 4 -18 8l-26 26c-4 4 -8 13 -8 19s4 14 8 18l26 27c4 4 12 7 18 7zM147.9 589.4c6 0 15 -3 19 -7l26 -27c4 -4 8 -12 8 -18s-4 -15 -8 -19l-26 -26
c-4 -4 -13 -8 -19 -8s-14 4 -18 8l-27 26c-4 4 -7 13 -7 19s3 14 7 18l27 27c4 4 12 7 18 7zM131 421h1c6 0 14 -3 18 -7v-1c4 -4 8 -13 8 -19v-4v-279l20 -39l39 -20h68l69 23l41 41v252h-79h-1c-15 0 -26 11 -26 26s11 27 26 27h1h101h4c6 0 14 -3 18 -7v-1h1
c4 -4 8 -13 8 -19c0 -1 -1 -3 -1 -4v-281c0 -1 1 -3 1 -4s-1 -2 -1 -3v-50h53c15 0 27 -11 27 -26s-12 -26 -27 -26h-75c-1 0 -3 -1 -4 -1c-6 0 -14 4 -18 8h-1c-4 4 -8 13 -8 19c0 1 1 3 1 4v11l-8 -7c-2 -2 -7 -6 -10 -7l-79 -26c-2 -1 -6 -1 -8 -1h-1h-78
c-3 0 -9 0 -12 2l-53 27c-4 2 -10 7 -12 11l-26 53c-2 3 -3 9 -3 12v263h-52h-1c-15 0 -26 11 -26 26s11 27 26 27h1h74h4z" />
    <glyph glyph-name="glyph10" unicode="&#x153;" horiz-adv-x="867" 
d="M615 405l-47 -24l-51 -50l-13 -42h278v22l-24 48l-22 22l-48 24h-73zM236 405l-75 -25l-49 -49l-25 -76v-48l25 -76l49 -49l75 -25h49l76 25l48 49l25 76v48l-25 76l-48 49l-76 25h-49zM233 463h1h55c2 0 7 -1 9 -2l87 -29c3 -1 10 -4 12 -6l57 -59c2 -2 7 -8 8 -11l1 -4
l1 4c1 3 6 9 8 11l57 59c2 2 6 4 8 5l58 29c3 2 10 3 13 3h87c3 0 9 -1 12 -3l59 -29c2 -1 5 -3 7 -5l29 -30c2 -2 4 -6 5 -8l29 -57c2 -3 3 -10 3 -13v-58c0 -16 -12 -29 -28 -29h-319v-24l25 -76l51 -50l47 -24h73l48 24l54 54c4 4 14 10 21 10c16 0 29 -13 29 -29
c0 -7 -6 -17 -10 -21l-57 -58c-2 -2 -5 -4 -7 -5l-59 -30c-3 -2 -9 -2 -12 -2h-87c-3 0 -10 0 -13 2l-58 30c-2 1 -6 3 -8 5l-57 58c-2 2 -7 9 -8 12l-1 4l-1 -4c-1 -3 -6 -10 -8 -12l-57 -58c-2 -2 -9 -6 -12 -7l-87 -29c-2 -1 -7 -1 -9 -1h-57h-1c-2 0 -7 0 -9 1l-87 29
c-3 1 -9 5 -11 7l-58 58c-2 2 -6 9 -7 12l-28 85c-1 2 -2 8 -2 10v58c0 2 1 8 2 10l28 86c1 3 5 9 7 11l58 59c2 2 8 5 11 6l85 29c2 1 5 1 7 1c1 0 1 1 2 1h3h1z" />
    <glyph glyph-name="glyph21" unicode="&#x152;" horiz-adv-x="809" 
d="M265 607l-76 -25l-49 -50l-26 -50l-27 -110v-79l27 -109l26 -52l49 -50l76 -25h53h58v285v4v6v255h-58h-53zM405 666h5h342c16 0 30 -13 30 -29v-174v-1c0 -16 -14 -29 -30 -29s-28 13 -28 29v1v144h-290v-231h116v57v1c0 16 13 29 29 29s29 -13 29 -29v-1v-81v-6v-4v-82
c0 -16 -13 -29 -29 -29s-29 13 -29 29v58h-116v-261h290v116v1c0 16 12 28 28 28s30 -12 30 -28v-1v-144c0 -16 -14 -29 -30 -29h-342c-1 0 -4 -1 -5 -1s-4 1 -5 1h-82h-57c-2 0 -7 0 -9 1l-87 29c-3 1 -10 5 -12 7l-57 58c-2 2 -5 5 -6 7l-30 59c-1 1 -2 3 -2 5l-28 116
c0 2 -1 5 -1 7v87c0 2 1 5 1 7l28 115c0 2 1 6 2 7l30 57c1 2 4 6 6 8l57 58c2 2 9 6 12 7l84 28h1c2 1 3 1 5 1c1 0 1 2 2 2h4h2h55h82h5z" />
    <glyph glyph-name="glyph23" unicode="&#x201c;" horiz-adv-x="404" 
d="M318 607h1c16 0 29 -12 29 -28c0 -7 -5 -17 -9 -21l-40 -39c3 -1 9 -4 11 -6l29 -30c4 -4 9 -13 9 -20s-5 -17 -9 -21l-29 -28c-4 -4 -14 -9 -21 -9s-15 5 -19 9l-27 25c-7 4 -12 15 -12 23c0 1 1 3 1 4v54c0 7 4 17 8 21l58 59c4 4 13 7 20 7zM144 607h1
c16 0 29 -12 29 -28c0 -7 -5 -17 -9 -21l-40 -39c3 -1 9 -4 11 -6l29 -30c4 -4 9 -13 9 -20s-5 -17 -9 -21l-29 -28c-4 -4 -13 -9 -20 -9s-16 5 -20 9l-27 25c-7 4 -12 15 -12 23c0 1 1 3 1 4v54c0 7 4 17 8 21l58 59c4 4 13 7 20 7z" />
    <glyph glyph-name="glyph24" unicode="&#x2019;" horiz-adv-x="202" 
d="M116 607c7 0 16 -3 20 -7l26 -27c7 -4 12 -15 12 -23v-4v-54c0 -7 -5 -17 -9 -21l-57 -57c-4 -4 -14 -9 -21 -9c-16 0 -30 12 -30 28c0 7 5 17 9 21l40 40c-3 1 -8 4 -10 6l-30 29c-4 4 -8 14 -8 21s4 16 8 20l30 30c4 4 13 7 20 7z" />
    <glyph glyph-name="glyph38" unicode="&#x201d;" horiz-adv-x="404" 
d="M289 607c7 0 17 -3 21 -7l26 -27c7 -4 12 -15 12 -23v-4v-54c0 -7 -5 -17 -9 -21l-59 -57c-4 -4 -13 -9 -20 -9c-16 0 -29 12 -29 28c0 7 5 17 9 21l39 40c-3 1 -7 4 -9 6l-30 29c-4 4 -8 14 -8 21s4 16 8 20l30 30c4 4 12 7 19 7zM116 607c7 0 16 -3 20 -7l26 -27
c7 -4 12 -15 12 -23v-4v-54c0 -7 -5 -17 -9 -21l-57 -57c-4 -4 -14 -9 -21 -9c-16 0 -30 12 -30 28c0 7 5 17 9 21l40 40c-3 1 -8 4 -10 6l-30 29c-4 4 -8 14 -8 21s4 16 8 20l30 30c4 4 13 7 20 7z" />
    <glyph glyph-name="glyph39" unicode="&#x2010;" horiz-adv-x="752" 
d="M116 289h521c16 0 30 -13 30 -29s-14 -29 -30 -29h-521c-16 0 -29 13 -29 29s13 29 29 29z" />
    <glyph glyph-name="glyph46" unicode="&#x2009;" horiz-adv-x="115" 
d="M0 666z" />
    <glyph glyph-name="glyph55" unicode="&#x2014;" 
d="M0 289h579h1c16 0 28 -13 28 -29s-12 -29 -28 -29h-1h-579c-16 0 -30 13 -30 29s14 29 30 29z" />
    <glyph glyph-name="glyph73" unicode="&#x2026;" horiz-adv-x="404" 
d="M318 202h1h2c8 -1 17 -6 21 -12l25 -25c4 -4 9 -14 9 -21s-5 -16 -9 -20l-28 -29c-4 -4 -14 -8 -21 -8s-16 4 -20 8l-28 29c-4 4 -9 13 -9 20s5 17 9 21l25 25c4 7 15 12 23 12zM201 202h1h4c8 -1 17 -6 21 -12l25 -25c4 -4 9 -14 9 -21s-5 -16 -9 -20l-29 -29
c-4 -4 -14 -8 -21 -8s-15 4 -19 8l-30 29c-4 4 -8 13 -8 20s4 17 8 21l26 25c4 7 14 12 22 12zM86 202h1h2c8 -1 18 -6 22 -12l25 -25c4 -4 9 -14 9 -21s-5 -16 -9 -20l-28 -29c-4 -4 -14 -8 -21 -8s-17 4 -21 8l-29 29c-4 4 -8 13 -8 20s4 17 8 21l26 25c4 7 15 12 23 12z
" />
    <glyph glyph-name="glyph98" unicode="&#x2018;" horiz-adv-x="202" 
d="M144 607h1c16 0 29 -12 29 -28c0 -7 -5 -17 -9 -21l-40 -39c3 -1 9 -4 11 -6l29 -30c4 -4 9 -13 9 -20s-5 -17 -9 -21l-29 -28c-4 -4 -13 -9 -20 -9s-16 5 -20 9l-27 25c-7 4 -12 15 -12 23c0 1 1 3 1 4v54c0 7 4 17 8 21l58 59c4 4 13 7 20 7z" />
    <glyph glyph-name="glyph108" unicode="&#x2013;" horiz-adv-x="404" 
d="M58 289h290c16 0 28 -13 28 -29s-12 -29 -28 -29h-290h-1c-16 0 -28 13 -28 29s12 29 28 29h1z" />
    <glyph glyph-name="glyph155" unicode="&#x15e;" 
d="M207 4h1c16 0 28 -12 28 -28c0 -7 -4 -17 -8 -21l-23 -23l23 -22c4 -4 8 -14 8 -21s-4 -17 -8 -21l-29 -29c-4 -4 -14 -8 -21 -8h-28h-2c-16 0 -28 13 -28 29s12 29 28 29h2c-16 0 -30 13 -30 29c0 7 5 16 9 20l58 59c4 4 13 7 20 7zM492 666c16 0 29 -13 29 -29v-174
c0 -16 -13 -30 -29 -30c-11 0 -25 9 -28 20l-26 81l-49 48l-75 25h-78l-75 -25l-45 -44v-63l46 -46l49 -25l170 -29c2 0 6 -1 8 -2l59 -29c2 -1 4 -3 6 -5l30 -30c2 -2 5 -5 6 -7l28 -58c2 -3 3 -10 3 -13v-87c0 -4 -3 -11 -5 -15l-57 -87c-3 -4 -10 -10 -16 -12l-87 -29
c-2 -1 -6 -1 -8 -1h-87c-2 0 -7 0 -9 1l-87 29c-3 1 -10 5 -12 7l-37 38v-46c0 -16 -13 -30 -29 -30s-29 14 -29 30v173c0 16 13 29 29 29c11 0 24 -9 27 -20l27 -80l48 -49l76 -25h78l73 24l47 72v71l-24 48l-22 22l-50 25l-169 29c-2 0 -7 1 -9 2l-57 28c-2 1 -6 4 -8 6
l-58 58c-4 4 -8 14 -8 21v87c0 7 4 16 8 20l58 58c2 2 8 6 11 7l87 29c2 1 7 2 9 2h1h86h1c2 0 7 -1 9 -2l87 -29c3 -1 9 -5 11 -7l37 -37v46c0 15 14 29 29 29z" />
    <glyph glyph-name="glyph156" unicode="&#x15f;" horiz-adv-x="520" 
d="M188 4h1c16 0 29 -12 29 -28c0 -7 -5 -17 -9 -21l-23 -23l23 -22c4 -4 9 -14 9 -21s-5 -17 -9 -21l-29 -29c-4 -4 -13 -8 -20 -8h-29h-1c-16 0 -29 13 -29 29s13 29 29 29h1c-16 0 -30 13 -30 29c0 7 5 16 9 20l58 59c4 4 13 7 20 7zM174 463h115c3 0 10 -1 13 -3l59 -29
c2 -1 4 -3 6 -5l11 -11c3 11 16 19 27 19c16 0 29 -13 29 -29v-87c0 -16 -13 -29 -29 -29c-10 0 -21 7 -25 16l-28 54l-22 22l-47 24h-103l-47 -24l-17 -17v-34l17 -18l51 -24l140 -28c2 0 5 -2 7 -3l58 -29c2 -1 6 -4 8 -6l29 -28c4 -4 8 -14 8 -21v-86c0 -7 -4 -17 -8 -21
l-29 -29c-2 -2 -6 -4 -8 -5l-58 -30c-3 -2 -10 -2 -13 -2h-116c-3 0 -10 0 -13 2l-57 30c-2 1 -6 3 -8 5l-8 8v-16c0 -16 -13 -30 -29 -30s-29 14 -29 30v115c0 16 13 29 29 29c10 0 21 -7 25 -16l28 -54l22 -22l47 -24h102l49 24l16 17v64l-16 16l-51 26l-141 28
c-2 0 -5 1 -7 2l-59 29c-2 1 -4 3 -6 5l-30 29c-4 4 -8 14 -8 21v58c0 7 4 16 8 20l30 30c2 2 4 4 6 5l59 29c3 2 10 3 13 3z" />
  </font>
</defs>
</svg>
