<?xml version="1.0" standalone="no"?>
<!DOCTYPE svg PUBLIC "-//W3C//DTD SVG 1.1//EN" "http://www.w3.org/Graphics/SVG/1.1/DTD/svg11.dtd" >
<svg xmlns="http://www.w3.org/2000/svg" xmlns:xlink="http://www.w3.org/1999/xlink" version="1.1">
<metadata>
Created by FontForge 20170924 at Thu Mar 12 10:46:49 2020
 By cedr,,,
by Luuse (contact@luuse.io), SIL Open Font License
</metadata>
<defs>
<font id="Hershey-Noailles-Times-Simplex-Bold" horiz-adv-x="578" >
  <font-face 
    font-family="Hershey-Noailles-Times"
    font-weight="700"
    font-stretch="normal"
    units-per-em="1100"
    panose-1="2 0 8 3 0 0 0 0 0 0"
    ascent="800"
    descent="-300"
    x-height="493"
    cap-height="696"
    bbox="-91.5 -204 855 984.5"
    underline-thickness="26.4"
    underline-position="0"
    stemh="87"
    stemv="87"
    unicode-range="U+0020-2026"
  />
<missing-glyph horiz-adv-x="550" 
d="M55 0v540h440v-540h-440zM110 55h330v430h-330v-430z" />
    <glyph glyph-name=".notdef" horiz-adv-x="550" 
d="M55 0v540h440v-540h-440zM110 55h330v430h-330v-430z" />
    <glyph glyph-name="space" unicode=" " horiz-adv-x="346" 
 />
    <glyph glyph-name="exclam" unicode="!" horiz-adv-x="289" 
d="M144 145h2c12 0 27 -7 34 -17l25 -25c7 -7 12 -20 12 -30s-5 -24 -12 -31l-30 -29c-7 -7 -20 -13 -30 -13s-24 6 -31 13l-29 29c-7 7 -12 21 -12 31s5 23 12 30l24 25c8 10 23 17 35 17zM144 696h1c24 0 43 -20 43 -44v-406c0 -24 -19 -44 -43 -44s-44 20 -44 44v406
c0 23 20 44 43 44z" />
    <glyph glyph-name="quotedbl" unicode="&#x22;" horiz-adv-x="463" 
d="M346 696h2c24 0 42 -20 42 -44v-203c0 -24 -18 -44 -42 -44s-44 20 -44 44v203c0 23 19 44 42 44zM116 696c24 0 44 -20 44 -44v-203c0 -24 -20 -44 -44 -44s-43 20 -43 44v203c0 23 20 44 43 44z" />
    <glyph glyph-name="numbersign" unicode="#" horiz-adv-x="635" 
d="M271 348l-19 -87h85l18 87h-84zM493 812c23 0 43 -20 43 -43c0 -3 0 -8 -1 -11l-71 -324h57c24 0 44 -18 44 -42s-20 -44 -44 -44h-77l-18 -87h66h1c24 0 43 -19 43 -43s-19 -44 -43 -44h-1h-85l-75 -342c-3 -20 -23 -36 -43 -36c-24 0 -44 20 -44 44c0 3 2 7 3 10
l70 324h-85l-75 -342c-3 -20 -22 -36 -42 -36c-24 0 -43 20 -43 44c0 3 0 7 1 10l70 324h-57h-1c-24 0 -43 20 -43 44s19 43 43 43h1h76l20 87h-67c-24 0 -44 20 -44 44s20 42 44 42h85l75 343c4 19 23 35 43 35c24 0 43 -20 43 -44c0 -3 0 -8 -1 -10l-71 -324h85l75 343
c3 20 23 35 43 35z" />
    <glyph glyph-name="dollar" unicode="$" 
d="M390 307v-203l16 5l43 64v63l-21 42l-20 20zM275 350v-263h29v254zM188 592l-20 -7l-38 -38v-22l40 -40l18 -9v116zM275 608v-166l29 -10v176h-29zM231 812h1c24 0 43 -20 43 -44v-73h29v73c0 24 20 44 44 44s42 -20 42 -44v-85l58 -19c6 -2 13 -7 17 -11l57 -58
c7 -7 14 -20 14 -30v-22v-7c0 -12 -7 -26 -17 -34l-25 -26c-7 -7 -21 -13 -31 -13c-24 0 -43 20 -43 44v29c0 9 4 22 11 29l-21 20l-20 7v-188c1 0 5 -1 6 -2l57 -30c3 -2 10 -6 12 -8l29 -28c2 -2 6 -10 8 -13l29 -57c2 -6 5 -14 5 -20v-86c0 -8 -4 -19 -8 -25l-57 -87
c-4 -7 -15 -14 -23 -16l-58 -20v-84v-1c0 -24 -18 -43 -42 -43s-44 19 -44 43v1v72h-29v-72v-1c0 -24 -19 -43 -43 -43s-44 19 -44 43v1v84l-57 20c-6 2 -13 6 -17 10l-58 58c-7 7 -13 21 -13 31v22v7c0 12 6 26 16 34l26 25c7 7 21 13 31 13c24 0 44 -20 44 -44v-28
c0 -9 -5 -22 -12 -29l20 -20l20 -7v276c-1 0 -3 1 -4 2l-59 28c-3 2 -9 6 -11 8l-54 54c-6 3 -11 12 -13 18c0 1 -1 1 -1 2c-2 4 -3 11 -3 15v7v51c0 10 6 23 13 30l58 58c4 4 11 9 17 11l57 19v85c0 23 20 44 43 44z" />
    <glyph glyph-name="percent" unicode="%" horiz-adv-x="694" 
d="M503 204l-37 -19l-17 -35v-30l32 -33h29l37 19l17 35v29l-32 34h-29zM493 290h4h53c10 0 24 -6 31 -13l58 -58c7 -7 12 -21 12 -31v-57c0 -6 -2 -14 -4 -20l-29 -57c-3 -8 -12 -17 -20 -20l-58 -28c-6 -2 -13 -6 -19 -6h-58c-10 0 -24 6 -31 13l-57 59
c-7 7 -13 20 -13 30v58c0 6 2 13 4 19l29 57c3 8 12 17 20 20l53 27c4 2 12 5 16 6c2 0 7 1 9 1zM184 608l-36 -17l-18 -37v-29l33 -32h29l36 17l18 37v29l-33 32h-29zM231 695c7 0 17 -2 23 -5l52 -27l78 -26h72l78 26l51 26c6 3 16 6 23 6c11 0 26 -6 34 -15v-1
c1 -1 3 -3 3 -4c4 -6 7 -15 7 -23c0 -10 -6 -25 -14 -32l-518 -605c-8 -9 -22 -15 -33 -15c-24 0 -44 20 -44 44c0 9 5 22 11 29l410 477h-1h-87c-4 0 -10 1 -13 2l-30 10v-26c0 -6 -3 -13 -5 -19l-29 -58c-3 -8 -12 -17 -20 -20l-57 -29c-6 -2 -14 -4 -20 -4h-57
c-10 0 -24 5 -31 12l-58 58c-7 7 -13 21 -13 31v58c0 6 3 13 5 19l29 58c3 8 12 17 20 20l57 29c6 2 14 4 20 4h52h5z" />
    <glyph glyph-name="ampersand" unicode="&#x26;" horiz-adv-x="665" 
d="M222 314l-101 -69l-20 -38v-66l17 -33l62 -21h71l42 22l44 43l-111 156l-2 1zM261 603l-26 -12l-18 -37v-40l25 -75l2 -2l39 38l21 42v37l-18 37zM258 695h3c6 0 12 -2 18 -4l59 -29c8 -3 17 -12 20 -20l28 -58c2 -6 4 -13 4 -19v-58c0 -6 -2 -14 -4 -20l-28 -57
c-2 -3 -7 -10 -9 -12l-55 -55l2 -5l93 -130l7 10l56 140c0 1 1 3 1 4l29 58c2 3 7 9 9 11l28 29c7 7 21 13 31 13h29c10 0 23 -6 30 -13l30 -29c7 -7 12 -21 12 -31v-22c0 -2 1 -4 1 -6c0 -12 -7 -28 -17 -36l-26 -25c-7 -7 -20 -12 -30 -12c-20 0 -38 15 -42 35l-6 -10
l-57 -143c-1 -2 -2 -5 -3 -7l-28 -40l43 -43l71 -24h4l3 4v11c0 24 20 44 44 44s43 -20 43 -44v-29c0 -10 -5 -24 -12 -31l-30 -29c-7 -7 -20 -13 -30 -13h-29c-4 0 -10 1 -13 2l-87 30c-6 2 -14 6 -18 10l-42 42l-41 -42c-2 -2 -8 -6 -11 -8l-59 -28c-6 -2 -12 -6 -18 -6
h-87c-4 0 -11 1 -14 2l-87 30c-10 3 -21 13 -25 22l-29 57c-2 6 -5 14 -5 20v87c0 6 3 12 5 18l29 59c3 6 9 13 15 16l111 74l-8 11c-2 2 -3 8 -4 11l-30 86c-1 3 -2 10 -2 14v58c0 6 3 13 5 19l29 58c3 8 12 17 20 20l57 29c4 2 11 4 17 4z" />
    <glyph glyph-name="quotesingle" unicode="'" horiz-adv-x="289" 
d="M144 696h1c24 0 43 -20 43 -44v-145v-1c0 -24 -19 -43 -43 -43s-44 19 -44 43v1v145c0 23 20 44 43 44z" />
    <glyph glyph-name="parenleft" unicode="(" horiz-adv-x="404" 
d="M318 812h1c24 0 43 -20 43 -44c0 -10 -5 -24 -13 -31l-54 -55l-55 -81l-54 -108l-26 -135v-107l26 -135l54 -108l55 -82l54 -54c8 -7 14 -22 14 -32c0 -24 -20 -42 -44 -42c-10 0 -24 5 -31 13l-58 57c-2 2 -5 5 -6 7l-58 87c-1 1 -1 4 -2 5l-58 115l-4 12l-28 144
c0 2 -1 6 -1 8v116c0 2 1 7 1 9l28 145c1 3 3 8 4 11l58 115c1 1 1 4 2 5l58 87c1 2 4 4 6 6l58 59c7 7 20 13 30 13z" />
    <glyph glyph-name="parenright" unicode=")" horiz-adv-x="404" 
d="M87 812c10 0 24 -5 31 -13l57 -59c2 -2 4 -4 5 -6l59 -87c1 -1 2 -4 3 -5l57 -115c1 -3 4 -8 5 -11l28 -145c0 -2 1 -7 1 -9v-116c0 -2 -1 -6 -1 -8l-28 -144c-1 -3 -4 -9 -5 -12l-57 -115c-1 -1 -2 -4 -3 -5l-59 -87c-1 -2 -3 -5 -5 -7l-57 -57c-7 -8 -22 -13 -32 -13
c-24 0 -43 18 -43 42c0 10 5 25 13 32l55 54l54 82l54 108l27 135v107l-27 135l-54 108l-54 81l-55 55c-8 7 -13 21 -13 31c0 24 20 44 44 44z" />
    <glyph glyph-name="asterisk" unicode="*" horiz-adv-x="463" 
d="M231 522h1c24 0 43 -20 43 -44v-97l79 48c6 3 15 5 22 5c24 0 44 -18 44 -42c0 -13 -10 -31 -22 -38l-82 -49l82 -50c12 -7 22 -24 22 -37c0 -24 -20 -44 -44 -44c-7 0 -16 3 -22 6l-79 48v-97v-1c0 -24 -19 -43 -43 -43s-44 19 -44 43v1v97l-79 -48c-6 -3 -15 -6 -22 -6
c-24 0 -44 20 -44 44c0 13 10 30 22 37l82 50l-82 49c-12 7 -22 25 -22 38c0 24 20 42 44 42c7 0 16 -2 22 -5l79 -48v97c0 23 20 44 43 44z" />
    <glyph glyph-name="plus" unicode="+" horiz-adv-x="752" 
d="M375 609h1c24 0 44 -20 44 -44v-217h217h1c24 0 43 -19 43 -43s-19 -44 -43 -44h-1h-217v-217v-1c0 -24 -20 -43 -44 -43s-43 19 -43 43v1v217h-217c-24 0 -44 20 -44 44s20 43 44 43h217v217c0 23 19 44 42 44z" />
    <glyph glyph-name="comma" unicode="," horiz-adv-x="231" 
d="M116 232c10 0 23 -6 30 -13l24 -23c10 -8 18 -23 18 -35v-7v-52c0 -10 -6 -23 -13 -30l-57 -59c-7 -8 -22 -13 -32 -13c-24 0 -43 19 -43 43c0 10 5 25 13 32l28 27l-28 27c-7 7 -13 21 -13 31s6 23 13 30l29 29c7 7 21 13 31 13z" />
    <glyph glyph-name="hyphen" unicode="-" horiz-adv-x="259" 
d="M29 319h203c24 0 44 -20 44 -44s-20 -43 -44 -43h-203c-24 0 -44 19 -44 43s20 44 44 44z" />
    <glyph glyph-name="period" unicode="." horiz-adv-x="231" 
d="M116 232h1c12 0 28 -8 35 -18l23 -24c7 -7 13 -20 13 -30s-6 -24 -13 -31l-29 -29c-7 -7 -20 -13 -30 -13s-24 6 -31 13l-29 29c-7 7 -13 21 -13 31s6 23 13 30l24 24c8 10 24 18 36 18z" />
    <glyph glyph-name="slash" unicode="/" horiz-adv-x="635" 
d="M579 812h1c24 0 43 -20 43 -44c0 -7 -3 -16 -6 -22l-521 -926c-7 -12 -25 -24 -39 -24c-24 0 -43 20 -43 44c0 7 3 16 6 22l521 927c7 12 24 23 38 23z" />
    <glyph glyph-name="zero" unicode="0" horiz-adv-x="520" 
d="M239 608l-66 -22l-45 -67l-27 -132v-78l27 -132l45 -68l66 -22h44l66 22l45 68l26 132v78l-26 132l-45 67l-66 22h-44zM233 695h2h54c4 0 12 -1 15 -2l86 -29c8 -2 18 -10 22 -17l59 -87c2 -4 4 -12 5 -16l30 -145c0 -2 1 -5 1 -7v-87c0 -2 -1 -7 -1 -9l-30 -145
c-1 -4 -3 -12 -5 -16l-59 -87c-4 -7 -14 -14 -22 -16l-86 -30c-3 -1 -11 -2 -15 -2h-57h-1c-4 0 -10 1 -13 2l-87 30c-8 2 -18 9 -22 16l-58 87c-2 4 -6 12 -7 16l-29 145c0 2 -1 7 -1 9v87c0 2 1 5 1 7l29 145c1 4 5 12 7 16l58 87c4 7 14 15 22 17l82 28c3 1 8 2 11 2
c2 0 6 1 8 1h1z" />
    <glyph glyph-name="one" unicode="1" horiz-adv-x="463" 
d="M230 695h2c24 0 43 -19 43 -43v-565h73c24 0 44 -19 44 -43s-20 -44 -44 -44h-109h-8h-7h-108c-24 0 -44 20 -44 44s20 43 44 43h72v437l-53 -27c-6 -3 -15 -5 -21 -5c-24 0 -42 20 -42 44c0 15 11 32 25 39l47 23l52 77c7 10 22 20 34 20z" />
    <glyph glyph-name="two" unicode="2" 
d="M232 695h116c4 0 10 -1 13 -2l87 -29c6 -2 13 -7 17 -11l29 -28c2 -2 6 -8 8 -11l29 -58c2 -6 5 -14 5 -20v-58c0 -6 -3 -13 -5 -19l-29 -59c-3 -6 -9 -13 -15 -16l-87 -57c-2 -1 -5 -4 -7 -5l-143 -57l-51 -25l-45 -46l-7 -20h21c1 0 4 1 5 1c3 0 9 -1 12 -2
c1 0 2 -1 3 -1c3 -1 10 -5 13 -7l129 -78h86l12 12l21 42v47v1c0 24 19 44 43 44s44 -20 44 -44v-1v-57c0 -6 -3 -14 -5 -20l-29 -57c-2 -3 -6 -10 -8 -12l-29 -29c-7 -7 -21 -13 -31 -13h-116c-7 0 -16 4 -22 7l-134 80h-28l-4 -3v-40v-1c0 -24 -19 -43 -43 -43
s-44 19 -44 43v1v52v5v7v23c0 4 1 10 2 13l30 87c2 6 6 14 10 18l58 57c2 2 8 7 11 9l58 28c1 0 3 1 4 1l140 56l73 50l20 38v38l-21 43l-18 16l-70 23h-101l-71 -23l-16 -16l-12 -26c11 -7 20 -23 20 -36v-29c0 -24 -20 -44 -44 -44c-10 0 -24 7 -31 14l-25 24
c-10 8 -17 23 -17 35v7v22c0 6 3 14 5 20l29 58c2 3 6 9 8 11l29 28c4 4 11 9 17 11l87 29c3 1 9 2 13 2h1z" />
    <glyph glyph-name="three" unicode="3" horiz-adv-x="548" 
d="M232 695h86h1c4 0 10 -1 13 -2l87 -29c10 -3 21 -13 25 -22l29 -58c2 -6 4 -13 4 -19v-87c0 -6 -2 -13 -4 -19l-29 -59c-4 -9 -15 -17 -24 -20l45 -44c2 -2 6 -10 8 -13l29 -57c2 -6 5 -14 5 -20v-86c0 -6 -3 -13 -5 -19l-29 -59c-2 -3 -6 -8 -8 -10l-29 -30
c-4 -4 -11 -8 -17 -10l-87 -30c-3 -1 -9 -2 -13 -2h-1h-86h-1c-4 0 -10 1 -13 2l-87 30c-6 2 -13 6 -17 10l-29 30c-2 2 -6 7 -8 10l-29 59c-2 6 -5 13 -5 19v22v6c0 12 6 27 16 35l26 26c7 7 21 12 31 12c24 0 44 -19 44 -43v-30c0 -13 -9 -29 -20 -36l12 -24l16 -17
l71 -24h72l71 24l16 17l22 41v67l-22 42l-47 49l-43 21h-47h-1c-24 0 -43 20 -43 44s19 42 43 42h1h50l63 21l16 33v66l-16 33l-63 21h-72l-71 -23l-16 -16l-12 -26c11 -7 20 -23 20 -36v-29c0 -24 -20 -44 -44 -44c-10 0 -24 7 -31 14l-25 24c-10 8 -17 23 -17 35v7v22
c0 6 3 14 5 20l29 58c2 3 6 9 8 11l29 28c4 4 11 9 17 11l87 29c3 1 9 2 13 2h1z" />
    <glyph glyph-name="four" unicode="4" 
d="M304 508l-165 -247h165v247zM346 696h2c2 0 5 -1 7 -1c1 0 3 -1 4 -1h1c1 0 2 -1 3 -1h1c15 -6 28 -25 28 -41c0 -1 -2 -4 -2 -5v-386h102h1c24 0 43 -19 43 -43s-19 -44 -43 -44h-1h-102v-87h44c24 0 44 -19 44 -43s-20 -44 -44 -44h-80h-6h-8h-79h-1
c-24 0 -43 20 -43 44s19 43 43 43h1h43v87h-246c-24 0 -44 20 -44 44c0 8 4 18 8 24l286 429v1c7 13 24 24 38 24z" />
    <glyph glyph-name="five" unicode="5" horiz-adv-x="520" 
d="M116 696c2 0 5 -1 7 -1h282h1c24 0 43 -19 43 -43s-19 -44 -43 -44h-1h-253l-29 -139l66 22c3 1 9 2 13 2h87c4 0 12 -1 15 -2l86 -30c6 -2 13 -6 17 -10l58 -58c4 -4 8 -11 10 -17l30 -87c1 -3 2 -10 2 -14v-57c0 -4 -1 -11 -2 -14l-30 -87c-2 -6 -6 -13 -10 -17
l-58 -58c-4 -4 -11 -8 -17 -10l-86 -30c-3 -1 -11 -2 -15 -2h-87c-4 0 -10 1 -13 2l-87 30c-6 2 -13 6 -17 10l-29 30c-2 2 -6 7 -8 10l-29 59c-2 6 -5 13 -5 19v22v6c0 12 7 27 17 35l25 26c7 7 21 12 31 12c24 0 43 -19 43 -43v-30c0 -13 -9 -29 -20 -36l12 -24l18 -17
l70 -24h73l70 24l43 43l24 70v44l-24 71l-43 44l-70 23h-73l-70 -23l-48 -47v-2c-8 -9 -22 -16 -34 -16c-4 0 -12 1 -16 3c-1 0 -3 2 -4 2h-1l-1 1c-1 0 -1 2 -2 2c-11 7 -20 23 -20 36c0 3 1 10 2 13l56 278c0 11 7 25 15 32h1c7 6 19 11 28 11z" />
    <glyph glyph-name="six" unicode="6" 
d="M271 377l-42 -22l-49 -47l-46 -94l20 -60l43 -43l70 -24h44l71 24l44 43l23 70v16l-23 70l-46 45l-43 22h-66zM289 695h87c6 0 14 -2 20 -4l57 -29c8 -3 17 -12 20 -20l29 -58c2 -6 5 -13 5 -19v-22v-7c0 -12 -6 -26 -16 -34l-26 -26c-7 -7 -21 -13 -31 -13
c-24 0 -44 20 -44 44v29c0 13 10 29 21 36l-9 19l-36 17h-69l-70 -23l-47 -46l-23 -47l-27 -106v-5l42 41c2 2 9 6 12 8l57 29c6 2 14 4 20 4h87c6 0 12 -2 18 -4l59 -29c3 -2 9 -6 11 -8l58 -58c4 -4 9 -10 11 -16l29 -87c1 -3 2 -11 2 -15v-28c0 -4 -1 -11 -2 -14l-29 -87
c-2 -6 -7 -13 -11 -17l-58 -58c-4 -4 -11 -8 -17 -10l-87 -30c-3 -1 -9 -2 -13 -2h-1h-57c-4 0 -12 1 -15 2l-86 30c-6 2 -13 6 -17 10l-58 58c-4 4 -8 11 -10 17l-28 81c-2 4 -4 13 -4 19v5v170c0 3 1 7 2 10l29 116c1 2 2 7 3 9l29 57c2 3 6 9 8 11l58 58c4 4 11 9 17 11
l87 29c3 1 9 2 13 2z" />
    <glyph glyph-name="seven" unicode="7" horiz-adv-x="520" 
d="M57 696h1c16 0 35 -13 41 -28l15 14c7 7 21 13 31 13h57c7 0 18 -3 24 -6l134 -81h27l11 11l24 49c6 15 24 26 39 27c1 0 1 1 2 1s1 -1 2 -1h5c1 0 2 -1 3 -1h2h1c1 0 3 -1 4 -1c15 -6 27 -25 27 -41v-4v-83c0 -4 -1 -11 -2 -14l-30 -87c-1 -4 -4 -10 -6 -13l-114 -141
l-25 -52l-26 -76v-138v-1c0 -24 -19 -43 -43 -43s-44 19 -44 43v1v144v1c0 4 1 10 2 13l30 87c0 1 1 5 2 6l28 58c1 2 5 6 6 8l111 138l7 22h-55c-7 0 -18 4 -24 7l-134 80h-27l-41 -39l-21 -43v-48v-1c0 -24 -19 -43 -43 -43s-44 19 -44 43v1v53v5v4v112c0 23 20 44 43 44z
" />
    <glyph glyph-name="eight" unicode="8" horiz-adv-x="491" 
d="M210 348l-70 -24l-18 -16l-21 -43v-96l21 -41l18 -17l70 -24h73l70 24l17 17l20 41v96l-20 43l-17 16l-70 24h-73zM210 608l-64 -21l-16 -33v-66l16 -33l64 -21h73l62 21l17 33v66l-17 33l-62 21h-73zM205 695h2h82c4 0 12 -1 15 -2l86 -29c10 -3 21 -13 25 -22l29 -58
c2 -6 5 -13 5 -19v-87c0 -6 -3 -13 -5 -19l-29 -59c-1 -3 -4 -6 -6 -8l27 -28c2 -2 6 -8 8 -11l29 -58c2 -6 4 -14 4 -20v-115c0 -6 -2 -13 -4 -19l-29 -59c-2 -3 -6 -8 -8 -10l-29 -30c-4 -4 -11 -8 -17 -10l-86 -30c-3 -1 -11 -2 -15 -2h-87c-4 0 -10 1 -13 2l-87 30
c-6 2 -13 6 -17 10l-29 30c-2 2 -6 7 -8 10l-29 59c-2 6 -5 13 -5 19v115c0 6 3 14 5 20l29 58c2 3 6 9 8 11l28 28c-2 2 -6 5 -7 8l-29 59c-2 6 -5 13 -5 19v87c0 6 3 13 5 19l29 58c4 9 15 19 25 22l83 28c3 1 8 2 11 2c2 0 6 1 8 1h1z" />
    <glyph glyph-name="nine" unicode="9" horiz-adv-x="491" 
d="M239 608l-71 -23l-44 -44l-23 -70v-15l23 -70l44 -44l71 -23h14l70 23l44 44l23 70v15l-23 70l-44 44l-70 23h-14zM232 695h29c4 0 10 -1 13 -2l87 -29c6 -2 13 -7 17 -11l58 -58c4 -4 9 -10 11 -16l28 -87c1 -3 2 -10 2 -14v-25v-3v-3v-142c0 -3 0 -8 -1 -11l-28 -116
c-1 -2 -3 -7 -4 -9l-29 -58c-2 -3 -6 -9 -8 -11l-58 -58c-2 -2 -8 -6 -11 -8l-59 -28c-6 -2 -12 -6 -18 -6h-87c-6 0 -14 4 -20 6l-57 28c-8 3 -17 12 -20 20l-29 57c-2 6 -5 14 -5 20v22v7c0 12 6 26 16 34l26 25c7 7 21 13 31 13c24 0 44 -20 44 -44v-28
c0 -13 -10 -30 -21 -37l9 -17l36 -19h67l42 22l48 47l23 48l19 74l-5 -4c-4 -4 -11 -9 -17 -11l-87 -29c-3 -1 -9 -2 -13 -2h-29h-1c-4 0 -10 1 -13 2l-87 29c-6 2 -13 7 -17 11l-58 57c-4 4 -9 12 -11 18l-29 87c-1 3 -2 9 -2 13v29c0 4 1 11 2 14l29 87c2 6 7 12 11 16
l58 58c4 4 11 9 17 11l87 29c3 1 9 2 13 2h1z" />
    <glyph glyph-name="colon" unicode=":" horiz-adv-x="231" 
d="M116 232h1c12 0 28 -8 35 -18l23 -24c7 -7 13 -20 13 -30s-6 -24 -13 -31l-29 -29c-7 -7 -20 -13 -30 -13s-24 6 -31 13l-29 29c-7 7 -13 21 -13 31s6 23 13 30l24 24c8 10 24 18 36 18zM116 436h1c12 0 28 -9 35 -19l23 -24c7 -7 13 -21 13 -31s-6 -24 -13 -31l-29 -29
c-7 -7 -20 -12 -30 -12s-24 5 -31 12l-29 29c-7 7 -13 21 -13 31s6 24 13 31l24 24c8 10 24 19 36 19z" />
    <glyph glyph-name="semicolon" unicode=";" horiz-adv-x="231" 
d="M116 232c10 0 23 -6 30 -13l24 -23c10 -8 18 -23 18 -35v-7v-52c0 -10 -6 -23 -13 -30l-57 -59c-7 -8 -22 -13 -32 -13c-24 0 -43 19 -43 43c0 10 5 25 13 32l28 27l-28 27c-7 7 -13 21 -13 31s6 23 13 30l29 29c7 7 21 13 31 13zM116 436h1c12 0 28 -9 35 -19l23 -24
c7 -7 13 -21 13 -31s-6 -24 -13 -31l-29 -29c-7 -7 -20 -12 -30 -12s-24 5 -31 12l-29 29c-7 7 -13 21 -13 31s6 24 13 31l24 24c8 10 24 19 36 19z" />
    <glyph glyph-name="less" unicode="&#x3c;" horiz-adv-x="694" 
d="M582 608c23 -1 41 -20 41 -43c0 -14 -10 -31 -22 -38l-396 -222l396 -224c12 -7 23 -24 23 -38c0 -24 -20 -43 -44 -43c-7 0 -16 4 -22 7l-463 259c-12 7 -22 25 -22 39s10 30 22 37l463 261c6 3 15 5 22 5h2z" />
    <glyph glyph-name="equal" unicode="=" horiz-adv-x="752" 
d="M116 261h521h1c24 0 43 -19 43 -43s-19 -44 -43 -44h-1h-521c-24 0 -44 20 -44 44s20 43 44 43zM116 434h521h1c24 0 43 -18 43 -42s-19 -44 -43 -44h-1h-521c-24 0 -44 20 -44 44s20 42 44 42z" />
    <glyph glyph-name="greater" unicode="&#x3e;" horiz-adv-x="694" 
d="M117 608c7 0 15 -2 21 -5l463 -261c12 -7 22 -23 22 -37s-10 -32 -22 -39l-463 -259c-6 -3 -15 -7 -22 -7c-24 0 -44 19 -44 43c0 14 11 31 23 38l396 224l-396 222c-12 7 -23 24 -23 38c0 24 20 43 44 43h1z" />
    <glyph glyph-name="question" unicode="?" horiz-adv-x="433" 
d="M231 145h2c12 0 27 -7 34 -17l25 -25c7 -7 12 -20 12 -30s-5 -24 -12 -31l-30 -29c-7 -7 -20 -13 -30 -13s-24 6 -31 13l-29 29c-7 7 -12 21 -12 31s5 23 12 30l24 25c8 10 23 17 35 17zM174 695h87c6 0 12 -2 18 -4l59 -29c3 -2 9 -7 11 -9l29 -28c2 -2 6 -8 8 -11
l29 -58c2 -6 5 -14 5 -20v-58c0 -6 -3 -13 -5 -19l-29 -59c-2 -3 -6 -9 -8 -11l-29 -28c-2 -2 -5 -5 -7 -6l-67 -45v-64c0 -24 -19 -44 -43 -44s-44 20 -44 44v87c0 13 9 30 20 37l82 55l21 21l22 42v38l-22 43l-18 18l-42 21h-67l-42 -21l-20 -18l-12 -26
c11 -7 20 -23 20 -36v-29c0 -24 -19 -44 -43 -44c-10 0 -24 7 -31 14l-25 24c-10 8 -17 23 -17 35v7v22c0 6 3 14 5 20l29 58c2 3 6 9 8 11l29 28c2 2 9 7 12 9l57 29c6 2 14 4 20 4z" />
    <glyph glyph-name="at" unicode="@" horiz-adv-x="809" 
d="M358 463l-42 -21l-18 -16l-23 -71v-69l18 -36l36 -18h66l36 18l19 38l19 153l-45 22h-66zM354 608l-77 -25l-48 -25l-49 -48l-24 -49l-26 -77v-73l26 -77l24 -48l49 -48l48 -25l77 -26h73l78 26l48 25l8 7h-11c-6 0 -14 3 -20 5l-53 26l-52 -26c-6 -2 -14 -5 -20 -5h-87
c-6 0 -13 3 -19 5l-58 28c-8 3 -16 12 -19 20l-30 58c-2 6 -4 13 -4 19v87c0 4 1 11 2 14l29 87c2 6 7 13 11 17l28 29c2 2 10 6 13 8l57 29c6 2 14 4 20 4h86c6 0 13 -2 19 -4l31 -16c7 11 24 21 37 21c24 0 43 -20 43 -44v-5l-28 -227v-3v-28l24 -12h30l38 38l23 70v44
l-25 77l-24 49l-49 48l-48 25l-78 25h-73zM348 695h86c4 0 11 -1 14 -2l87 -29c1 0 4 -1 5 -2l58 -30c3 -2 9 -5 11 -7l59 -59c2 -2 5 -7 7 -10l30 -59c1 -1 2 -4 2 -5l29 -87c1 -3 2 -9 2 -13v-59c0 -4 -1 -10 -2 -13l-29 -87c-2 -6 -7 -13 -11 -17l-56 -55
c7 -7 12 -21 12 -30c0 -10 -5 -24 -13 -31l-30 -28c-2 -2 -8 -7 -11 -9l-58 -29c-1 -1 -4 -2 -5 -2l-87 -30c-3 -1 -10 -2 -14 -2h-86c-4 0 -12 1 -15 2l-87 30c-1 0 -4 1 -5 2l-57 29c-3 2 -10 7 -12 9l-58 57c-2 2 -6 9 -8 12l-29 57c-1 1 -2 5 -2 6l-30 86
c-1 3 -2 11 -2 15v87c0 4 1 10 2 13l30 87c0 1 1 4 2 5l29 59c2 3 6 8 8 10l58 59c2 2 9 5 12 7l57 30c1 1 4 2 5 2l87 29c3 1 11 2 15 2z" />
    <glyph glyph-name="A" unicode="A" 
d="M289 515l-84 -254h169zM288 696h1l1 -1h3h3c16 -2 33 -18 36 -34l141 -423c2 -3 3 -11 4 -14l47 -137h26h1c24 0 43 -19 43 -43s-19 -44 -43 -44h-1h-51h-7h-7h-80c-24 0 -44 20 -44 44s20 43 44 43h27l-29 87h-227l-29 -87h27c24 0 44 -19 44 -43s-20 -44 -44 -44h-80
h-7h-7h-51c-24 0 -44 20 -44 44s20 43 44 43h26l46 137c1 3 3 11 5 14l140 423c3 14 17 29 31 33c1 0 4 1 5 1h3h1z" />
    <glyph glyph-name="B" unicode="B" horiz-adv-x="607" 
d="M188 319v-232h182l70 24l16 17l21 41v67l-21 42l-16 18l-70 23h-182zM188 608v-202h182l70 23l16 17l21 42v38l-21 43l-16 16l-70 23h-182zM144 696c2 0 6 -1 8 -1h224c4 0 11 -1 14 -2l87 -29c6 -2 13 -7 17 -11l28 -28c2 -2 7 -8 9 -11l29 -58c2 -6 4 -14 4 -20v-58
c0 -6 -2 -13 -4 -19l-29 -59c-2 -3 -7 -9 -9 -11l-26 -27l26 -26c2 -2 7 -10 9 -13l29 -57c2 -6 4 -14 4 -20v-86c0 -6 -2 -13 -4 -19l-29 -59c-2 -3 -7 -8 -9 -10l-28 -30c-4 -4 -11 -8 -17 -10l-87 -30c-3 -1 -10 -2 -14 -2h-224h-7h-7h-80h-1c-24 0 -43 20 -43 44
s19 43 43 43h1h43v268v7v8v238h-43h-1c-24 0 -43 20 -43 44s19 43 43 43h1h80c2 0 4 1 6 1z" />
    <glyph glyph-name="C" unicode="C" 
d="M520 696h1c24 0 43 -20 43 -44v-174c0 -24 -19 -44 -43 -44c-18 0 -35 14 -41 30l-26 77l-44 44l-70 23h-43l-70 -23l-47 -46l-24 -48l-26 -77v-131l26 -77l24 -50l47 -45l70 -24h43l70 24l46 45l26 52c7 14 24 25 39 25c24 0 44 -20 44 -44c0 -6 -2 -14 -5 -20l-29 -58
c-2 -3 -7 -9 -9 -11l-57 -58c-4 -4 -11 -8 -17 -10l-87 -30c-3 -1 -9 -2 -13 -2h-59c-4 0 -10 1 -13 2l-87 30c-6 2 -13 6 -17 10l-58 58c-2 2 -6 8 -8 11l-29 58c-1 1 -2 5 -2 6l-30 87c-1 3 -2 9 -2 13v145c0 4 1 10 2 13l30 87c0 1 1 6 2 7l29 57c2 3 6 9 8 11l58 58
c4 4 11 9 17 11l87 29c3 1 9 2 13 2h59c4 0 10 -1 13 -2l87 -29c6 -2 13 -7 17 -11l12 -12v11c0 23 20 44 43 44z" />
    <glyph glyph-name="D" unicode="D" horiz-adv-x="607" 
d="M188 608v-521h123l71 24l46 45l24 50l25 77v131l-25 77l-24 48l-46 46l-71 23h-123zM144 696c2 0 6 -1 8 -1h166h1c4 0 10 -1 13 -2l87 -29c6 -2 13 -7 17 -11l58 -58c2 -2 6 -8 8 -11l29 -57c1 -1 3 -6 3 -7l28 -87c1 -3 2 -9 2 -13v-145c0 -4 -1 -10 -2 -13l-28 -87
c0 -1 -2 -5 -3 -6l-29 -58c-2 -3 -6 -9 -8 -11l-58 -58c-4 -4 -11 -8 -17 -10l-87 -30c-3 -1 -9 -2 -13 -2h-1h-166h-7h-7h-80h-1c-24 0 -43 20 -43 44s19 43 43 43h1h43v521h-43h-1c-24 0 -43 20 -43 44s19 43 43 43h1h80c2 0 4 1 6 1z" />
    <glyph glyph-name="E" unicode="E" horiz-adv-x="548" 
d="M144 696c2 0 6 -1 8 -1h340c24 0 44 -19 44 -43v-116c0 -24 -20 -44 -44 -44s-43 20 -43 44v72h-261v-202h87v43v1c0 24 19 43 43 43s44 -19 44 -43v-1v-79v-8v-7v-80c0 -24 -20 -44 -44 -44s-43 20 -43 44v44h-87v-232h261v73v1c0 24 19 43 43 43s44 -19 44 -43v-1v-116
c0 -24 -20 -44 -44 -44h-340h-7h-7h-80h-1c-24 0 -43 20 -43 44s19 43 43 43h1h43v268v7v8v238h-43h-1c-24 0 -43 20 -43 44s19 43 43 43h1h80c2 0 4 1 6 1z" />
    <glyph glyph-name="F" unicode="F" horiz-adv-x="491" 
d="M144 696c2 0 6 -1 8 -1h340c24 0 44 -19 44 -43v-145v-1c0 -24 -20 -43 -44 -43s-43 19 -43 43v1v101h-261v-202h87v43v1c0 24 19 43 43 43s44 -19 44 -43v-1v-79v-8v-7v-80c0 -24 -20 -44 -44 -44s-43 20 -43 44v44h-87v-232h73c24 0 44 -19 44 -43s-20 -44 -44 -44
h-109h-7h-7h-80h-1c-24 0 -43 20 -43 44s19 43 43 43h1h43v268v7v8v238h-43h-1c-24 0 -43 20 -43 44s19 43 43 43h1h80c2 0 4 1 6 1z" />
    <glyph glyph-name="G" unicode="G" horiz-adv-x="694" 
d="M520 696h1c24 0 43 -20 43 -44v-174c0 -24 -19 -44 -43 -44c-18 0 -35 14 -41 30l-26 77l-44 44l-70 23h-43l-70 -23l-47 -46l-24 -48l-26 -77v-131l26 -77l24 -50l47 -45l70 -24h43l70 24l67 67v54h-43h-1c-24 0 -43 19 -43 43s19 44 43 44h1h80h7h7h80
c24 0 44 -20 44 -44s-20 -43 -44 -43h-44v-66c0 -1 1 -5 1 -6s-1 -5 -1 -6v-110v-1c0 -24 -19 -43 -43 -43s-44 19 -44 43v1v11l-12 -13c-4 -4 -11 -8 -17 -10l-87 -30c-3 -1 -9 -2 -13 -2h-59c-4 0 -10 1 -13 2l-87 30c-6 2 -13 6 -17 10l-58 58c-2 2 -6 8 -8 11l-29 58
c-1 1 -2 5 -2 6l-30 87c-1 3 -2 9 -2 13v145c0 4 1 10 2 13l30 87c0 1 1 6 2 7l29 57c2 3 6 9 8 11l58 58c4 4 11 9 17 11l87 29c3 1 9 2 13 2h59c4 0 10 -1 13 -2l87 -29c6 -2 13 -7 17 -11l12 -12v11c0 23 20 44 43 44z" />
    <glyph glyph-name="H" unicode="H" horiz-adv-x="665" 
d="M144 696c2 0 6 -1 8 -1h80c24 0 44 -19 44 -43s-20 -44 -44 -44h-44v-202h289v202h-43h-1c-24 0 -43 20 -43 44s19 43 43 43h1h80c2 0 5 1 7 1s5 -1 7 -1h80c24 0 44 -19 44 -43s-20 -44 -44 -44h-44v-238c0 -2 1 -6 1 -8s-1 -5 -1 -7v-268h44c24 0 44 -19 44 -43
s-20 -44 -44 -44h-80h-7h-7h-80h-1c-24 0 -43 20 -43 44s19 43 43 43h1h43v232h-289v-232h44c24 0 44 -19 44 -43s-20 -44 -44 -44h-80h-7h-7h-80h-1c-24 0 -43 20 -43 44s19 43 43 43h1h43v268v7v8v238h-43h-1c-24 0 -43 20 -43 44s19 43 43 43h1h80c2 0 4 1 6 1z" />
    <glyph glyph-name="I" unicode="I" horiz-adv-x="289" 
d="M144 696c2 0 6 -1 8 -1h80c24 0 44 -19 44 -43s-20 -44 -44 -44h-44v-521h44c24 0 44 -19 44 -43s-20 -44 -44 -44h-80h-7h-7h-80h-1c-24 0 -43 20 -43 44s19 43 43 43h1h43v521h-43h-1c-24 0 -43 20 -43 44s19 43 43 43h1h80c2 0 4 1 6 1z" />
    <glyph glyph-name="J" unicode="J" horiz-adv-x="404" 
d="M260 696h1c2 0 4 -1 6 -1h81c24 0 44 -19 44 -43s-20 -44 -44 -44h-44v-448c0 -4 -2 -11 -3 -14l-28 -87c-3 -10 -13 -21 -22 -25l-57 -28c-6 -2 -14 -6 -20 -6h-58c-6 0 -13 4 -19 6l-59 28c-8 3 -16 12 -19 20l-29 57c-2 6 -4 14 -4 20v51c0 2 -1 4 -1 6
c0 12 7 27 17 35l26 26c7 7 20 12 30 12c24 0 43 -19 43 -43v-30c0 -16 -13 -35 -28 -41v-6l17 -35l36 -19h38l32 16l21 64v441h-43h-1c-24 0 -43 20 -43 44s19 43 43 43h1h80c2 0 4 1 6 1z" />
    <glyph glyph-name="K" unicode="K" 
d="M144 696c2 0 6 -1 8 -1h80c24 0 44 -19 44 -43s-20 -44 -44 -44h-44v-227l38 36c2 3 6 8 9 10l184 183c-15 6 -29 26 -29 42c0 24 19 43 43 43h1h82h5h6h52h1c24 0 43 -19 43 -43s-19 -44 -43 -44h-1h-40l-222 -222l198 -299h64h1c24 0 43 -19 43 -43s-19 -44 -43 -44h-1
h-81h-5h-7h-81c-24 0 -44 20 -44 44s20 43 44 43h6l-157 236l-66 -66v-170h44c24 0 44 -19 44 -43s-20 -44 -44 -44h-80h-7h-7h-80h-1c-24 0 -43 20 -43 44s19 43 43 43h1h43v183v5v5v328h-43h-1c-24 0 -43 20 -43 44s19 43 43 43h1h80c2 0 4 1 6 1z" />
    <glyph glyph-name="L" unicode="L" horiz-adv-x="520" 
d="M144 696c2 0 6 -1 8 -1h80c24 0 44 -19 44 -43s-20 -44 -44 -44h-44v-521h232v73v1c0 24 19 43 43 43s44 -19 44 -43v-1v-116c0 -24 -20 -44 -44 -44h-311h-7h-7h-80h-1c-24 0 -43 20 -43 44s19 43 43 43h1h43v521h-43h-1c-24 0 -43 20 -43 44s19 43 43 43h1h80
c2 0 4 1 6 1z" />
    <glyph glyph-name="M" unicode="M" horiz-adv-x="694" 
d="M144 696c1 0 1 -1 2 -1h1c9 -1 21 -4 28 -11v-1h1c6 -6 11 -16 12 -24l160 -477l159 477c1 8 5 17 11 23l1 1c4 4 13 9 19 11c1 0 3 1 4 1h5c1 0 2 1 3 1s3 -1 4 -1h3h80h1c24 0 43 -19 43 -43s-19 -44 -43 -44h-1h-44v-521h44h1c24 0 43 -19 43 -43s-19 -44 -43 -44h-1
h-80h-7h-7h-80h-1c-24 0 -43 20 -43 44s19 43 43 43h1h44v297l-117 -349c-3 -14 -16 -29 -30 -33c-1 0 -4 -1 -5 -1s-2 -1 -3 -1h-1h-3h-2h-2h-3c-16 2 -33 18 -36 34l-117 350v-297h44c24 0 44 -19 44 -43s-20 -44 -44 -44h-80h-7h-7h-80h-1c-24 0 -43 20 -43 44
s19 43 43 43h1h43v521h-43h-1c-24 0 -43 20 -43 44s19 43 43 43h1h80h1h3l1 1h1z" />
    <glyph glyph-name="N" unicode="N" horiz-adv-x="635" 
d="M144 696h1c10 0 23 -5 30 -12v-1h1c3 -3 8 -11 10 -15l263 -460v400h-44c-24 0 -44 20 -44 44s20 43 44 43h80c2 0 5 1 7 1s5 -1 7 -1h80h1c24 0 43 -19 43 -43s-19 -44 -43 -44h-1h-43v-560v-5c0 -14 -10 -30 -22 -37c-1 -1 -4 -3 -5 -3s-2 -1 -3 -1h-1
c-1 0 -2 -1 -3 -1s-3 -1 -4 -1h-6c-15 0 -33 12 -40 26l-264 462v-401h44c24 0 44 -19 44 -43s-20 -44 -44 -44h-80h-7h-7h-80h-1c-24 0 -43 20 -43 44s19 43 43 43h1h43v521h-43h-1c-24 0 -43 20 -43 44s19 43 43 43h1h80h1c1 0 4 1 5 1z" />
    <glyph glyph-name="O" unicode="O" horiz-adv-x="635" 
d="M297 608l-70 -23l-47 -46l-23 -47l-27 -106v-76l27 -106l23 -48l47 -45l70 -24h43l70 24l46 45l24 48l27 106v76l-27 106l-24 47l-46 46l-70 23h-43zM292 695h2h54c4 0 10 -1 13 -2l87 -29c6 -2 13 -7 17 -11l57 -58c2 -2 7 -8 9 -11l29 -57c1 -2 2 -7 3 -9l29 -116
c1 -3 1 -7 1 -10v-87c0 -3 0 -8 -1 -11l-29 -116c-1 -2 -2 -7 -3 -9l-29 -58c-2 -3 -7 -9 -9 -11l-57 -58c-4 -4 -11 -8 -17 -10l-87 -30c-3 -1 -9 -2 -13 -2h-59c-4 0 -10 1 -13 2l-87 30c-6 2 -13 6 -17 10l-58 58c-2 2 -6 8 -8 11l-29 58c-1 2 -2 7 -3 9l-29 116
c-1 3 -2 8 -2 11v87c0 3 1 7 2 10l29 116c1 2 2 7 3 9l29 57c2 3 6 9 8 11l58 58c4 4 11 9 17 11l83 28c3 1 7 2 10 2c2 0 6 1 8 1h2z" />
    <glyph glyph-name="P" unicode="P" 
d="M188 608v-231h152l70 23l18 17l21 43v66l-21 43l-18 16l-70 23h-152zM144 696c2 0 6 -1 8 -1h196c4 0 10 -1 13 -2l87 -29c6 -2 13 -7 17 -11l29 -28c2 -2 6 -8 8 -11l29 -58c2 -6 5 -14 5 -20v-87c0 -6 -3 -13 -5 -19l-29 -58c-2 -3 -6 -9 -8 -11l-29 -30
c-4 -4 -11 -8 -17 -10l-87 -28c-3 -1 -9 -3 -13 -3h-160v-203h44c24 0 44 -19 44 -43s-20 -44 -44 -44h-80h-7h-7h-80h-1c-24 0 -43 20 -43 44s19 43 43 43h1h43v240v6v8v267h-43h-1c-24 0 -43 20 -43 44s19 43 43 43h1h80c2 0 4 1 6 1z" />
    <glyph glyph-name="Q" unicode="Q" horiz-adv-x="635" 
d="M299 174l-35 -18l-18 -35v-17l51 -17h43l31 11l-6 16l-21 42l-36 18h-9zM297 608l-70 -23l-47 -46l-23 -47l-27 -106v-76l27 -106l17 -35l18 39c3 8 12 17 20 20l59 28c6 2 12 5 18 5h29c6 0 14 -3 20 -5l58 -28c8 -3 16 -12 19 -20l27 -55c1 -1 3 -5 4 -6v-1l10 10
l24 48l27 106v76l-27 106l-24 47l-46 46l-70 23h-43zM292 695h2h54c4 0 10 -1 13 -2l87 -29c6 -2 13 -7 17 -11l57 -58c2 -2 7 -8 9 -11l29 -57c1 -2 2 -7 3 -9l29 -116c1 -3 1 -7 1 -10v-87c0 -3 0 -8 -1 -11l-29 -116c-1 -2 -2 -7 -3 -9l-29 -58c-2 -3 -7 -9 -9 -11
l-45 -45l21 -43l9 -8l12 12c7 8 22 14 32 14c24 0 43 -19 43 -43c0 -10 -5 -25 -13 -32l-29 -29c-7 -7 -21 -13 -31 -13h-29c-10 0 -24 6 -31 13l-29 29c-2 2 -5 9 -7 12l-26 48l-38 -13c-3 -1 -9 -2 -13 -2h-59c-4 0 -10 1 -13 2l-80 28c-9 1 -22 8 -28 16l-54 54
c-2 2 -6 8 -8 11l-29 58c-1 2 -2 7 -3 9l-29 116c-1 3 -2 8 -2 11v87c0 3 1 7 2 10l29 116c1 2 2 7 3 9l29 57c2 3 6 9 8 11l58 58c4 4 11 9 17 11l83 28c3 1 7 2 10 2c2 0 6 1 8 1h2z" />
    <glyph glyph-name="R" unicode="R" horiz-adv-x="607" 
d="M188 608v-202h97h4h5h76l70 23l16 17l21 42v38l-21 43l-16 16l-70 23h-182zM144 696c2 0 6 -1 8 -1h224c4 0 11 -1 14 -2l87 -29c6 -2 13 -7 17 -11l28 -28c2 -2 7 -8 9 -11l29 -58c2 -6 4 -14 4 -20v-58c0 -6 -2 -13 -4 -19l-29 -59c-2 -3 -7 -9 -9 -11l-28 -28
c-4 -4 -11 -9 -17 -11l-65 -21l5 -9l83 -223l7 -6v11c0 24 19 44 43 44s43 -20 43 -44v-23c0 -1 1 -4 1 -5c0 -4 -1 -13 -3 -17v-1c-2 -6 -9 -15 -15 -19l-24 -24c-7 -7 -21 -13 -31 -13h-29c-10 0 -24 6 -31 13l-29 29c-3 3 -8 11 -10 15l-83 223l-18 18l-42 21h-91v-232
h44c24 0 44 -19 44 -43s-20 -44 -44 -44h-80h-7h-7h-80h-1c-24 0 -43 20 -43 44s19 43 43 43h1h43v268v7v8v238h-43h-1c-24 0 -43 20 -43 44s19 43 43 43h1h80c2 0 4 1 6 1z" />
    <glyph glyph-name="S" unicode="S" 
d="M492 696c24 0 44 -20 44 -44v-174c0 -24 -20 -44 -44 -44c-18 0 -35 14 -41 30l-25 77l-44 44l-71 23h-72l-71 -23l-38 -38v-51l40 -41l47 -22l167 -28c3 -1 9 -2 12 -3l57 -30c3 -2 10 -6 12 -8l29 -28c2 -2 6 -10 8 -13l29 -57c2 -6 5 -14 5 -20v-86
c0 -8 -4 -19 -8 -25l-57 -87c-4 -7 -15 -14 -23 -16l-87 -30c-3 -1 -9 -2 -13 -2h-87c-4 0 -12 1 -15 2l-86 30c-6 2 -13 6 -17 10l-13 13v-11v-1c0 -24 -19 -43 -43 -43s-44 19 -44 43v1v174c0 24 20 43 44 43c18 0 35 -14 41 -30l26 -77l43 -43l70 -24h73l66 22l43 64v63
l-21 42l-20 20l-45 22l-167 29c-3 1 -9 2 -12 3l-59 30c-3 2 -9 5 -11 7l-58 59c-7 7 -13 20 -13 30v87c0 10 6 23 13 30l58 58c4 4 11 9 17 11l87 29c3 1 9 2 13 2h1h86h1c4 0 10 -1 13 -2l87 -29c6 -2 13 -7 17 -11l13 -12v11c0 23 20 44 43 44z" />
    <glyph glyph-name="T" unicode="T" horiz-adv-x="520" 
d="M260 696h1c2 0 4 -1 6 -1h196c24 0 44 -19 44 -43v-116c0 -24 -20 -44 -44 -44s-43 20 -43 44v72h-116v-521h44c24 0 44 -19 44 -43s-20 -44 -44 -44h-81h-6h-8h-79h-1c-24 0 -43 20 -43 44s19 43 43 43h1h43v521h-116v-72c0 -24 -19 -44 -43 -44s-44 20 -44 44v116
c0 24 20 43 44 43h196c2 0 4 1 6 1z" />
    <glyph glyph-name="U" unicode="U" horiz-adv-x="665" 
d="M144 696c2 0 6 -1 8 -1h80c24 0 44 -19 44 -43s-20 -44 -44 -44h-44v-384l23 -70l46 -45l42 -22h67l42 22l46 45l23 70v384h-43h-1c-24 0 -43 20 -43 44s19 43 43 43h1h80c2 0 5 1 7 1s5 -1 7 -1h80c24 0 44 -19 44 -43s-20 -44 -44 -44h-44v-390c0 -4 -1 -11 -2 -14
l-28 -87c-2 -6 -8 -13 -12 -17l-57 -58c-2 -2 -9 -6 -12 -8l-57 -28c-6 -2 -14 -6 -20 -6h-87c-6 0 -12 4 -18 6l-59 28c-3 2 -9 6 -11 8l-58 58c-4 4 -9 11 -11 17l-29 87c-1 3 -2 10 -2 14v390h-43h-1c-24 0 -43 20 -43 44s19 43 43 43h1h80c2 0 4 1 6 1z" />
    <glyph glyph-name="V" unicode="V" 
d="M85 696h2c2 0 5 -1 7 -1h80c24 0 44 -19 44 -43s-20 -44 -44 -44h-27l142 -426l143 426h-27c-24 0 -44 20 -44 44s20 43 44 43h80h8h6h51h1c24 0 43 -19 43 -43s-19 -44 -43 -44h-1h-26l-192 -573c-3 -14 -17 -29 -31 -33c-1 0 -2 -1 -3 -1s-3 -1 -4 -1h-1h-4h-1h-2h-3
c-16 2 -34 18 -37 34l-191 574h-26c-24 0 -44 20 -44 44s20 43 44 43h51c1 0 4 1 5 1z" />
    <glyph glyph-name="W" unicode="W" horiz-adv-x="694" 
d="M116 696c2 0 4 -1 6 -1h80h2c24 0 42 -19 42 -43s-18 -44 -42 -44h-2h-34l64 -332l72 381c2 18 18 35 34 38h3h1c1 0 3 1 4 1s2 -1 3 -1h2h4h1c1 0 3 -1 4 -1c15 -4 29 -21 30 -37l73 -381l64 332h-35c-24 0 -44 20 -44 44s20 43 44 43h80c2 0 5 1 7 1s5 -1 7 -1h80h1
c24 0 43 -19 43 -43s-19 -44 -43 -44h-1h-51l-109 -568c-2 -18 -17 -36 -33 -39c-1 0 -3 -1 -4 -1h-5h-2h-3c-1 0 -3 1 -4 1h-1c-1 0 -2 1 -3 1c-15 4 -30 22 -31 38l-72 380l-73 -380c-2 -18 -18 -36 -34 -39c-1 0 -2 -1 -3 -1h-2h-3h-1h-2h-2c-1 0 -4 1 -5 1s-3 1 -4 1
c-15 4 -30 22 -31 38l-108 568h-51c-24 0 -44 20 -44 44s20 43 44 43h80c2 0 5 1 7 1z" />
    <glyph glyph-name="X" unicode="X" 
d="M87 695h5h82c24 0 44 -19 44 -43s-20 -44 -44 -44h-6l121 -182l122 182h-6c-24 0 -44 20 -44 44s20 43 44 43h81h7h6h51h1c24 0 43 -19 43 -43s-19 -44 -43 -44h-1h-35l-173 -260l173 -261h35h1c24 0 43 -19 43 -43s-19 -44 -43 -44h-1h-52h-5h-7h-81
c-24 0 -44 20 -44 44s20 43 44 43h6l-122 183l-121 -183h6c24 0 44 -19 44 -43s-20 -44 -44 -44h-82h-5h-7h-51c-24 0 -44 20 -44 44s20 43 44 43h35l174 261l-174 260h-35c-24 0 -44 20 -44 44s20 43 44 43h51h7z" />
    <glyph glyph-name="Y" unicode="Y" 
d="M87 695h5h82c24 0 44 -19 44 -43s-20 -44 -44 -44h-8l123 -193l123 193h-7c-24 0 -44 20 -44 44s20 43 44 43h81h7h6h51h1c24 0 43 -19 43 -43s-19 -44 -43 -44h-1h-34l-183 -287v-234h43h1c24 0 43 -19 43 -43s-19 -44 -43 -44h-1h-80h-7h-6h-81c-24 0 -44 20 -44 44
s20 43 44 43h44v234l-183 287h-34c-24 0 -44 20 -44 44s20 43 44 43h51h7z" />
    <glyph glyph-name="Z" unicode="Z" 
d="M492 695h1c14 0 30 -10 37 -22l1 -2c2 -6 5 -13 5 -19c0 -9 -4 -22 -11 -29l-357 -536h281v73v1c0 24 19 43 43 43s44 -19 44 -43v-1v-116c0 -24 -20 -44 -44 -44h-400h-5c-14 0 -32 10 -39 22l-1 2c-2 6 -4 14 -4 20c0 9 4 22 11 29l357 535h-281v-72
c0 -24 -19 -44 -43 -44s-44 20 -44 44v116c0 24 20 43 44 43h399h6z" />
    <glyph glyph-name="bracketleft" unicode="[" horiz-adv-x="404" 
d="M116 812c2 0 5 -1 7 -1h195h1c24 0 44 -19 44 -43s-20 -44 -44 -44h-1h-158v-840h158h1c24 0 44 -18 44 -42s-20 -44 -44 -44h-1h-195h-7c-10 0 -23 5 -30 12h-1c-8 7 -13 22 -13 32c0 2 1 4 1 6v912c0 2 -1 6 -1 8c0 10 5 23 12 30l1 1c7 7 21 13 31 13z" />
    <glyph glyph-name="backslash" unicode="\" horiz-adv-x="404" 
d="M-2 695h2c14 0 30 -10 37 -22l405 -694c3 -6 8 -16 8 -23c0 -24 -20 -44 -44 -44c-14 0 -32 11 -39 23l-404 695c-3 6 -7 15 -7 22c0 23 19 42 42 43z" />
    <glyph glyph-name="bracketright" unicode="]" horiz-adv-x="404" 
d="M289 812c10 0 23 -5 30 -12h1v-1c8 -7 13 -21 13 -31v-8v-912v-6c0 -10 -5 -24 -12 -31h-1c-7 -8 -21 -13 -31 -13h-6h-196h-1c-24 0 -43 20 -43 44s19 42 43 42h1h159v840h-159h-1c-24 0 -43 20 -43 44s19 43 43 43h1h196c2 0 4 1 6 1z" />
    <glyph glyph-name="asciicircum" unicode="^" horiz-adv-x="463" 
d="M231 580h2c12 0 27 -8 34 -18l169 -169c8 -7 13 -21 13 -31c0 -24 -19 -44 -43 -44c-10 0 -24 5 -31 13l-143 143l-143 -143c-7 -8 -22 -13 -32 -13c-24 0 -43 20 -43 44c0 10 6 24 14 31l168 169c8 10 23 18 35 18z" />
    <glyph glyph-name="underscore" unicode="_" 
d="M0 -87h579h1c24 0 43 -19 43 -43s-19 -43 -43 -43h-1h-579h-1c-24 0 -43 19 -43 43s19 43 43 43h1z" />
    <glyph glyph-name="grave" unicode="`" horiz-adv-x="346" 
d="M87 667c9 0 20 -4 27 -10l174 -145c9 -8 16 -23 16 -34c0 -24 -19 -44 -43 -44c-9 0 -21 4 -28 10l-174 146c-9 8 -16 23 -16 34c0 24 20 43 44 43z" />
    <glyph glyph-name="a" unicode="a" horiz-adv-x="491" 
d="M333 234c-4 -1 -11 -2 -15 -2h-163l-36 -18l-18 -36v-37l18 -35l36 -19h69l71 24l38 37v86zM174 493h115c6 0 14 -3 20 -5l57 -29c8 -3 17 -11 20 -19l26 -53v-1c2 -4 6 -11 7 -15c0 -2 1 -7 1 -9v-4v-47v-6v-7v-157l21 -42l11 -12h11h1c24 0 43 -19 43 -43
s-19 -44 -43 -44h-1h-29c-10 0 -23 6 -30 13l-29 29c-2 2 -7 9 -9 12l-2 3l-15 -15c-4 -4 -11 -8 -17 -10l-87 -30c-3 -1 -9 -2 -13 -2h-87c-6 0 -14 4 -20 6l-58 28c-8 3 -16 12 -19 20l-29 57c-2 6 -5 14 -5 20v57c0 6 3 14 5 20l29 58c3 8 11 16 19 19l58 30
c6 2 14 4 20 4h163l25 12v21l-18 36l-36 18h-95l-24 -12v-2v-30c0 -24 -20 -43 -44 -43h-29c-24 0 -44 19 -44 43v30c0 10 6 23 13 30l29 29c2 2 9 6 12 8l57 29c6 2 14 5 20 5z" />
    <glyph glyph-name="b" unicode="b" horiz-adv-x="520" 
d="M242 406l-43 -21l-39 -41v-196l39 -39l43 -22h66l43 22l45 45l24 70v70l-22 43l-47 48l-43 21h-66zM116 696c10 0 23 -5 30 -12v-1c8 -7 14 -21 14 -31v-7v-183l52 26c6 2 14 5 20 5h86c6 0 14 -3 20 -5l58 -29c3 -2 9 -6 11 -8l58 -58c2 -2 6 -8 8 -11l29 -59
c2 -6 5 -12 5 -18v-87c0 -4 -1 -11 -2 -14l-30 -87c-2 -6 -6 -13 -10 -17l-58 -58c-2 -2 -8 -6 -11 -8l-58 -28c-6 -2 -14 -6 -20 -6h-86c-6 0 -14 4 -20 6l-55 26c-4 -18 -22 -32 -41 -32c-24 0 -43 19 -43 43v1v81c0 1 -1 4 -1 6s1 6 1 7v218c0 1 -1 5 -1 6s1 4 1 5v241
h-44c-24 0 -44 20 -44 44s20 43 44 43h80c2 0 5 1 7 1z" />
    <glyph glyph-name="c" unicode="c" horiz-adv-x="520" 
d="M232 493h86c6 0 14 -3 20 -5l58 -29c3 -2 9 -6 11 -8l58 -58c7 -7 12 -21 12 -31v-22c0 -2 1 -5 1 -7c0 -12 -7 -26 -17 -34l-25 -25c-7 -7 -21 -13 -31 -13s-23 6 -30 13l-30 28c-7 7 -12 21 -12 31c0 16 13 35 28 41l-10 11l-43 21h-66l-43 -21l-45 -46l-24 -71v-44
l24 -70l45 -45l43 -22h66l43 22l53 53c7 8 20 13 30 13c24 0 44 -20 44 -44c0 -10 -5 -24 -13 -31l-58 -58c-2 -2 -8 -6 -11 -8l-58 -28c-6 -2 -14 -6 -20 -6h-86c-6 0 -14 4 -20 6l-58 28c-3 2 -9 6 -11 8l-58 58c-4 4 -8 11 -10 17l-30 87c-1 3 -2 10 -2 14v57
c0 4 1 11 2 14l30 87c2 6 6 13 10 17l58 58c2 2 8 6 11 8l58 29c6 2 14 5 20 5z" />
    <glyph glyph-name="d" unicode="d" horiz-adv-x="548" 
d="M213 406l-43 -21l-46 -46l-23 -71v-44l23 -70l46 -45l43 -22h66l42 22l41 39v196l-41 41l-42 21h-66zM405 696c10 0 24 -5 31 -12v-1c8 -7 13 -21 13 -31v-7v-167v-111v-5v-6v-220v-5v-6v-38h43h1c24 0 43 -19 43 -43s-19 -44 -43 -44h-1h-80h-7c-10 0 -23 5 -30 12l-1 1
c-4 4 -9 12 -11 19l-54 -26c-6 -2 -14 -6 -20 -6h-87c-6 0 -12 4 -18 6l-59 28c-3 2 -9 6 -11 8l-58 58c-4 4 -9 11 -11 17l-29 87c-1 3 -2 10 -2 14v57c0 4 1 11 2 14l29 87c2 6 7 13 11 17l58 58c2 2 8 6 11 8l59 29c6 2 12 5 18 5h87c6 0 14 -3 20 -5l53 -26v16v130h-44
c-24 0 -44 20 -44 44s20 43 44 43h80c2 0 5 1 7 1z" />
    <glyph glyph-name="e" unicode="e" horiz-adv-x="463" 
d="M213 406l-43 -21l-46 -46l-6 -20h244v4l-21 42l-20 20l-42 21h-66zM202 493h87c6 0 14 -3 20 -5l57 -29c3 -2 10 -6 12 -8l29 -29c2 -2 6 -9 8 -12l29 -57c2 -6 5 -14 5 -20v-58c0 -24 -20 -43 -44 -43h-304v-8l23 -70l46 -45l43 -22h66l42 22l54 53c7 8 21 13 31 13
c24 0 43 -20 43 -44c0 -10 -5 -24 -13 -31l-58 -58c-2 -2 -9 -6 -12 -8l-57 -28c-6 -2 -14 -6 -20 -6h-87c-6 0 -12 4 -18 6l-59 28c-3 2 -9 6 -11 8l-58 58c-4 4 -9 11 -11 17l-29 87c-1 3 -2 10 -2 14v50v7c0 6 3 15 5 21l26 80c2 6 7 13 11 17l58 58c2 2 8 6 11 8l59 29
c6 2 12 5 18 5z" />
    <glyph glyph-name="f" unicode="f" horiz-adv-x="346" 
d="M232 695h57c10 0 24 -6 31 -13l29 -29c7 -7 13 -20 13 -30v-22v-7c0 -12 -7 -26 -17 -34l-25 -25c-7 -7 -21 -14 -31 -14c-24 0 -43 20 -43 44v29c0 4 2 10 3 14h-7l-36 -17l-18 -37v-61h44c24 0 44 -20 44 -44s-20 -43 -44 -43h-44v-319h44c24 0 44 -19 44 -43
s-20 -44 -44 -44h-80h-7h-7h-80h-1c-24 0 -43 20 -43 44s19 43 43 43h1h43v319h-43h-1c-24 0 -43 19 -43 43s19 44 43 44h1h43v72c0 6 3 13 5 19l29 58c3 8 11 17 19 20l58 29c6 2 14 4 20 4z" />
    <glyph glyph-name="g" unicode="g" horiz-adv-x="520" 
d="M188 3l-1 -1l-69 -23l-17 -32v-9l17 -33l62 -21h160l64 21l16 33v9l-16 32l-64 21h-138c-4 0 -10 1 -13 2zM242 406l-43 -21l-19 -20l-20 -42v-37l20 -43l19 -19l43 -20h37l42 20l20 19l21 43v37l-21 42l-20 20l-42 21h-37zM232 493h4h53c6 0 14 -3 20 -5l57 -29
c3 -1 8 -5 10 -7c2 2 7 6 10 7l57 29c6 2 14 5 20 5c24 0 44 -20 44 -44v-29c0 -24 -20 -43 -44 -43h-29h-2l12 -24c2 -6 5 -14 5 -20v-58c0 -6 -3 -13 -5 -19l-29 -58c-2 -3 -6 -9 -8 -11l-29 -29c-2 -2 -9 -6 -12 -8l-57 -29c-6 -2 -14 -4 -20 -4h-57c-6 0 -14 2 -20 4
l-58 29c-2 1 -5 3 -7 4l-17 -33v-1l10 -9l70 -24h138c4 0 10 -1 13 -2l87 -29c10 -3 21 -13 25 -22l29 -57c2 -6 5 -14 5 -20v-29c0 -6 -3 -13 -5 -19l-29 -59c-4 -9 -15 -17 -25 -20l-87 -30c-3 -1 -9 -2 -13 -2h-174c-4 0 -11 1 -14 2l-87 30c-10 3 -21 11 -25 20l-29 59
c-2 6 -5 13 -5 19v29c0 6 3 14 5 20l29 57c4 9 15 19 24 22l-12 11c-6 3 -11 11 -13 17c0 1 -1 1 -1 2c-2 4 -3 12 -3 16v6v23c0 6 3 13 5 19l29 58c2 3 6 9 8 11l7 8l-15 29c-2 6 -4 13 -4 19v58c0 6 2 14 4 20l29 57c2 3 6 10 8 12l29 29c2 2 8 6 11 8l53 26
c4 2 12 6 16 7c2 0 7 1 9 1z" />
    <glyph glyph-name="h" unicode="h" 
d="M144 696h1c10 0 23 -5 30 -12v-1h1c8 -7 13 -21 13 -31c0 -2 -1 -5 -1 -7v-183l53 26c6 2 14 5 20 5h87c6 0 12 -3 18 -5l59 -29c8 -3 16 -11 19 -19l29 -58c2 -6 4 -14 4 -20v-275h44c24 0 44 -19 44 -43s-20 -44 -44 -44h-80h-7h-7h-79h-2c-24 0 -42 20 -42 44
s18 43 42 43h2h42v265l-17 36l-36 18h-66l-39 -20l-44 -66v-233h44c24 0 44 -19 44 -43s-20 -44 -44 -44h-80h-7h-7h-80h-1c-24 0 -43 20 -43 44s19 43 43 43h1h43v241v5v5v270h-43h-1c-24 0 -43 20 -43 44s19 43 43 43h1h80c2 0 4 1 6 1z" />
    <glyph glyph-name="i" unicode="i" horiz-adv-x="289" 
d="M144 493h1c10 0 23 -5 30 -12h1c8 -7 13 -22 13 -32c0 -2 -1 -5 -1 -7v-355h44c24 0 44 -19 44 -43s-20 -44 -44 -44h-80h-7h-7h-80h-1c-24 0 -43 20 -43 44s19 43 43 43h1h43v319h-43h-1c-24 0 -43 19 -43 43s19 44 43 44h1h80h6zM116 695h1c12 0 28 -7 35 -17l23 -25
c7 -7 13 -20 13 -30s-6 -24 -13 -31l-29 -29c-7 -7 -20 -13 -30 -13s-24 6 -31 13l-29 29c-7 7 -13 21 -13 31s6 23 13 30l24 25c8 10 24 17 36 17z" />
    <glyph glyph-name="j" unicode="j" horiz-adv-x="289" 
d="M202 493c10 0 24 -5 31 -12c8 -7 13 -22 13 -32v-7v-514c0 -6 -2 -13 -4 -19l-30 -59c-3 -8 -10 -15 -18 -18l-59 -30c-6 -2 -13 -4 -19 -4h-58c-10 0 -23 6 -30 13l-30 28c-7 7 -12 21 -12 31v22c0 2 -1 5 -1 7c0 12 7 27 17 35l26 25c7 7 20 12 30 12
c24 0 43 -19 43 -43v-29c0 -4 -1 -11 -2 -15h7l35 18l19 36v468h-73h-1c-24 0 -43 19 -43 43s19 44 43 44h1h109h6zM173 695h2c12 0 27 -7 34 -17l24 -25c7 -7 13 -20 13 -30s-6 -24 -13 -31l-28 -29c-7 -7 -21 -13 -31 -13s-24 6 -31 13l-29 29c-7 7 -13 21 -13 31
s6 23 13 30l24 25c8 10 23 17 35 17z" />
    <glyph glyph-name="k" unicode="k" 
d="M144 696h1c10 0 23 -5 30 -12v-1h1c8 -7 13 -21 13 -31c0 -2 -1 -5 -1 -7v-381l36 37c2 3 8 8 11 10l97 97c-15 6 -28 25 -28 41c0 24 18 44 42 44h2h81h5h7h80c24 0 44 -20 44 -44s-20 -43 -44 -43h-69l-134 -134l137 -185h66c24 0 44 -19 44 -43s-20 -44 -44 -44h-80
h-7h-6h-80h-2c-24 0 -42 20 -42 44s18 43 42 43h2l-92 122l-68 -67v-55h44c24 0 44 -19 44 -43s-20 -44 -44 -44h-80h-7h-7h-80h-1c-24 0 -43 20 -43 44s19 43 43 43h1h43v67v6v5v443h-43h-1c-24 0 -43 20 -43 44s19 43 43 43h1h80c2 0 4 1 6 1z" />
    <glyph glyph-name="l" unicode="l" horiz-adv-x="289" 
d="M144 696h1c10 0 23 -5 30 -12v-1h1c8 -7 13 -21 13 -31c0 -2 -1 -5 -1 -7v-558h44c24 0 44 -19 44 -43s-20 -44 -44 -44h-80h-7h-7h-80h-1c-24 0 -43 20 -43 44s19 43 43 43h1h43v521h-43h-1c-24 0 -43 20 -43 44s19 43 43 43h1h80c2 0 4 1 6 1z" />
    <glyph glyph-name="m" unicode="m" horiz-adv-x="867" 
d="M560 406l-42 -21l-41 -41v-257h44c21 0 40 -16 43 -36c3 20 22 36 43 36h1h72v265l-18 36l-35 18h-67zM144 493h1c10 0 23 -5 30 -12h1c4 -4 9 -13 11 -20l54 27c6 2 14 5 20 5h87c6 0 12 -3 18 -5l59 -29c8 -3 16 -11 19 -19l3 -4l14 15c2 2 9 6 12 8l57 29
c6 2 14 5 20 5h87c6 0 14 -3 20 -5l57 -29c8 -3 17 -11 20 -19l28 -58c2 -6 5 -14 5 -20v-275h44c24 0 44 -19 44 -43s-20 -44 -44 -44h-81h-6h-8h-108h-1c-21 0 -40 17 -43 37c-3 -20 -22 -37 -43 -37h-80h-7h-7h-79h-2c-24 0 -42 20 -42 44s18 43 42 43h2h42v265l-17 36
l-36 18h-66l-42 -21l-41 -41v-257h44c24 0 44 -19 44 -43s-20 -44 -44 -44h-80h-7h-7h-80h-1c-24 0 -43 20 -43 44s19 43 43 43h1h43v269v6v5v39h-43h-1c-24 0 -43 19 -43 43s19 44 43 44h1h80h6z" />
    <glyph glyph-name="n" unicode="n" 
d="M144 493h1c10 0 23 -5 30 -12h1c4 -4 9 -13 11 -20l54 27c6 2 14 5 20 5h87c6 0 12 -3 18 -5l59 -29c8 -3 16 -11 19 -19l29 -58c2 -6 4 -14 4 -20v-275h44c24 0 44 -19 44 -43s-20 -44 -44 -44h-80h-7h-7h-79h-2c-24 0 -42 20 -42 44s18 43 42 43h2h42v265l-17 36
l-36 18h-66l-39 -20l-44 -66v-233h44c24 0 44 -19 44 -43s-20 -44 -44 -44h-80h-7h-7h-80h-1c-24 0 -43 20 -43 44s19 43 43 43h1h43v241v5v5v68h-43h-1c-24 0 -43 19 -43 43s19 44 43 44h1h80h6z" />
    <glyph glyph-name="o" unicode="o" horiz-adv-x="520" 
d="M239 406l-71 -23l-44 -44l-23 -71v-44l23 -70l44 -43l71 -24h44l70 24l43 43l24 70v44l-24 71l-43 44l-70 23h-44zM233 493h2h54c4 0 12 -1 15 -2l86 -30c6 -2 13 -6 17 -10l58 -58c4 -4 8 -11 10 -17l30 -87c1 -3 2 -10 2 -14v-57c0 -4 -1 -11 -2 -14l-30 -87
c-2 -6 -6 -13 -10 -17l-58 -58c-4 -4 -11 -8 -17 -10l-86 -30c-3 -1 -11 -2 -15 -2h-57h-1c-4 0 -10 1 -13 2l-87 30c-6 2 -13 6 -17 10l-58 58c-4 4 -9 11 -11 17l-29 87c-1 3 -2 10 -2 14v57c0 4 1 11 2 14l29 87c2 6 7 13 11 17l58 58c4 4 11 8 17 10l82 29c3 1 8 2 11 2
c2 0 6 1 8 1h1z" />
    <glyph glyph-name="p" unicode="p" horiz-adv-x="548" 
d="M271 406l-42 -21l-41 -41v-196l41 -39l42 -22h66l43 22l46 45l23 70v70l-21 43l-48 48l-43 21h-66zM144 493h1c10 0 23 -5 30 -12h1c4 -4 9 -13 11 -20l54 27c6 2 14 5 20 5h87c6 0 12 -3 18 -5l59 -29c3 -2 9 -6 11 -8l58 -58c2 -2 6 -8 8 -11l29 -59c2 -6 5 -12 5 -18
v-87c0 -4 -1 -11 -2 -14l-29 -87c-2 -6 -7 -13 -11 -17l-58 -58c-2 -2 -8 -6 -11 -8l-59 -28c-6 -2 -12 -6 -18 -6h-87c-6 0 -14 4 -20 6l-53 26v-148h44c24 0 44 -18 44 -42s-20 -44 -44 -44h-80h-7h-7h-80h-1c-24 0 -43 20 -43 44s19 42 43 42h1h43v241v6v7v218v6v5v39
h-43h-1c-24 0 -43 19 -43 43s19 44 43 44h1h80h6z" />
    <glyph glyph-name="q" unicode="q" horiz-adv-x="548" 
d="M213 406l-43 -21l-46 -46l-23 -71v-44l23 -70l46 -45l43 -22h66l42 22l41 39v196l-41 41l-42 21h-66zM405 493c24 0 44 -19 44 -43v-1v-82v-5v-6v-220v-5v-6v-241h43h1c24 0 43 -18 43 -42s-19 -44 -43 -44h-1h-80h-7h-7h-80c-24 0 -44 20 -44 44s20 42 44 42h44v148
l-53 -26c-6 -2 -14 -6 -20 -6h-87c-6 0 -12 4 -18 6l-59 28c-3 2 -9 6 -11 8l-58 58c-4 4 -9 11 -11 17l-29 87c-1 3 -2 10 -2 14v57c0 4 1 11 2 14l29 87c2 6 7 13 11 17l58 58c2 2 8 6 11 8l59 29c6 2 12 5 18 5h87c6 0 14 -3 20 -5l54 -27c4 18 23 32 42 32z" />
    <glyph glyph-name="r" unicode="r" horiz-adv-x="463" 
d="M144 493h1c10 0 23 -5 30 -12h1c8 -7 13 -22 13 -32c0 -2 -1 -5 -1 -7v-4l13 13c2 2 8 6 11 8l59 29c6 2 12 5 18 5h87c10 0 24 -6 31 -13l29 -29c7 -7 13 -21 13 -31v-28c0 -10 -6 -24 -13 -31l-29 -30c-7 -7 -21 -12 -31 -12c-24 0 -43 19 -43 43v30c0 4 2 11 3 14h-37
l-42 -21l-46 -46l-23 -71v-181h44c24 0 44 -19 44 -43s-20 -44 -44 -44h-80h-7h-7h-80h-1c-24 0 -43 20 -43 44s19 43 43 43h1h43v184v4v3v128h-43h-1c-24 0 -43 19 -43 43s19 44 43 44h1h80h6z" />
    <glyph glyph-name="s" unicode="s" horiz-adv-x="520" 
d="M174 493h115c6 0 14 -3 20 -5l57 -29c3 -1 8 -4 10 -6c7 7 20 11 29 11c24 0 44 -19 44 -43v-1v-87c0 -24 -20 -43 -44 -43c-14 0 -32 11 -39 24l-25 51l-20 20l-42 21h-95l-42 -21l-12 -12v-22l12 -11l46 -23l139 -28c3 -1 8 -3 11 -4l58 -29c3 -2 9 -5 11 -7l29 -30
c7 -7 13 -21 13 -31v-86c0 -10 -6 -23 -13 -30l-29 -30c-2 -2 -8 -6 -11 -8l-58 -28c-6 -2 -14 -6 -20 -6h-116c-6 0 -12 4 -18 6l-55 26c-4 -18 -23 -32 -42 -32c-24 0 -44 19 -44 43v1v116c0 24 20 44 44 44c14 0 31 -12 38 -25l27 -51l18 -19l43 -22h95l43 22l11 11v50
l-11 12l-46 23l-140 28c-3 1 -8 2 -11 3l-57 29c-3 2 -10 7 -12 9l-29 28c-7 7 -13 21 -13 31v59c0 10 6 23 13 30l29 29c2 2 9 6 12 8l57 29c6 2 14 5 20 5z" />
    <glyph glyph-name="t" unicode="t" horiz-adv-x="404" 
d="M144 696h1c24 0 43 -20 43 -44v-159h73c24 0 44 -20 44 -44s-20 -43 -44 -43h-73v-239l21 -64l33 -16h37l49 25c6 3 15 5 21 5c24 0 43 -19 43 -43c0 -15 -12 -33 -26 -40l-57 -28c-6 -2 -14 -6 -20 -6h-57c-6 0 -14 4 -20 6l-58 28c-9 4 -19 15 -22 25l-29 87
c-1 3 -2 10 -2 14v246h-43h-1c-24 0 -43 19 -43 43s19 44 43 44h1h43v159c0 23 20 44 43 44z" />
    <glyph glyph-name="u" unicode="u" horiz-adv-x="607" 
d="M144 493h1c10 0 23 -5 30 -12h1c8 -7 13 -22 13 -32c0 -2 -1 -5 -1 -7v-301l18 -35l36 -19h69l71 24l38 37v258h-72h-2c-24 0 -42 19 -42 43s18 44 42 44h2h108h7c10 0 23 -5 30 -12h1c8 -7 13 -22 13 -32v-7v-306v-5v-6v-38h43h1c24 0 43 -19 43 -43s-19 -44 -43 -44h-1
h-80h-7c-10 0 -23 5 -30 12h-1v1c-4 4 -9 12 -11 19h-2l-87 -30c-3 -1 -9 -2 -13 -2h-1h-86c-6 0 -14 4 -20 6l-58 28c-8 3 -16 12 -19 20l-29 57c-2 6 -5 14 -5 20v275h-43h-1c-24 0 -43 19 -43 43s19 44 43 44h1h80h6z" />
    <glyph glyph-name="v" unicode="v" horiz-adv-x="520" 
d="M86 493h1h7h80c24 0 44 -20 44 -44s-20 -43 -44 -43h-21l108 -252l107 252h-20h-2c-24 0 -42 19 -42 43s18 44 42 44h2h80h6h7h51h1c24 0 43 -20 43 -44s-19 -43 -43 -43h-1h-29l-161 -374c-4 -18 -23 -32 -41 -32h-4c-1 0 -3 1 -4 1c-15 2 -30 17 -34 31l-161 374h-29
c-24 0 -44 19 -44 43s20 44 44 44h51h6z" />
    <glyph glyph-name="w" unicode="w" horiz-adv-x="694" 
d="M116 493h6h80h2c24 0 42 -20 42 -44s-18 -43 -42 -43h-2h-28l58 -204l73 254c3 18 19 35 37 37h3h1h3h3c1 0 3 -1 4 -1h5c14 -4 27 -22 29 -36l73 -254l58 204h-29c-24 0 -44 19 -44 43s20 44 44 44h80h8h6h80h1c24 0 43 -20 43 -44s-19 -43 -43 -43h-1h-54l-106 -370
c-3 -18 -19 -34 -37 -36h-4h-1h-2h-3c-1 0 -4 1 -5 1s-3 1 -4 1c-14 4 -28 20 -30 34l-72 256l-73 -256c-3 -18 -19 -34 -37 -36h-5h-1h-2h-2h-1c-1 0 -3 1 -4 1s-3 1 -4 1c-14 4 -29 20 -31 34l-104 370h-55c-24 0 -44 19 -44 43s20 44 44 44h80h7z" />
    <glyph glyph-name="x" unicode="x" horiz-adv-x="548" 
d="M117 493h5h80c23 0 43 -21 43 -44c0 -22 -18 -42 -40 -43l70 -89l70 89c-23 1 -41 20 -41 43c0 24 20 44 44 44h80h6h7h51h1c24 0 43 -20 43 -44s-19 -43 -43 -43h-1h-37l-125 -160l125 -159h37h1c24 0 43 -19 43 -43s-19 -44 -43 -44h-1h-51h-7h-6h-80
c-23 0 -43 21 -43 44c0 22 18 42 40 43l-70 89l-70 -89c23 -1 41 -20 41 -43c0 -24 -20 -44 -44 -44h-80h-6h-7h-51h-1c-24 0 -43 20 -43 44s19 43 43 43h1h37l125 159l-125 160h-37h-1c-24 0 -43 19 -43 43s19 44 43 44h1h51h7h1z" />
    <glyph glyph-name="y" unicode="y" horiz-adv-x="520" 
d="M114 493h2h6h80h2c24 0 42 -20 42 -44s-18 -43 -42 -43h-2h-20l107 -252l108 252h-21c-24 0 -44 19 -44 43s20 44 44 44h80h7h7h51c24 0 44 -20 44 -44s-20 -43 -44 -43h-29l-161 -374c-1 -4 -3 -10 -5 -13l-55 -110c-2 -3 -7 -9 -9 -11l-57 -59c-2 -2 -8 -5 -11 -7
l-59 -30c-6 -2 -13 -4 -19 -4h-29c-10 0 -24 6 -31 13l-28 28c-7 7 -14 21 -14 31s7 24 14 31l28 29c7 7 21 13 31 13c24 0 43 -20 43 -44v-2l18 8l48 49l46 91l-155 361h-29h-1c-24 0 -43 19 -43 43s19 44 43 44h1h51h5z" />
    <glyph glyph-name="z" unicode="z" horiz-adv-x="433" 
d="M375 493h1c14 0 32 -10 39 -22c0 -1 1 -2 1 -3h1c0 -1 1 -4 1 -5c1 -3 2 -10 2 -14c0 -10 -5 -24 -13 -31l-260 -331h186v15c0 24 19 44 43 44s44 -20 44 -44v-58c0 -24 -20 -44 -44 -44h-312h-7c-14 0 -30 10 -37 22c0 1 -2 2 -2 3s-2 4 -2 5c-1 3 -2 10 -2 14
c0 10 6 24 14 31l259 331h-186v-14v-2c0 -24 -19 -42 -43 -42s-44 18 -44 42v2v57c0 24 20 44 44 44h313h4z" />
    <glyph glyph-name="braceleft" unicode="{" horiz-adv-x="404" 
d="M261 812c24 0 44 -20 44 -44c0 -15 -13 -33 -26 -40l-50 -25l-20 -19l-21 -43v-37l21 -42l24 -24c2 -2 7 -8 9 -11l29 -58c2 -6 4 -14 4 -20v-57c0 -10 -6 -24 -13 -31l-54 -55l-1 -1l1 -1l54 -55c7 -7 13 -21 13 -31v-58c0 -6 -2 -13 -4 -19l-29 -59c-2 -3 -7 -8 -9 -10
l-24 -25l-21 -43v-37l21 -42l20 -20l50 -25c14 -7 26 -25 26 -40c0 -24 -19 -42 -43 -42c-6 0 -15 1 -21 4l-57 30c-3 2 -10 5 -12 7l-29 29c-2 2 -6 9 -8 12l-29 57c-2 6 -5 14 -5 20v58c0 6 3 13 5 19l29 58c2 3 6 9 8 11l24 25l21 41v30l-40 41l-51 25
c-13 7 -24 26 -24 40s11 31 24 38l51 25l40 41v30l-21 43l-24 23c-2 2 -6 9 -8 12l-29 57c-2 6 -5 14 -5 20v58c0 6 3 13 5 19l29 58c2 3 6 9 8 11l29 29c2 2 9 7 12 9l57 28c6 2 14 6 20 6z" />
    <glyph glyph-name="bar" unicode="|" horiz-adv-x="231" 
d="M116 812c24 0 44 -20 44 -44v-926v-2c0 -24 -20 -42 -44 -42s-43 18 -43 42v2v926c0 23 20 44 43 44z" />
    <glyph glyph-name="braceright" unicode="}" horiz-adv-x="404" 
d="M143 812h1c6 0 14 -4 20 -6l58 -28c3 -2 9 -7 11 -9l29 -29c2 -2 7 -8 9 -11l28 -58c2 -6 5 -13 5 -19v-58c0 -6 -3 -14 -5 -20l-28 -57c-2 -3 -7 -10 -9 -12l-23 -23l-22 -43v-30l40 -41l52 -25c13 -7 24 -24 24 -38s-11 -33 -24 -40l-52 -25l-40 -41v-30l22 -41l23 -25
c2 -2 7 -8 9 -11l28 -58c2 -6 5 -13 5 -19v-58c0 -6 -3 -14 -5 -20l-28 -57c-2 -3 -7 -10 -9 -12l-29 -29c-2 -2 -8 -5 -11 -7l-58 -30c-6 -3 -14 -4 -20 -4c-24 0 -44 18 -44 42c0 15 11 33 25 40l52 25l19 20l21 42v37l-21 43l-24 25c-2 2 -6 7 -8 10l-29 59
c-2 6 -5 13 -5 19v58c0 10 6 24 13 31l55 55l1 1l-1 1l-55 55c-7 7 -13 21 -13 31v57c0 6 3 14 5 20l29 58c2 3 6 9 8 11l24 24l21 42v37l-21 43l-19 19l-52 25c-13 7 -24 25 -24 40c0 23 19 44 42 44z" />
    <glyph glyph-name="asciitilde" unicode="~" horiz-adv-x="694" 
d="M607 436h1c24 0 43 -20 43 -44v-53v-5c0 -3 0 -9 -1 -11c-1 -4 -3 -11 -5 -14l-27 -53c-3 -8 -12 -17 -20 -20l-58 -28c-6 -2 -13 -4 -19 -4h-58c-6 0 -14 2 -20 4l-57 28c-2 1 -4 4 -6 5l-114 85l-45 22h-37l-32 -17l-22 -63v-50v-1c0 -24 -19 -43 -43 -43
s-44 19 -44 43v1v57c0 4 1 11 2 14l30 87c3 10 13 22 22 26l57 28c6 2 14 4 20 4h58c6 0 13 -2 19 -4l58 -28c2 -1 5 -4 7 -5l112 -85l45 -22h37l37 18l17 35v49c0 23 20 44 43 44z" />
    <glyph glyph-name="uni007F" horiz-adv-x="463" 
d="M-1 696h1c4 0 11 -2 15 -3c3 1 11 2 14 2h29c4 0 11 -1 15 -2c4 1 10 2 14 2h29c4 0 10 -1 14 -2c4 1 11 2 15 2h29c4 0 10 -1 14 -2c4 1 10 2 14 2h30c4 0 10 -1 14 -2c4 1 11 2 15 2h28c4 0 11 -1 15 -2c4 1 10 2 14 2h30c4 0 10 -1 14 -2c4 1 10 2 14 2h29
c4 0 11 -1 15 -2c4 1 10 2 14 2h29c24 0 44 -19 44 -43v-608v-1c0 -24 -20 -43 -44 -43c-4 0 -11 1 -15 2c-3 -1 -11 -2 -14 -2h-29c-4 0 -11 2 -15 3c-4 -1 -10 -3 -14 -3h-28c-4 0 -11 2 -15 3c-4 -1 -11 -3 -15 -3h-29c-4 0 -10 2 -14 3c-4 -1 -10 -3 -14 -3h-29
c-4 0 -11 2 -15 3c-4 -1 -11 -3 -15 -3h-28c-4 0 -10 2 -14 3c-4 -1 -11 -3 -15 -3h-29c-4 0 -11 2 -15 3c-4 -1 -10 -3 -14 -3h-29c-4 0 -11 2 -15 3c-4 -1 -10 -3 -14 -3h-29c-24 0 -43 20 -43 44v608c0 23 19 44 42 44z" />
    <glyph glyph-name="dieresis" unicode="&#xa8;" horiz-adv-x="433" 
d="M317 566v-3h3v3h-3zM114 566v-3h4v3h-4zM318 637c10 0 24 -5 31 -12l29 -30c7 -7 12 -20 12 -30s-5 -23 -12 -30l-29 -30c-7 -7 -21 -12 -31 -12s-23 5 -30 12l-30 30c-7 7 -12 20 -12 30s5 23 12 30l30 30c7 7 20 12 30 12zM116 637c10 0 23 -5 30 -12l29 -30
c7 -7 13 -20 13 -30s-6 -23 -13 -30l-29 -30c-7 -7 -20 -12 -30 -12s-24 5 -31 12l-29 30c-7 7 -13 20 -13 30s6 23 13 30l29 30c7 7 21 12 31 12z" />
    <glyph glyph-name="copyright" unicode="&#xa9;" horiz-adv-x="694" 
d="M318 521h58c6 0 14 -2 20 -4l57 -29c6 -3 15 -9 18 -15l57 -87c4 -6 8 -16 8 -24v-144c0 -8 -4 -17 -8 -24l-57 -87c-3 -6 -12 -12 -18 -15l-57 -29c-6 -2 -14 -5 -20 -5h-58c-6 0 -13 3 -19 5l-58 29c-3 2 -9 6 -11 8l-29 29c-8 7 -14 22 -14 32c0 24 20 43 44 43
c10 0 24 -6 31 -14l24 -24l43 -21h37l39 19l44 67v118l-44 67l-39 18h-37l-36 -17l-22 -45c-7 -14 -25 -26 -40 -26c-24 0 -43 20 -43 44c0 6 1 14 4 20l30 59c3 8 11 16 19 19l58 29c6 2 13 4 19 4zM297 550l-70 -23l-47 -45l-23 -48l-27 -106v-76l27 -106l23 -47l47 -46
l70 -23h101l71 23l46 46l23 47l26 106v76l-26 106l-23 48l-46 45l-71 23h-101zM406 638c1 0 4 -1 5 -1c3 0 8 -2 11 -3l84 -28c6 -2 12 -7 16 -11l59 -57c2 -2 5 -8 7 -11l30 -58c1 -2 3 -7 4 -9l28 -116c1 -3 1 -8 1 -11v-87c0 -3 0 -7 -1 -10l-28 -116c-1 -2 -3 -7 -4 -9
l-30 -57c-2 -3 -5 -10 -7 -12l-59 -57c-4 -4 -10 -9 -16 -11l-87 -29c-3 -1 -10 -2 -14 -2h-116c-4 0 -10 1 -13 2l-87 29c-6 2 -13 7 -17 11l-58 57c-2 2 -6 9 -8 12l-29 57c-1 2 -2 7 -3 9l-29 116c-1 3 -2 7 -2 10v87c0 3 1 8 2 11l29 116c1 2 2 7 3 9l29 58
c2 3 6 9 8 11l58 57c4 4 11 9 17 11l87 29c3 1 9 2 13 2h111c1 0 4 1 5 1h1z" />
    <glyph glyph-name="guillemotleft" unicode="&#xab;" horiz-adv-x="404" 
d="M375 493h1c24 0 44 -19 44 -43c0 -10 -5 -25 -13 -32l-143 -143l143 -143c8 -7 13 -21 13 -31c0 -24 -19 -44 -43 -44c-10 0 -25 7 -32 15l-173 173c-7 7 -12 20 -12 30s5 24 12 31l173 174c7 7 20 13 30 13zM201 493h3c24 0 42 -19 42 -43c0 -10 -5 -25 -13 -32
l-143 -143l143 -143c8 -7 13 -21 13 -31c0 -24 -18 -44 -42 -44c-10 0 -25 7 -32 15l-174 173c-7 7 -12 20 -12 30s5 24 12 31l174 174c7 7 19 13 29 13z" />
    <glyph glyph-name="acute" unicode="&#xb4;" horiz-adv-x="346" 
d="M260 667h1c24 0 44 -19 44 -43c0 -11 -8 -26 -17 -34l-174 -146c-7 -6 -18 -10 -27 -10c-24 0 -44 20 -44 44c0 11 7 26 16 34l174 145c7 6 18 10 27 10z" />
    <glyph glyph-name="cedilla" unicode="&#xb8;" horiz-adv-x="144" 
d="M114 88h3c24 0 43 -20 43 -44c0 -10 -6 -24 -14 -31l-12 -13l12 -12c7 -7 14 -21 14 -31s-7 -24 -14 -31l-28 -28c-7 -7 -21 -14 -31 -14h-29h-1c-24 0 -43 20 -43 44c0 9 4 22 11 29c-6 7 -11 20 -11 29c0 10 7 23 14 30l57 59c7 7 19 13 29 13z" />
    <glyph glyph-name="guillemotright" unicode="&#xbb;" horiz-adv-x="404" 
d="M202 493c10 0 24 -5 31 -13l174 -174c7 -7 13 -21 13 -31s-6 -23 -13 -30l-174 -173c-7 -8 -21 -15 -31 -15c-24 0 -44 20 -44 44c0 10 6 24 14 31l143 143l-143 143c-8 7 -14 22 -14 32c0 24 20 43 44 43zM29 493c10 0 23 -5 30 -13l174 -174c7 -7 13 -21 13 -31
s-6 -23 -13 -30l-174 -173c-7 -8 -20 -15 -30 -15c-24 0 -44 20 -44 44c0 10 5 24 13 31l143 143l-143 143c-8 7 -13 22 -13 32c0 24 20 43 44 43z" />
    <glyph glyph-name="Agrave" unicode="&#xc0;" 
d="M120.8 933.8c8 0 19 -4 25 -9l158 -132c8 -7 14 -20 14 -30c0 -22 -17 -40 -39 -40c-8 0 -19 4 -25 9l-158 132c-8 7 -15 21 -15 31c0 22 18 39 40 39zM263 468l-77 -231h154zM262 633h1l1 -1h2h3c15 -2 30 -16 33 -31l128 -385c2 -3 3 -9 4 -12l42 -125h24h1
c22 0 39 -17 39 -39s-17 -40 -39 -40h-1h-46h-7h-6h-73c-22 0 -40 18 -40 40s18 39 40 39h25l-27 79h-206l-26 -79h24c22 0 40 -17 40 -39s-18 -40 -40 -40h-73h-6h-6h-47c-22 0 -40 18 -40 40s18 39 40 39h24l42 125c1 3 2 9 4 12l128 385c3 13 15 26 28 30c1 0 3 1 4 1h3
h1z" />
    <glyph glyph-name="Aacute" unicode="&#xc1;" 
d="M424.1 933.8h1c22 0 40 -17 40 -39c0 -10 -7 -24 -15 -31l-158 -132c-6 -5 -17 -9 -25 -9c-22 0 -40 18 -40 40c0 10 7 23 15 30l158 132c6 5 16 9 24 9zM263 468l-77 -231h154zM262 633h1l1 -1h2h3c15 -2 30 -16 33 -31l128 -385c2 -3 3 -9 4 -12l42 -125h24h1
c22 0 39 -17 39 -39s-17 -40 -39 -40h-1h-46h-7h-6h-73c-22 0 -40 18 -40 40s18 39 40 39h25l-27 79h-206l-26 -79h24c22 0 40 -17 40 -39s-18 -40 -40 -40h-73h-6h-6h-47c-22 0 -40 18 -40 40s18 39 40 39h24l42 125c1 3 2 9 4 12l128 385c3 13 15 26 28 30c1 0 3 1 4 1h3
h1z" />
    <glyph glyph-name="Acircumflex" unicode="&#xc2;" 
d="M267.2 971.4h2c11 0 25 -7 31 -16l153 -154c7 -6 12 -19 12 -28c0 -22 -17 -40 -39 -40c-9 0 -22 5 -28 12l-130 130l-130 -130c-6 -7 -20 -12 -29 -12c-22 0 -39 18 -39 40c0 9 5 22 12 28l153 154c7 9 21 16 32 16zM263 468l-77 -231h154zM262 633h1l1 -1h2h3
c15 -2 30 -16 33 -31l128 -385c2 -3 3 -9 4 -12l42 -125h24h1c22 0 39 -17 39 -39s-17 -40 -39 -40h-1h-46h-7h-6h-73c-22 0 -40 18 -40 40s18 39 40 39h25l-27 79h-206l-26 -79h24c22 0 40 -17 40 -39s-18 -40 -40 -40h-73h-6h-6h-47c-22 0 -40 18 -40 40s18 39 40 39h24
l42 125c1 3 2 9 4 12l128 385c3 13 15 26 28 30c1 0 3 1 4 1h3h1z" />
    <glyph glyph-name="Atilde" unicode="&#xc3;" 
d="M493.7 984.5h1c22 0 39 -18 39 -40v-48v-4c0 -3 0 -8 -1 -10c-1 -4 -3 -10 -5 -13l-24 -48c-3 -7 -11 -15 -18 -18l-53 -26c-5 -2 -12 -4 -17 -4h-53c-5 0 -13 2 -18 4l-52 26c-2 1 -4 3 -6 4l-103 77l-41 20h-34l-29 -15l-20 -57v-46v-1c0 -22 -17 -39 -39 -39
s-40 17 -40 39v1v52c0 4 1 10 2 13l27 79c3 9 12 19 20 23l52 26c5 2 13 4 18 4h53c5 0 12 -2 17 -4l53 -26c2 -1 4 -3 6 -4l102 -77l41 -20h34l33 16l16 32v44c0 21 18 40 39 40zM263 468l-77 -231h154zM262 633h1l1 -1h2h3c15 -2 30 -16 33 -31l128 -385c2 -3 3 -9 4 -12
l42 -125h24h1c22 0 39 -17 39 -39s-17 -40 -39 -40h-1h-46h-7h-6h-73c-22 0 -40 18 -40 40s18 39 40 39h25l-27 79h-206l-26 -79h24c22 0 40 -17 40 -39s-18 -40 -40 -40h-73h-6h-6h-47c-22 0 -40 18 -40 40s18 39 40 39h24l42 125c1 3 2 9 4 12l128 385c3 13 15 26 28 30
c1 0 3 1 4 1h3h1z" />
    <glyph glyph-name="Adieresis" unicode="&#xc4;" 
d="M360.05 784.5v-3h3v3h-3zM176.05 784.5v-3h3v3h-3zM361.05 848.5c9 0 22 -5 28 -11l27 -27c6 -6 11 -18 11 -27s-5 -22 -11 -28l-27 -27c-6 -6 -19 -11 -28 -11s-21 5 -27 11l-27 27c-6 6 -11 19 -11 28s5 21 11 27l27 27c6 6 18 11 27 11zM177.05 848.5
c9 0 22 -5 28 -11l26 -27c6 -6 12 -18 12 -27s-6 -22 -12 -28l-26 -27c-6 -6 -19 -11 -28 -11s-22 5 -28 11l-26 27c-6 6 -12 19 -12 28s6 21 12 27l26 27c6 6 19 11 28 11zM263 468l-77 -231h154zM262 633h1l1 -1h2h3c15 -2 30 -16 33 -31l128 -385c2 -3 3 -9 4 -12
l42 -125h24h1c22 0 39 -17 39 -39s-17 -40 -39 -40h-1h-46h-7h-6h-73c-22 0 -40 18 -40 40s18 39 40 39h25l-27 79h-206l-26 -79h24c22 0 40 -17 40 -39s-18 -40 -40 -40h-73h-6h-6h-47c-22 0 -40 18 -40 40s18 39 40 39h24l42 125c1 3 2 9 4 12l128 385c3 13 15 26 28 30
c1 0 3 1 4 1h3h1z" />
    <glyph glyph-name="Ccedilla" unicode="&#xc7;" 
d="M306.95 -1.2168h2c22 0 39 -18 39 -40c0 -9 -5 -22 -12 -28l-11 -12l11 -11c6 -6 12 -19 12 -28s-6 -22 -12 -28l-26 -26c-6 -6 -19 -12 -28 -12h-26h-1c-22 0 -39 18 -39 40c0 8 4 20 10 26c-5 6 -10 18 -10 26c0 9 6 22 12 28l52 53c6 6 18 12 27 12zM473 633h1
c22 0 39 -18 39 -40v-158c0 -22 -17 -40 -39 -40c-16 0 -33 12 -38 27l-23 70l-40 40l-64 21h-39l-64 -21l-42 -42l-22 -44l-24 -70v-119l24 -70l22 -45l42 -41l64 -22h39l64 22l42 41l23 47c6 13 22 23 36 23c22 0 40 -18 40 -40c0 -5 -2 -13 -5 -18l-26 -53
c-2 -3 -6 -8 -8 -10l-52 -53c-4 -4 -11 -7 -16 -9l-79 -27c-3 -1 -8 -2 -12 -2h-53c-4 0 -9 1 -12 2l-79 27c-5 2 -12 5 -16 9l-52 53c-2 2 -6 7 -8 10l-26 53c-1 1 -2 4 -2 5l-27 79c-1 3 -2 8 -2 12v132c0 4 1 9 2 12l27 79c0 1 1 5 2 6l26 52c2 3 6 8 8 10l52 53
c4 4 11 8 16 10l79 26c3 1 8 2 12 2h53c4 0 9 -1 12 -2l79 -26c5 -2 12 -6 16 -10l11 -11v10c0 21 18 40 39 40z" />
    <glyph glyph-name="Egrave" unicode="&#xc8;" horiz-adv-x="548" 
d="M-23.8496 933.8c8 0 19 -4 25 -9l158 -132c8 -7 14 -20 14 -30c0 -22 -17 -40 -39 -40c-8 0 -19 4 -25 9l-158 132c-8 7 -15 21 -15 31c0 22 18 39 40 39zM131 633c2 0 5 -1 7 -1h309c22 0 40 -17 40 -39v-106c0 -22 -18 -40 -40 -40s-39 18 -39 40v66h-237v-184h79v39v1
c0 22 17 39 39 39s40 -17 40 -39v-1v-72v-7v-6v-73c0 -22 -18 -40 -40 -40s-39 18 -39 40v40h-79v-211h237v66v1c0 22 17 39 39 39s40 -17 40 -39v-1v-105c0 -22 -18 -40 -40 -40h-309h-6h-7h-72h-1c-22 0 -39 18 -39 40s17 39 39 39h1h39v244v6v7v217h-39h-1
c-22 0 -39 18 -39 40s17 39 39 39h1h72c2 0 4 1 6 1z" />
    <glyph glyph-name="Eacute" unicode="&#xc9;" horiz-adv-x="548" 
d="M279.45 933.8h1c22 0 40 -17 40 -39c0 -10 -7 -24 -15 -31l-158 -132c-6 -5 -17 -9 -25 -9c-22 0 -40 18 -40 40c0 10 7 23 15 30l158 132c6 5 16 9 24 9zM131 633c2 0 5 -1 7 -1h309c22 0 40 -17 40 -39v-106c0 -22 -18 -40 -40 -40s-39 18 -39 40v66h-237v-184h79v39v1
c0 22 17 39 39 39s40 -17 40 -39v-1v-72v-7v-6v-73c0 -22 -18 -40 -40 -40s-39 18 -39 40v40h-79v-211h237v66v1c0 22 17 39 39 39s40 -17 40 -39v-1v-105c0 -22 -18 -40 -40 -40h-309h-6h-7h-72h-1c-22 0 -39 18 -39 40s17 39 39 39h1h39v244v6v7v217h-39h-1
c-22 0 -39 18 -39 40s17 39 39 39h1h72c2 0 4 1 6 1z" />
    <glyph glyph-name="Ecircumflex" unicode="&#xca;" horiz-adv-x="548" 
d="M122.55 971.4h2c11 0 25 -7 31 -16l153 -154c7 -6 12 -19 12 -28c0 -22 -17 -40 -39 -40c-9 0 -22 5 -28 12l-130 130l-130 -130c-6 -7 -20 -12 -29 -12c-22 0 -39 18 -39 40c0 9 5 22 12 28l153 154c7 9 21 16 32 16zM131 633c2 0 5 -1 7 -1h309c22 0 40 -17 40 -39
v-106c0 -22 -18 -40 -40 -40s-39 18 -39 40v66h-237v-184h79v39v1c0 22 17 39 39 39s40 -17 40 -39v-1v-72v-7v-6v-73c0 -22 -18 -40 -40 -40s-39 18 -39 40v40h-79v-211h237v66v1c0 22 17 39 39 39s40 -17 40 -39v-1v-105c0 -22 -18 -40 -40 -40h-309h-6h-7h-72h-1
c-22 0 -39 18 -39 40s17 39 39 39h1h39v244v6v7v217h-39h-1c-22 0 -39 18 -39 40s17 39 39 39h1h72c2 0 4 1 6 1z" />
    <glyph glyph-name="Edieresis" unicode="&#xcb;" horiz-adv-x="548" 
d="M215.4 784.5v-3h3v3h-3zM31.4004 784.5v-3h3v3h-3zM216.4 848.5c9 0 22 -5 28 -11l27 -27c6 -6 11 -18 11 -27s-5 -22 -11 -28l-27 -27c-6 -6 -19 -11 -28 -11s-21 5 -27 11l-27 27c-6 6 -11 19 -11 28s5 21 11 27l27 27c6 6 18 11 27 11zM32.4004 848.5
c9 0 22 -5 28 -11l26 -27c6 -6 12 -18 12 -27s-6 -22 -12 -28l-26 -27c-6 -6 -19 -11 -28 -11s-22 5 -28 11l-26 27c-6 6 -12 19 -12 28s6 21 12 27l26 27c6 6 19 11 28 11zM131 633c2 0 5 -1 7 -1h309c22 0 40 -17 40 -39v-106c0 -22 -18 -40 -40 -40s-39 18 -39 40v66
h-237v-184h79v39v1c0 22 17 39 39 39s40 -17 40 -39v-1v-72v-7v-6v-73c0 -22 -18 -40 -40 -40s-39 18 -39 40v40h-79v-211h237v66v1c0 22 17 39 39 39s40 -17 40 -39v-1v-105c0 -22 -18 -40 -40 -40h-309h-6h-7h-72h-1c-22 0 -39 18 -39 40s17 39 39 39h1h39v244v6v7v217
h-39h-1c-22 0 -39 18 -39 40s17 39 39 39h1h72c2 0 4 1 6 1z" />
    <glyph glyph-name="Igrave" unicode="&#xcc;" horiz-adv-x="289" 
d="M-23.8496 933.8c8 0 19 -4 25 -9l158 -132c8 -7 14 -20 14 -30c0 -22 -17 -40 -39 -40c-8 0 -19 4 -25 9l-158 132c-8 7 -15 21 -15 31c0 22 18 39 40 39zM131 633c2 0 5 -1 7 -1h73c22 0 40 -17 40 -39s-18 -40 -40 -40h-40v-474h40c22 0 40 -17 40 -39s-18 -40 -40 -40
h-73h-6h-7h-72h-1c-22 0 -39 18 -39 40s17 39 39 39h1h39v474h-39h-1c-22 0 -39 18 -39 40s17 39 39 39h1h72c2 0 4 1 6 1z" />
    <glyph glyph-name="Iacute" unicode="&#xcd;" horiz-adv-x="289" 
d="M279.45 933.8h1c22 0 40 -17 40 -39c0 -10 -7 -24 -15 -31l-158 -132c-6 -5 -17 -9 -25 -9c-22 0 -40 18 -40 40c0 10 7 23 15 30l158 132c6 5 16 9 24 9zM131 633c2 0 5 -1 7 -1h73c22 0 40 -17 40 -39s-18 -40 -40 -40h-40v-474h40c22 0 40 -17 40 -39s-18 -40 -40 -40
h-73h-6h-7h-72h-1c-22 0 -39 18 -39 40s17 39 39 39h1h39v474h-39h-1c-22 0 -39 18 -39 40s17 39 39 39h1h72c2 0 4 1 6 1z" />
    <glyph glyph-name="Icircumflex" unicode="&#xce;" horiz-adv-x="289" 
d="M122.55 971.4h2c11 0 25 -7 31 -16l153 -154c7 -6 12 -19 12 -28c0 -22 -17 -40 -39 -40c-9 0 -22 5 -28 12l-130 130l-130 -130c-6 -7 -20 -12 -29 -12c-22 0 -39 18 -39 40c0 9 5 22 12 28l153 154c7 9 21 16 32 16zM131 633c2 0 5 -1 7 -1h73c22 0 40 -17 40 -39
s-18 -40 -40 -40h-40v-474h40c22 0 40 -17 40 -39s-18 -40 -40 -40h-73h-6h-7h-72h-1c-22 0 -39 18 -39 40s17 39 39 39h1h39v474h-39h-1c-22 0 -39 18 -39 40s17 39 39 39h1h72c2 0 4 1 6 1z" />
    <glyph glyph-name="Idieresis" unicode="&#xcf;" horiz-adv-x="289" 
d="M215.4 784.5v-3h3v3h-3zM31.4004 784.5v-3h3v3h-3zM216.4 848.5c9 0 22 -5 28 -11l27 -27c6 -6 11 -18 11 -27s-5 -22 -11 -28l-27 -27c-6 -6 -19 -11 -28 -11s-21 5 -27 11l-27 27c-6 6 -11 19 -11 28s5 21 11 27l27 27c6 6 18 11 27 11zM32.4004 848.5
c9 0 22 -5 28 -11l26 -27c6 -6 12 -18 12 -27s-6 -22 -12 -28l-26 -27c-6 -6 -19 -11 -28 -11s-22 5 -28 11l-26 27c-6 6 -12 19 -12 28s6 21 12 27l26 27c6 6 19 11 28 11zM131 633c2 0 5 -1 7 -1h73c22 0 40 -17 40 -39s-18 -40 -40 -40h-40v-474h40c22 0 40 -17 40 -39
s-18 -40 -40 -40h-73h-6h-7h-72h-1c-22 0 -39 18 -39 40s17 39 39 39h1h39v474h-39h-1c-22 0 -39 18 -39 40s17 39 39 39h1h72c2 0 4 1 6 1z" />
    <glyph glyph-name="Ograve" unicode="&#xd2;" horiz-adv-x="635" 
d="M151.05 932.7c8 0 19 -4 25 -9l158 -132c8 -7 14 -20 14 -30c0 -22 -17 -40 -39 -40c-8 0 -19 4 -25 9l-158 132c-8 7 -15 21 -15 31c0 22 18 39 40 39zM270 553l-64 -21l-42 -42l-21 -43l-25 -96v-69l25 -97l21 -43l42 -41l64 -22h39l64 22l42 41l21 43l25 97v69l-25 96
l-21 43l-42 42l-64 21h-39zM265 632h2h49c4 0 9 -1 12 -2l79 -26c5 -2 12 -6 16 -10l52 -53c2 -2 6 -7 8 -10l26 -52c1 -2 2 -6 3 -8l26 -106c1 -3 1 -6 1 -9v-79c0 -3 0 -7 -1 -10l-26 -105c-1 -2 -2 -6 -3 -8l-26 -53c-2 -3 -6 -8 -8 -10l-52 -53c-4 -4 -11 -7 -16 -9
l-79 -27c-3 -1 -8 -2 -12 -2h-53c-4 0 -9 1 -12 2l-79 27c-5 2 -12 5 -16 9l-52 53c-2 2 -6 7 -8 10l-26 53c-1 2 -2 6 -3 8l-26 105c-1 3 -2 7 -2 10v79c0 3 1 6 2 9l26 106c1 2 2 6 3 8l26 52c2 3 6 8 8 10l52 53c4 4 11 8 16 10l75 25c3 1 6 2 9 2c2 0 6 1 8 1h1z" />
    <glyph glyph-name="Oacute" unicode="&#xd3;" horiz-adv-x="635" 
d="M454.35 932.7h1c22 0 40 -17 40 -39c0 -10 -7 -24 -15 -31l-158 -132c-6 -5 -17 -9 -25 -9c-22 0 -40 18 -40 40c0 10 7 23 15 30l158 132c6 5 16 9 24 9zM270 553l-64 -21l-42 -42l-21 -43l-25 -96v-69l25 -97l21 -43l42 -41l64 -22h39l64 22l42 41l21 43l25 97v69
l-25 96l-21 43l-42 42l-64 21h-39zM265 632h2h49c4 0 9 -1 12 -2l79 -26c5 -2 12 -6 16 -10l52 -53c2 -2 6 -7 8 -10l26 -52c1 -2 2 -6 3 -8l26 -106c1 -3 1 -6 1 -9v-79c0 -3 0 -7 -1 -10l-26 -105c-1 -2 -2 -6 -3 -8l-26 -53c-2 -3 -6 -8 -8 -10l-52 -53
c-4 -4 -11 -7 -16 -9l-79 -27c-3 -1 -8 -2 -12 -2h-53c-4 0 -9 1 -12 2l-79 27c-5 2 -12 5 -16 9l-52 53c-2 2 -6 7 -8 10l-26 53c-1 2 -2 6 -3 8l-26 105c-1 3 -2 7 -2 10v79c0 3 1 6 2 9l26 106c1 2 2 6 3 8l26 52c2 3 6 8 8 10l52 53c4 4 11 8 16 10l75 25c3 1 6 2 9 2
c2 0 6 1 8 1h1z" />
    <glyph glyph-name="Ocircumflex" unicode="&#xd4;" horiz-adv-x="635" 
d="M297.45 970.3h2c11 0 25 -7 31 -16l153 -154c7 -6 12 -19 12 -28c0 -22 -17 -40 -39 -40c-9 0 -22 5 -28 12l-130 130l-130 -130c-6 -7 -20 -12 -29 -12c-22 0 -39 18 -39 40c0 9 5 22 12 28l153 154c7 9 21 16 32 16zM270 553l-64 -21l-42 -42l-21 -43l-25 -96v-69
l25 -97l21 -43l42 -41l64 -22h39l64 22l42 41l21 43l25 97v69l-25 96l-21 43l-42 42l-64 21h-39zM265 632h2h49c4 0 9 -1 12 -2l79 -26c5 -2 12 -6 16 -10l52 -53c2 -2 6 -7 8 -10l26 -52c1 -2 2 -6 3 -8l26 -106c1 -3 1 -6 1 -9v-79c0 -3 0 -7 -1 -10l-26 -105
c-1 -2 -2 -6 -3 -8l-26 -53c-2 -3 -6 -8 -8 -10l-52 -53c-4 -4 -11 -7 -16 -9l-79 -27c-3 -1 -8 -2 -12 -2h-53c-4 0 -9 1 -12 2l-79 27c-5 2 -12 5 -16 9l-52 53c-2 2 -6 7 -8 10l-26 53c-1 2 -2 6 -3 8l-26 105c-1 3 -2 7 -2 10v79c0 3 1 6 2 9l26 106c1 2 2 6 3 8l26 52
c2 3 6 8 8 10l52 53c4 4 11 8 16 10l75 25c3 1 6 2 9 2c2 0 6 1 8 1h1z" />
    <glyph glyph-name="Otilde" unicode="&#xd5;" horiz-adv-x="635" 
d="M523.95 983.4h1c22 0 39 -18 39 -40v-48v-4c0 -3 0 -8 -1 -10c-1 -4 -3 -10 -5 -13l-24 -48c-3 -7 -11 -15 -18 -18l-53 -26c-5 -2 -12 -4 -17 -4h-53c-5 0 -13 2 -18 4l-52 26c-2 1 -4 3 -6 4l-103 77l-41 20h-34l-29 -15l-20 -57v-46v-1c0 -22 -17 -39 -39 -39
s-40 17 -40 39v1v52c0 4 1 10 2 13l27 79c3 9 12 19 20 23l52 26c5 2 13 4 18 4h53c5 0 12 -2 17 -4l53 -26c2 -1 4 -3 6 -4l102 -77l41 -20h34l33 16l16 32v44c0 21 18 40 39 40zM270 553l-64 -21l-42 -42l-21 -43l-25 -96v-69l25 -97l21 -43l42 -41l64 -22h39l64 22l42 41
l21 43l25 97v69l-25 96l-21 43l-42 42l-64 21h-39zM265 632h2h49c4 0 9 -1 12 -2l79 -26c5 -2 12 -6 16 -10l52 -53c2 -2 6 -7 8 -10l26 -52c1 -2 2 -6 3 -8l26 -106c1 -3 1 -6 1 -9v-79c0 -3 0 -7 -1 -10l-26 -105c-1 -2 -2 -6 -3 -8l-26 -53c-2 -3 -6 -8 -8 -10l-52 -53
c-4 -4 -11 -7 -16 -9l-79 -27c-3 -1 -8 -2 -12 -2h-53c-4 0 -9 1 -12 2l-79 27c-5 2 -12 5 -16 9l-52 53c-2 2 -6 7 -8 10l-26 53c-1 2 -2 6 -3 8l-26 105c-1 3 -2 7 -2 10v79c0 3 1 6 2 9l26 106c1 2 2 6 3 8l26 52c2 3 6 8 8 10l52 53c4 4 11 8 16 10l75 25c3 1 6 2 9 2
c2 0 6 1 8 1h1z" />
    <glyph glyph-name="Odieresis" unicode="&#xd6;" horiz-adv-x="635" 
d="M390.3 783.4v-3h3v3h-3zM206.3 783.4v-3h3v3h-3zM391.3 847.4c9 0 22 -5 28 -11l27 -27c6 -6 11 -18 11 -27s-5 -22 -11 -28l-27 -27c-6 -6 -19 -11 -28 -11s-21 5 -27 11l-27 27c-6 6 -11 19 -11 28s5 21 11 27l27 27c6 6 18 11 27 11zM207.3 847.4c9 0 22 -5 28 -11
l26 -27c6 -6 12 -18 12 -27s-6 -22 -12 -28l-26 -27c-6 -6 -19 -11 -28 -11s-22 5 -28 11l-26 27c-6 6 -12 19 -12 28s6 21 12 27l26 27c6 6 19 11 28 11zM270 553l-64 -21l-42 -42l-21 -43l-25 -96v-69l25 -97l21 -43l42 -41l64 -22h39l64 22l42 41l21 43l25 97v69l-25 96
l-21 43l-42 42l-64 21h-39zM265 632h2h49c4 0 9 -1 12 -2l79 -26c5 -2 12 -6 16 -10l52 -53c2 -2 6 -7 8 -10l26 -52c1 -2 2 -6 3 -8l26 -106c1 -3 1 -6 1 -9v-79c0 -3 0 -7 -1 -10l-26 -105c-1 -2 -2 -6 -3 -8l-26 -53c-2 -3 -6 -8 -8 -10l-52 -53c-4 -4 -11 -7 -16 -9
l-79 -27c-3 -1 -8 -2 -12 -2h-53c-4 0 -9 1 -12 2l-79 27c-5 2 -12 5 -16 9l-52 53c-2 2 -6 7 -8 10l-26 53c-1 2 -2 6 -3 8l-26 105c-1 3 -2 7 -2 10v79c0 3 1 6 2 9l26 106c1 2 2 6 3 8l26 52c2 3 6 8 8 10l52 53c4 4 11 8 16 10l75 25c3 1 6 2 9 2c2 0 6 1 8 1h1z" />
    <glyph glyph-name="Ugrave" unicode="&#xd9;" horiz-adv-x="665" 
d="M164.8 933.8c8 0 19 -4 25 -9l158 -132c8 -7 14 -20 14 -30c0 -22 -17 -40 -39 -40c-8 0 -19 4 -25 9l-158 132c-8 7 -15 21 -15 31c0 22 18 39 40 39zM131 633c2 0 5 -1 7 -1h73c22 0 40 -17 40 -39s-18 -40 -40 -40h-40v-349l21 -64l42 -41l38 -20h61l38 20l42 41
l21 64v349h-39h-1c-22 0 -39 18 -39 40s17 39 39 39h1h72c2 0 5 1 7 1s4 -1 6 -1h73c22 0 40 -17 40 -39s-18 -40 -40 -40h-40v-355c0 -4 -1 -10 -2 -13l-26 -79c-2 -5 -6 -11 -10 -15l-52 -53c-2 -2 -8 -5 -11 -7l-52 -26c-5 -2 -13 -5 -18 -5h-79c-5 0 -12 3 -17 5l-53 26
c-3 2 -8 5 -10 7l-53 53c-4 4 -8 10 -10 15l-26 79c-1 3 -2 9 -2 13v355h-39h-1c-22 0 -39 18 -39 40s17 39 39 39h1h72c2 0 4 1 6 1z" />
    <glyph glyph-name="Uacute" unicode="&#xda;" horiz-adv-x="665" 
d="M468.1 933.8h1c22 0 40 -17 40 -39c0 -10 -7 -24 -15 -31l-158 -132c-6 -5 -17 -9 -25 -9c-22 0 -40 18 -40 40c0 10 7 23 15 30l158 132c6 5 16 9 24 9zM131 633c2 0 5 -1 7 -1h73c22 0 40 -17 40 -39s-18 -40 -40 -40h-40v-349l21 -64l42 -41l38 -20h61l38 20l42 41
l21 64v349h-39h-1c-22 0 -39 18 -39 40s17 39 39 39h1h72c2 0 5 1 7 1s4 -1 6 -1h73c22 0 40 -17 40 -39s-18 -40 -40 -40h-40v-355c0 -4 -1 -10 -2 -13l-26 -79c-2 -5 -6 -11 -10 -15l-52 -53c-2 -2 -8 -5 -11 -7l-52 -26c-5 -2 -13 -5 -18 -5h-79c-5 0 -12 3 -17 5l-53 26
c-3 2 -8 5 -10 7l-53 53c-4 4 -8 10 -10 15l-26 79c-1 3 -2 9 -2 13v355h-39h-1c-22 0 -39 18 -39 40s17 39 39 39h1h72c2 0 4 1 6 1z" />
    <glyph glyph-name="Ucircumflex" unicode="&#xdb;" horiz-adv-x="665" 
d="M311.2 971.4h2c11 0 25 -7 31 -16l153 -154c7 -6 12 -19 12 -28c0 -22 -17 -40 -39 -40c-9 0 -22 5 -28 12l-130 130l-130 -130c-6 -7 -20 -12 -29 -12c-22 0 -39 18 -39 40c0 9 5 22 12 28l153 154c7 9 21 16 32 16zM131 633c2 0 5 -1 7 -1h73c22 0 40 -17 40 -39
s-18 -40 -40 -40h-40v-349l21 -64l42 -41l38 -20h61l38 20l42 41l21 64v349h-39h-1c-22 0 -39 18 -39 40s17 39 39 39h1h72c2 0 5 1 7 1s4 -1 6 -1h73c22 0 40 -17 40 -39s-18 -40 -40 -40h-40v-355c0 -4 -1 -10 -2 -13l-26 -79c-2 -5 -6 -11 -10 -15l-52 -53
c-2 -2 -8 -5 -11 -7l-52 -26c-5 -2 -13 -5 -18 -5h-79c-5 0 -12 3 -17 5l-53 26c-3 2 -8 5 -10 7l-53 53c-4 4 -8 10 -10 15l-26 79c-1 3 -2 9 -2 13v355h-39h-1c-22 0 -39 18 -39 40s17 39 39 39h1h72c2 0 4 1 6 1z" />
    <glyph glyph-name="Udieresis" unicode="&#xdc;" horiz-adv-x="665" 
d="M404.05 784.5v-3h3v3h-3zM220.05 784.5v-3h3v3h-3zM405.05 848.5c9 0 22 -5 28 -11l27 -27c6 -6 11 -18 11 -27s-5 -22 -11 -28l-27 -27c-6 -6 -19 -11 -28 -11s-21 5 -27 11l-27 27c-6 6 -11 19 -11 28s5 21 11 27l27 27c6 6 18 11 27 11zM221.05 848.5
c9 0 22 -5 28 -11l26 -27c6 -6 12 -18 12 -27s-6 -22 -12 -28l-26 -27c-6 -6 -19 -11 -28 -11s-22 5 -28 11l-26 27c-6 6 -12 19 -12 28s6 21 12 27l26 27c6 6 19 11 28 11zM131 633c2 0 5 -1 7 -1h73c22 0 40 -17 40 -39s-18 -40 -40 -40h-40v-349l21 -64l42 -41l38 -20h61
l38 20l42 41l21 64v349h-39h-1c-22 0 -39 18 -39 40s17 39 39 39h1h72c2 0 5 1 7 1s4 -1 6 -1h73c22 0 40 -17 40 -39s-18 -40 -40 -40h-40v-355c0 -4 -1 -10 -2 -13l-26 -79c-2 -5 -6 -11 -10 -15l-52 -53c-2 -2 -8 -5 -11 -7l-52 -26c-5 -2 -13 -5 -18 -5h-79
c-5 0 -12 3 -17 5l-53 26c-3 2 -8 5 -10 7l-53 53c-4 4 -8 10 -10 15l-26 79c-1 3 -2 9 -2 13v355h-39h-1c-22 0 -39 18 -39 40s17 39 39 39h1h72c2 0 4 1 6 1z" />
    <glyph glyph-name="agrave" unicode="&#xe0;" horiz-adv-x="491" 
d="M120.8 730.3c8 0 19 -4 25 -9l158 -132c8 -7 14 -20 14 -30c0 -22 -17 -40 -39 -40c-8 0 -19 4 -25 9l-158 132c-8 7 -15 21 -15 31c0 22 18 39 40 39zM303 213c-4 -1 -10 -2 -14 -2h-148l-33 -16l-16 -33v-34l16 -32l33 -17h63l64 22l35 34v78zM158 448h105
c5 0 13 -2 18 -4l52 -27c7 -3 15 -10 18 -17l24 -48v-1c2 -4 5 -10 6 -14c0 -2 1 -6 1 -8v-4v-42v-6v-6v-143l19 -38l10 -11h10h1c22 0 39 -17 39 -39s-17 -40 -39 -40h-1h-26c-9 0 -22 6 -28 12l-26 26c-2 2 -6 8 -8 11l-2 3l-14 -14c-4 -4 -10 -7 -15 -9l-79 -27
c-3 -1 -8 -2 -12 -2h-79c-5 0 -13 3 -18 5l-53 26c-7 3 -14 11 -17 18l-27 52c-2 5 -4 13 -4 18v52c0 5 2 13 4 18l27 53c3 7 10 14 17 17l53 27c5 2 13 4 18 4h148l23 11v19l-17 33l-32 16h-87l-22 -11v-2v-27c0 -22 -18 -39 -40 -39h-26c-22 0 -40 17 -40 39v27
c0 9 6 22 12 28l26 26c2 2 8 5 11 7l52 27c5 2 13 4 18 4z" />
    <glyph glyph-name="aacute" unicode="&#xe1;" horiz-adv-x="491" 
d="M278.9 730.3h1c22 0 40 -17 40 -39c0 -10 -7 -24 -15 -31l-158 -132c-6 -5 -17 -9 -25 -9c-22 0 -40 18 -40 40c0 10 7 23 15 30l158 132c6 5 16 9 24 9zM303 213c-4 -1 -10 -2 -14 -2h-148l-33 -16l-16 -33v-34l16 -32l33 -17h63l64 22l35 34v78zM158 448h105
c5 0 13 -2 18 -4l52 -27c7 -3 15 -10 18 -17l24 -48v-1c2 -4 5 -10 6 -14c0 -2 1 -6 1 -8v-4v-42v-6v-6v-143l19 -38l10 -11h10h1c22 0 39 -17 39 -39s-17 -40 -39 -40h-1h-26c-9 0 -22 6 -28 12l-26 26c-2 2 -6 8 -8 11l-2 3l-14 -14c-4 -4 -10 -7 -15 -9l-79 -27
c-3 -1 -8 -2 -12 -2h-79c-5 0 -13 3 -18 5l-53 26c-7 3 -14 11 -17 18l-27 52c-2 5 -4 13 -4 18v52c0 5 2 13 4 18l27 53c3 7 10 14 17 17l53 27c5 2 13 4 18 4h148l23 11v19l-17 33l-32 16h-87l-22 -11v-2v-27c0 -22 -18 -39 -40 -39h-26c-22 0 -40 17 -40 39v27
c0 9 6 22 12 28l26 26c2 2 8 5 11 7l52 27c5 2 13 4 18 4z" />
    <glyph glyph-name="acircumflex" unicode="&#xe2;" horiz-adv-x="491" 
d="M210 767.9h2c11 0 25 -7 31 -16l153 -154c7 -6 12 -19 12 -28c0 -22 -17 -40 -39 -40c-9 0 -22 5 -28 12l-130 130l-130 -130c-6 -7 -20 -12 -29 -12c-22 0 -39 18 -39 40c0 9 5 22 12 28l153 154c7 9 21 16 32 16zM303 213c-4 -1 -10 -2 -14 -2h-148l-33 -16l-16 -33
v-34l16 -32l33 -17h63l64 22l35 34v78zM158 448h105c5 0 13 -2 18 -4l52 -27c7 -3 15 -10 18 -17l24 -48v-1c2 -4 5 -10 6 -14c0 -2 1 -6 1 -8v-4v-42v-6v-6v-143l19 -38l10 -11h10h1c22 0 39 -17 39 -39s-17 -40 -39 -40h-1h-26c-9 0 -22 6 -28 12l-26 26c-2 2 -6 8 -8 11
l-2 3l-14 -14c-4 -4 -10 -7 -15 -9l-79 -27c-3 -1 -8 -2 -12 -2h-79c-5 0 -13 3 -18 5l-53 26c-7 3 -14 11 -17 18l-27 52c-2 5 -4 13 -4 18v52c0 5 2 13 4 18l27 53c3 7 10 14 17 17l53 27c5 2 13 4 18 4h148l23 11v19l-17 33l-32 16h-87l-22 -11v-2v-27
c0 -22 -18 -39 -40 -39h-26c-22 0 -40 17 -40 39v27c0 9 6 22 12 28l26 26c2 2 8 5 11 7l52 27c5 2 13 4 18 4z" />
    <glyph glyph-name="atilde" unicode="&#xe3;" horiz-adv-x="491" 
d="M436.5 781h1c22 0 39 -18 39 -40v-48v-4c0 -3 0 -8 -1 -10c-1 -4 -3 -10 -5 -13l-24 -48c-3 -7 -11 -15 -18 -18l-53 -26c-5 -2 -12 -4 -17 -4h-53c-5 0 -13 2 -18 4l-52 26c-2 1 -4 3 -6 4l-103 77l-41 20h-34l-29 -15l-20 -57v-46v-1c0 -22 -17 -39 -39 -39
s-40 17 -40 39v1v52c0 4 1 10 2 13l27 79c3 9 12 19 20 23l52 26c5 2 13 4 18 4h53c5 0 12 -2 17 -4l53 -26c2 -1 4 -3 6 -4l102 -77l41 -20h34l33 16l16 32v44c0 21 18 40 39 40zM303 213c-4 -1 -10 -2 -14 -2h-148l-33 -16l-16 -33v-34l16 -32l33 -17h63l64 22l35 34v78z
M158 448h105c5 0 13 -2 18 -4l52 -27c7 -3 15 -10 18 -17l24 -48v-1c2 -4 5 -10 6 -14c0 -2 1 -6 1 -8v-4v-42v-6v-6v-143l19 -38l10 -11h10h1c22 0 39 -17 39 -39s-17 -40 -39 -40h-1h-26c-9 0 -22 6 -28 12l-26 26c-2 2 -6 8 -8 11l-2 3l-14 -14c-4 -4 -10 -7 -15 -9
l-79 -27c-3 -1 -8 -2 -12 -2h-79c-5 0 -13 3 -18 5l-53 26c-7 3 -14 11 -17 18l-27 52c-2 5 -4 13 -4 18v52c0 5 2 13 4 18l27 53c3 7 10 14 17 17l53 27c5 2 13 4 18 4h148l23 11v19l-17 33l-32 16h-87l-22 -11v-2v-27c0 -22 -18 -39 -40 -39h-26c-22 0 -40 17 -40 39v27
c0 9 6 22 12 28l26 26c2 2 8 5 11 7l52 27c5 2 13 4 18 4z" />
    <glyph glyph-name="ccedilla" unicode="&#xe7;" horiz-adv-x="520" 
d="M263.5 -1.2168h2c22 0 39 -18 39 -40c0 -9 -5 -22 -12 -28l-11 -12l11 -11c6 -6 12 -19 12 -28s-6 -22 -12 -28l-26 -26c-6 -6 -19 -12 -28 -12h-26h-1c-22 0 -39 18 -39 40c0 8 4 20 10 26c-5 6 -10 18 -10 26c0 9 6 22 12 28l52 53c6 6 18 12 27 12zM211 448h78
c5 0 13 -2 18 -4l53 -27c3 -2 8 -5 10 -7l53 -53c6 -6 11 -19 11 -28v-20c0 -2 1 -4 1 -6c0 -11 -7 -24 -16 -31l-23 -23c-6 -6 -19 -12 -28 -12s-21 6 -27 12l-27 26c-6 6 -11 19 -11 28c0 15 11 32 25 37l-9 10l-39 19h-60l-39 -19l-41 -42l-22 -64v-40l22 -64l41 -41
l39 -20h60l39 20l48 48c6 7 19 12 28 12c22 0 40 -18 40 -40c0 -9 -5 -22 -12 -28l-53 -53c-2 -2 -7 -5 -10 -7l-53 -26c-5 -2 -13 -5 -18 -5h-78c-5 0 -13 3 -18 5l-53 26c-3 2 -8 5 -10 7l-53 53c-4 4 -7 10 -9 15l-27 79c-1 3 -2 9 -2 13v52c0 4 1 10 2 13l27 79
c2 5 5 11 9 15l53 53c2 2 7 5 10 7l53 27c5 2 13 4 18 4z" />
    <glyph glyph-name="egrave" unicode="&#xe8;" horiz-adv-x="463" 
d="M77.9004 730.3c8 0 19 -4 25 -9l158 -132c8 -7 14 -20 14 -30c0 -22 -17 -40 -39 -40c-8 0 -19 4 -25 9l-158 132c-8 7 -15 21 -15 31c0 22 18 39 40 39zM194 369l-39 -19l-42 -42l-6 -18h222v4l-19 38l-18 18l-38 19h-60zM184 448h79c5 0 13 -2 18 -4l52 -27
c3 -2 9 -5 11 -7l26 -26c2 -2 5 -8 7 -11l27 -52c2 -5 4 -13 4 -18v-53c0 -22 -18 -39 -40 -39h-276v-7l21 -64l42 -41l39 -20h60l38 20l49 48c6 7 19 12 28 12c22 0 39 -18 39 -40c0 -9 -5 -22 -12 -28l-52 -53c-2 -2 -8 -5 -11 -7l-52 -26c-5 -2 -13 -5 -18 -5h-79
c-5 0 -12 3 -17 5l-53 26c-3 2 -8 5 -10 7l-53 53c-4 4 -8 10 -10 15l-26 79c-1 3 -2 9 -2 13v46v6c0 5 2 14 4 19l24 73c2 5 6 11 10 15l53 53c2 2 7 5 10 7l53 27c5 2 12 4 17 4z" />
    <glyph glyph-name="eacute" unicode="&#xe9;" horiz-adv-x="463" 
d="M381.2 730.3h1c22 0 40 -17 40 -39c0 -10 -7 -24 -15 -31l-158 -132c-6 -5 -17 -9 -25 -9c-22 0 -40 18 -40 40c0 10 7 23 15 30l158 132c6 5 16 9 24 9zM194 369l-39 -19l-42 -42l-6 -18h222v4l-19 38l-18 18l-38 19h-60zM184 448h79c5 0 13 -2 18 -4l52 -27
c3 -2 9 -5 11 -7l26 -26c2 -2 5 -8 7 -11l27 -52c2 -5 4 -13 4 -18v-53c0 -22 -18 -39 -40 -39h-276v-7l21 -64l42 -41l39 -20h60l38 20l49 48c6 7 19 12 28 12c22 0 39 -18 39 -40c0 -9 -5 -22 -12 -28l-52 -53c-2 -2 -8 -5 -11 -7l-52 -26c-5 -2 -13 -5 -18 -5h-79
c-5 0 -12 3 -17 5l-53 26c-3 2 -8 5 -10 7l-53 53c-4 4 -8 10 -10 15l-26 79c-1 3 -2 9 -2 13v46v6c0 5 2 14 4 19l24 73c2 5 6 11 10 15l53 53c2 2 7 5 10 7l53 27c5 2 12 4 17 4z" />
    <glyph glyph-name="ecircumflex" unicode="&#xea;" horiz-adv-x="463" 
d="M224.3 767.9h2c11 0 25 -7 31 -16l153 -154c7 -6 12 -19 12 -28c0 -22 -17 -40 -39 -40c-9 0 -22 5 -28 12l-130 130l-130 -130c-6 -7 -20 -12 -29 -12c-22 0 -39 18 -39 40c0 9 5 22 12 28l153 154c7 9 21 16 32 16zM194 369l-39 -19l-42 -42l-6 -18h222v4l-19 38
l-18 18l-38 19h-60zM184 448h79c5 0 13 -2 18 -4l52 -27c3 -2 9 -5 11 -7l26 -26c2 -2 5 -8 7 -11l27 -52c2 -5 4 -13 4 -18v-53c0 -22 -18 -39 -40 -39h-276v-7l21 -64l42 -41l39 -20h60l38 20l49 48c6 7 19 12 28 12c22 0 39 -18 39 -40c0 -9 -5 -22 -12 -28l-52 -53
c-2 -2 -8 -5 -11 -7l-52 -26c-5 -2 -13 -5 -18 -5h-79c-5 0 -12 3 -17 5l-53 26c-3 2 -8 5 -10 7l-53 53c-4 4 -8 10 -10 15l-26 79c-1 3 -2 9 -2 13v46v6c0 5 2 14 4 19l24 73c2 5 6 11 10 15l53 53c2 2 7 5 10 7l53 27c5 2 12 4 17 4z" />
    <glyph glyph-name="edieresis" unicode="&#xeb;" horiz-adv-x="463" 
d="M317.15 581v-3h3v3h-3zM133.15 581v-3h3v3h-3zM318.15 645c9 0 22 -5 28 -11l27 -27c6 -6 11 -18 11 -27s-5 -22 -11 -28l-27 -27c-6 -6 -19 -11 -28 -11s-21 5 -27 11l-27 27c-6 6 -11 19 -11 28s5 21 11 27l27 27c6 6 18 11 27 11zM134.15 645c9 0 22 -5 28 -11l26 -27
c6 -6 12 -18 12 -27s-6 -22 -12 -28l-26 -27c-6 -6 -19 -11 -28 -11s-22 5 -28 11l-26 27c-6 6 -12 19 -12 28s6 21 12 27l26 27c6 6 19 11 28 11zM194 369l-39 -19l-42 -42l-6 -18h222v4l-19 38l-18 18l-38 19h-60zM184 448h79c5 0 13 -2 18 -4l52 -27c3 -2 9 -5 11 -7
l26 -26c2 -2 5 -8 7 -11l27 -52c2 -5 4 -13 4 -18v-53c0 -22 -18 -39 -40 -39h-276v-7l21 -64l42 -41l39 -20h60l38 20l49 48c6 7 19 12 28 12c22 0 39 -18 39 -40c0 -9 -5 -22 -12 -28l-52 -53c-2 -2 -8 -5 -11 -7l-52 -26c-5 -2 -13 -5 -18 -5h-79c-5 0 -12 3 -17 5
l-53 26c-3 2 -8 5 -10 7l-53 53c-4 4 -8 10 -10 15l-26 79c-1 3 -2 9 -2 13v46v6c0 5 2 14 4 19l24 73c2 5 6 11 10 15l53 53c2 2 7 5 10 7l53 27c5 2 12 4 17 4z" />
    <glyph glyph-name="igrave" unicode="&#xec;" horiz-adv-x="289" 
d="M144 493h1c10 0 23 -5 30 -12h1c8 -7 13 -22 13 -32c0 -2 -1 -5 -1 -7v-355h44c24 0 44 -19 44 -43s-20 -44 -44 -44h-80h-7h-7h-80h-1c-24 0 -43 20 -43 44s19 43 43 43h1h43v319h-43h-1c-24 0 -43 19 -43 43s19 44 43 44h1h80h6zM36.0996 721.5c8 0 19 -4 25 -9
l158 -132c8 -7 14 -20 14 -30c0 -22 -17 -40 -39 -40c-8 0 -19 4 -25 9l-158 132c-8 7 -15 21 -15 31c0 22 18 39 40 39z" />
    <glyph glyph-name="iacute" unicode="&#xed;" horiz-adv-x="289" 
d="M144 493h1c10 0 23 -5 30 -12h1c8 -7 13 -22 13 -32c0 -2 -1 -5 -1 -7v-355h44c24 0 44 -19 44 -43s-20 -44 -44 -44h-80h-7h-7h-80h-1c-24 0 -43 20 -43 44s19 43 43 43h1h43v319h-43h-1c-24 0 -43 19 -43 43s19 44 43 44h1h80h6zM207.4 721.5h1c22 0 40 -17 40 -39
c0 -10 -7 -24 -15 -31l-158 -132c-6 -5 -17 -9 -25 -9c-22 0 -40 18 -40 40c0 10 7 23 15 30l158 132c6 5 16 9 24 9z" />
    <glyph glyph-name="icircumflex" unicode="&#xee;" horiz-adv-x="289" 
d="M144 493h1c10 0 23 -5 30 -12h1c8 -7 13 -22 13 -32c0 -2 -1 -5 -1 -7v-355h44c24 0 44 -19 44 -43s-20 -44 -44 -44h-80h-7h-7h-80h-1c-24 0 -43 20 -43 44s19 43 43 43h1h43v319h-43h-1c-24 0 -43 19 -43 43s19 44 43 44h1h80h6zM105.5 759.1h2c11 0 25 -7 31 -16
l153 -154c7 -6 12 -19 12 -28c0 -22 -17 -40 -39 -40c-9 0 -22 5 -28 12l-130 130l-130 -130c-6 -7 -20 -12 -29 -12c-22 0 -39 18 -39 40c0 9 5 22 12 28l153 154c7 9 21 16 32 16z" />
    <glyph glyph-name="idieresis" unicode="&#xef;" horiz-adv-x="289" 
d="M223 623v-4h3v4h-3zM42 623v-4h4v4h-4zM224 693c10 0 24 -5 31 -12l29 -30c7 -7 12 -19 12 -29s-5 -24 -12 -31l-29 -30c-7 -7 -21 -12 -31 -12s-23 5 -30 12l-30 30c-7 7 -12 21 -12 31s5 22 12 29l30 30c7 7 20 12 30 12zM43 693c10 0 24 -5 31 -12l29 -30
c7 -7 13 -19 13 -29s-6 -24 -13 -31l-29 -30c-7 -7 -21 -12 -31 -12s-23 5 -30 12l-29 30c-7 7 -13 21 -13 31s6 22 13 29l29 30c7 7 20 12 30 12zM144 493h1c10 0 23 -5 30 -12h1c8 -7 13 -22 13 -32c0 -2 -1 -5 -1 -7v-355h44c24 0 44 -19 44 -43s-20 -44 -44 -44h-80h-7
h-7h-80h-1c-24 0 -43 20 -43 44s19 43 43 43h1h43v319h-43h-1c-24 0 -43 19 -43 43s19 44 43 44h1h80h6z" />
    <glyph glyph-name="ograve" unicode="&#xf2;" horiz-adv-x="520" 
d="M92.75 730.3c8 0 19 -4 25 -9l158 -132c8 -7 14 -20 14 -30c0 -22 -17 -40 -39 -40c-8 0 -19 4 -25 9l-158 132c-8 7 -15 21 -15 31c0 22 18 39 40 39zM217 369l-64 -21l-40 -40l-21 -64v-40l21 -64l40 -39l64 -22h40l64 22l39 39l22 64v40l-22 64l-39 40l-64 21h-40z
M212 448h2h49c4 0 10 -1 13 -2l79 -27c5 -2 11 -5 15 -9l53 -53c4 -4 7 -10 9 -15l27 -79c1 -3 2 -9 2 -13v-52c0 -4 -1 -10 -2 -13l-27 -79c-2 -5 -5 -11 -9 -15l-53 -53c-4 -4 -10 -7 -15 -9l-79 -27c-3 -1 -9 -2 -13 -2h-52h-1c-4 0 -9 1 -12 2l-79 27c-5 2 -11 5 -15 9
l-53 53c-4 4 -8 10 -10 15l-26 79c-1 3 -2 9 -2 13v52c0 4 1 10 2 13l26 79c2 5 6 11 10 15l53 53c4 4 10 7 15 9l75 26c3 1 7 2 10 2c2 0 5 1 7 1h1z" />
    <glyph glyph-name="oacute" unicode="&#xf3;" horiz-adv-x="520" 
d="M396.05 730.3h1c22 0 40 -17 40 -39c0 -10 -7 -24 -15 -31l-158 -132c-6 -5 -17 -9 -25 -9c-22 0 -40 18 -40 40c0 10 7 23 15 30l158 132c6 5 16 9 24 9zM217 369l-64 -21l-40 -40l-21 -64v-40l21 -64l40 -39l64 -22h40l64 22l39 39l22 64v40l-22 64l-39 40l-64 21h-40z
M212 448h2h49c4 0 10 -1 13 -2l79 -27c5 -2 11 -5 15 -9l53 -53c4 -4 7 -10 9 -15l27 -79c1 -3 2 -9 2 -13v-52c0 -4 -1 -10 -2 -13l-27 -79c-2 -5 -5 -11 -9 -15l-53 -53c-4 -4 -10 -7 -15 -9l-79 -27c-3 -1 -9 -2 -13 -2h-52h-1c-4 0 -9 1 -12 2l-79 27c-5 2 -11 5 -15 9
l-53 53c-4 4 -8 10 -10 15l-26 79c-1 3 -2 9 -2 13v52c0 4 1 10 2 13l26 79c2 5 6 11 10 15l53 53c4 4 10 7 15 9l75 26c3 1 7 2 10 2c2 0 5 1 7 1h1z" />
    <glyph glyph-name="ocircumflex" unicode="&#xf4;" horiz-adv-x="520" 
d="M239.15 767.9h2c11 0 25 -7 31 -16l153 -154c7 -6 12 -19 12 -28c0 -22 -17 -40 -39 -40c-9 0 -22 5 -28 12l-130 130l-130 -130c-6 -7 -20 -12 -29 -12c-22 0 -39 18 -39 40c0 9 5 22 12 28l153 154c7 9 21 16 32 16zM217 369l-64 -21l-40 -40l-21 -64v-40l21 -64
l40 -39l64 -22h40l64 22l39 39l22 64v40l-22 64l-39 40l-64 21h-40zM212 448h2h49c4 0 10 -1 13 -2l79 -27c5 -2 11 -5 15 -9l53 -53c4 -4 7 -10 9 -15l27 -79c1 -3 2 -9 2 -13v-52c0 -4 -1 -10 -2 -13l-27 -79c-2 -5 -5 -11 -9 -15l-53 -53c-4 -4 -10 -7 -15 -9l-79 -27
c-3 -1 -9 -2 -13 -2h-52h-1c-4 0 -9 1 -12 2l-79 27c-5 2 -11 5 -15 9l-53 53c-4 4 -8 10 -10 15l-26 79c-1 3 -2 9 -2 13v52c0 4 1 10 2 13l26 79c2 5 6 11 10 15l53 53c4 4 10 7 15 9l75 26c3 1 7 2 10 2c2 0 5 1 7 1h1z" />
    <glyph glyph-name="ugrave" unicode="&#xf9;" horiz-adv-x="607" 
d="M92.2002 730.3c8 0 19 -4 25 -9l158 -132c8 -7 14 -20 14 -30c0 -22 -17 -40 -39 -40c-8 0 -19 4 -25 9l-158 132c-8 7 -15 21 -15 31c0 22 18 39 40 39zM131 448h1c9 0 21 -5 27 -11h1c7 -6 12 -20 12 -29c0 -2 -1 -4 -1 -6v-274l16 -32l33 -17h63l64 22l35 34v234h-66
h-1c-22 0 -39 17 -39 39s17 40 39 40h1h99h6c9 0 21 -5 27 -11h1c7 -6 12 -20 12 -29v-6v-278v-5v-5v-35h39h1c22 0 39 -17 39 -39s-17 -40 -39 -40h-1h-73h-6c-9 0 -21 5 -27 11h-1v1c-4 4 -8 11 -10 17h-2l-79 -27c-3 -1 -8 -2 -12 -2h-1h-78c-5 0 -13 3 -18 5l-53 26
c-7 3 -14 11 -17 18l-27 52c-2 5 -4 13 -4 18v250h-39h-1c-22 0 -39 17 -39 39s17 40 39 40h1h72h6z" />
    <glyph glyph-name="uacute" unicode="&#xfa;" horiz-adv-x="607" 
d="M395.5 730.3h1c22 0 40 -17 40 -39c0 -10 -7 -24 -15 -31l-158 -132c-6 -5 -17 -9 -25 -9c-22 0 -40 18 -40 40c0 10 7 23 15 30l158 132c6 5 16 9 24 9zM131 448h1c9 0 21 -5 27 -11h1c7 -6 12 -20 12 -29c0 -2 -1 -4 -1 -6v-274l16 -32l33 -17h63l64 22l35 34v234h-66
h-1c-22 0 -39 17 -39 39s17 40 39 40h1h99h6c9 0 21 -5 27 -11h1c7 -6 12 -20 12 -29v-6v-278v-5v-5v-35h39h1c22 0 39 -17 39 -39s-17 -40 -39 -40h-1h-73h-6c-9 0 -21 5 -27 11h-1v1c-4 4 -8 11 -10 17h-2l-79 -27c-3 -1 -8 -2 -12 -2h-1h-78c-5 0 -13 3 -18 5l-53 26
c-7 3 -14 11 -17 18l-27 52c-2 5 -4 13 -4 18v250h-39h-1c-22 0 -39 17 -39 39s17 40 39 40h1h72h6z" />
    <glyph glyph-name="ucircumflex" unicode="&#xfb;" horiz-adv-x="607" 
d="M238.6 767.9h2c11 0 25 -7 31 -16l153 -154c7 -6 12 -19 12 -28c0 -22 -17 -40 -39 -40c-9 0 -22 5 -28 12l-130 130l-130 -130c-6 -7 -20 -12 -29 -12c-22 0 -39 18 -39 40c0 9 5 22 12 28l153 154c7 9 21 16 32 16zM131 448h1c9 0 21 -5 27 -11h1c7 -6 12 -20 12 -29
c0 -2 -1 -4 -1 -6v-274l16 -32l33 -17h63l64 22l35 34v234h-66h-1c-22 0 -39 17 -39 39s17 40 39 40h1h99h6c9 0 21 -5 27 -11h1c7 -6 12 -20 12 -29v-6v-278v-5v-5v-35h39h1c22 0 39 -17 39 -39s-17 -40 -39 -40h-1h-73h-6c-9 0 -21 5 -27 11h-1v1c-4 4 -8 11 -10 17h-2
l-79 -27c-3 -1 -8 -2 -12 -2h-1h-78c-5 0 -13 3 -18 5l-53 26c-7 3 -14 11 -17 18l-27 52c-2 5 -4 13 -4 18v250h-39h-1c-22 0 -39 17 -39 39s17 40 39 40h1h72h6z" />
    <glyph glyph-name="udieresis" unicode="&#xfc;" horiz-adv-x="607" 
d="M331.45 581v-3h3v3h-3zM147.45 581v-3h3v3h-3zM332.45 645c9 0 22 -5 28 -11l27 -27c6 -6 11 -18 11 -27s-5 -22 -11 -28l-27 -27c-6 -6 -19 -11 -28 -11s-21 5 -27 11l-27 27c-6 6 -11 19 -11 28s5 21 11 27l27 27c6 6 18 11 27 11zM148.45 645c9 0 22 -5 28 -11l26 -27
c6 -6 12 -18 12 -27s-6 -22 -12 -28l-26 -27c-6 -6 -19 -11 -28 -11s-22 5 -28 11l-26 27c-6 6 -12 19 -12 28s6 21 12 27l26 27c6 6 19 11 28 11zM131 448h1c9 0 21 -5 27 -11h1c7 -6 12 -20 12 -29c0 -2 -1 -4 -1 -6v-274l16 -32l33 -17h63l64 22l35 34v234h-66h-1
c-22 0 -39 17 -39 39s17 40 39 40h1h99h6c9 0 21 -5 27 -11h1c7 -6 12 -20 12 -29v-6v-278v-5v-5v-35h39h1c22 0 39 -17 39 -39s-17 -40 -39 -40h-1h-73h-6c-9 0 -21 5 -27 11h-1v1c-4 4 -8 11 -10 17h-2l-79 -27c-3 -1 -8 -2 -12 -2h-1h-78c-5 0 -13 3 -18 5l-53 26
c-7 3 -14 11 -17 18l-27 52c-2 5 -4 13 -4 18v250h-39h-1c-22 0 -39 17 -39 39s17 40 39 40h1h72h6z" />
    <glyph glyph-name="glyph10" unicode="&#x153;" horiz-adv-x="867" 
d="M618 406l-43 -21l-45 -46l-6 -20h243v4l-21 42l-19 20l-43 21h-66zM239 406l-71 -23l-44 -44l-23 -71v-44l23 -70l44 -43l71 -24h44l70 24l43 43l24 70v44l-24 71l-43 44l-70 23h-44zM233 493h2h54c4 0 12 -1 15 -2l86 -30c6 -2 13 -6 17 -10l56 -56l56 56c2 2 8 6 11 8
l58 29c6 2 14 5 20 5h87c6 0 13 -3 19 -5l58 -29c3 -2 9 -6 11 -8l29 -29c2 -2 7 -9 9 -12l28 -57c2 -6 5 -14 5 -20v-58c0 -24 -19 -43 -43 -43h-304v-8l23 -70l45 -45l43 -22h66l43 22l53 53c7 8 21 13 31 13c24 0 44 -20 44 -44c0 -10 -5 -24 -13 -31l-59 -58
c-2 -2 -8 -6 -11 -8l-58 -28c-6 -2 -13 -6 -19 -6h-87c-6 0 -14 4 -20 6l-58 28c-3 2 -9 6 -11 8l-56 56l-56 -56c-4 -4 -11 -8 -17 -10l-86 -30c-3 -1 -11 -2 -15 -2h-57h-1c-4 0 -10 1 -13 2l-87 30c-6 2 -13 6 -17 10l-58 58c-4 4 -9 11 -11 17l-29 87c-1 3 -2 10 -2 14
v57c0 4 1 11 2 14l29 87c2 6 7 13 11 17l58 58c4 4 11 8 17 10l82 29c3 1 8 2 11 2c2 0 6 1 8 1h1z" />
    <glyph glyph-name="glyph21" unicode="&#x152;" horiz-adv-x="809" 
d="M267 608l-70 -23l-45 -46l-24 -47l-27 -106v-76l27 -106l24 -48l45 -45l70 -24h51h44v268c0 2 -1 5 -1 7s1 6 1 8v238h-44h-51zM405 696c2 0 5 -1 7 -1h340c24 0 44 -19 44 -43v-174v-1c0 -24 -20 -43 -44 -43s-42 19 -42 43v1v130h-261v-202h87v43v1c0 24 19 43 43 43
s44 -19 44 -43v-1v-79v-8v-7v-80c0 -24 -20 -44 -44 -44s-43 20 -43 44v44h-87v-232h261v101v1c0 24 18 44 42 44s44 -20 44 -44v-1v-144c0 -24 -20 -44 -44 -44h-340h-7h-7h-80h-57c-4 0 -12 1 -15 2l-86 30c-6 2 -13 6 -17 10l-58 58c-2 2 -6 8 -8 11l-29 58
c-1 2 -2 7 -3 9l-30 116c-1 3 -1 8 -1 11v87c0 3 0 7 1 10l30 116c1 2 2 7 3 9l29 57c2 3 6 9 8 11l58 58c4 4 11 9 17 11l83 28c3 1 7 2 10 2c2 0 6 1 8 1h4h53h80c2 0 5 1 7 1z" />
    <glyph glyph-name="glyph23" unicode="&#x201c;" horiz-adv-x="404" 
d="M318 638h1c24 0 43 -20 43 -44c0 -10 -5 -24 -13 -31l-27 -27l27 -27c7 -7 13 -21 13 -31s-6 -23 -13 -30l-29 -30c-7 -7 -21 -12 -31 -12s-24 5 -31 12l-24 24c-10 8 -17 23 -17 35v7v52c0 10 6 23 13 30l58 59c7 7 20 13 30 13zM144 638h1c24 0 43 -20 43 -44
c0 -10 -5 -24 -13 -31l-27 -27l27 -27c7 -7 13 -21 13 -31s-6 -23 -13 -30l-29 -30c-7 -7 -20 -12 -30 -12s-24 5 -31 12l-23 24c-10 8 -19 23 -19 35v7v52c0 10 6 23 13 30l58 59c7 7 20 13 30 13z" />
    <glyph glyph-name="glyph24" unicode="&#x2019;" horiz-adv-x="202" 
d="M116 637c10 0 23 -5 30 -12l24 -24c10 -8 18 -24 18 -36v-5v-53c0 -10 -6 -24 -13 -31l-57 -58c-7 -8 -22 -13 -32 -13c-24 0 -43 20 -43 44c0 10 5 24 13 31l28 27l-28 28c-7 7 -13 20 -13 30s6 23 13 30l29 30c7 7 21 12 31 12z" />
    <glyph glyph-name="glyph38" unicode="&#x201d;" horiz-adv-x="404" 
d="M289 637c10 0 24 -5 31 -12l24 -24c10 -8 18 -24 18 -36v-5v-53c0 -10 -6 -24 -13 -31l-57 -58c-7 -8 -22 -13 -32 -13c-24 0 -43 20 -43 44c0 10 5 24 13 31l27 27l-27 28c-7 7 -13 20 -13 30s6 23 13 30l28 30c7 7 21 12 31 12zM116 637c10 0 23 -5 30 -12l24 -24
c10 -8 18 -24 18 -36v-5v-53c0 -10 -6 -24 -13 -31l-57 -58c-7 -8 -22 -13 -32 -13c-24 0 -43 20 -43 44c0 10 5 24 13 31l28 27l-28 28c-7 7 -13 20 -13 30s6 23 13 30l29 30c7 7 21 12 31 12z" />
    <glyph glyph-name="glyph39" unicode="&#x2010;" horiz-adv-x="752" 
d="M116 319h521h1c24 0 43 -20 43 -44s-19 -43 -43 -43h-1h-521c-24 0 -44 19 -44 43s20 44 44 44z" />
    <glyph glyph-name="glyph46" unicode="&#x2009;" horiz-adv-x="115" 
d="M0 681z" />
    <glyph glyph-name="glyph55" unicode="&#x2014;" 
d="M0 319h579h1c24 0 43 -20 43 -44s-19 -43 -43 -43h-1h-579h-1c-24 0 -43 19 -43 43s19 44 43 44h1z" />
    <glyph glyph-name="glyph73" unicode="&#x2026;" horiz-adv-x="404" 
d="M87 232h1c12 0 27 -8 34 -18l23 -22l22 22c8 10 23 18 35 18h2c12 0 28 -8 35 -18l22 -22l22 22c8 10 23 18 35 18h2c12 0 27 -8 34 -18l24 -24c7 -7 12 -20 12 -30s-5 -24 -12 -31l-29 -29c-7 -7 -21 -13 -31 -13s-23 6 -30 13l-27 28l-28 -28c-7 -7 -21 -13 -31 -13
s-23 6 -30 13l-27 28l-27 -28c-7 -7 -21 -13 -31 -13s-24 6 -31 13l-28 29c-7 7 -14 21 -14 31s7 23 14 30l24 24c8 10 23 18 35 18z" />
    <glyph glyph-name="glyph98" unicode="&#x2018;" horiz-adv-x="202" 
d="M144 638h1c24 0 43 -20 43 -44c0 -10 -5 -24 -13 -31l-27 -27l27 -27c7 -7 13 -21 13 -31s-6 -23 -13 -30l-29 -30c-7 -7 -20 -12 -30 -12s-24 5 -31 12l-23 24c-10 8 -19 23 -19 35v7v52c0 10 6 23 13 30l58 59c7 7 20 13 30 13z" />
    <glyph glyph-name="glyph108" unicode="&#x2013;" horiz-adv-x="404" 
d="M58 319h290c24 0 44 -20 44 -44s-20 -43 -44 -43h-290h-1c-24 0 -43 19 -43 43s19 44 43 44h1z" />
    <glyph glyph-name="glyph155" unicode="&#x15e;" 
d="M238 7h2c24 0 43 -20 43 -44c0 -10 -5 -24 -13 -31l-13 -13l13 -13c7 -7 13 -20 13 -30s-6 -24 -13 -31l-29 -29c-7 -7 -21 -13 -31 -13h-28h-2c-24 0 -42 20 -42 44c0 9 3 22 10 29c-6 7 -10 19 -10 28c0 10 6 24 13 31l57 58c7 7 20 14 30 14zM492 696
c24 0 44 -20 44 -44v-174c0 -24 -20 -44 -44 -44c-18 0 -35 14 -41 30l-25 77l-44 44l-71 23h-72l-71 -23l-38 -38v-51l40 -41l47 -22l167 -28c3 -1 9 -2 12 -3l57 -30c3 -2 10 -6 12 -8l29 -28c2 -2 6 -10 8 -13l29 -57c2 -6 5 -14 5 -20v-86c0 -8 -4 -19 -8 -25l-57 -87
c-4 -7 -15 -14 -23 -16l-87 -30c-3 -1 -9 -2 -13 -2h-87c-4 0 -12 1 -15 2l-86 30c-6 2 -13 6 -17 10l-13 13v-11v-1c0 -24 -19 -43 -43 -43s-44 19 -44 43v1v174c0 24 20 43 44 43c18 0 35 -14 41 -30l26 -77l43 -43l70 -24h73l66 22l43 64v63l-21 42l-20 20l-45 22
l-167 29c-3 1 -9 2 -12 3l-59 30c-3 2 -9 5 -11 7l-58 59c-7 7 -13 20 -13 30v87c0 10 6 23 13 30l58 58c4 4 11 9 17 11l87 29c3 1 9 2 13 2h1h86h1c4 0 10 -1 13 -2l87 -29c6 -2 13 -7 17 -11l13 -12v11c0 23 20 44 43 44z" />
    <glyph glyph-name="glyph156" unicode="&#x15f;" horiz-adv-x="520" 
d="M217 7h2c24 0 43 -20 43 -44c0 -10 -5 -24 -13 -31l-13 -13l13 -13c7 -7 13 -20 13 -30s-6 -24 -13 -31l-29 -29c-7 -7 -21 -13 -31 -13h-28h-1c-24 0 -43 20 -43 44c0 9 4 22 11 29c-6 7 -11 19 -11 28c0 10 6 24 13 31l57 58c7 7 20 14 30 14zM174 493h115
c6 0 14 -3 20 -5l57 -29c3 -1 8 -4 10 -6c7 7 20 11 29 11c24 0 44 -19 44 -43v-1v-87c0 -24 -20 -43 -44 -43c-14 0 -32 11 -39 24l-25 51l-20 20l-42 21h-95l-42 -21l-12 -12v-22l12 -11l46 -23l139 -28c3 -1 8 -3 11 -4l58 -29c3 -2 9 -5 11 -7l29 -30
c7 -7 13 -21 13 -31v-86c0 -10 -6 -23 -13 -30l-29 -30c-2 -2 -8 -6 -11 -8l-58 -28c-6 -2 -14 -6 -20 -6h-116c-6 0 -12 4 -18 6l-55 26c-4 -18 -23 -32 -42 -32c-24 0 -44 19 -44 43v1v116c0 24 20 44 44 44c14 0 31 -12 38 -25l27 -51l18 -19l43 -22h95l43 22l11 11v50
l-11 12l-46 23l-140 28c-3 1 -8 2 -11 3l-57 29c-3 2 -10 7 -12 9l-29 28c-7 7 -13 21 -13 31v59c0 10 6 23 13 30l29 29c2 2 9 6 12 8l57 29c6 2 14 5 20 5z" />
  </font>
</defs>
</svg>
