SplineFontDB: 3.0
FontName: Hershey-Noailles-Times-Simplex-Light
FullName: Untitled1
FamilyName: fontName
Weight: Regular
Copyright: Copyright (c) 2020, cedr,,,
Version: 001.000
ItalicAngle: 0
UnderlinePosition: 0
UnderlineWidth: 24
Ascent: 737
Descent: 263
InvalidEm: 0
sfntRevision: 0x00010000
LayerCount: 2
Layer: 0 0 "Arri+AOgA-re" 1
Layer: 1 0 "Avant" 0
XUID: [1021 759 -2074477504 2762166]
StyleMap: 0x0000
FSType: 0
OS2Version: 4
OS2_WeightWidthSlopeOnly: 0
OS2_UseTypoMetrics: 1
CreationTime: 1583863461
ModificationTime: 1584007543
PfmFamily: 17
TTFWeight: 200
TTFWidth: 5
LineGap: 90
VLineGap: 0
Panose: 2 0 3 3 0 0 0 0 0 0
OS2TypoAscent: 737
OS2TypoAOffset: 0
OS2TypoDescent: -263
OS2TypoDOffset: 0
OS2TypoLinegap: 90
OS2WinAscent: 684
OS2WinAOffset: 0
OS2WinDescent: 185
OS2WinDOffset: 0
HheadAscent: 684
HheadAOffset: 0
HheadDescent: -185
HheadDOffset: 0
OS2SubXSize: 650
OS2SubYSize: 700
OS2SubXOff: 0
OS2SubYOff: 140
OS2SupXSize: 650
OS2SupYSize: 700
OS2SupXOff: 0
OS2SupYOff: 480
OS2StrikeYSize: 49
OS2StrikeYPos: 258
OS2CapHeight: 579
OS2XHeight: 395
OS2Vendor: 'PfEd'
OS2CodePages: 00000001.00000000
OS2UnicodeRanges: 80000007.00000000.00000000.00000000
MarkAttachClasses: 1
DEI: 91125
LangName: 1033 "" "" "" "FontForge 2.0 : Untitled1 : 11-3-2020"
Encoding: UnicodeBmp
Compacted: 1
UnicodeInterp: none
NameList: AGL For New Fonts
DisplaySize: -48
AntiAlias: 1
FitToEm: 0
WinInfo: 0 38 14
BeginPrivate: 7
BlueValues 21 [0 0 395 395 579 579]
OtherBlues 11 [-184 -184]
BlueShift 2 17
StdHW 4 [26]
StdVW 4 [27]
StemSnapH 34 [25 26 27 52 53 78 79 158 184 211]
StemSnapV 33 [23 25 26 27 45 52 53 79 106 184]
EndPrivate
BeginChars: 65537 159

StartChar: .notdef
Encoding: 65536 -1 0
Width: 500
Flags: MW
HStem: 0 50<100 400 100 450> 441 50<100 400 100 100>
VStem: 50 50<50 50 50 441> 400 50<50 441 441 441>
LayerCount: 2
Fore
SplineSet
50 0 m 1
 50 491 l 1
 450 491 l 1
 450 0 l 1
 50 0 l 1
100 50 m 1
 400 50 l 1
 400 441 l 1
 100 441 l 1
 100 50 l 1
EndSplineSet
EndChar

StartChar: exclam
Encoding: 33 33 2
Width: 263
Flags: MW
HStem: 0 21G<130.5 133.5> 559 20G<131 132 132 135.5>
VStem: 92 79<37.5 40.5> 118 27<197 566>
LayerCount: 2
Fore
SplineSet
132 47 m 1xc0
 124 39 l 1
 132 32 l 1
 139 39 l 1
 132 47 l 1xc0
131 79 m 1
 132 79 l 1
 134 79 l 2
 137 78 140 75 142 73 c 2
 143 73 l 1
 167 49 l 2
 169 47 171 42 171 39 c 0
 171 36 169 32 167 30 c 2
 141 4 l 2
 139 2 135 0 132 0 c 0
 129 0 124 2 122 4 c 2
 96 30 l 2
 94 32 92 36 92 39 c 0xe0
 92 42 94 47 96 49 c 2
 121 73 l 2
 123 75 126 77 129 78 c 2
 130 79 l 1
 131 79 l 1
131 579 m 2
 132 579 l 2
 139 579 145 573 145 566 c 2
 145 197 l 2
 145 190 139 184 132 184 c 0
 125 184 118 190 118 197 c 2
 118 566 l 2xd0
 118 573 124 579 131 579 c 2
EndSplineSet
EndChar

StartChar: quotedbl
Encoding: 34 34 3
Width: 421
Flags: MW
HStem: 368 211<101.5 108.5 312.5 319.5>
VStem: 92 26<381 566> 303 26<381 566>
LayerCount: 2
Fore
SplineSet
316 579 m 0
 323 579 329 573 329 566 c 2
 329 381 l 2
 329 374 323 368 316 368 c 0
 309 368 303 374 303 381 c 2
 303 566 l 2
 303 573 309 579 316 579 c 0
105 579 m 0
 112 579 118 573 118 566 c 2
 118 381 l 2
 118 374 112 368 105 368 c 0
 98 368 92 374 92 381 c 2
 92 566 l 2
 92 573 98 579 105 579 c 0
EndSplineSet
EndChar

StartChar: numbersign
Encoding: 35 35 4
Width: 578
Flags: MW
HStem: -185 21G<101.5 108 259.5 266> 158 26<75.5 170 79 164 196 322 79 191 354 447 447 448> 316 26<101.5 204 105 198 105 225 231 356 389 474>
VStem: 92 26<-174 -168 -174 -168> 250 26<-174 -168 -174 -168> 435 26<674 674>
LayerCount: 2
Fore
SplineSet
225 316 m 1
 196 184 l 1
 327 184 l 1
 356 316 l 1
 225 316 l 1
448 684 m 2
 455 684 461 678 461 671 c 0
 461 670 460 669 460 668 c 2
 389 342 l 1
 474 342 l 2
 481 342 487 336 487 329 c 0
 487 322 481 316 474 316 c 2
 383 316 l 1
 354 184 l 1
 447 184 l 1
 448 184 l 2
 455 184 461 178 461 171 c 0
 461 164 455 158 448 158 c 2
 447 158 l 1
 349 158 l 1
 276 -174 l 2
 275 -180 269 -185 263 -185 c 0
 256 -185 250 -179 250 -172 c 2
 250 -168 l 1
 322 158 l 1
 191 158 l 1
 118 -174 l 2
 117 -180 111 -185 105 -185 c 0
 98 -185 92 -179 92 -172 c 2
 92 -168 l 1
 164 158 l 1
 79 158 l 2
 72 158 66 164 66 171 c 0
 66 178 72 184 79 184 c 2
 170 184 l 1
 198 316 l 1
 105 316 l 2
 98 316 92 322 92 329 c 0
 92 336 98 342 105 342 c 2
 204 342 l 1
 277 674 l 2
 278 680 284 684 290 684 c 0
 297 684 303 678 303 671 c 0
 303 670 302 669 302 668 c 2
 231 342 l 1
 362 342 l 1
 435 674 l 2
 436 680 441 684 447 684 c 2
 448 684 l 2
EndSplineSet
EndChar

StartChar: dollar
Encoding: 36 36 5
Width: 526
Flags: MW
HStem: 0 26<224 303 224 303> 105 53<103.5 105 92 108.5> 421 52<421 422.5> 552 27<224 303 224 303>
VStem: 66 26<97 105 97 116 97 118 97 120 439 481> 66 52<114.5 116 116 118 118 120> 197 27<-93 -92 -92 0 31 328 364 547 547 547 579 671> 303 26<-93 -92 -92 0 0 0 31 293 329 547 579 671> 408 53<458 460 460 462 462 463.5> 434 27<122 194 194 194 473 481 481 481>
LayerCount: 2
Fore
SplineSet
329 293 m 1xf340
 329 31 l 1
 386 50 l 1
 434 122 l 1
 434 194 l 1
 410 242 l 1
 387 265 l 1
 337 290 l 1
 329 293 l 1xf340
224 328 m 1
 224 26 l 1
 303 26 l 1
 303 302 l 1
 224 328 l 1
197 547 m 1
 139 528 l 1
 92 481 l 1
 92 439 l 1xfb
 139 392 l 1
 189 367 l 1
 197 364 l 1
 197 547 l 1
224 552 m 1
 224 356 l 1
 303 329 l 1
 303 552 l 1
 224 552 l 1
210 684 m 2
 211 684 l 2
 218 684 224 678 224 671 c 2
 224 579 l 1
 303 579 l 1
 303 671 l 2
 303 678 309 684 316 684 c 0
 323 684 329 678 329 671 c 2
 329 575 l 1
 399 552 l 2
 401 551 403 550 404 549 c 2
 457 496 l 2
 459 494 461 490 461 487 c 2xfb40
 461 462 l 1
 461 460 l 2
 461 456 459 452 456 450 c 2
 430 425 l 2
 428 423 424 421 421 421 c 0
 414 421 408 427 408 434 c 2
 408 460 l 2xf380
 408 467 414 473 421 473 c 2
 434 473 l 1
 434 481 l 1
 388 528 l 1
 329 547 l 1
 329 321 l 1
 346 315 l 1
 348 314 l 1
 401 288 l 1
 404 285 l 1
 430 259 l 1
 433 256 l 1
 459 203 l 2
 460 201 461 199 461 197 c 2
 461 118 l 2
 461 116 459 113 458 111 c 2
 406 32 l 2
 405 30 401 28 399 27 c 2
 329 3 l 1
 329 -92 l 1
 329 -93 l 2
 329 -100 323 -106 316 -106 c 0
 309 -106 303 -100 303 -93 c 2
 303 -92 l 1
 303 0 l 1
 224 0 l 1
 224 -92 l 1
 224 -93 l 2
 224 -100 218 -106 211 -106 c 0
 204 -106 197 -100 197 -93 c 2
 197 -92 l 1
 197 3 l 1
 127 27 l 2
 125 28 123 29 122 30 c 2
 70 83 l 2
 68 85 66 89 66 92 c 2xfb40
 66 116 l 1
 66 118 l 2
 66 122 68 127 71 129 c 2
 96 154 l 2
 98 156 102 158 105 158 c 0
 112 158 118 151 118 144 c 2
 118 118 l 2xf7
 118 111 112 105 105 105 c 2
 92 105 l 1
 92 97 l 1
 139 51 l 1
 197 31 l 1
 197 337 l 1
 180 343 l 1
 178 343 l 1
 126 370 l 2
 125 371 123 371 122 372 c 2
 71 423 l 2
 70 424 69 426 68 427 c 2
 67 428 l 1
 67 429 l 1
 66 430 l 1
 66 434 l 1
 66 436 l 1
 66 487 l 2
 66 490 68 494 70 496 c 2
 122 549 l 2
 123 550 125 551 127 552 c 2
 197 575 l 1
 197 671 l 2
 197 678 203 684 210 684 c 2
EndSplineSet
EndChar

StartChar: percent
Encoding: 37 37 6
Width: 631
Flags: MW
HStem: 0 26<419.5 471 427 471 427 474> 184 26<450 450 450 495> 368 26<130.5 181 137 181 137 184> 500 26<338 419 338 419 344 419 344 421 344 425> 552 27<161 161 161 205>
VStem: 66 26<439 483 439 487 439 488> 250 26<463 507 507 507> 355 27<71 115 71 118 71 119> 539 27<95 139 139 139>
LayerCount: 2
Fore
SplineSet
450 184 m 1
 405 161 l 1
 382 115 l 1
 382 71 l 1
 427 26 l 1
 471 26 l 1
 516 49 l 1
 539 95 l 1
 539 139 l 1
 495 184 l 1
 450 184 l 1
447 210 m 1
 449 210 l 1
 500 210 l 2
 503 210 507 208 509 206 c 2
 562 154 l 2
 564 152 566 147 566 144 c 2
 566 92 l 2
 566 90 565 88 564 86 c 2
 538 33 l 2
 537 31 534 28 532 27 c 2
 480 1 l 2
 478 0 476 0 474 0 c 2
 421 0 l 2
 418 0 414 2 412 4 c 2
 359 56 l 2
 357 58 355 63 355 66 c 2
 355 118 l 2
 355 120 356 122 357 124 c 2
 383 177 l 2
 384 179 387 182 389 183 c 2
 440 208 l 2
 441 209 443 210 444 210 c 2
 445 210 l 1
 447 210 l 1
161 552 m 1
 115 529 l 1
 92 483 l 1
 92 439 l 1
 137 394 l 1
 181 394 l 1
 227 417 l 1
 250 463 l 1
 250 507 l 1
 205 552 l 1
 161 552 l 1
210 579 m 2
 212 579 215 578 217 577 c 2
 268 551 l 1
 344 526 l 1
 419 526 l 1
 495 551 l 1
 546 577 l 2
 548 578 551 579 553 579 c 0
 554 579 556 578 557 578 c 0
 558 578 560 577 561 576 c 2
 562 575 l 1
 563 574 l 2
 563 573 564 573 564 572 c 2
 565 571 l 1
 565 570 l 1
 565 569 l 2
 565 568 566 568 566 567 c 2
 566 566 l 2
 566 563 564 558 562 556 c 2
 89 4 l 2
 87 1 82 0 79 0 c 0
 72 0 66 6 66 13 c 0
 66 16 67 19 69 21 c 2
 501 526 l 1
 425 500 l 1
 421 500 l 1
 342 500 l 1
 338 500 l 1
 272 522 l 2
 274 520 276 516 276 513 c 2
 276 460 l 2
 276 458 276 456 275 454 c 2
 249 402 l 2
 248 400 245 397 243 396 c 2
 190 370 l 2
 188 369 186 368 184 368 c 2
 132 368 l 2
 129 368 124 370 122 372 c 2
 70 425 l 2
 68 427 66 431 66 434 c 2
 66 487 l 2
 66 489 66 490 67 492 c 2
 93 545 l 2
 94 547 97 550 99 551 c 2
 152 577 l 2
 154 578 156 579 158 579 c 2
 209 579 l 1
 210 579 l 2
EndSplineSet
EndChar

StartChar: ampersand
Encoding: 38 38 7
Width: 605
Flags: MW
HStem: 0 26<154 234 154 234 160 234 160 237 502 521> 289 53<526 527.5> 368 26<505 521 505 505> 559 20G<236 237 237 238>
VStem: 39 27<95 168 95 171 95 172> 145 26<430 483 436 483 436 487 436 488> 303 26<437 483 483 483> 513 53<327 329 329 331 331 332.5> 539 27<45 66 342 350 350 350>
LayerCount: 2
Fore
SplineSet
209 294 m 1xfe
 89 214 l 1
 66 168 l 1
 66 95 l 1
 88 50 l 1
 160 26 l 1
 234 26 l 1
 282 50 l 1
 332 100 l 1
 339 111 l 1
 226 268 l 1
 226 269 l 1
 209 294 l 1xfe
237 551 m 1
 194 529 l 1
 171 483 l 1
 171 436 l 1
 196 361 l 1
 216 331 l 1
 228 339 l 1
 279 389 l 1
 303 437 l 1
 303 483 l 1
 280 529 l 1
 237 551 l 1
236 579 m 2
 237 579 l 2
 239 579 241 578 243 577 c 2
 295 551 l 2
 297 550 300 547 301 545 c 2
 328 492 l 2
 329 490 329 489 329 487 c 2
 329 434 l 2
 329 432 329 430 328 428 c 2
 301 375 l 2
 300 374 300 373 299 372 c 2
 246 319 l 2
 245 318 245 318 244 318 c 2
 231 309 l 1
 248 284 l 1
 354 134 l 1
 383 177 l 1
 435 307 l 1
 436 308 l 1
 462 361 l 2
 463 362 463 363 464 364 c 2
 491 391 l 2
 493 393 497 394 500 394 c 2
 526 394 l 2
 529 394 534 393 536 391 c 2
 562 364 l 2
 564 362 566 358 566 355 c 2xfe80
 566 331 l 1
 566 329 l 2
 566 325 564 320 561 318 c 2
 536 293 l 2
 534 291 529 289 526 289 c 0
 519 289 513 295 513 302 c 2
 513 329 l 2xff
 513 336 519 342 526 342 c 2
 539 342 l 1
 539 350 l 1
 521 368 l 1
 505 368 l 1
 484 347 l 1
 459 297 l 1
 407 166 l 2
 407 165 406 164 406 163 c 2
 371 111 l 1
 378 100 l 1
 428 51 l 1
 502 26 l 1
 521 26 l 1
 539 45 l 1
 539 66 l 2
 539 73 546 79 553 79 c 0
 560 79 566 73 566 66 c 2
 566 39 l 2xfe80
 566 36 564 32 562 30 c 2
 536 4 l 2
 534 2 529 0 526 0 c 2
 500 0 l 1
 496 0 l 1
 417 27 l 2
 415 28 413 29 412 30 c 2
 359 83 l 1
 358 84 l 1
 355 88 l 1
 353 85 l 2
 353 84 352 84 351 83 c 2
 299 30 l 2
 298 29 296 28 295 27 c 2
 243 1 l 2
 241 0 239 0 237 0 c 2
 158 0 l 1
 154 0 l 1
 75 27 l 2
 72 28 68 30 67 33 c 2
 41 86 l 2
 40 88 39 90 39 92 c 2
 39 171 l 2
 39 173 40 175 41 177 c 2
 67 229 l 2
 68 231 70 233 72 234 c 2
 194 316 l 1
 173 348 l 2
 172 349 172 350 172 351 c 2
 145 430 l 1
 145 434 l 1
 145 487 l 2
 145 489 145 490 146 492 c 2
 172 545 l 2
 173 547 176 550 178 551 c 2
 231 577 l 2
 232 578 234 579 236 579 c 2
EndSplineSet
EndChar

StartChar: quotesingle
Encoding: 39 39 8
Width: 263
Flags: MW
HStem: 421 158<131 132 132 135.5>
VStem: 118 27<434 566>
LayerCount: 2
Fore
SplineSet
131 579 m 2
 132 579 l 2
 139 579 145 573 145 566 c 2
 145 434 l 2
 145 427 139 421 132 421 c 0
 125 421 118 427 118 434 c 2
 118 566 l 2
 118 573 124 579 131 579 c 2
EndSplineSet
EndChar

StartChar: parenleft
Encoding: 40 40 9
Width: 368
Flags: MW
HStem: -185 21G<288.5 293.5>
VStem: 92 26<195 301 198 301 198 302 198 305 198 305>
LayerCount: 2
Fore
SplineSet
289 684 m 2
 290 684 l 2
 297 684 303 678 303 671 c 0
 303 668 301 663 299 661 c 2
 247 610 l 1
 196 533 l 1
 144 430 l 1
 118 301 l 1
 118 198 l 1
 144 70 l 1
 196 -33 l 1
 247 -110 l 1
 299 -162 l 2
 301 -164 303 -168 303 -171 c 0
 303 -178 297 -185 290 -185 c 0
 287 -185 282 -183 280 -181 c 2
 228 -128 l 2
 227 -127 226 -127 226 -126 c 2
 173 -47 l 1
 172 -46 l 1
 120 60 l 2
 120 61 119 62 119 63 c 2
 92 195 l 1
 92 197 l 1
 92 302 l 1
 92 305 l 1
 119 437 l 2
 119 438 120 439 120 440 c 2
 172 545 l 1
 173 547 l 1
 226 625 l 2
 226 626 227 626 228 627 c 2
 280 680 l 2
 282 682 286 684 289 684 c 2
EndSplineSet
EndChar

StartChar: parenright
Encoding: 41 41 10
Width: 368
Flags: MW
HStem: -185 21G<75.5 80.5>
VStem: 250 26<198 301 301 301>
LayerCount: 2
Fore
SplineSet
79 684 m 0
 82 684 86 682 88 680 c 2
 141 627 l 2
 142 626 143 626 143 625 c 2
 195 547 l 1
 196 545 l 1
 249 440 l 2
 249 439 250 438 250 437 c 2
 276 305 l 1
 276 302 l 1
 276 197 l 1
 276 195 l 1
 250 63 l 2
 250 62 249 61 249 60 c 2
 196 -46 l 1
 195 -47 l 1
 143 -126 l 2
 143 -127 142 -127 141 -128 c 2
 88 -181 l 2
 86 -183 82 -185 79 -185 c 0
 72 -185 66 -179 66 -172 c 0
 66 -169 68 -164 70 -162 c 2
 121 -110 l 1
 173 -33 l 1
 224 70 l 1
 250 198 l 1
 250 301 l 1
 224 430 l 1
 173 533 l 1
 121 610 l 1
 70 661 l 2
 68 663 66 668 66 671 c 0
 66 678 72 684 79 684 c 0
EndSplineSet
EndChar

StartChar: asterisk
Encoding: 42 42 11
Width: 421
Flags: MW
VStem: 197 27<92 226 273 408>
LayerCount: 2
Fore
SplineSet
210 421 m 2
 211 421 l 2
 218 421 224 415 224 408 c 2
 224 273 l 1
 335 340 l 2
 337 341 340 342 342 342 c 0
 349 342 355 336 355 329 c 0
 355 325 353 319 349 317 c 2
 236 250 l 1
 349 182 l 2
 353 180 355 175 355 171 c 0
 355 164 349 158 342 158 c 0
 340 158 337 158 335 159 c 2
 224 226 l 1
 224 92 l 2
 224 85 218 79 211 79 c 0
 204 79 197 85 197 92 c 2
 197 226 l 1
 86 159 l 2
 84 158 81 158 79 158 c 0
 72 158 66 164 66 171 c 0
 66 175 68 180 72 182 c 2
 185 250 l 1
 72 317 l 2
 68 319 66 325 66 329 c 0
 66 336 72 342 79 342 c 0
 81 342 84 341 86 340 c 2
 197 273 l 1
 197 408 l 2
 197 415 203 421 210 421 c 2
EndSplineSet
EndChar

StartChar: plus
Encoding: 43 43 12
Width: 684
Flags: MW
HStem: 0 21G<338.5 345.5> 237 26<101.5 329 105 329 355 579>
VStem: 329 26<13 237 263 487>
LayerCount: 2
Fore
SplineSet
342 500 m 0
 349 500 355 494 355 487 c 2
 355 263 l 1
 579 263 l 2
 586 263 592 257 592 250 c 0
 592 243 586 237 579 237 c 2
 355 237 l 1
 355 13 l 2
 355 6 349 0 342 0 c 0
 335 0 329 6 329 13 c 2
 329 237 l 1
 105 237 l 2
 98 237 92 243 92 250 c 0
 92 257 98 263 105 263 c 2
 329 263 l 1
 329 487 l 2
 329 494 335 500 342 500 c 0
EndSplineSet
EndChar

StartChar: comma
Encoding: 44 44 13
Width: 210
Flags: MW
HStem: 0 21G<75.5 80.5> 79 79<103.5 106.5>
VStem: 66 79<9.5 66 116.5 117 117 118 64.5 119.5> 118 27<71 86 86 86>
LayerCount: 2
Fore
SplineSet
105 126 m 1xc0
 98 118 l 1
 105 110 l 1
 113 118 l 1
 105 126 l 1xc0
105 158 m 0
 108 158 113 156 115 154 c 2
 139 129 l 2
 142 127 145 122 145 118 c 2
 145 117 l 1xe0
 145 66 l 2xd0
 145 63 143 58 141 56 c 2
 88 4 l 2
 86 2 82 0 79 0 c 0
 72 0 66 6 66 13 c 0xe0
 66 16 68 20 70 22 c 2
 118 71 l 1
 118 86 l 1xd0
 115 83 l 2
 113 81 108 79 105 79 c 0
 102 79 98 81 96 83 c 2
 70 109 l 2
 68 111 66 115 66 118 c 0xe0
 66 121 68 125 70 127 c 2
 96 154 l 2
 98 156 102 158 105 158 c 0
EndSplineSet
EndChar

StartChar: hyphen
Encoding: 45 45 14
Width: 236
Flags: MW
HStem: 210 27<22.5 211 26 211>
VStem: 13 211<219.5 226.5>
LayerCount: 2
Fore
SplineSet
26 237 m 2
 211 237 l 2
 218 237 224 230 224 223 c 0
 224 216 218 210 211 210 c 2
 26 210 l 2
 19 210 13 216 13 223 c 0
 13 230 19 237 26 237 c 2
EndSplineSet
EndChar

StartChar: period
Encoding: 46 46 15
Width: 210
Flags: MW
HStem: 79 79<104 105 105 106 106 106.5>
VStem: 66 79<116.5 119.5>
LayerCount: 2
Fore
SplineSet
105 126 m 1
 98 118 l 1
 105 110 l 1
 113 118 l 1
 105 126 l 1
105 158 m 1
 106 158 l 1
 108 158 l 2
 111 157 114 154 116 152 c 2
 141 127 l 2
 143 125 145 121 145 118 c 0
 145 115 143 111 141 109 c 2
 115 83 l 2
 113 81 108 79 105 79 c 0
 102 79 98 81 96 83 c 2
 70 109 l 2
 68 111 66 115 66 118 c 0
 66 121 68 125 70 127 c 2
 94 152 l 2
 96 154 99 156 102 157 c 2
 104 158 l 1
 105 158 l 1
EndSplineSet
EndChar

StartChar: slash
Encoding: 47 47 16
Width: 578
Flags: MW
HStem: -184 21G<49.5 55>
LayerCount: 2
Fore
SplineSet
526 684 m 0
 533 684 540 678 540 671 c 0
 540 669 539 666 538 664 c 2
 64 -178 l 2
 62 -182 57 -184 53 -184 c 0
 46 -184 39 -178 39 -171 c 0
 39 -169 40 -167 41 -165 c 2
 515 677 l 2
 517 681 522 684 526 684 c 0
EndSplineSet
EndChar

StartChar: zero
Encoding: 48 48 17
Width: 473
Flags: MW
HStem: 0 26<206 261 206 261 213 261 213 263 213 267> 552 27<213 213 213 261>
VStem: 39 27<251 327> 408 26<251 327 327 327>
LayerCount: 2
Fore
SplineSet
213 552 m 1
 140 528 l 1
 91 455 l 1
 66 327 l 1
 66 251 l 1
 91 123 l 1
 140 50 l 1
 213 26 l 1
 261 26 l 1
 334 50 l 1
 382 123 l 1
 408 251 l 1
 408 327 l 1
 382 455 l 1
 334 528 l 1
 261 552 l 1
 213 552 l 1
210 579 m 1
 211 579 l 1
 212 579 l 1
 263 579 l 2
 264 579 266 578 267 578 c 2
 346 552 l 2
 348 551 352 549 353 547 c 2
 406 468 l 2
 407 467 408 464 408 463 c 2
 434 331 l 1
 434 329 l 1
 434 250 l 1
 434 247 l 1
 408 116 l 2
 408 115 407 112 406 111 c 2
 353 32 l 2
 352 30 348 28 346 27 c 2
 267 0 l 1
 263 0 l 1
 211 0 l 1
 206 0 l 1
 127 27 l 2
 125 28 122 30 121 32 c 2
 68 111 l 2
 67 112 66 115 66 116 c 2
 40 247 l 2
 40 248 39 249 39 250 c 2
 39 329 l 2
 39 330 40 330 40 331 c 2
 66 463 l 2
 66 464 67 467 68 468 c 2
 121 547 l 2
 122 549 125 551 127 552 c 2
 205 578 l 2
 206 578 207 579 208 579 c 2
 209 579 l 1
 210 579 l 1
EndSplineSet
EndChar

StartChar: one
Encoding: 49 49 18
Width: 421
Flags: MW
HStem: 0 26<101.5 197 105 197 105 208 105 211 105 213 224 316> 447 25<99 106> 559 20G<210 211 211 214.5>
VStem: 197 27<26 522 522 522>
LayerCount: 2
Fore
SplineSet
210 579 m 2
 211 579 l 2
 218 579 224 573 224 566 c 2
 224 26 l 1
 316 26 l 2
 323 26 329 20 329 13 c 0
 329 6 323 0 316 0 c 2
 213 0 l 1
 211 0 l 1
 208 0 l 1
 105 0 l 2
 98 0 92 6 92 13 c 0
 92 20 98 26 105 26 c 2
 197 26 l 1
 197 522 l 1
 169 479 l 2
 168 477 166 476 164 475 c 2
 111 448 l 2
 109 447 107 447 105 447 c 0
 98 447 92 453 92 460 c 0
 92 465 95 470 99 472 c 2
 149 497 l 1
 200 573 l 2
 202 576 206 579 210 579 c 2
EndSplineSet
EndChar

StartChar: two
Encoding: 50 50 19
Width: 526
Flags: MW
HStem: 0 26<288 389 293 389 293 395> 79 26<111 154 111 111> 394 53<103.5 105 105 108.5> 552 27<213 314 213 213>
VStem: 66 26<13 60 447 457> 66 52<404.5 436 404.5 460> 434 27<95 144 144 145 411 457 457 457>
LayerCount: 2
Fore
SplineSet
211 579 m 2xfa
 316 579 l 2
 317 579 319 578 320 578 c 2
 399 552 l 2
 401 551 403 550 404 549 c 2
 430 522 l 1
 433 519 l 1
 459 466 l 2
 460 464 461 462 461 460 c 2
 461 408 l 2
 461 406 460 404 459 402 c 2
 433 349 l 2
 432 347 430 345 428 344 c 2
 349 291 l 2
 348 291 348 290 347 290 c 2
 216 238 l 1
 166 213 l 1
 117 164 l 1
 96 101 l 2
 98 103 102 105 105 105 c 2
 156 105 l 1
 158 105 l 1
 160 105 l 1
 161 105 l 1
 162 104 l 2
 163 104 165 103 166 102 c 2
 293 26 l 1
 389 26 l 1
 410 47 l 1
 434 95 l 1
 434 144 l 1
 434 145 l 2
 434 152 440 158 447 158 c 0
 454 158 461 152 461 145 c 2
 461 144 l 1
 461 92 l 2
 461 90 460 88 459 86 c 2
 433 33 l 1
 430 30 l 1
 404 4 l 2
 402 2 398 0 395 0 c 2
 289 0 l 2
 287 0 285 1 283 2 c 2
 154 79 l 1
 111 79 l 1
 92 60 l 1
 92 13 l 2
 92 6 86 0 79 0 c 0
 72 0 66 6 66 13 c 2
 66 64 l 1
 66 65 l 1
 66 67 l 1
 66 92 l 1
 66 96 l 1
 93 175 l 2
 94 177 95 179 96 180 c 2
 149 233 l 2
 150 234 151 234 152 235 c 2
 205 262 l 1
 206 262 l 1
 336 314 l 1
 411 364 l 1
 434 411 l 1
 434 457 l 1
 410 505 l 1
 388 528 l 1
 314 552 l 1
 213 552 l 1
 139 528 l 1
 116 505 l 1
 92 457 l 1
 92 447 l 1xfa
 105 447 l 2
 112 447 118 441 118 434 c 2
 118 408 l 2
 118 401 112 394 105 394 c 0
 102 394 98 396 96 398 c 2
 71 423 l 1
 71 424 l 2
 68 426 66 430 66 434 c 2
 66 436 l 1xf6
 66 460 l 2
 66 462 66 464 67 466 c 2
 93 519 l 1
 96 522 l 1
 122 549 l 2
 123 550 125 551 127 552 c 2
 206 578 l 2
 207 578 210 579 211 579 c 2xfa
EndSplineSet
EndChar

StartChar: three
Encoding: 51 51 20
Width: 499
Flags: MW
HStem: 0 26<206 287 206 287 213 287 213 289 213 294> 131 53<103.5 105 92 108.5> 316 26<233.5 287 237 286> 394 53<103.5 105 105 108.5> 552 27<213 287 213 213>
VStem: 66 26<121 131 121 142 121 144 121 146 447 457> 66 52<140.5 142 142 144 144 146> 382 26<411 483 483 483> 408 26<121 194 194 194>
LayerCount: 2
Fore
SplineSet
211 579 m 2xfc
 289 579 l 2
 290 579 293 578 294 578 c 2
 373 552 l 2
 376 551 379 548 380 545 c 2
 407 492 l 2
 408 490 408 489 408 487 c 2
 408 408 l 2
 408 406 408 404 407 402 c 2
 380 349 l 2
 379 346 376 344 373 343 c 2
 324 326 l 1
 348 314 l 2
 349 313 350 313 351 312 c 2
 404 259 l 1
 407 256 l 1
 433 203 l 2
 434 201 434 199 434 197 c 2
 434 118 l 2
 434 116 434 114 433 112 c 2
 407 60 l 2
 406 59 405 57 404 56 c 2
 378 30 l 2
 377 29 375 28 373 27 c 2
 294 0 l 1
 289 0 l 1
 211 0 l 1
 206 0 l 1
 127 27 l 2
 125 28 123 29 122 30 c 2
 96 56 l 2
 95 57 94 59 93 60 c 2
 67 112 l 2
 66 114 66 116 66 118 c 2xfc80
 66 142 l 1
 66 144 l 2
 66 148 68 153 71 155 c 2
 96 180 l 2
 98 182 102 184 105 184 c 0
 112 184 118 178 118 171 c 2
 118 144 l 2xfa
 118 137 112 131 105 131 c 2
 92 131 l 1
 92 121 l 1
 116 73 l 1
 139 51 l 1
 213 26 l 1
 287 26 l 1
 361 51 l 1
 384 73 l 1
 408 121 l 1
 408 194 l 1xfc80
 384 242 l 1
 334 292 l 1
 286 316 l 1
 237 316 l 2
 230 316 224 322 224 329 c 0
 224 336 230 342 237 342 c 2
 287 342 l 1
 359 366 l 1
 382 411 l 1
 382 483 l 1
 359 528 l 1
 287 552 l 1
 213 552 l 1
 139 528 l 1
 116 505 l 1
 92 457 l 1
 92 447 l 1xfd
 105 447 l 2
 112 447 118 441 118 434 c 2
 118 408 l 2
 118 401 112 394 105 394 c 0
 102 394 98 396 96 398 c 2
 71 423 l 1
 71 424 l 2
 68 426 66 430 66 434 c 2
 66 436 l 1xfa
 66 460 l 2
 66 462 66 464 67 466 c 2
 93 519 l 1
 96 522 l 1
 122 549 l 2
 123 550 125 551 127 552 c 2
 206 578 l 2
 207 578 210 579 211 579 c 2xfc
EndSplineSet
EndChar

StartChar: four
Encoding: 52 52 21
Width: 526
Flags: MW
HStem: 0 26<233.5 303 237 303 237 314 237 316 237 318 329 395> 158 26<49.5 303 77 303 77 303 329 447 447 448> 559 20G<316 318 318 318>
VStem: 303 26<26 158 26 158 184 522 522 522>
LayerCount: 2
Fore
SplineSet
303 522 m 1
 77 184 l 1
 303 184 l 1
 303 522 l 1
316 579 m 2
 318 579 l 1
 319 578 l 1
 320 578 l 1
 321 578 l 2
 322 577 324 576 325 575 c 0
 327 573 329 569 329 566 c 2
 329 564 l 1
 329 184 l 1
 447 184 l 1
 448 184 l 2
 455 184 461 178 461 171 c 0
 461 164 455 158 448 158 c 2
 447 158 l 1
 329 158 l 1
 329 26 l 1
 395 26 l 2
 402 26 408 20 408 13 c 0
 408 6 402 0 395 0 c 2
 318 0 l 1
 316 0 l 1
 314 0 l 1
 237 0 l 2
 230 0 224 6 224 13 c 0
 224 20 230 26 237 26 c 2
 303 26 l 1
 303 158 l 1
 53 158 l 2
 46 158 39 164 39 171 c 0
 39 173 41 176 42 178 c 2
 304 571 l 1
 304 572 l 2
 306 576 312 579 316 579 c 2
EndSplineSet
EndChar

StartChar: five
Encoding: 53 53 22
Width: 473
Flags: MW
HStem: 0 26<180 261 180 261 186 261 186 263 186 267> 131 53<77.5 79 66 82.5> 368 26<186 261 186 186> 552 27<116 368 116 116 368 369>
VStem: 39 27<121 131 121 142 121 144 121 146> 39 53<140.5 142 142 144 144 146> 408 26<173 221 221 221>
LayerCount: 2
Fore
SplineSet
105 579 m 2xf6
 107 579 l 1
 368 579 l 1
 369 579 l 2
 376 579 382 573 382 566 c 0
 382 559 376 552 369 552 c 2
 368 552 l 1
 116 552 l 1
 74 342 l 1
 96 364 l 2
 97 365 99 366 101 367 c 2
 180 394 l 1
 184 394 l 1
 263 394 l 1
 267 394 l 1
 346 367 l 2
 348 366 350 365 351 364 c 2
 404 312 l 2
 405 311 406 309 407 307 c 2
 434 228 l 1
 434 223 l 1
 434 171 l 1
 434 167 l 1
 407 88 l 2
 406 86 405 84 404 83 c 2
 351 30 l 2
 350 29 348 28 346 27 c 2
 267 0 l 1
 263 0 l 1
 184 0 l 1
 180 0 l 1
 101 27 l 2
 99 28 97 29 96 30 c 2
 70 56 l 2
 69 57 68 59 67 60 c 2
 41 112 l 2
 40 114 39 116 39 118 c 2xfa
 39 142 l 1
 39 144 l 2
 39 148 41 153 44 155 c 2
 70 180 l 2
 72 182 76 184 79 184 c 0
 86 184 92 178 92 171 c 2
 92 144 l 2xf6
 92 137 86 131 79 131 c 2
 66 131 l 1
 66 121 l 1
 90 73 l 1
 112 51 l 1
 186 26 l 1
 261 26 l 1
 335 51 l 1
 383 99 l 1
 408 173 l 1
 408 221 l 1
 383 295 l 1
 335 343 l 1
 261 368 l 1
 186 368 l 1
 112 343 l 1
 63 294 l 2
 61 291 57 289 53 289 c 2
 50 289 l 1
 49 290 l 1
 48 290 l 1
 47 290 l 2
 46 290 46 291 45 291 c 0
 44 291 44 292 43 293 c 0
 42 293 42 294 42 295 c 2
 41 296 l 1
 40 297 l 2
 39 298 39 301 39 302 c 0xfa
 39 303 40 305 40 306 c 2
 92 566 l 2
 92 569 94 573 96 575 c 2
 97 576 l 2
 99 578 102 579 105 579 c 2xf6
EndSplineSet
EndChar

StartChar: six
Encoding: 54 54 23
Width: 526
Flags: MW
HStem: 0 26<233 287 233 287 239 287 239 289 239 294> 342 26<240 240 240 313> 421 52<395 396.5> 552 27<265 339 265 265>
VStem: 66 26<227 327 227 329 227 332 227 332> 382 52<458 460 460 462 462 463.5> 408 26<473 483 483 483> 434 27<173 195 195 195>
LayerCount: 2
Fore
SplineSet
240 342 m 1xf9
 192 318 l 1
 142 268 l 1
 93 170 l 1
 117 99 l 1
 165 51 l 1
 239 26 l 1
 287 26 l 1
 361 51 l 1
 410 99 l 1
 434 173 l 1
 434 195 l 1
 410 269 l 1
 361 318 l 1
 313 342 l 1
 240 342 l 1xf9
263 579 m 2
 342 579 l 2
 344 579 346 578 348 577 c 2
 401 551 l 2
 403 550 406 547 407 545 c 2
 433 492 l 2
 434 490 434 489 434 487 c 2xf9
 434 462 l 1
 434 460 l 2
 434 456 432 452 429 450 c 2
 404 425 l 2
 402 423 398 421 395 421 c 0
 388 421 382 427 382 434 c 2
 382 460 l 2xfc
 382 467 388 473 395 473 c 2
 408 473 l 1
 408 483 l 1xfa
 385 529 l 1
 339 552 l 1
 265 552 l 1
 191 528 l 1
 142 479 l 1
 118 429 l 1
 92 327 l 1
 92 227 l 1
 120 282 l 2
 121 283 121 284 122 285 c 2
 175 338 l 2
 176 339 177 339 178 340 c 2
 231 367 l 2
 233 368 235 368 237 368 c 2
 316 368 l 2
 318 368 320 368 322 367 c 2
 374 340 l 2
 375 339 377 339 378 338 c 2
 430 285 l 2
 431 284 433 282 434 280 c 2
 460 201 l 2
 460 200 461 198 461 197 c 2
 461 171 l 2
 461 170 460 168 460 167 c 2
 434 88 l 2
 433 86 431 84 430 83 c 2
 378 30 l 2
 377 29 375 28 373 27 c 2
 294 0 l 1
 289 0 l 1
 237 0 l 1
 233 0 l 1
 154 27 l 2
 152 28 150 29 149 30 c 2
 96 83 l 2
 95 84 94 86 93 88 c 2
 67 165 l 2
 66 166 66 169 66 171 c 2
 66 172 l 1
 66 329 l 1
 66 332 l 1
 93 437 l 1
 93 440 l 1
 120 492 l 2
 121 493 121 495 122 496 c 2
 175 549 l 2
 176 550 178 551 180 552 c 2
 259 578 l 2
 260 578 262 579 263 579 c 2
EndSplineSet
EndChar

StartChar: seven
Encoding: 55 55 24
Width: 473
Flags: MW
HStem: 0 21G<233.5 240.5> 394 21G<49.5 56.5> 473 27<315 363 319 363 319 368> 552 27<137 181 137 137>
VStem: 39 27<407 408 408 457 516 566> 224 26<13 142> 408 26<489 510 510 510>
LayerCount: 2
Fore
SplineSet
52 579 m 2
 53 579 l 2
 60 579 66 573 66 566 c 2
 66 516 l 1
 67 519 l 1
 70 522 l 1
 122 575 l 2
 124 577 129 579 132 579 c 2
 184 579 l 2
 186 579 189 578 191 577 c 2
 319 500 l 1
 363 500 l 1
 384 521 l 1
 409 570 l 2
 410 573 412 577 415 578 c 2
 417 578 l 2
 418 578 419 579 420 579 c 2
 421 579 l 1
 422 579 l 1
 423 579 l 1
 424 579 l 1
 425 578 l 1
 426 578 l 1
 427 577 l 1
 428 577 l 1
 429 576 l 1
 430 575 l 1
 431 574 l 2
 432 573 434 570 434 569 c 2
 434 566 l 1
 434 564 l 1
 434 487 l 1
 434 482 l 1
 407 403 l 2
 407 402 406 400 405 399 c 2
 301 269 l 1
 275 218 l 1
 250 142 l 1
 250 13 l 2
 250 6 244 0 237 0 c 0
 230 0 224 6 224 13 c 2
 224 144 l 1
 224 149 l 1
 251 228 l 1
 251 229 l 1
 278 282 l 2
 278 283 279 283 279 284 c 2
 383 414 l 1
 408 489 l 1
 408 510 l 1
 407 507 l 1
 404 504 l 1
 378 477 l 2
 376 475 371 473 368 473 c 2
 316 473 l 2
 314 473 311 474 309 475 c 2
 181 552 l 1
 137 552 l 1
 90 505 l 1
 66 457 l 1
 66 408 l 1
 66 407 l 2
 66 400 60 394 53 394 c 0
 46 394 39 400 39 407 c 2
 39 408 l 1
 39 459 l 1
 39 460 l 1
 39 462 l 1
 39 566 l 2
 39 573 45 579 52 579 c 2
EndSplineSet
EndChar

StartChar: eight
Encoding: 56 56 25
Width: 447
Flags: MW
HStem: 0 26<180 261 180 261 186 261 186 263 186 267> 316 26<186 261 186 261> 552 27<186 186 186 261>
VStem: 39 27<121 220 121 223 121 224> 66 26<411 483 411 487 411 488> 355 27<411 483 483 483> 382 26<121 220 220 220>
LayerCount: 2
Fore
SplineSet
186 316 m 1xf2
 112 291 l 1
 90 268 l 1
 66 220 l 1
 66 121 l 1
 90 73 l 1
 112 51 l 1
 186 26 l 1
 261 26 l 1
 335 51 l 1
 358 73 l 1
 382 121 l 1
 382 220 l 1
 358 268 l 1
 335 291 l 1
 261 316 l 1
 186 316 l 1xf2
186 552 m 1
 115 528 l 1
 92 483 l 1
 92 411 l 1
 115 366 l 1
 186 342 l 1
 261 342 l 1
 333 366 l 1
 355 411 l 1
 355 483 l 1xec
 333 528 l 1
 261 552 l 1
 186 552 l 1
184 579 m 1
 185 579 l 1
 263 579 l 2
 264 579 266 578 267 578 c 2
 346 552 l 2
 349 551 353 548 354 545 c 2
 380 492 l 2
 381 490 382 489 382 487 c 2
 382 408 l 2
 382 406 381 404 380 402 c 2
 354 349 l 2
 353 346 349 344 346 343 c 2
 305 329 l 1
 346 315 l 2
 348 314 350 313 351 312 c 2
 378 285 l 2
 379 284 379 283 380 282 c 2
 407 229 l 2
 408 227 408 225 408 223 c 2
 408 118 l 2
 408 116 408 114 407 112 c 2
 380 60 l 2
 379 59 379 57 378 56 c 2
 351 30 l 2
 350 29 348 28 346 27 c 2
 267 0 l 1
 263 0 l 1
 184 0 l 1
 180 0 l 1
 101 27 l 2
 99 28 97 29 96 30 c 2
 70 56 l 2
 69 57 68 59 67 60 c 2
 41 112 l 2
 40 114 39 116 39 118 c 2
 39 223 l 2xf2
 39 225 40 227 41 229 c 2
 67 282 l 1
 70 285 l 1
 96 312 l 2
 97 313 99 314 101 315 c 2
 143 329 l 1
 101 343 l 2
 98 344 94 346 93 349 c 2
 67 402 l 2
 66 404 66 406 66 408 c 2
 66 487 l 2
 66 489 66 490 67 492 c 2
 93 545 l 2
 94 548 98 551 101 552 c 2
 179 578 l 2
 180 578 181 579 182 579 c 2
 183 579 l 1
 184 579 l 1
EndSplineSet
EndChar

StartChar: nine
Encoding: 57 57 26
Width: 447
Flags: MW
HStem: 0 26<157 234 161 234 161 237> 105 53<103.5 105 92 108.5> 210 27<213 235> 552 27<213 213 213 235>
VStem: 39 27<383 405> 66 26<95 105 95 116 95 118 95 120> 66 52<114.5 116 116 118 118 120> 382 26<251 300 300 300 383 405 405 405>
LayerCount: 2
Fore
SplineSet
213 552 m 1xf9
 139 528 l 1
 90 479 l 1
 66 405 l 1
 66 383 l 1
 90 309 l 1
 139 261 l 1
 213 237 l 1
 235 237 l 1
 309 261 l 1
 357 309 l 1
 382 383 l 1
 382 405 l 1
 357 479 l 1
 309 528 l 1
 235 552 l 1
 213 552 l 1xf9
211 579 m 2
 237 579 l 2
 238 579 240 578 241 578 c 2
 320 552 l 2
 322 551 324 550 325 549 c 2
 378 496 l 2
 379 495 380 493 381 491 c 2
 407 412 l 2
 407 411 408 409 408 408 c 2
 408 383 l 1
 408 382 l 1
 408 380 l 1
 408 250 l 2
 408 249 407 248 407 247 c 2
 381 141 l 2
 381 140 380 140 380 139 c 2
 354 86 l 1
 351 83 l 1
 299 30 l 2
 298 29 296 28 295 27 c 2
 243 1 l 2
 241 0 239 0 237 0 c 2
 158 0 l 2
 156 0 154 0 152 1 c 2
 99 27 l 2
 97 28 94 31 93 33 c 2
 67 86 l 2
 66 88 66 90 66 92 c 2xf5
 66 116 l 1
 66 118 l 2
 66 122 68 127 71 129 c 2
 96 154 l 2
 98 156 102 158 105 158 c 0
 112 158 118 151 118 144 c 2
 118 118 l 2xf3
 118 111 112 105 105 105 c 2
 92 105 l 1
 92 95 l 1
 115 49 l 1
 161 26 l 1
 234 26 l 1
 282 50 l 1
 331 100 l 1
 356 149 l 1
 382 251 l 1
 382 300 l 1
 381 298 l 2
 380 296 379 294 378 293 c 2
 325 240 l 2
 324 239 322 238 320 237 c 2
 241 211 l 2
 240 211 238 210 237 210 c 2
 211 210 l 2
 210 210 207 211 206 211 c 2
 127 237 l 2
 125 238 123 239 122 240 c 2
 70 293 l 2
 69 294 67 296 66 298 c 2xf5
 40 377 l 2
 40 378 39 380 39 381 c 2
 39 408 l 2xf9
 39 409 40 411 40 412 c 2
 66 491 l 2xf5
 67 493 69 495 70 496 c 2
 122 549 l 2
 123 550 125 551 127 552 c 2
 206 578 l 2
 207 578 210 579 211 579 c 2
EndSplineSet
EndChar

StartChar: colon
Encoding: 58 58 27
Width: 210
Flags: MW
HStem: 79 79<104 105 105 106 106 106.5> 263 79<103.5 104 104 105 105 106 106 106.5>
VStem: 66 79<116.5 119.5 300.5 303.5>
LayerCount: 2
Fore
SplineSet
105 126 m 1
 98 118 l 1
 105 110 l 1
 113 118 l 1
 105 126 l 1
105 158 m 1
 106 158 l 1
 108 158 l 2
 111 157 114 154 116 152 c 2
 141 127 l 2
 143 125 145 121 145 118 c 0
 145 115 143 111 141 109 c 2
 115 83 l 2
 113 81 108 79 105 79 c 0
 102 79 98 81 96 83 c 2
 70 109 l 2
 68 111 66 115 66 118 c 0
 66 121 68 125 70 127 c 2
 94 152 l 2
 96 154 99 156 102 157 c 2
 104 158 l 1
 105 158 l 1
105 310 m 1
 98 302 l 1
 105 295 l 1
 113 302 l 1
 105 310 l 1
105 342 m 1
 106 342 l 1
 108 342 l 2
 111 341 114 338 116 336 c 2
 141 312 l 2
 143 310 145 305 145 302 c 0
 145 299 143 295 141 293 c 2
 115 267 l 2
 113 265 108 263 105 263 c 0
 102 263 98 265 96 267 c 2
 70 293 l 2
 68 295 66 299 66 302 c 0
 66 305 68 310 70 312 c 2
 94 336 l 2
 96 338 99 341 102 342 c 2
 104 342 l 1
 105 342 l 1
EndSplineSet
EndChar

StartChar: semicolon
Encoding: 59 59 28
Width: 210
Flags: MW
HStem: 0 21G<75.5 80.5> 79 79<103.5 106.5> 263 79<103.5 104 104 105 105 106 106 106.5>
VStem: 66 79<9.5 66 116.5 117 117 118 64.5 119.5 300.5 303.5> 118 27<71 86 86 86>
LayerCount: 2
Fore
SplineSet
105 126 m 1xe0
 98 118 l 1
 105 110 l 1
 113 118 l 1
 105 126 l 1xe0
105 158 m 0
 108 158 113 156 115 154 c 2
 139 129 l 2
 142 127 145 122 145 118 c 2
 145 117 l 1xf0
 145 66 l 2xe8
 145 63 143 58 141 56 c 2
 88 4 l 2
 86 2 82 0 79 0 c 0
 72 0 66 6 66 13 c 0xf0
 66 16 68 20 70 22 c 2
 118 71 l 1
 118 86 l 1xe8
 115 83 l 2
 113 81 108 79 105 79 c 0
 102 79 98 81 96 83 c 2
 70 109 l 2
 68 111 66 115 66 118 c 0xf0
 66 121 68 125 70 127 c 2
 96 154 l 2
 98 156 102 158 105 158 c 0
105 310 m 1
 98 302 l 1
 105 295 l 1
 113 302 l 1
 105 310 l 1
105 342 m 1
 106 342 l 1
 108 342 l 2
 111 341 114 338 116 336 c 2
 141 312 l 2
 143 310 145 305 145 302 c 0
 145 299 143 295 141 293 c 2
 115 267 l 2
 113 265 108 263 105 263 c 0
 102 263 98 265 96 267 c 2
 70 293 l 2
 68 295 66 299 66 302 c 0
 66 305 68 310 70 312 c 2
 94 336 l 2
 96 338 99 341 102 342 c 2
 104 342 l 1
 105 342 l 1
EndSplineSet
EndChar

StartChar: less
Encoding: 60 60 29
Width: 631
Flags: MW
HStem: 0 21G<525 529.5>
LayerCount: 2
Fore
SplineSet
526 500 m 2
 527 500 l 2
 534 500 540 494 540 487 c 0
 540 483 537 477 533 475 c 2
 132 250 l 1
 533 24 l 2
 537 22 539 17 539 13 c 0
 539 6 533 0 526 0 c 0
 524 0 522 0 520 1 c 2
 99 238 l 2
 95 240 92 246 92 250 c 0
 92 254 95 259 99 261 c 2
 520 498 l 2
 521 499 524 500 526 500 c 2
EndSplineSet
EndChar

StartChar: equal
Encoding: 61 61 30
Width: 684
Flags: MW
HStem: 158 26<101.5 579 105 579> 316 26<101.5 579 105 579>
LayerCount: 2
Fore
SplineSet
105 184 m 2
 579 184 l 2
 586 184 592 178 592 171 c 0
 592 164 586 158 579 158 c 2
 105 158 l 2
 98 158 92 164 92 171 c 0
 92 178 98 184 105 184 c 2
105 342 m 2
 579 342 l 2
 586 342 592 336 592 329 c 0
 592 322 586 316 579 316 c 2
 105 316 l 2
 98 316 92 322 92 329 c 0
 92 336 98 342 105 342 c 2
EndSplineSet
EndChar

StartChar: greater
Encoding: 62 62 31
Width: 631
Flags: MW
HStem: 0 21G<101.5 106>
LayerCount: 2
Fore
SplineSet
104 500 m 2
 105 500 l 2
 107 500 110 499 112 498 c 2
 533 261 l 2
 537 259 539 254 539 250 c 0
 539 246 537 240 533 238 c 2
 112 1 l 2
 110 0 107 0 105 0 c 0
 98 0 92 6 92 13 c 0
 92 17 95 22 99 24 c 2
 499 250 l 1
 99 475 l 2
 95 477 92 483 92 487 c 0
 92 494 97 500 104 500 c 2
EndSplineSet
EndChar

StartChar: question
Encoding: 63 63 32
Width: 394
Flags: MW
HStem: 0 21G<209.5 212.5> 394 53<77.5 79 79 82.5> 552 27<161 234 161 161>
VStem: 39 27<434 457 447 457 447 460 447 461> 39 53<404.5 436 404.5 460 404.5 461> 171 79<37.5 40.5> 197 27<197 269> 329 26<411 457 457 457>
LayerCount: 2
Fore
SplineSet
211 47 m 1xe1
 203 39 l 1
 211 32 l 1
 218 39 l 1
 211 47 l 1xe1
210 79 m 1
 211 79 l 1
 213 79 l 2
 216 78 219 75 221 73 c 2
 222 73 l 1
 246 49 l 2
 248 47 250 42 250 39 c 0
 250 36 248 32 246 30 c 2
 220 4 l 2
 218 2 214 0 211 0 c 0
 208 0 203 2 201 4 c 2
 175 30 l 2
 173 32 171 36 171 39 c 0xe5
 171 42 173 47 175 49 c 2
 200 73 l 2
 202 75 205 77 208 78 c 2
 209 79 l 1
 210 79 l 1
158 579 m 2
 237 579 l 2
 239 579 241 578 243 577 c 2
 295 551 l 2
 296 550 298 550 299 549 c 2
 325 522 l 1
 328 519 l 1
 354 466 l 2
 355 464 355 462 355 460 c 2
 355 408 l 2
 355 406 355 404 354 402 c 2
 328 349 l 1
 325 346 l 1
 299 319 l 2
 298 318 298 318 297 318 c 2
 224 269 l 1
 224 197 l 2
 224 190 218 184 211 184 c 0
 204 184 197 190 197 197 c 2
 197 276 l 2
 197 280 200 285 203 287 c 2
 281 339 l 1
 305 363 l 1
 329 411 l 1
 329 457 l 1
 305 505 l 1
 282 528 l 1
 234 552 l 1
 161 552 l 1
 113 528 l 1
 90 505 l 1
 66 457 l 1
 66 447 l 1xf3
 79 447 l 2
 86 447 92 441 92 434 c 2
 92 408 l 2
 92 401 86 394 79 394 c 0
 76 394 72 396 70 398 c 2
 45 423 l 1
 44 424 l 2
 41 426 39 430 39 434 c 2
 39 436 l 1xe9
 39 460 l 2xf1
 39 462 40 464 41 466 c 2
 67 519 l 1
 70 522 l 1
 96 549 l 2
 97 550 98 550 99 551 c 2
 152 577 l 2
 154 578 156 579 158 579 c 2
EndSplineSet
EndChar

StartChar: at
Encoding: 64 64 33
Width: 736
Flags: MW
HStem: 0 26<312 393 312 393 318 393 318 395 318 399> 131 27<288 365 293 365 293 368 503 547> 394 21G<447 458> 421 26<319 319 319 392> 552 27<318 393 318 318>
VStem: 66 26<246 327 252 327 252 329 252 333 252 333> 197 27<227 300 227 302 227 302.5> 461 26<432 436> 618 27<278 327 327 327>
LayerCount: 2
Fore
SplineSet
319 421 m 1
 271 397 l 1
 248 374 l 1
 224 300 l 1
 224 227 l 1
 247 181 l 1
 293 158 l 1
 365 158 l 1
 411 181 l 1
 435 227 l 1
 456 397 l 2
 454 395 451 394 448 394 c 0
 446 394 444 395 442 396 c 2
 392 421 l 1
 319 421 l 1
316 579 m 2
 395 579 l 2
 396 579 398 578 399 578 c 2
 478 552 l 1
 480 551 l 1
 532 525 l 2
 533 524 535 523 536 522 c 2
 588 470 l 2
 589 469 590 467 591 466 c 2
 617 413 l 1
 618 412 l 1
 644 333 l 2
 644 332 645 330 645 329 c 2
 645 276 l 2
 645 275 644 273 644 272 c 2
 618 193 l 2
 617 191 616 189 615 188 c 2
 562 135 l 2
 560 133 556 131 553 131 c 2
 500 131 l 2
 498 131 496 132 494 133 c 2
 442 159 l 2
 439 161 435 165 434 168 c 2
 433 165 l 2
 432 163 429 160 427 159 c 2
 374 133 l 2
 372 132 370 131 368 131 c 2
 289 131 l 2
 287 131 286 132 284 133 c 2
 231 159 l 2
 229 160 226 163 225 165 c 2
 199 218 l 2
 198 220 197 221 197 223 c 2
 197 302 l 2
 197 303 198 306 198 307 c 2
 224 385 l 2
 225 387 227 390 228 391 c 2
 254 417 l 2
 255 418 256 418 257 419 c 2
 310 446 l 2
 312 447 314 447 316 447 c 2
 395 447 l 2
 397 447 399 447 401 446 c 2
 453 419 l 2
 455 418 457 416 458 415 c 2
 461 436 l 2
 462 442 468 447 474 447 c 0
 481 447 487 441 487 434 c 2
 487 432 l 1
 461 223 l 1
 461 222 l 1
 461 179 l 1
 503 158 l 1
 547 158 l 1
 594 204 l 1
 618 278 l 1
 618 327 l 1
 593 403 l 1
 568 452 l 1
 519 502 l 1
 469 527 l 1
 393 552 l 1
 318 552 l 1
 242 527 l 1
 192 502 l 1
 142 452 l 1
 117 403 l 1
 92 327 l 1
 92 252 l 1
 117 176 l 1
 142 126 l 1
 192 76 l 1
 242 51 l 1
 318 26 l 1
 393 26 l 1
 469 51 l 1
 519 76 l 1
 543 101 l 2
 545 103 550 105 553 105 c 0
 560 105 566 99 566 92 c 0
 566 89 564 85 562 83 c 2
 536 56 l 2
 535 55 533 55 532 54 c 2
 480 27 l 1
 478 27 l 1
 399 0 l 1
 395 0 l 1
 316 0 l 1
 312 0 l 1
 233 27 l 1
 231 27 l 1
 178 54 l 2
 177 55 176 55 175 56 c 2
 122 109 l 2
 121 110 121 111 120 112 c 2
 93 165 l 1
 93 167 l 1
 66 246 l 1
 66 250 l 1
 66 329 l 1
 66 333 l 1
 93 412 l 1
 93 413 l 1
 120 466 l 2
 121 467 121 469 122 470 c 2
 175 522 l 1
 178 525 l 1
 231 551 l 1
 233 552 l 1
 312 578 l 2
 313 578 315 579 316 579 c 2
EndSplineSet
EndChar

StartChar: A
Encoding: 65 65 34
Width: 526
Flags: MW
HStem: 0 26<22.5 69 26 69 26 77 26 79 26 81 97 158 368 429 457 500> 158 26<150 376 150 385 141 376> 559 20G<260 261 261 262 262 263 263 264 264 265 265 265>
LayerCount: 2
Fore
SplineSet
263 524 m 1
 150 184 l 1
 376 184 l 1
 263 524 l 1
263 579 m 1
 264 579 l 1
 265 579 l 1
 266 578 l 1
 268 578 l 2
 269 578 269 577 270 577 c 0
 273 575 275 571 276 568 c 2
 407 177 l 2
 407 176 408 174 408 173 c 2
 457 26 l 1
 500 26 l 2
 507 26 513 20 513 13 c 0
 513 6 507 0 500 0 c 2
 449 0 l 1
 447 0 l 1
 445 0 l 1
 368 0 l 2
 361 0 355 6 355 13 c 0
 355 20 361 26 368 26 c 2
 429 26 l 1
 385 158 l 1
 141 158 l 1
 97 26 l 1
 158 26 l 2
 165 26 171 20 171 13 c 0
 171 6 165 0 158 0 c 2
 81 0 l 1
 79 0 l 1
 77 0 l 1
 26 0 l 2
 19 0 13 6 13 13 c 0
 13 20 19 26 26 26 c 2
 69 26 l 1
 118 173 l 2
 118 174 120 176 120 177 c 2
 250 568 l 2
 251 571 254 575 256 577 c 2
 257 577 l 1
 258 578 l 1
 259 578 l 1
 260 578 l 1
 260 579 l 1
 261 579 l 1
 262 579 l 1
 263 579 l 1
EndSplineSet
EndChar

StartChar: B
Encoding: 66 66 35
Width: 552
Flags: MW
HStem: 0 26<48.5 53 52 53 53 118 145 340> 289 27<145 340 145 340> 552 27<48.5 53 52 53 53 118 145 145 145 340>
VStem: 118 27<26 289 26 300 26 302 26 304 316 552> 461 26<121 194 194 194 411 457 457 457>
LayerCount: 2
Fore
SplineSet
145 289 m 1
 145 26 l 1
 340 26 l 1
 414 51 l 1
 437 73 l 1
 461 121 l 1
 461 194 l 1
 437 242 l 1
 414 265 l 1
 340 289 l 1
 145 289 l 1
145 552 m 1
 145 316 l 1
 340 316 l 1
 414 340 l 1
 437 363 l 1
 461 411 l 1
 461 457 l 1
 437 505 l 1
 414 528 l 1
 340 552 l 1
 145 552 l 1
131 579 m 1
 134 579 l 1
 342 579 l 2
 343 579 345 578 346 578 c 2
 425 552 l 2
 427 551 429 550 430 549 c 2
 457 522 l 2
 458 521 458 520 459 519 c 2
 485 466 l 2
 486 464 487 462 487 460 c 2
 487 408 l 2
 487 406 486 404 485 402 c 2
 459 349 l 2
 458 348 458 347 457 346 c 2
 430 319 l 2
 429 318 427 317 425 316 c 2
 384 302 l 1
 425 289 l 2
 427 288 429 286 430 285 c 2
 457 259 l 2
 458 258 458 257 459 256 c 2
 485 203 l 2
 486 201 487 199 487 197 c 2
 487 118 l 2
 487 116 486 114 485 112 c 2
 459 60 l 2
 458 59 458 57 457 56 c 2
 430 30 l 2
 429 29 427 28 425 27 c 2
 346 0 l 1
 342 0 l 1
 134 0 l 1
 132 0 l 1
 129 0 l 1
 53 0 l 1
 52 0 l 2
 45 0 39 6 39 13 c 0
 39 20 45 26 52 26 c 2
 53 26 l 1
 118 26 l 1
 118 300 l 1
 118 302 l 1
 118 304 l 1
 118 552 l 1
 53 552 l 1
 52 552 l 2
 45 552 39 559 39 566 c 0
 39 573 45 579 52 579 c 2
 53 579 l 1
 129 579 l 1
 131 579 l 1
EndSplineSet
EndChar

StartChar: C
Encoding: 67 67 36
Width: 526
Flags: MW
HStem: 0 26<259 314 259 314 265 314 265 316 265 320> 394 21G<471.5 477.5> 552 27<265 314 265 265>
VStem: 66 26<219 353 226 353 226 355 226 359 226 359> 461 26<489 566>
LayerCount: 2
Fore
SplineSet
473 579 m 2
 474 579 l 2
 481 579 487 573 487 566 c 2
 487 408 l 2
 487 401 481 394 474 394 c 0
 469 394 463 398 461 403 c 2
 436 479 l 1
 388 528 l 1
 314 552 l 1
 265 552 l 1
 191 528 l 1
 142 479 l 1
 117 429 l 1
 92 353 l 1
 92 226 l 1
 117 150 l 1
 142 100 l 1
 191 51 l 1
 265 26 l 1
 314 26 l 1
 388 51 l 1
 437 100 l 1
 462 150 l 2
 464 154 469 158 474 158 c 0
 481 158 487 152 487 145 c 0
 487 143 486 141 485 139 c 2
 459 86 l 2
 458 85 458 84 457 83 c 2
 404 30 l 2
 403 29 401 28 399 27 c 2
 320 0 l 1
 316 0 l 1
 263 0 l 1
 259 0 l 1
 180 27 l 2
 178 28 176 29 175 30 c 2
 122 83 l 2
 121 84 121 85 120 86 c 2
 93 139 l 1
 93 140 l 1
 66 219 l 1
 66 223 l 1
 66 355 l 1
 66 359 l 1
 93 438 l 1
 93 440 l 1
 120 492 l 2
 121 493 121 495 122 496 c 2
 175 549 l 2
 176 550 178 551 180 552 c 2
 259 578 l 2
 260 578 262 579 263 579 c 2
 316 579 l 2
 317 579 319 578 320 578 c 2
 399 552 l 2
 401 551 403 550 404 549 c 2
 457 496 l 2
 458 495 459 493 460 491 c 2
 461 489 l 1
 461 566 l 2
 461 573 466 579 473 579 c 2
EndSplineSet
EndChar

StartChar: D
Encoding: 68 68 37
Width: 552
Flags: MW
HStem: 0 26<48.5 53 52 53 53 118 145 287> 552 27<48.5 53 52 53 53 118 145 145 145 287>
VStem: 118 27<26 552 26 552> 461 26<226 353 353 353>
LayerCount: 2
Fore
SplineSet
145 552 m 1
 145 26 l 1
 287 26 l 1
 361 51 l 1
 410 100 l 1
 435 150 l 1
 461 226 l 1
 461 353 l 1
 435 429 l 1
 410 479 l 1
 361 528 l 1
 287 552 l 1
 145 552 l 1
131 579 m 1
 134 579 l 1
 289 579 l 2
 290 579 293 578 294 578 c 2
 373 552 l 2
 375 551 377 550 378 549 c 2
 430 496 l 2
 431 495 432 493 433 492 c 2
 459 440 l 1
 460 438 l 1
 486 359 l 2
 486 358 487 356 487 355 c 2
 487 223 l 2
 487 222 486 220 486 219 c 2
 460 140 l 1
 459 139 l 1
 433 86 l 1
 430 83 l 1
 378 30 l 2
 377 29 375 28 373 27 c 2
 294 0 l 1
 289 0 l 1
 134 0 l 1
 132 0 l 1
 129 0 l 1
 53 0 l 1
 52 0 l 2
 45 0 39 6 39 13 c 0
 39 20 45 26 52 26 c 2
 53 26 l 1
 118 26 l 1
 118 552 l 1
 53 552 l 1
 52 552 l 2
 45 552 39 559 39 566 c 0
 39 573 45 579 52 579 c 2
 53 579 l 1
 129 579 l 1
 131 579 l 1
EndSplineSet
EndChar

StartChar: E
Encoding: 69 69 38
Width: 499
Flags: MW
HStem: 0 26<48.5 53 52 53 53 118 145 434> 289 27<145 276 145 276> 375 20G<285.5 292.5> 552 27<48.5 53 52 53 53 118 145 434 145 145>
VStem: 118 27<26 289 26 300 26 302 26 304 316 552> 276 27<223 289 289 289 316 381> 434 27<26 118 460 552 552 552>
CounterMasks: 1 0e
LayerCount: 2
Fore
SplineSet
131 579 m 1
 134 579 l 1
 447 579 l 2
 454 579 461 573 461 566 c 2
 461 460 l 2
 461 453 454 447 447 447 c 0
 440 447 434 453 434 460 c 2
 434 552 l 1
 145 552 l 1
 145 316 l 1
 276 316 l 1
 276 381 l 2
 276 388 282 395 289 395 c 0
 296 395 303 388 303 381 c 2
 303 305 l 1
 303 302 l 1
 303 300 l 1
 303 223 l 2
 303 216 296 210 289 210 c 0
 282 210 276 216 276 223 c 2
 276 289 l 1
 145 289 l 1
 145 26 l 1
 434 26 l 1
 434 118 l 2
 434 125 440 131 447 131 c 0
 454 131 461 125 461 118 c 2
 461 13 l 2
 461 6 454 0 447 0 c 2
 134 0 l 1
 132 0 l 1
 129 0 l 1
 53 0 l 1
 52 0 l 2
 45 0 39 6 39 13 c 0
 39 20 45 26 52 26 c 2
 53 26 l 1
 118 26 l 1
 118 300 l 1
 118 302 l 1
 118 304 l 1
 118 552 l 1
 53 552 l 1
 52 552 l 2
 45 552 39 559 39 566 c 0
 39 573 45 579 52 579 c 2
 53 579 l 1
 129 579 l 1
 131 579 l 1
EndSplineSet
EndChar

StartChar: F
Encoding: 70 70 39
Width: 447
Flags: MW
HStem: 0 26<48.5 53 52 53 53 118 145 237> 289 27<145 276 145 276> 375 20G<285.5 292.5> 552 27<48.5 53 52 53 53 118 145 434 145 145>
VStem: 118 27<26 289 26 300 26 302 26 304 316 552> 276 27<223 289 289 289 316 381> 434 27<434 552 552 552>
CounterMasks: 1 0e
LayerCount: 2
Fore
SplineSet
131 579 m 1
 134 579 l 1
 447 579 l 2
 454 579 461 573 461 566 c 2
 461 434 l 2
 461 427 454 421 447 421 c 0
 440 421 434 427 434 434 c 2
 434 552 l 1
 145 552 l 1
 145 316 l 1
 276 316 l 1
 276 381 l 2
 276 388 282 395 289 395 c 0
 296 395 303 388 303 381 c 2
 303 305 l 1
 303 302 l 1
 303 300 l 1
 303 223 l 2
 303 216 296 210 289 210 c 0
 282 210 276 216 276 223 c 2
 276 289 l 1
 145 289 l 1
 145 26 l 1
 237 26 l 2
 244 26 250 20 250 13 c 0
 250 6 244 0 237 0 c 2
 134 0 l 1
 132 0 l 1
 129 0 l 1
 53 0 l 1
 52 0 l 2
 45 0 39 6 39 13 c 0
 39 20 45 26 52 26 c 2
 53 26 l 1
 118 26 l 1
 118 300 l 1
 118 302 l 1
 118 304 l 1
 118 552 l 1
 53 552 l 1
 52 552 l 2
 45 552 39 559 39 566 c 0
 39 573 45 579 52 579 c 2
 53 579 l 1
 129 579 l 1
 131 579 l 1
EndSplineSet
EndChar

StartChar: G
Encoding: 71 71 40
Width: 631
Flags: MW
HStem: 0 26<259 314 259 314 265 314 265 316 265 320> 210 27<391.5 472 395 461 487 487 487 553> 394 21G<471.5 477.5> 552 27<265 314 265 265>
VStem: 66 26<219 353 226 353 226 355 226 359 226 359> 461 26<13 86 86 86 124 210 489 566>
LayerCount: 2
Fore
SplineSet
473 579 m 2
 474 579 l 2
 481 579 487 573 487 566 c 2
 487 408 l 2
 487 401 481 394 474 394 c 0
 469 394 463 398 461 403 c 2
 436 479 l 1
 388 528 l 1
 314 552 l 1
 265 552 l 1
 191 528 l 1
 142 479 l 1
 117 429 l 1
 92 353 l 1
 92 226 l 1
 117 150 l 1
 142 100 l 1
 191 51 l 1
 265 26 l 1
 314 26 l 1
 388 51 l 1
 461 124 l 1
 461 210 l 1
 395 210 l 2
 388 210 381 216 381 223 c 0
 381 230 388 237 395 237 c 2
 472 237 l 1
 474 237 l 1
 476 237 l 1
 553 237 l 2
 560 237 566 230 566 223 c 0
 566 216 560 210 553 210 c 2
 487 210 l 1
 487 120 l 1
 487 118 l 1
 487 117 l 1
 487 13 l 2
 487 6 481 0 474 0 c 0
 467 0 461 6 461 13 c 2
 461 86 l 1
 404 30 l 2
 403 29 401 28 399 27 c 2
 320 0 l 1
 316 0 l 1
 263 0 l 1
 259 0 l 1
 180 27 l 2
 178 28 176 29 175 30 c 2
 122 83 l 2
 121 84 121 85 120 86 c 2
 93 139 l 1
 93 140 l 1
 66 219 l 1
 66 223 l 1
 66 355 l 1
 66 359 l 1
 93 438 l 1
 93 440 l 1
 120 492 l 2
 121 493 121 495 122 496 c 2
 175 549 l 2
 176 550 178 551 180 552 c 2
 259 578 l 2
 260 578 262 579 263 579 c 2
 316 579 l 2
 317 579 319 578 320 578 c 2
 399 552 l 2
 401 551 403 550 404 549 c 2
 457 496 l 2
 458 495 459 493 460 491 c 2
 461 489 l 1
 461 566 l 2
 461 573 466 579 473 579 c 2
EndSplineSet
EndChar

StartChar: H
Encoding: 72 72 41
Width: 605
Flags: MW
HStem: 0 26<48.5 53 52 53 53 118 145 211 395 461 487 553> 289 27<145 461 145 461> 552 27<48.5 53 52 53 53 118 145 211 145 145 395 461 487 487 487 553>
VStem: 118 27<26 289 26 300 26 302 26 304 316 552> 461 26<26 289 289 289 316 552>
LayerCount: 2
Fore
SplineSet
131 579 m 1
 134 579 l 1
 211 579 l 2
 218 579 224 573 224 566 c 0
 224 559 218 552 211 552 c 2
 145 552 l 1
 145 316 l 1
 461 316 l 1
 461 552 l 1
 395 552 l 2
 388 552 381 559 381 566 c 0
 381 573 388 579 395 579 c 2
 472 579 l 1
 474 579 l 1
 476 579 l 1
 553 579 l 2
 560 579 566 573 566 566 c 0
 566 559 560 552 553 552 c 2
 487 552 l 1
 487 305 l 1
 487 302 l 1
 487 300 l 1
 487 26 l 1
 553 26 l 2
 560 26 566 20 566 13 c 0
 566 6 560 0 553 0 c 2
 476 0 l 1
 474 0 l 1
 472 0 l 1
 395 0 l 2
 388 0 381 6 381 13 c 0
 381 20 388 26 395 26 c 2
 461 26 l 1
 461 289 l 1
 145 289 l 1
 145 26 l 1
 211 26 l 2
 218 26 224 20 224 13 c 0
 224 6 218 0 211 0 c 2
 134 0 l 1
 132 0 l 1
 129 0 l 1
 53 0 l 1
 52 0 l 2
 45 0 39 6 39 13 c 0
 39 20 45 26 52 26 c 2
 53 26 l 1
 118 26 l 1
 118 300 l 1
 118 302 l 1
 118 304 l 1
 118 552 l 1
 53 552 l 1
 52 552 l 2
 45 552 39 559 39 566 c 0
 39 573 45 579 52 579 c 2
 53 579 l 1
 129 579 l 1
 131 579 l 1
EndSplineSet
EndChar

StartChar: I
Encoding: 73 73 42
Width: 263
Flags: MW
HStem: 0 26<48.5 53 52 53 53 118 145 211> 552 27<48.5 53 52 53 53 118 145 211 145 145>
VStem: 118 27<26 552 26 552>
LayerCount: 2
Fore
SplineSet
131 579 m 1
 134 579 l 1
 211 579 l 2
 218 579 224 573 224 566 c 0
 224 559 218 552 211 552 c 2
 145 552 l 1
 145 26 l 1
 211 26 l 2
 218 26 224 20 224 13 c 0
 224 6 218 0 211 0 c 2
 134 0 l 1
 132 0 l 1
 129 0 l 1
 53 0 l 1
 52 0 l 2
 45 0 39 6 39 13 c 0
 39 20 45 26 52 26 c 2
 53 26 l 1
 118 26 l 1
 118 552 l 1
 53 552 l 1
 52 552 l 2
 45 552 39 559 39 566 c 0
 39 573 45 579 52 579 c 2
 53 579 l 1
 129 579 l 1
 131 579 l 1
EndSplineSet
EndChar

StartChar: J
Encoding: 74 74 43
Width: 368
Flags: MW
HStem: 0 26<104 155 108 155 108 158> 131 53<51.5 53 39 56.5> 552 27<154.5 235 158 224 250 316 250 250>
VStem: 13 26<95 131 95 142 95 144 95 146> 13 53<140.5 142 142 144 144 146> 224 26<120 552>
LayerCount: 2
Fore
SplineSet
237 579 m 1xf4
 239 579 l 1
 316 579 l 2
 323 579 329 573 329 566 c 0
 329 559 323 552 316 552 c 2
 250 552 l 1
 250 118 l 2
 250 117 249 115 249 114 c 2
 223 35 l 2
 222 32 219 28 216 27 c 2
 164 1 l 2
 162 0 160 0 158 0 c 2
 105 0 l 2
 103 0 101 0 99 1 c 2
 47 27 l 2
 45 28 42 31 41 33 c 2
 15 86 l 2
 14 88 13 90 13 92 c 2xf4
 13 142 l 1
 13 144 l 2
 13 148 15 153 18 155 c 2
 43 180 l 2
 45 182 50 184 53 184 c 0
 60 184 66 178 66 171 c 2
 66 144 l 2xec
 66 137 60 131 53 131 c 2
 39 131 l 1
 39 95 l 1
 62 49 l 1
 108 26 l 1
 155 26 l 1
 200 49 l 1
 224 120 l 1
 224 552 l 1
 158 552 l 2
 151 552 145 559 145 566 c 0
 145 573 151 579 158 579 c 2
 235 579 l 1
 237 579 l 1xf4
EndSplineSet
EndChar

StartChar: K
Encoding: 75 75 44
Width: 526
Flags: MW
HStem: 0 26<48.5 53 52 53 53 118 145 211 368 423 454 526> 552 27<48.5 53 52 53 53 118 145 211 145 145 395 442 479 479 479 526>
VStem: 118 27<26 218 26 222 26 223 26 225 255 552>
LayerCount: 2
Fore
SplineSet
131 579 m 1
 134 579 l 1
 211 579 l 2
 218 579 224 573 224 566 c 0
 224 559 218 552 211 552 c 2
 145 552 l 1
 145 255 l 1
 226 336 l 2
 227 337 228 339 229 340 c 2
 442 552 l 1
 395 552 l 2
 388 552 381 559 381 566 c 0
 381 573 388 579 395 579 c 2
 472 579 l 1
 474 579 l 1
 476 579 l 1
 526 579 l 2
 533 579 540 573 540 566 c 0
 540 559 533 552 526 552 c 2
 479 552 l 1
 254 327 l 1
 454 26 l 1
 526 26 l 2
 533 26 540 20 540 13 c 0
 540 6 533 0 526 0 c 2
 449 0 l 1
 447 0 l 1
 446 0 l 1
 368 0 l 2
 361 0 355 6 355 13 c 0
 355 20 361 26 368 26 c 2
 423 26 l 1
 235 308 l 1
 145 218 l 1
 145 26 l 1
 211 26 l 2
 218 26 224 20 224 13 c 0
 224 6 218 0 211 0 c 2
 134 0 l 1
 132 0 l 1
 129 0 l 1
 53 0 l 1
 52 0 l 2
 45 0 39 6 39 13 c 0
 39 20 45 26 52 26 c 2
 53 26 l 1
 118 26 l 1
 118 222 l 1
 118 223 l 1
 118 225 l 1
 118 552 l 1
 53 552 l 1
 52 552 l 2
 45 552 39 559 39 566 c 0
 39 573 45 579 52 579 c 2
 53 579 l 1
 129 579 l 1
 131 579 l 1
EndSplineSet
EndChar

StartChar: L
Encoding: 76 76 45
Width: 473
Flags: MW
HStem: 0 26<48.5 53 52 53 53 118 145 408> 552 27<48.5 53 52 53 53 118 145 211 145 145>
VStem: 118 27<26 552 26 552> 408 26<26 118>
LayerCount: 2
Fore
SplineSet
131 579 m 1
 134 579 l 1
 211 579 l 2
 218 579 224 573 224 566 c 0
 224 559 218 552 211 552 c 2
 145 552 l 1
 145 26 l 1
 408 26 l 1
 408 118 l 2
 408 125 414 131 421 131 c 0
 428 131 434 125 434 118 c 2
 434 13 l 2
 434 6 428 0 421 0 c 2
 134 0 l 1
 132 0 l 1
 129 0 l 1
 53 0 l 1
 52 0 l 2
 45 0 39 6 39 13 c 0
 39 20 45 26 52 26 c 2
 53 26 l 1
 118 26 l 1
 118 552 l 1
 53 552 l 1
 52 552 l 2
 45 552 39 559 39 566 c 0
 39 573 45 579 52 579 c 2
 53 579 l 1
 129 579 l 1
 131 579 l 1
EndSplineSet
EndChar

StartChar: M
Encoding: 77 77 46
Width: 631
Flags: MW
HStem: 0 26<48.5 53 52 53 53 118 145 211 421 487 513 579> 552 27<48.5 53 52 53 53 118 513 579 513 513>
VStem: 118 27<26 484 26 552> 487 26<26 484 484 484 26 569>
LayerCount: 2
Fore
SplineSet
131 579 m 1
 132 579 l 1
 134 579 l 1
 135 578 l 1
 136 578 l 2
 137 578 138 577 139 577 c 2
 140 576 l 1
 141 575 l 1
 142 574 l 2
 143 572 145 570 145 568 c 2
 316 55 l 1
 487 568 l 2
 487 570 489 573 490 574 c 2
 490 575 l 1
 491 575 l 1
 491 576 l 1
 493 577 l 1
 494 577 l 1
 495 578 l 1
 496 578 l 1
 497 578 l 1
 498 579 l 1
 499 579 l 1
 500 579 l 1
 501 579 l 1
 502 579 l 1
 579 579 l 2
 586 579 592 573 592 566 c 0
 592 559 586 552 579 552 c 2
 513 552 l 1
 513 26 l 1
 579 26 l 2
 586 26 592 20 592 13 c 0
 592 6 586 0 579 0 c 2
 502 0 l 1
 500 0 l 1
 498 0 l 1
 421 0 l 2
 414 0 408 6 408 13 c 0
 408 20 414 26 421 26 c 2
 487 26 l 1
 487 484 l 1
 329 10 l 2
 328 7 325 4 323 2 c 2
 322 1 l 1
 321 1 l 1
 320 0 l 1
 319 0 l 1
 318 0 l 1
 317 0 l 1
 316 0 l 1
 315 0 l 1
 314 0 l 1
 312 0 l 1
 311 0 l 2
 310 0 310 2 309 2 c 0
 306 4 304 7 303 10 c 2
 145 484 l 1
 145 26 l 1
 211 26 l 2
 218 26 224 20 224 13 c 0
 224 6 218 0 211 0 c 2
 134 0 l 1
 132 0 l 1
 129 0 l 1
 53 0 l 1
 52 0 l 2
 45 0 39 6 39 13 c 0
 39 20 45 26 52 26 c 2
 53 26 l 1
 118 26 l 1
 118 552 l 1
 53 552 l 1
 52 552 l 2
 45 552 39 559 39 566 c 0
 39 573 45 579 52 579 c 2
 53 579 l 1
 129 579 l 1
 131 579 l 1
EndSplineSet
EndChar

StartChar: N
Encoding: 78 78 47
Width: 578
Flags: MW
HStem: 0 26<48.5 53 52 53 53 118 145 211> 552 27<48.5 53 52 53 53 118 368 434 461 461 461 526>
VStem: 118 27<26 516 26 552> 434 27<62 552>
LayerCount: 2
Fore
SplineSet
131 579 m 1
 132 579 l 1
 134 579 l 2
 136 579 139 577 140 576 c 2
 141 575 l 1
 142 574 l 2
 143 573 144 571 144 570 c 2
 434 62 l 1
 434 552 l 1
 368 552 l 2
 361 552 355 559 355 566 c 0
 355 573 361 579 368 579 c 2
 445 579 l 1
 447 579 l 1
 449 579 l 1
 526 579 l 2
 533 579 540 573 540 566 c 0
 540 559 533 552 526 552 c 2
 461 552 l 1
 461 14 l 1
 461 13 l 2
 461 11 460 7 458 5 c 2
 457 4 l 1
 456 3 l 1
 455 2 l 1
 454 1 l 1
 453 1 l 1
 452 0 l 1
 451 0 l 1
 449 0 l 1
 448 0 l 1
 447 0 l 1
 445 0 l 2
 441 1 437 3 435 7 c 2
 435 8 l 1
 145 516 l 1
 145 26 l 1
 211 26 l 2
 218 26 224 20 224 13 c 0
 224 6 218 0 211 0 c 2
 134 0 l 1
 132 0 l 1
 129 0 l 1
 53 0 l 1
 52 0 l 2
 45 0 39 6 39 13 c 0
 39 20 45 26 52 26 c 2
 53 26 l 1
 118 26 l 1
 118 552 l 1
 53 552 l 1
 52 552 l 2
 45 552 39 559 39 566 c 0
 39 573 45 579 52 579 c 2
 53 579 l 1
 129 579 l 1
 131 579 l 1
EndSplineSet
EndChar

StartChar: O
Encoding: 79 79 48
Width: 578
Flags: MW
HStem: 0 26<259 314 259 314 265 314 265 316 265 320> 552 27<265 265 265 314>
VStem: 66 26<247 327 251 327 251 329 251 332 251 332> 487 26<251 327 327 327>
LayerCount: 2
Fore
SplineSet
265 552 m 1
 191 528 l 1
 142 479 l 1
 118 429 l 1
 92 327 l 1
 92 251 l 1
 118 149 l 1
 142 100 l 1
 191 51 l 1
 265 26 l 1
 314 26 l 1
 388 51 l 1
 437 100 l 1
 461 149 l 1
 487 251 l 1
 487 327 l 1
 461 429 l 1
 437 479 l 1
 388 528 l 1
 314 552 l 1
 265 552 l 1
262 579 m 1
 263 579 l 1
 264 579 l 1
 316 579 l 2
 317 579 319 578 320 578 c 2
 399 552 l 2
 401 551 403 550 404 549 c 2
 457 496 l 2
 458 495 458 493 459 492 c 2
 485 440 l 2
 485 439 486 438 486 437 c 2
 513 332 l 1
 513 329 l 1
 513 250 l 1
 513 247 l 1
 486 141 l 2
 486 140 485 140 485 139 c 2
 459 86 l 2
 458 85 458 84 457 83 c 2
 404 30 l 2
 403 29 401 28 399 27 c 2
 320 0 l 1
 316 0 l 1
 263 0 l 1
 259 0 l 1
 180 27 l 2
 178 28 176 29 175 30 c 2
 122 83 l 2
 121 84 121 85 120 86 c 2
 93 139 l 1
 93 141 l 1
 66 247 l 1
 66 250 l 1
 66 329 l 1
 66 332 l 1
 93 437 l 1
 93 440 l 1
 120 492 l 2
 121 493 121 495 122 496 c 2
 175 549 l 2
 176 550 178 551 180 552 c 2
 258 578 l 2
 259 578 260 579 261 579 c 2
 262 579 l 1
EndSplineSet
EndChar

StartChar: P
Encoding: 80 80 49
Width: 526
Flags: MW
HStem: 0 26<48.5 53 52 53 53 118 145 211> 263 26<145 314 145 316 145 314> 552 27<48.5 53 52 53 53 118 145 145 145 314>
VStem: 118 27<26 263 26 274 26 276 26 278 289 552> 434 27<384 457 457 457>
LayerCount: 2
Fore
SplineSet
145 552 m 1
 145 289 l 1
 314 289 l 1
 388 314 l 1
 410 336 l 1
 434 384 l 1
 434 457 l 1
 410 505 l 1
 388 528 l 1
 314 552 l 1
 145 552 l 1
131 579 m 1
 134 579 l 1
 316 579 l 2
 317 579 319 578 320 578 c 2
 399 552 l 2
 401 551 403 550 404 549 c 2
 430 522 l 1
 433 519 l 1
 459 466 l 2
 460 464 461 462 461 460 c 2
 461 381 l 2
 461 379 460 377 459 375 c 2
 433 323 l 2
 432 322 431 320 430 319 c 2
 404 293 l 2
 403 292 401 291 399 290 c 2
 320 264 l 2
 319 264 317 263 316 263 c 2
 145 263 l 1
 145 26 l 1
 211 26 l 2
 218 26 224 20 224 13 c 0
 224 6 218 0 211 0 c 2
 134 0 l 1
 132 0 l 1
 129 0 l 1
 53 0 l 1
 52 0 l 2
 45 0 39 6 39 13 c 0
 39 20 45 26 52 26 c 2
 53 26 l 1
 118 26 l 1
 118 274 l 1
 118 276 l 1
 118 278 l 1
 118 552 l 1
 53 552 l 1
 52 552 l 2
 45 552 39 559 39 566 c 0
 39 573 45 579 52 579 c 2
 53 579 l 1
 129 579 l 1
 131 579 l 1
EndSplineSet
EndChar

StartChar: Q
Encoding: 81 81 50
Width: 578
Flags: MW
HStem: -79 26<445.5 468 453 468 453 474> 0 26<265 314> 158 26<266 266 266 286> 552 27<265 265 265 314>
VStem: 66 26<247 327 251 327 251 329 251 332 251 332> 171 26<71 89 49 92 49 93> 487 26<251 327 327 327>
LayerCount: 2
Fore
SplineSet
266 158 m 1
 220 135 l 1
 197 89 l 1
 197 49 l 1
 265 26 l 1
 314 26 l 1
 370 45 l 1
 356 87 l 1
 332 135 l 1
 286 158 l 1
 266 158 l 1
265 552 m 1
 191 528 l 1
 142 479 l 1
 118 429 l 1
 92 327 l 1
 92 251 l 1
 118 149 l 1
 142 100 l 1
 171 71 l 1
 171 92 l 2
 171 94 171 96 172 98 c 2
 199 150 l 2
 200 152 203 155 205 156 c 2
 257 183 l 2
 259 184 261 184 263 184 c 2
 289 184 l 2
 291 184 293 184 295 183 c 2
 348 156 l 2
 350 155 353 152 354 150 c 2
 380 99 l 1
 380 98 l 1
 380 97 l 1
 381 97 l 1
 381 96 l 1
 381 95 l 1
 394 57 l 1
 437 100 l 1
 461 149 l 1
 487 251 l 1
 487 327 l 1
 461 429 l 1
 437 479 l 1
 388 528 l 1
 314 552 l 1
 265 552 l 1
262 579 m 1
 263 579 l 1
 264 579 l 1
 316 579 l 2
 317 579 319 578 320 578 c 2
 399 552 l 2
 401 551 403 550 404 549 c 2
 457 496 l 2
 458 495 458 493 459 492 c 2
 485 440 l 2
 485 439 486 438 486 437 c 2
 513 332 l 1
 513 329 l 1
 513 250 l 1
 513 247 l 1
 486 141 l 2
 486 140 485 140 485 139 c 2
 459 86 l 2
 458 85 458 84 457 83 c 2
 404 30 l 1
 403 29 l 1
 407 18 l 1
 432 -32 l 1
 453 -53 l 1
 468 -53 l 1
 491 -30 l 2
 493 -28 497 -26 500 -26 c 0
 507 -26 513 -33 513 -40 c 0
 513 -43 511 -47 509 -49 c 2
 483 -75 l 2
 481 -77 477 -79 474 -79 c 2
 447 -79 l 2
 444 -79 440 -77 438 -75 c 2
 412 -49 l 1
 409 -46 l 1
 383 7 l 1
 382 9 l 1
 378 20 l 1
 320 0 l 1
 316 0 l 1
 263 0 l 1
 259 0 l 1
 182 26 l 2
 179 27 176 29 174 31 c 2
 122 83 l 2
 121 84 121 85 120 86 c 2
 93 139 l 1
 93 141 l 1
 66 247 l 1
 66 250 l 1
 66 329 l 1
 66 332 l 1
 93 437 l 1
 93 440 l 1
 120 492 l 2
 121 493 121 495 122 496 c 2
 175 549 l 2
 176 550 178 551 180 552 c 2
 258 578 l 2
 259 578 260 579 261 579 c 2
 262 579 l 1
EndSplineSet
EndChar

StartChar: R
Encoding: 82 82 51
Width: 552
Flags: MW
HStem: 0 26<48.5 53 52 53 53 118 145 211 453 468> 289 27<145 260 145 261 319 340 319 319> 552 27<48.5 53 52 53 53 118 145 145 145 340>
VStem: 118 27<26 289 26 300 26 302 26 304 316 552> 461 26<411 457 457 457> 487 26<45 66>
LayerCount: 2
Fore
SplineSet
145 552 m 1xf8
 145 316 l 1
 261 316 l 1
 263 316 l 1
 264 316 l 1
 340 316 l 1
 414 340 l 1
 437 363 l 1
 461 411 l 1
 461 457 l 1
 437 505 l 1
 414 528 l 1
 340 552 l 1
 145 552 l 1xf8
131 579 m 1
 134 579 l 1
 342 579 l 2
 343 579 345 578 346 578 c 2
 425 552 l 2
 427 551 429 550 430 549 c 2
 457 522 l 2
 458 521 458 520 459 519 c 2
 485 466 l 2
 486 464 487 462 487 460 c 2
 487 408 l 2
 487 406 486 404 485 402 c 2
 459 349 l 2
 458 348 458 347 457 346 c 2
 430 319 l 2
 429 318 427 317 425 316 c 2
 346 290 l 2
 345 290 343 289 342 289 c 2
 319 289 l 1
 322 288 l 1
 325 285 l 1
 351 259 l 2
 352 258 353 255 354 254 c 2
 432 47 l 1
 453 26 l 1
 468 26 l 1
 487 45 l 1
 487 66 l 2
 487 73 493 79 500 79 c 0
 507 79 513 73 513 66 c 2
 513 41 l 1
 513 39 l 1
 513 36 l 1
 513 35 l 1xf4
 512 34 l 1
 512 33 l 2
 511 31 509 29 508 28 c 2
 483 4 l 2
 481 2 477 0 474 0 c 2
 447 0 l 2
 444 0 440 2 438 4 c 2
 412 30 l 2
 411 31 410 34 409 35 c 2
 331 242 l 1
 308 265 l 1
 260 289 l 1
 145 289 l 1
 145 26 l 1
 211 26 l 2
 218 26 224 20 224 13 c 0
 224 6 218 0 211 0 c 2
 134 0 l 1
 132 0 l 1
 129 0 l 1
 53 0 l 1
 52 0 l 2
 45 0 39 6 39 13 c 0
 39 20 45 26 52 26 c 2
 53 26 l 1
 118 26 l 1
 118 300 l 1
 118 302 l 1
 118 304 l 1
 118 552 l 1
 53 552 l 1
 52 552 l 2
 45 552 39 559 39 566 c 0
 39 573 45 579 52 579 c 2
 53 579 l 1
 129 579 l 1
 131 579 l 1
EndSplineSet
EndChar

StartChar: S
Encoding: 83 83 52
Width: 526
Flags: MW
HStem: 0 26<233 314 233 314 239 314 239 316 239 320> 394 21G<444.5 450.5> 552 27<213 287 213 213>
VStem: 66 26<13 90 413 481> 434 27<122 194 194 194 489 566 489 491>
LayerCount: 2
Fore
SplineSet
447 579 m 0
 454 579 461 573 461 566 c 2
 461 408 l 2
 461 401 454 394 447 394 c 0
 442 394 437 398 435 403 c 2
 410 479 l 1
 361 528 l 1
 287 552 l 1
 213 552 l 1
 139 528 l 1
 92 481 l 1
 92 413 l 1
 139 366 l 1
 188 341 l 1
 344 315 l 2
 345 315 347 314 348 314 c 2
 401 288 l 1
 404 285 l 1
 430 259 l 1
 433 256 l 1
 459 203 l 2
 460 201 461 199 461 197 c 2
 461 118 l 2
 461 116 459 113 458 111 c 2
 406 32 l 2
 405 30 401 28 399 27 c 2
 320 0 l 1
 316 0 l 1
 237 0 l 1
 233 0 l 1
 154 27 l 2
 152 28 150 29 149 30 c 2
 96 83 l 2
 95 84 94 86 93 88 c 2
 92 90 l 1
 92 13 l 2
 92 6 86 0 79 0 c 0
 72 0 66 6 66 13 c 2
 66 171 l 2
 66 178 72 184 79 184 c 0
 84 184 89 180 91 175 c 2
 117 99 l 1
 165 51 l 1
 239 26 l 1
 314 26 l 1
 386 50 l 1
 434 122 l 1
 434 194 l 1
 410 242 l 1
 387 265 l 1
 338 290 l 1
 182 316 l 2
 181 316 179 317 178 317 c 2
 126 343 l 2
 125 344 123 345 122 346 c 2
 70 398 l 2
 68 400 66 405 66 408 c 2
 66 487 l 2
 66 490 68 494 70 496 c 2
 122 549 l 2
 123 550 125 551 127 552 c 2
 206 578 l 2
 207 578 210 579 211 579 c 2
 289 579 l 2
 290 579 293 578 294 578 c 2
 373 552 l 2
 375 551 377 550 378 549 c 2
 430 496 l 2
 431 495 433 493 434 491 c 2
 434 489 l 1
 434 566 l 2
 434 573 440 579 447 579 c 0
EndSplineSet
EndChar

StartChar: T
Encoding: 84 84 53
Width: 473
Flags: MW
HStem: 0 26<154.5 224 158 224 158 235 158 237 158 239 250 316> 552 27<66 224 66 66 250 408 250 250>
VStem: 39 27<460 552> 224 26<26 552 26 552> 408 26<460 552 552 552>
LayerCount: 2
Fore
SplineSet
237 579 m 1
 239 579 l 1
 421 579 l 2
 428 579 434 573 434 566 c 2
 434 460 l 2
 434 453 428 447 421 447 c 0
 414 447 408 453 408 460 c 2
 408 552 l 1
 250 552 l 1
 250 26 l 1
 316 26 l 2
 323 26 329 20 329 13 c 0
 329 6 323 0 316 0 c 2
 239 0 l 1
 237 0 l 1
 235 0 l 1
 158 0 l 2
 151 0 145 6 145 13 c 0
 145 20 151 26 158 26 c 2
 224 26 l 1
 224 552 l 1
 66 552 l 1
 66 460 l 2
 66 453 60 447 53 447 c 0
 46 447 39 453 39 460 c 2
 39 566 l 2
 39 573 46 579 53 579 c 2
 235 579 l 1
 237 579 l 1
EndSplineSet
EndChar

StartChar: U
Encoding: 85 85 54
Width: 605
Flags: MW
HStem: 0 26<262 339 266 339 266 342> 552 27<48.5 53 52 53 53 118 145 211 145 145 395 461 487 487 487 553>
VStem: 118 27<173 552> 461 26<173 552>
LayerCount: 2
Fore
SplineSet
131 579 m 1
 134 579 l 1
 211 579 l 2
 218 579 224 573 224 566 c 0
 224 559 218 552 211 552 c 2
 145 552 l 1
 145 173 l 1
 169 99 l 1
 218 50 l 1
 266 26 l 1
 339 26 l 1
 387 50 l 1
 436 99 l 1
 461 173 l 1
 461 552 l 1
 395 552 l 2
 388 552 381 559 381 566 c 0
 381 573 388 579 395 579 c 2
 472 579 l 1
 474 579 l 1
 476 579 l 1
 553 579 l 2
 560 579 566 573 566 566 c 0
 566 559 560 552 553 552 c 2
 487 552 l 1
 487 171 l 2
 487 170 486 168 486 167 c 2
 460 88 l 2
 459 86 458 84 457 83 c 2
 404 30 l 1
 401 27 l 1
 348 1 l 2
 346 0 344 0 342 0 c 2
 263 0 l 2
 261 0 259 0 257 1 c 2
 205 27 l 2
 204 28 202 29 201 30 c 2
 149 83 l 2
 148 84 146 86 145 88 c 2
 119 167 l 2
 119 168 118 170 118 171 c 2
 118 552 l 1
 53 552 l 1
 52 552 l 2
 45 552 39 559 39 566 c 0
 39 573 45 579 52 579 c 2
 53 579 l 1
 129 579 l 1
 131 579 l 1
EndSplineSet
EndChar

StartChar: V
Encoding: 86 86 55
Width: 526
Flags: MW
HStem: 0 21G<258.5 259 259 260 260 261 261 262 262 263 263 264 264 266 266 267> 552 27<22.5 77 26 69 97 158 97 97 368 429 457 457 457 500>
LayerCount: 2
Fore
SplineSet
78 579 m 1
 79 579 l 1
 81 579 l 1
 158 579 l 2
 165 579 171 573 171 566 c 0
 171 559 165 552 158 552 c 2
 97 552 l 1
 263 55 l 1
 429 552 l 1
 368 552 l 2
 361 552 355 559 355 566 c 0
 355 573 361 579 368 579 c 2
 445 579 l 1
 447 579 l 1
 449 579 l 1
 500 579 l 2
 507 579 513 573 513 566 c 0
 513 559 507 552 500 552 c 2
 457 552 l 1
 276 10 l 2
 275 7 272 4 270 2 c 2
 269 1 l 1
 268 1 l 1
 267 0 l 1
 266 0 l 1
 264 0 l 1
 263 0 l 1
 262 0 l 1
 261 0 l 1
 260 0 l 1
 259 0 l 2
 258 0 257 2 256 2 c 0
 253 4 251 7 250 10 c 2
 69 552 l 1
 26 552 l 2
 19 552 13 559 13 566 c 0
 13 573 19 579 26 579 c 2
 77 579 l 1
 78 579 l 1
EndSplineSet
EndChar

StartChar: W
Encoding: 87 87 56
Width: 631
Flags: MW
HStem: 0 21G<206 207 206 206 207 208 208 209 209 210 210 212 212 213 417 419 417 417 419 420 420 421 421 422 422 424> 552 27<22.5 103 26 94 121 184 121 121 447 510 537 537 537 605>
VStem: 94 27<552 552> 197 25<6.5 12 6.5 12> 303 26<567 567.5> 408 23<3.5 12 3.5 12> 510 27<552 552>
LayerCount: 2
Fore
SplineSet
105 579 m 1
 107 579 l 1
 184 579 l 2
 191 579 198 573 198 566 c 0
 198 559 191 552 184 552 c 2
 121 552 l 1
 211 83 l 1
 303 567 l 2
 303 568 303 570 304 571 c 0
 304 572 305 574 306 575 c 0
 306 576 307 576 308 576 c 2
 308 577 l 1
 309 577 l 1
 310 578 l 1
 311 578 l 1
 312 578 l 1
 313 578 l 1
 313 579 l 1
 314 579 l 1
 315 579 l 1
 316 579 l 1
 317 579 l 1
 318 579 l 1
 320 578 l 1
 321 578 l 1
 322 577 l 2
 323 577 323 576 324 576 c 2
 325 575 l 2
 327 573 329 570 329 567 c 2
 421 83 l 1
 510 552 l 1
 447 552 l 2
 440 552 434 559 434 566 c 0
 434 573 440 579 447 579 c 2
 524 579 l 1
 526 579 l 1
 529 579 l 1
 605 579 l 2
 612 579 619 573 619 566 c 0
 619 559 612 552 605 552 c 2
 537 552 l 1
 434 12 l 2
 434 11 434 8 433 7 c 0
 433 6 432 5 431 4 c 0
 431 3 430 2 429 2 c 2
 428 1 l 1
 426 1 l 2
 425 1 425 0 424 0 c 2
 422 0 l 1
 421 0 l 1
 420 0 l 1
 419 0 l 1
 417 0 l 1
 416 1 l 1
 415 1 l 2
 414 1 414 3 413 3 c 2
 412 3 l 2
 410 5 408 8 408 11 c 2
 408 12 l 1
 316 495 l 1
 224 12 l 2
 224 11 223 8 222 7 c 0
 222 6 221 5 220 4 c 0
 220 3 219 2 218 2 c 2
 217 1 l 1
 216 1 l 2
 215 1 214 0 213 0 c 2
 212 0 l 1
 210 0 l 1
 209 0 l 1
 208 0 l 1
 207 0 l 1
 206 0 l 1
 205 1 l 1
 204 1 l 2
 203 1 203 3 202 3 c 2
 201 3 l 2
 199 5 197 8 197 11 c 2
 197 12 l 1
 94 552 l 1
 26 552 l 2
 19 552 13 559 13 566 c 0
 13 573 19 579 26 579 c 2
 103 579 l 1
 105 579 l 1
EndSplineSet
EndChar

StartChar: X
Encoding: 88 88 57
Width: 526
Flags: MW
HStem: 0 26<22.5 72 26 72 26 77 26 79 26 81 104 158 368 423 454 500> 552 27<22.5 77 26 72 104 158 104 104 368 423 454 454 454 500>
LayerCount: 2
Fore
SplineSet
79 579 m 1
 81 579 l 1
 158 579 l 2
 165 579 171 573 171 566 c 0
 171 559 165 552 158 552 c 2
 104 552 l 1
 263 313 l 1
 423 552 l 1
 368 552 l 2
 361 552 355 559 355 566 c 0
 355 573 361 579 368 579 c 2
 446 579 l 1
 447 579 l 1
 449 579 l 1
 500 579 l 2
 507 579 513 573 513 566 c 0
 513 559 507 552 500 552 c 2
 454 552 l 1
 279 289 l 1
 454 26 l 1
 500 26 l 2
 507 26 513 20 513 13 c 0
 513 6 507 0 500 0 c 2
 449 0 l 1
 447 0 l 1
 446 0 l 1
 368 0 l 2
 361 0 355 6 355 13 c 0
 355 20 361 26 368 26 c 2
 423 26 l 1
 263 265 l 1
 104 26 l 1
 158 26 l 2
 165 26 171 20 171 13 c 0
 171 6 165 0 158 0 c 2
 81 0 l 1
 79 0 l 1
 77 0 l 1
 26 0 l 2
 19 0 13 6 13 13 c 0
 13 20 19 26 26 26 c 2
 72 26 l 1
 247 289 l 1
 72 552 l 1
 26 552 l 2
 19 552 13 559 13 566 c 0
 13 573 19 579 26 579 c 2
 77 579 l 1
 79 579 l 1
EndSplineSet
EndChar

StartChar: Y
Encoding: 89 89 58
Width: 526
Flags: MW
HStem: 0 26<180.5 250 184 250 184 261 184 263 184 265 276 342> 552 27<22.5 77 26 72 103 158 103 103 368 423 455 455 455 500>
VStem: 250 26<26 272 26 272>
LayerCount: 2
Fore
SplineSet
79 579 m 1
 81 579 l 1
 158 579 l 2
 165 579 171 573 171 566 c 0
 171 559 165 552 158 552 c 2
 103 552 l 1
 263 301 l 1
 423 552 l 1
 368 552 l 2
 361 552 355 559 355 566 c 0
 355 573 361 579 368 579 c 2
 446 579 l 1
 447 579 l 1
 449 579 l 1
 500 579 l 2
 507 579 513 573 513 566 c 0
 513 559 507 552 500 552 c 2
 455 552 l 1
 276 272 l 1
 276 26 l 1
 342 26 l 2
 349 26 355 20 355 13 c 0
 355 6 349 0 342 0 c 2
 265 0 l 1
 263 0 l 1
 261 0 l 1
 184 0 l 2
 177 0 171 6 171 13 c 0
 171 20 177 26 184 26 c 2
 250 26 l 1
 250 272 l 1
 72 552 l 1
 26 552 l 2
 19 552 13 559 13 566 c 0
 13 573 19 579 26 579 c 2
 77 579 l 1
 79 579 l 1
EndSplineSet
EndChar

StartChar: Z
Encoding: 90 90 59
Width: 526
Flags: MW
HStem: 0 26<77 434 79 434 104 434 104 447> 552 27<92 423 92 92>
VStem: 66 26<460 552> 434 27<26 118>
LayerCount: 2
Fore
SplineSet
447 579 m 2
 451 579 456 576 458 573 c 2
 459 572 l 1
 460 571 l 1
 460 570 l 2
 460 569 461 567 461 566 c 0
 461 563 459 559 457 557 c 2
 104 26 l 1
 434 26 l 1
 434 118 l 2
 434 125 440 131 447 131 c 0
 454 131 461 125 461 118 c 2
 461 13 l 2
 461 6 454 0 447 0 c 2
 81 0 l 1
 79 0 l 2
 75 0 70 2 68 5 c 2
 67 6 l 1
 67 7 l 1
 67 8 l 1
 66 9 l 1
 66 13 l 2
 66 16 67 20 69 22 c 2
 423 552 l 1
 92 552 l 1
 92 460 l 2
 92 453 86 447 79 447 c 0
 72 447 66 453 66 460 c 2
 66 566 l 2
 66 573 72 579 79 579 c 2
 446 579 l 1
 447 579 l 2
EndSplineSet
EndChar

StartChar: bracketleft
Encoding: 91 91 60
Width: 368
Flags: MW
HStem: -184 26<106.5 289 118 289 118 289 289 290> 658 26<118 289 118 118 289 290>
VStem: 92 26<-171 658 -158 658 -158 669 -158 671 -158 672.5>
LayerCount: 2
Fore
SplineSet
105 684 m 2
 107 684 l 1
 289 684 l 1
 290 684 l 2
 297 684 303 678 303 671 c 0
 303 664 297 658 290 658 c 2
 289 658 l 1
 118 658 l 1
 118 -158 l 1
 289 -158 l 1
 290 -158 l 2
 297 -158 303 -164 303 -171 c 0
 303 -178 297 -184 290 -184 c 2
 289 -184 l 1
 107 -184 l 2
 106 -184 106 -185 105 -185 c 0
 102 -185 99 -184 97 -182 c 2
 96 -181 l 1
 95 -180 l 2
 93 -178 92 -174 92 -171 c 2
 92 -169 l 1
 92 669 l 1
 92 671 l 2
 92 674 93 677 95 679 c 2
 96 680 l 1
 96 681 l 1
 97 681 l 2
 99 683 102 684 105 684 c 2
EndSplineSet
EndChar

StartChar: backslash
Encoding: 92 92 61
Width: 368
Flags: MW
HStem: 559 20G<-11 0>
LayerCount: 2
Fore
SplineSet
-1 579 m 2
 0 579 l 2
 4 579 9 576 11 572 c 2
 380 -59 l 2
 381 -61 382 -64 382 -66 c 0
 382 -73 376 -80 369 -80 c 0
 365 -80 359 -77 357 -73 c 2
 -11 559 l 2
 -12 561 -13 564 -13 566 c 0
 -13 573 -8 579 -1 579 c 2
EndSplineSet
EndChar

StartChar: bracketright
Encoding: 93 93 62
Width: 368
Flags: MW
HStem: -184 26<75.5 250 79 250 79 261> 658 26<75.5 261 79 250>
VStem: 250 26<-158 658 658 658>
LayerCount: 2
Fore
SplineSet
263 684 m 2
 266 684 269 683 271 681 c 2
 272 680 l 1
 273 679 l 2
 275 677 276 674 276 671 c 2
 276 669 l 1
 276 -169 l 1
 276 -171 l 2
 276 -174 276 -178 274 -180 c 2
 273 -181 l 1
 272 -181 l 2
 270 -183 266 -185 263 -185 c 0
 262 -185 262 -184 261 -184 c 2
 79 -184 l 2
 72 -184 66 -178 66 -171 c 0
 66 -164 72 -158 79 -158 c 2
 250 -158 l 1
 250 658 l 1
 79 658 l 2
 72 658 66 664 66 671 c 0
 66 678 72 684 79 684 c 2
 261 684 l 1
 263 684 l 2
EndSplineSet
EndChar

StartChar: asciicircum
Encoding: 94 94 63
Width: 421
Flags: MW
HStem: 289 184<48.5 209 208 372.5>
LayerCount: 2
Fore
SplineSet
210 474 m 1
 211 474 l 2
 212 474 212 473 213 473 c 0
 216 472 219 470 221 468 c 2
 222 468 l 1
 378 312 l 2
 380 310 382 305 382 302 c 0
 382 295 376 289 369 289 c 0
 366 289 361 291 359 293 c 2
 211 442 l 1
 62 293 l 2
 60 291 55 289 52 289 c 0
 45 289 39 295 39 302 c 0
 39 305 41 310 43 312 c 2
 200 468 l 2
 202 470 205 472 208 473 c 2
 209 473 l 1
 210 474 l 1
EndSplineSet
EndChar

StartChar: underscore
Encoding: 95 95 64
Width: 526
Flags: MW
HStem: -158 26<-3.5 526 0 526>
LayerCount: 2
Fore
SplineSet
0 -132 m 2
 526 -132 l 2
 533 -132 540 -138 540 -145 c 0
 540 -152 533 -158 526 -158 c 2
 0 -158 l 2
 -7 -158 -13 -152 -13 -145 c 0
 -13 -138 -7 -132 0 -132 c 2
EndSplineSet
EndChar

StartChar: grave
Encoding: 96 96 65
Width: 315
Flags: MW
HStem: 394 158<75.5 240.5>
VStem: 66 184<404.5 542.5>
LayerCount: 2
Fore
SplineSet
79 552 m 0
 82 552 85 551 87 549 c 2
 245 418 l 2
 248 416 250 411 250 408 c 0
 250 401 244 394 237 394 c 0
 234 394 230 396 228 398 c 2
 71 529 l 2
 68 531 66 536 66 539 c 0
 66 546 72 552 79 552 c 0
EndSplineSet
EndChar

StartChar: a
Encoding: 97 97 66
Width: 447
Flags: MW
HStem: 0 26<131 208 135 208 135 211 135 215 400 421> 210 27<135 286 132 289 135 135> 368 26<161 260 161 161>
VStem: 39 27<95 141 95 144 95 145> 66 52<302 329 298.5 330.5> 329 26<97 228 228 228 258 299 299 299>
LayerCount: 2
Fore
SplineSet
329 228 m 1xf4
 295 212 l 2
 293 211 291 210 289 210 c 2
 135 210 l 1
 89 187 l 1
 66 141 l 1
 66 95 l 1
 89 49 l 1
 135 26 l 1
 208 26 l 1
 282 51 l 1
 329 97 l 1
 329 228 l 1xf4
158 394 m 2
 263 394 l 2
 265 394 267 394 269 393 c 2
 322 367 l 2
 324 366 327 363 328 361 c 2
 353 310 l 2
 354 309 355 307 355 306 c 2
 355 305 l 1
 355 302 l 1
 355 301 l 1
 355 252 l 1
 355 250 l 1
 355 248 l 1
 355 95 l 1
 379 47 l 1
 400 26 l 1
 421 26 l 2
 428 26 434 20 434 13 c 0
 434 6 428 0 421 0 c 2
 395 0 l 2
 392 0 387 2 385 4 c 2
 359 30 l 2
 358 31 358 32 357 33 c 2
 339 70 l 1
 299 30 l 2
 298 29 296 28 294 27 c 2
 215 0 l 1
 211 0 l 1
 132 0 l 2
 130 0 128 0 126 1 c 2
 73 27 l 2
 71 28 68 31 67 33 c 2
 41 86 l 2
 40 88 39 90 39 92 c 2
 39 144 l 2xf4
 39 146 40 148 41 150 c 2
 67 203 l 2
 68 205 71 208 73 209 c 2
 126 235 l 2
 128 236 130 237 132 237 c 2
 286 237 l 1
 329 258 l 1
 329 299 l 1
 306 345 l 1
 260 368 l 1
 161 368 l 1
 113 344 l 1
 110 341 l 1
 115 339 118 334 118 329 c 2
 118 302 l 2
 118 295 112 289 105 289 c 2
 79 289 l 2
 72 289 66 295 66 302 c 2
 66 329 l 2xec
 66 332 68 336 70 338 c 2
 96 364 l 1
 99 367 l 1
 152 393 l 2
 154 394 156 394 158 394 c 2
EndSplineSet
EndChar

StartChar: b
Encoding: 98 98 67
Width: 473
Flags: MW
HStem: 0 26<210 286 214 286 214 289> 368 26<214 214 214 286> 552 27<22.5 103 26 92>
VStem: 92 26<13 60 97 297 334 552 552 552> 408 26<173 247 247 247>
LayerCount: 2
Fore
SplineSet
214 368 m 1
 166 344 l 1
 118 297 l 1
 118 97 l 1
 166 50 l 1
 214 26 l 1
 286 26 l 1
 334 50 l 1
 383 99 l 1
 408 173 l 1
 408 247 l 1
 384 295 l 1
 334 344 l 1
 286 368 l 1
 214 368 l 1
105 579 m 2
 108 579 111 578 113 576 c 2
 114 576 l 1
 114 575 l 1
 115 575 l 1
 115 574 l 2
 117 572 119 569 119 566 c 0
 119 565 118 564 118 563 c 2
 118 334 l 1
 149 364 l 1
 152 367 l 1
 205 393 l 2
 207 394 209 394 211 394 c 2
 289 394 l 2
 291 394 293 394 295 393 c 2
 348 367 l 1
 351 364 l 1
 404 312 l 2
 405 311 406 309 407 308 c 2
 433 256 l 2
 434 254 434 252 434 250 c 2
 434 171 l 1
 434 167 l 1
 407 88 l 2
 406 86 405 84 404 83 c 2
 351 30 l 1
 348 27 l 1
 295 1 l 2
 293 0 291 0 289 0 c 2
 211 0 l 2
 209 0 207 0 205 1 c 2
 152 27 l 1
 149 30 l 1
 118 60 l 1
 118 13 l 2
 118 6 112 0 105 0 c 0
 98 0 92 6 92 13 c 2
 92 90 l 1
 92 92 l 1
 92 94 l 1
 92 301 l 1
 92 302 l 1
 92 304 l 1
 92 552 l 1
 26 552 l 2
 19 552 13 559 13 566 c 0
 13 573 19 579 26 579 c 2
 103 579 l 1
 105 579 l 2
EndSplineSet
EndChar

StartChar: c
Encoding: 99 99 68
Width: 473
Flags: MW
HStem: 0 26<210 286 214 286 214 289> 237 52<366.5 369.5> 368 26<214 286 214 214>
VStem: 66 26<167 221 173 221 173 223 173 228 173 228> 329 79<274.5 276 276 278 278 279.5> 382 26<289 297 297 297>
LayerCount: 2
Fore
SplineSet
211 394 m 2xf4
 289 394 l 2
 291 394 293 394 295 393 c 2
 348 367 l 1
 351 364 l 1
 404 312 l 2
 406 310 408 305 408 302 c 2xf4
 408 278 l 1
 408 276 l 2
 408 272 406 268 403 266 c 2
 378 240 l 2
 376 238 371 237 368 237 c 0
 365 237 361 238 359 240 c 2
 333 267 l 2
 331 269 329 273 329 276 c 0xf8
 329 283 335 289 342 289 c 2
 382 289 l 1
 382 297 l 1
 334 344 l 1
 286 368 l 1
 214 368 l 1
 166 344 l 1
 117 295 l 1
 92 221 l 1
 92 173 l 1
 117 99 l 1
 166 50 l 1
 214 26 l 1
 286 26 l 1
 334 50 l 1
 385 101 l 2
 387 103 392 105 395 105 c 0
 402 105 408 99 408 92 c 0
 408 89 406 85 404 83 c 2
 351 30 l 1
 348 27 l 1
 295 1 l 2
 293 0 291 0 289 0 c 2
 211 0 l 2
 209 0 207 0 205 1 c 2
 152 27 l 1
 149 30 l 1
 96 83 l 2
 95 84 94 86 93 88 c 2
 66 167 l 1
 66 171 l 1
 66 223 l 1
 66 228 l 1
 93 307 l 2
 94 309 95 311 96 312 c 2
 149 364 l 1
 152 367 l 1
 205 393 l 2
 207 394 209 394 211 394 c 2xf4
EndSplineSet
EndChar

StartChar: d
Encoding: 100 100 69
Width: 499
Flags: MW
HStem: 0 26<183 260 187 260 187 263 382 447 447 448> 368 26<187 187 187 260> 552 27<285.5 366 289 355>
VStem: 39 27<173 221> 355 27<13 90 26 60 60 60 97 297 297 297 334 408 408 552 552 552> 355 106<13 15 15 16.5 9.5 60 9.5 60 9.5 297>
LayerCount: 2
Fore
SplineSet
187 368 m 1xf8
 139 344 l 1
 90 295 l 1
 66 221 l 1
 66 173 l 1
 90 99 l 1
 139 50 l 1
 187 26 l 1
 260 26 l 1
 308 50 l 1
 355 97 l 1
 355 297 l 1
 308 344 l 1
 260 368 l 1
 187 368 l 1xf8
368 579 m 2
 371 579 375 578 377 576 c 2
 378 575 l 1
 379 574 l 2
 381 572 382 569 382 566 c 2
 382 563 l 1
 382 408 l 1
 382 304 l 1
 382 302 l 1
 382 300 l 1
 382 94 l 1
 382 92 l 1
 382 90 l 1
 382 26 l 1xf8
 447 26 l 1
 448 26 l 2
 455 26 461 20 461 13 c 0
 461 6 455 0 448 0 c 2
 447 0 l 1
 371 0 l 1
 368 0 l 2
 365 0 362 0 360 2 c 2
 360 3 l 1
 359 3 l 1
 359 4 l 1
 358 4 l 2
 356 6 355 10 355 13 c 2
 355 15 l 1xf4
 355 60 l 1
 325 30 l 1
 322 27 l 1
 269 1 l 2
 267 0 265 0 263 0 c 2
 184 0 l 2
 182 0 180 0 178 1 c 2
 126 27 l 2
 125 28 123 29 122 30 c 2
 70 83 l 2
 69 84 67 86 66 88 c 2
 40 167 l 2
 40 168 39 170 39 171 c 2
 39 223 l 2
 39 224 40 227 40 228 c 2
 66 307 l 2
 67 309 69 311 70 312 c 2
 122 364 l 2
 123 365 125 366 126 367 c 2
 178 393 l 2
 180 394 182 394 184 394 c 2
 263 394 l 2
 265 394 267 394 269 393 c 2
 322 367 l 1
 325 364 l 1
 355 334 l 1
 355 408 l 1
 355 552 l 1
 289 552 l 2
 282 552 276 559 276 566 c 0
 276 573 282 579 289 579 c 2
 366 579 l 1
 368 579 l 2
EndSplineSet
EndChar

StartChar: e
Encoding: 101 101 70
Width: 421
Flags: MW
HStem: 0 26<183 260 187 260 187 263> 210 27<71 355 71 368 66 355> 368 26<187 187 187 260>
VStem: 39 27<173 210> 355 27<237 273 273 273>
LayerCount: 2
Fore
SplineSet
187 368 m 1
 139 344 l 1
 90 295 l 1
 71 237 l 1
 355 237 l 1
 355 273 l 1
 331 321 l 1
 308 344 l 1
 260 368 l 1
 187 368 l 1
184 394 m 2
 263 394 l 2
 265 394 267 394 269 393 c 2
 322 367 l 1
 325 364 l 1
 351 338 l 1
 354 335 l 1
 380 282 l 2
 381 280 382 278 382 276 c 2
 382 223 l 2
 382 216 375 210 368 210 c 2
 66 210 l 1
 66 173 l 1
 90 99 l 1
 139 50 l 1
 187 26 l 1
 260 26 l 1
 308 50 l 1
 359 101 l 2
 361 103 366 105 369 105 c 0
 376 105 382 99 382 92 c 0
 382 89 380 85 378 83 c 2
 325 30 l 1
 322 27 l 1
 269 1 l 2
 267 0 265 0 263 0 c 2
 184 0 l 2
 182 0 180 0 178 1 c 2
 126 27 l 2
 125 28 123 29 122 30 c 2
 70 83 l 2
 69 84 67 86 66 88 c 2
 40 167 l 2
 40 168 39 170 39 171 c 2
 39 221 l 1
 39 223 l 2
 39 225 40 227 41 229 c 2
 41 230 l 1
 66 307 l 2
 67 309 69 311 70 312 c 2
 122 364 l 2
 123 365 125 366 126 367 c 2
 178 393 l 2
 180 394 182 394 184 394 c 2
EndSplineSet
EndChar

StartChar: f
Encoding: 102 102 71
Width: 315
Flags: MW
HStem: 0 26<48.5 53 52 53 53 118 145 211> 368 26<48.5 53 52 53 53 118 145 211> 473 53<263 264.5> 552 27<214 258 214 214>
VStem: 118 27<26 368 26 368 394 483> 250 53<511 513 511 513 513 515 515 516.5> 276 27<526 534 534 534>
LayerCount: 2
Fore
SplineSet
211 579 m 2xfa
 263 579 l 2
 266 579 270 577 272 575 c 2
 299 549 l 2
 301 547 303 542 303 539 c 2xfa
 303 515 l 1
 303 513 l 2
 303 509 301 504 298 502 c 2
 272 477 l 2
 270 475 266 473 263 473 c 0
 256 473 250 480 250 487 c 2
 250 513 l 2xfc
 250 520 256 526 263 526 c 2
 276 526 l 1
 276 534 l 1
 258 552 l 1
 214 552 l 1
 168 529 l 1
 145 483 l 1
 145 394 l 1
 211 394 l 2
 218 394 224 388 224 381 c 0
 224 374 218 368 211 368 c 2
 145 368 l 1
 145 26 l 1
 211 26 l 2
 218 26 224 20 224 13 c 0
 224 6 218 0 211 0 c 2
 134 0 l 1
 132 0 l 1
 129 0 l 1
 53 0 l 1
 52 0 l 2
 45 0 39 6 39 13 c 0
 39 20 45 26 52 26 c 2
 53 26 l 1
 118 26 l 1
 118 368 l 1
 53 368 l 1
 52 368 l 2
 45 368 39 374 39 381 c 0
 39 388 45 394 52 394 c 2
 53 394 l 1
 118 394 l 1
 118 487 l 2
 118 489 119 490 120 492 c 2
 146 545 l 2
 147 547 150 550 152 551 c 2
 205 577 l 2
 207 578 209 579 211 579 c 2xfa
EndSplineSet
EndChar

StartChar: g
Encoding: 103 103 72
Width: 473
Flags: MW
HStem: -184 26<154 314 154 314 160 314 160 316 160 320> 0 26<162 316 180 316 180 316 186 314> 105 26<210 260 214 260 214 263> 342 52<420 421> 368 26<214 214 214 260>
VStem: 39 27<-89 -69 -89 -66 -89 -65> 66 26<62 89 66 89 71 89 71 92 71 93> 92 26<227 273 227 276 227 277> 355 27<227 273 273 273> 408 26<-89 -69 -69 -69>
LayerCount: 2
Fore
SplineSet
168 4 m 2xe4c0
 167 2 164 1 162 0 c 2
 88 -24 l 1
 66 -69 l 1
 66 -89 l 1
 88 -134 l 1
 160 -158 l 1
 314 -158 l 1
 385 -134 l 1
 408 -89 l 1
 408 -69 l 1
 385 -24 l 1
 314 0 l 1
 184 0 l 1
 180 0 l 1
 168 4 l 2xe4c0
214 368 m 1xe9c0
 166 344 l 1
 142 321 l 1
 118 273 l 1
 118 227 l 1
 142 179 l 1
 143 178 l 1
 166 155 l 1
 214 131 l 1
 260 131 l 1
 308 155 l 1
 331 179 l 1
 355 227 l 1
 355 273 l 1
 331 321 l 1
 308 344 l 1
 260 368 l 1
 214 368 l 1xe9c0
211 395 m 2
 212 394 l 1
 263 394 l 2xe9c0
 265 394 267 394 269 393 c 2
 322 367 l 1
 325 364 l 1
 342 347 l 1
 359 364 l 2
 360 365 362 366 363 367 c 2
 415 393 l 2
 417 394 419 394 421 394 c 0
 428 394 434 388 434 381 c 2
 434 355 l 2
 434 348 428 342 421 342 c 2
 395 342 l 2
 391 342 386 345 384 348 c 2
 376 344 l 1
 358 326 l 1
 380 282 l 2
 381 280 382 278 382 276 c 2
 382 223 l 2
 382 221 381 220 380 218 c 2
 354 165 l 2
 353 164 352 162 351 161 c 2
 325 135 l 2
 324 134 323 134 322 133 c 2
 269 106 l 2
 267 105 265 105 263 105 c 2
 211 105 l 2
 209 105 207 105 205 106 c 2
 152 133 l 2
 151 134 150 134 149 135 c 2
 132 152 l 1
 116 137 l 1
 92 89 l 1
 92 71 l 1xf2c0
 112 51 l 1
 186 26 l 1
 316 26 l 2
 317 26 319 25 320 25 c 2
 399 -1 l 2
 402 -2 406 -5 407 -8 c 2
 433 -60 l 2
 434 -62 434 -64 434 -66 c 2
 434 -92 l 2
 434 -94 434 -96 433 -98 c 2
 407 -151 l 2
 406 -154 402 -156 399 -157 c 2
 320 -184 l 1
 316 -184 l 1
 158 -184 l 1
 154 -184 l 1
 75 -157 l 2
 72 -156 68 -154 67 -151 c 2
 41 -98 l 2
 40 -96 39 -94 39 -92 c 2
 39 -66 l 2xf4c0
 39 -64 40 -62 41 -60 c 2
 67 -8 l 2
 68 -5 72 -2 75 -1 c 2
 129 17 l 1
 101 27 l 2
 99 28 97 29 96 30 c 2
 71 55 l 2
 70 56 69 58 68 59 c 2
 67 59 l 1
 67 60 l 1
 67 61 l 1
 66 62 l 1
 66 66 l 1
 66 67 l 1
 66 92 l 2xf2c0
 66 94 66 96 67 98 c 2
 93 150 l 2
 94 151 95 153 96 154 c 2
 116 173 l 1
 93 218 l 2
 92 220 92 221 92 223 c 2
 92 276 l 2
 92 278 92 280 93 282 c 2
 120 335 l 2
 121 336 121 337 122 338 c 2
 149 364 l 1
 152 367 l 1
 203 392 l 2
 204 393 206 394 207 394 c 2
 208 394 l 2
 209 394 210 395 211 395 c 2
EndSplineSet
EndChar

StartChar: h
Encoding: 104 104 73
Width: 526
Flags: MW
HStem: 0 26<48.5 53 52 53 53 118 145 211 316 382 408 474> 368 26<240 313 240 240> 552 27<48.5 53 52 53 53 118>
VStem: 118 27<26 272 26 274 26 276 26 278 320 552 552 552> 382 26<26 299 299 299>
LayerCount: 2
Fore
SplineSet
131 579 m 1
 132 579 l 2
 135 579 138 578 140 576 c 2
 141 575 l 1
 142 574 l 2
 144 572 145 569 145 566 c 2
 145 563 l 1
 145 320 l 1
 173 362 l 2
 174 364 176 366 178 367 c 2
 231 393 l 2
 233 394 235 394 237 394 c 2
 316 394 l 2
 318 394 320 394 322 393 c 2
 374 367 l 2
 376 366 379 363 380 361 c 2
 407 308 l 2
 408 306 408 304 408 302 c 2
 408 26 l 1
 474 26 l 2
 481 26 487 20 487 13 c 0
 487 6 481 0 474 0 c 2
 397 0 l 1
 395 0 l 1
 393 0 l 1
 316 0 l 2
 309 0 302 6 302 13 c 0
 302 20 309 26 316 26 c 2
 382 26 l 1
 382 299 l 1
 359 345 l 1
 313 368 l 1
 240 368 l 1
 193 345 l 1
 145 272 l 1
 145 26 l 1
 211 26 l 2
 218 26 224 20 224 13 c 0
 224 6 218 0 211 0 c 2
 134 0 l 1
 132 0 l 1
 129 0 l 1
 53 0 l 1
 52 0 l 2
 45 0 39 6 39 13 c 0
 39 20 45 26 52 26 c 2
 53 26 l 1
 118 26 l 1
 118 274 l 1
 118 276 l 1
 118 278 l 1
 118 552 l 1
 53 552 l 1
 52 552 l 2
 45 552 39 559 39 566 c 0
 39 573 45 579 52 579 c 2
 53 579 l 1
 129 579 l 1
 131 579 l 1
EndSplineSet
EndChar

StartChar: i
Encoding: 105 105 74
Width: 263
Flags: MW
HStem: 0 26<48.5 53 52 53 53 118 145 211> 368 26<48.5 53 52 53 53 118> 500 79<104 105 105 106 106 106.5>
VStem: 66 79<537.5 540.5> 118 27<26 368 368 368>
LayerCount: 2
Fore
SplineSet
131 395 m 2xe8
 132 395 l 2
 135 395 138 394 140 392 c 2
 141 391 l 1
 142 390 l 2
 144 388 145 384 145 381 c 2
 145 379 l 1
 145 26 l 1
 211 26 l 2
 218 26 224 20 224 13 c 0
 224 6 218 0 211 0 c 2
 134 0 l 1
 132 0 l 1
 129 0 l 1
 53 0 l 1
 52 0 l 2
 45 0 39 6 39 13 c 0
 39 20 45 26 52 26 c 2
 53 26 l 1
 118 26 l 1
 118 368 l 1
 53 368 l 1
 52 368 l 2
 45 368 39 374 39 381 c 0
 39 388 45 394 52 394 c 2
 53 394 l 1
 129 394 l 2
 130 394 130 395 131 395 c 2xe8
105 547 m 1
 98 539 l 1
 105 532 l 1
 113 539 l 1
 105 547 l 1
105 579 m 1
 106 579 l 1
 108 579 l 2
 111 578 114 575 116 573 c 2
 141 549 l 2
 143 547 145 542 145 539 c 0
 145 536 143 532 141 530 c 2
 115 504 l 2
 113 502 108 500 105 500 c 0
 102 500 98 502 96 504 c 2
 70 530 l 2
 68 532 66 536 66 539 c 0xf0
 66 542 68 547 70 549 c 2
 94 573 l 2
 96 575 99 577 102 578 c 2
 104 579 l 1
 105 579 l 1
EndSplineSet
EndChar

StartChar: j
Encoding: 106 106 75
Width: 263
Flags: MW
HStem: -184 26<51.5 102 58 102 58 105> -132 53<51.5 53 39 56.5> 368 26<75.5 182 79 171> 500 79<156.5 158 158 159.5>
VStem: 13 26<-140 -132 -140 -121 -140 -119 -140 -117> 13 53<-122.5 -121 -121 -119 -119 -117> 118 79<537.5 540.5> 171 26<-89 368 368 368>
LayerCount: 2
Fore
SplineSet
184 395 m 0xf5
 187 395 190 394 192 392 c 2
 193 392 l 1
 193 391 l 1
 194 391 l 1
 194 390 l 2
 196 388 198 384 198 381 c 0
 198 380 197 380 197 379 c 2
 197 -92 l 2
 197 -94 197 -96 196 -98 c 2
 170 -151 l 2
 169 -153 166 -156 164 -157 c 2
 111 -183 l 2
 109 -184 107 -184 105 -184 c 2
 53 -184 l 2
 50 -184 45 -183 43 -181 c 2
 17 -154 l 2
 15 -152 13 -148 13 -145 c 2xf9
 13 -121 l 1
 13 -119 l 2
 13 -115 15 -110 18 -108 c 2
 43 -83 l 2
 45 -81 50 -79 53 -79 c 0
 60 -79 66 -85 66 -92 c 2
 66 -119 l 2xf4
 66 -126 60 -132 53 -132 c 2
 39 -132 l 1
 39 -140 l 1xf8
 58 -158 l 1
 102 -158 l 1
 148 -135 l 1
 171 -89 l 1
 171 368 l 1
 79 368 l 2
 72 368 66 374 66 381 c 0
 66 388 72 394 79 394 c 2
 182 394 l 2
 183 394 183 395 184 395 c 0xf5
158 547 m 1
 150 539 l 1
 158 532 l 1
 166 539 l 1
 158 547 l 1
158 579 m 1
 160 579 l 2
 163 578 167 575 169 573 c 2
 194 549 l 2
 196 547 197 542 197 539 c 0
 197 536 196 532 194 530 c 2
 167 504 l 2
 165 502 161 500 158 500 c 0
 155 500 151 502 149 504 c 2
 122 530 l 2
 120 532 118 536 118 539 c 0xf2
 118 542 120 547 122 549 c 2
 147 573 l 2
 149 575 152 577 155 578 c 2
 156 579 l 1
 158 579 l 1
EndSplineSet
EndChar

StartChar: k
Encoding: 107 107 76
Width: 526
Flags: MW
HStem: 0 26<48.5 53 52 53 53 118 145 211 316 368 401 474> 368 26<312.5 393 316 363 400 400 400 474> 552 27<48.5 53 52 53 53 118>
VStem: 118 27<26 113 26 116 26 118 26 120 150 552 552 552>
LayerCount: 2
Fore
SplineSet
131 579 m 1
 132 579 l 2
 135 579 138 578 140 576 c 2
 141 575 l 1
 142 574 l 2
 144 572 145 569 145 566 c 2
 145 563 l 1
 145 150 l 1
 226 231 l 1
 229 234 l 1
 363 368 l 1
 316 368 l 2
 309 368 302 374 302 381 c 0
 302 388 309 394 316 394 c 2
 393 394 l 1
 395 395 l 1
 397 394 l 1
 474 394 l 2
 481 394 487 388 487 381 c 0
 487 374 481 368 474 368 c 2
 400 368 l 1
 254 222 l 1
 401 26 l 1
 474 26 l 2
 481 26 487 20 487 13 c 0
 487 6 481 0 474 0 c 2
 397 0 l 1
 395 0 l 1
 393 0 l 1
 316 0 l 2
 309 0 302 6 302 13 c 0
 302 20 309 26 316 26 c 2
 368 26 l 1
 235 203 l 1
 145 113 l 1
 145 26 l 1
 211 26 l 2
 218 26 224 20 224 13 c 0
 224 6 218 0 211 0 c 2
 134 0 l 1
 132 0 l 1
 129 0 l 1
 53 0 l 1
 52 0 l 2
 45 0 39 6 39 13 c 0
 39 20 45 26 52 26 c 2
 53 26 l 1
 118 26 l 1
 118 116 l 1
 118 118 l 1
 118 120 l 1
 118 552 l 1
 53 552 l 1
 52 552 l 2
 45 552 39 559 39 566 c 0
 39 573 45 579 52 579 c 2
 53 579 l 1
 129 579 l 1
 131 579 l 1
EndSplineSet
EndChar

StartChar: l
Encoding: 108 108 77
Width: 263
Flags: MW
HStem: 0 26<48.5 53 52 53 53 118 145 211> 552 27<48.5 53 52 53 53 118>
VStem: 118 27<26 552 552 552>
LayerCount: 2
Fore
SplineSet
131 579 m 1
 132 579 l 2
 135 579 138 578 140 576 c 2
 141 575 l 1
 142 574 l 2
 144 572 145 569 145 566 c 2
 145 563 l 1
 145 26 l 1
 211 26 l 2
 218 26 224 20 224 13 c 0
 224 6 218 0 211 0 c 2
 134 0 l 1
 132 0 l 1
 129 0 l 1
 53 0 l 1
 52 0 l 2
 45 0 39 6 39 13 c 0
 39 20 45 26 52 26 c 2
 53 26 l 1
 118 26 l 1
 118 552 l 1
 53 552 l 1
 52 552 l 2
 45 552 39 559 39 566 c 0
 39 573 45 579 52 579 c 2
 53 579 l 1
 129 579 l 1
 131 579 l 1
EndSplineSet
EndChar

StartChar: m
Encoding: 109 109 78
Width: 789
Flags: MW
HStem: 0 26<48.5 53 52 53 53 118 145 211 316 382 408 474 552 553 553 645 671 737> 368 26<48.5 53 52 53 53 118 240 313 240 240 503 576 503 503>
VStem: 118 27<26 297 26 301 26 302 26 304 334 368 368 368> 382 26<26 297 26 299 26 299> 645 26<26 299 299 299>
LayerCount: 2
Fore
SplineSet
131 395 m 2
 132 395 l 2
 135 395 138 394 140 392 c 2
 141 391 l 1
 142 390 l 2
 144 388 145 384 145 381 c 2
 145 379 l 1
 145 334 l 1
 175 364 l 1
 178 367 l 1
 231 393 l 2
 233 394 235 394 237 394 c 2
 316 394 l 2
 318 394 320 394 322 393 c 2
 374 367 l 2
 376 366 379 363 380 361 c 2
 398 325 l 1
 438 364 l 2
 439 365 441 366 442 367 c 2
 494 393 l 2
 496 394 498 394 500 394 c 2
 579 394 l 2
 581 394 583 394 585 393 c 2
 637 367 l 2
 639 366 642 363 643 361 c 2
 670 308 l 2
 671 306 671 304 671 302 c 2
 671 26 l 1
 737 26 l 2
 744 26 750 20 750 13 c 0
 750 6 744 0 737 0 c 2
 660 0 l 1
 658 0 l 1
 656 0 l 1
 553 0 l 1
 552 0 l 2
 545 0 539 6 539 13 c 0
 539 20 545 26 552 26 c 2
 553 26 l 1
 645 26 l 1
 645 299 l 1
 622 345 l 1
 576 368 l 1
 503 368 l 1
 455 344 l 1
 408 297 l 1
 408 26 l 1
 474 26 l 2
 481 26 487 20 487 13 c 0
 487 6 481 0 474 0 c 2
 397 0 l 1
 395 0 l 1
 393 0 l 1
 316 0 l 2
 309 0 302 6 302 13 c 0
 302 20 309 26 316 26 c 2
 382 26 l 1
 382 299 l 1
 359 345 l 1
 313 368 l 1
 240 368 l 1
 192 344 l 1
 145 297 l 1
 145 26 l 1
 211 26 l 2
 218 26 224 20 224 13 c 0
 224 6 218 0 211 0 c 2
 134 0 l 1
 132 0 l 1
 129 0 l 1
 53 0 l 1
 52 0 l 2
 45 0 39 6 39 13 c 0
 39 20 45 26 52 26 c 2
 53 26 l 1
 118 26 l 1
 118 301 l 1
 118 302 l 1
 118 304 l 1
 118 368 l 1
 53 368 l 1
 52 368 l 2
 45 368 39 374 39 381 c 0
 39 388 45 394 52 394 c 2
 53 394 l 1
 129 394 l 2
 130 394 130 395 131 395 c 2
EndSplineSet
EndChar

StartChar: n
Encoding: 110 110 79
Width: 526
Flags: MW
HStem: 0 26<48.5 53 52 53 53 118 145 211 316 382 408 474> 368 26<48.5 53 52 53 53 118 240 313 240 240>
VStem: 118 27<26 272 26 274 26 276 26 278 320 368 368 368> 382 26<26 299 299 299>
LayerCount: 2
Fore
SplineSet
131 395 m 2
 132 395 l 2
 135 395 138 394 140 392 c 2
 141 391 l 1
 142 390 l 2
 144 388 145 384 145 381 c 2
 145 379 l 1
 145 320 l 1
 173 362 l 2
 174 364 176 366 178 367 c 2
 231 393 l 2
 233 394 235 394 237 394 c 2
 316 394 l 2
 318 394 320 394 322 393 c 2
 374 367 l 2
 376 366 379 363 380 361 c 2
 407 308 l 2
 408 306 408 304 408 302 c 2
 408 26 l 1
 474 26 l 2
 481 26 487 20 487 13 c 0
 487 6 481 0 474 0 c 2
 397 0 l 1
 395 0 l 1
 393 0 l 1
 316 0 l 2
 309 0 302 6 302 13 c 0
 302 20 309 26 316 26 c 2
 382 26 l 1
 382 299 l 1
 359 345 l 1
 313 368 l 1
 240 368 l 1
 193 345 l 1
 145 272 l 1
 145 26 l 1
 211 26 l 2
 218 26 224 20 224 13 c 0
 224 6 218 0 211 0 c 2
 134 0 l 1
 132 0 l 1
 129 0 l 1
 53 0 l 1
 52 0 l 2
 45 0 39 6 39 13 c 0
 39 20 45 26 52 26 c 2
 53 26 l 1
 118 26 l 1
 118 274 l 1
 118 276 l 1
 118 278 l 1
 118 368 l 1
 53 368 l 1
 52 368 l 2
 45 368 39 374 39 381 c 0
 39 388 45 394 52 394 c 2
 53 394 l 1
 129 394 l 2
 130 394 130 395 131 395 c 2
EndSplineSet
EndChar

StartChar: o
Encoding: 111 111 80
Width: 473
Flags: MW
HStem: 0 26<206 261 206 261 213 261 213 263 213 267> 368 26<213 213 213 261>
VStem: 39 27<173 221> 408 26<173 221 221 221>
LayerCount: 2
Fore
SplineSet
213 368 m 1
 139 343 l 1
 90 295 l 1
 66 221 l 1
 66 173 l 1
 90 99 l 1
 139 51 l 1
 213 26 l 1
 261 26 l 1
 335 51 l 1
 383 99 l 1
 408 173 l 1
 408 221 l 1
 383 295 l 1
 335 343 l 1
 261 368 l 1
 213 368 l 1
210 395 m 1
 211 395 l 1
 212 394 l 1
 263 394 l 1
 267 394 l 1
 346 367 l 2
 348 366 350 365 351 364 c 2
 404 312 l 2
 405 311 406 309 407 307 c 2
 434 228 l 1
 434 223 l 1
 434 171 l 1
 434 167 l 1
 407 88 l 2
 406 86 405 84 404 83 c 2
 351 30 l 2
 350 29 348 28 346 27 c 2
 267 0 l 1
 263 0 l 1
 211 0 l 1
 206 0 l 1
 127 27 l 2
 125 28 123 29 122 30 c 2
 70 83 l 2
 69 84 67 86 66 88 c 2
 40 167 l 2
 40 168 39 170 39 171 c 2
 39 223 l 2
 39 224 40 227 40 228 c 2
 66 307 l 2
 67 309 69 311 70 312 c 2
 122 364 l 2
 123 365 125 366 127 367 c 2
 205 393 l 2
 206 393 207 394 208 394 c 2
 209 394 l 1
 210 395 l 1
EndSplineSet
EndChar

StartChar: p
Encoding: 112 112 81
Width: 499
Flags: MW
HStem: -184 26<48.5 53 52 53 53 118 145 211> 0 26<236 313 240 313 240 316> 368 26<48.5 53 52 53 53 118 240 240 240 313>
VStem: 118 27<-158 60 -158 90 97 297 334 368 368 368> 434 27<173 247 247 247>
LayerCount: 2
Fore
SplineSet
240 368 m 1
 192 344 l 1
 145 297 l 1
 145 97 l 1
 192 50 l 1
 240 26 l 1
 313 26 l 1
 361 50 l 1
 410 99 l 1
 434 173 l 1
 434 247 l 1
 410 295 l 1
 361 344 l 1
 313 368 l 1
 240 368 l 1
131 395 m 2
 132 395 l 2
 135 395 138 394 140 392 c 2
 141 391 l 1
 142 390 l 2
 144 388 145 384 145 381 c 2
 145 379 l 1
 145 334 l 1
 175 364 l 1
 178 367 l 1
 231 393 l 2
 233 394 235 394 237 394 c 2
 316 394 l 2
 318 394 320 394 322 393 c 2
 374 367 l 2
 375 366 377 365 378 364 c 2
 430 312 l 2
 431 311 432 309 433 308 c 2
 459 256 l 2
 460 254 461 252 461 250 c 2
 461 171 l 2
 461 170 460 168 460 167 c 2
 434 88 l 2
 433 86 431 84 430 83 c 2
 378 30 l 2
 377 29 375 28 374 27 c 2
 322 1 l 2
 320 0 318 0 316 0 c 2
 237 0 l 2
 235 0 233 0 231 1 c 2
 178 27 l 1
 175 30 l 1
 145 60 l 1
 145 -158 l 1
 211 -158 l 2
 218 -158 224 -164 224 -171 c 0
 224 -178 218 -184 211 -184 c 2
 134 -184 l 2
 133 -184 133 -185 132 -185 c 0
 131 -185 130 -184 129 -184 c 2
 53 -184 l 1
 52 -184 l 2
 45 -184 39 -178 39 -171 c 0
 39 -164 45 -158 52 -158 c 2
 53 -158 l 1
 118 -158 l 1
 118 90 l 1
 118 92 l 1
 118 94 l 1
 118 301 l 1
 118 302 l 1
 118 304 l 1
 118 368 l 1
 53 368 l 1
 52 368 l 2
 45 368 39 374 39 381 c 0
 39 388 45 394 52 394 c 2
 53 394 l 1
 129 394 l 2
 130 394 130 395 131 395 c 2
EndSplineSet
EndChar

StartChar: q
Encoding: 113 113 82
Width: 499
Flags: MW
HStem: -184 26<285.5 355 289 355 289 366 289 371 382 447 447 448> 0 26<183 260 187 260 187 263> 368 26<187 187 187 260>
VStem: 39 27<173 221> 355 27<-158 60 60 60 97 297 297 297 334 381 381 382>
LayerCount: 2
Fore
SplineSet
187 368 m 1
 139 344 l 1
 90 295 l 1
 66 221 l 1
 66 173 l 1
 90 99 l 1
 139 50 l 1
 187 26 l 1
 260 26 l 1
 308 50 l 1
 355 97 l 1
 355 297 l 1
 308 344 l 1
 260 368 l 1
 187 368 l 1
368 395 m 0
 375 395 382 389 382 382 c 2
 382 381 l 1
 382 304 l 1
 382 302 l 1
 382 300 l 1
 382 94 l 1
 382 92 l 1
 382 90 l 1
 382 -158 l 1
 447 -158 l 1
 448 -158 l 2
 455 -158 461 -164 461 -171 c 0
 461 -178 455 -184 448 -184 c 2
 447 -184 l 1
 371 -184 l 2
 370 -184 369 -185 368 -185 c 0
 367 -185 367 -184 366 -184 c 2
 289 -184 l 2
 282 -184 276 -178 276 -171 c 0
 276 -164 282 -158 289 -158 c 2
 355 -158 l 1
 355 60 l 1
 325 30 l 1
 322 27 l 1
 269 1 l 2
 267 0 265 0 263 0 c 2
 184 0 l 2
 182 0 180 0 178 1 c 2
 126 27 l 2
 125 28 123 29 122 30 c 2
 70 83 l 2
 69 84 67 86 66 88 c 2
 40 167 l 2
 40 168 39 170 39 171 c 2
 39 223 l 2
 39 224 40 227 40 228 c 2
 66 307 l 2
 67 309 69 311 70 312 c 2
 122 364 l 2
 123 365 125 366 126 367 c 2
 178 393 l 2
 180 394 182 394 184 394 c 2
 263 394 l 2
 265 394 267 394 269 393 c 2
 322 367 l 1
 325 364 l 1
 355 334 l 1
 355 381 l 1
 355 382 l 2
 355 389 361 395 368 395 c 0
EndSplineSet
EndChar

StartChar: r
Encoding: 114 114 83
Width: 421
Flags: MW
HStem: 0 26<48.5 53 52 53 53 118 145 211> 289 53<338.5 343.5> 368 26<48.5 53 52 53 53 118 266 337 266 266>
VStem: 118 27<26 221 26 222 26 223 26 224 305 368 368 368> 329 53<327.5 329 327.5 329 329 332.5> 355 27<334 350 350 350>
LayerCount: 2
Fore
SplineSet
131 395 m 2xf4
 132 395 l 2
 135 395 138 394 140 392 c 2
 141 391 l 1
 142 390 l 2
 144 388 145 384 145 381 c 2
 145 379 l 1
 145 305 l 1
 145 307 l 2
 146 309 148 311 149 312 c 2
 201 364 l 2
 202 365 204 366 205 367 c 2
 257 393 l 2
 259 394 261 394 263 394 c 2
 342 394 l 2
 345 394 349 393 351 391 c 2
 378 364 l 2
 380 362 382 358 382 355 c 2xf4
 382 329 l 2
 382 326 380 321 378 319 c 2
 351 293 l 2
 349 291 345 289 342 289 c 0
 335 289 329 295 329 302 c 2
 329 329 l 2xf8
 329 336 335 342 342 342 c 0
 347 342 352 338 354 333 c 1
 355 334 l 1
 355 350 l 1
 337 368 l 1
 266 368 l 1
 218 344 l 1
 169 295 l 1
 145 221 l 1
 145 26 l 1
 211 26 l 2
 218 26 224 20 224 13 c 0
 224 6 218 0 211 0 c 2
 134 0 l 1
 132 0 l 1
 129 0 l 1
 53 0 l 1
 52 0 l 2
 45 0 39 6 39 13 c 0
 39 20 45 26 52 26 c 2
 53 26 l 1
 118 26 l 1
 118 222 l 1
 118 223 l 1
 118 224 l 1
 118 368 l 1
 53 368 l 1
 52 368 l 2
 45 368 39 374 39 381 c 0
 39 388 45 394 52 394 c 2
 53 394 l 1
 129 394 l 2
 130 394 130 395 131 395 c 2xf4
EndSplineSet
EndChar

StartChar: s
Encoding: 115 115 84
Width: 473
Flags: MW
HStem: 0 26<183 286 187 286 187 289> 368 26<161 260 161 161>
VStem: 66 26<13 62 282 323> 355 27<71 139 139 139 332 355>
LayerCount: 2
Fore
SplineSet
158 394 m 2
 263 394 l 2
 265 394 267 394 269 393 c 2
 322 367 l 1
 325 364 l 1
 351 338 l 1
 354 335 l 1
 355 332 l 1
 355 355 l 2
 355 362 361 368 368 368 c 0
 375 368 382 362 382 355 c 2
 382 276 l 2
 382 269 375 263 368 263 c 0
 364 263 359 266 357 270 c 2
 331 321 l 1
 308 344 l 1
 260 368 l 1
 161 368 l 1
 113 344 l 1
 92 323 l 1
 92 282 l 1
 113 261 l 1
 162 236 l 1
 292 210 l 2
 293 210 294 209 295 209 c 2
 348 183 l 1
 351 180 l 1
 378 154 l 2
 380 152 382 147 382 144 c 2
 382 66 l 2
 382 63 380 58 378 56 c 2
 351 30 l 1
 348 27 l 1
 295 1 l 2
 293 0 291 0 289 0 c 2
 184 0 l 2
 182 0 180 0 178 1 c 2
 126 27 l 2
 125 28 123 29 122 30 c 2
 96 56 l 2
 95 57 94 59 93 60 c 2
 92 62 l 1
 92 13 l 2
 92 6 86 0 79 0 c 0
 72 0 66 6 66 13 c 2
 66 118 l 2
 66 125 72 131 79 131 c 0
 83 131 89 128 91 124 c 2
 116 73 l 1
 139 50 l 1
 187 26 l 1
 286 26 l 1
 334 50 l 1
 355 71 l 1
 355 139 l 1
 334 160 l 1
 285 185 l 1
 155 211 l 2
 154 211 153 212 152 212 c 2
 99 238 l 2
 98 239 97 239 96 240 c 2
 70 267 l 2
 68 269 66 273 66 276 c 2
 66 329 l 2
 66 332 68 336 70 338 c 2
 96 364 l 1
 99 367 l 1
 152 393 l 2
 154 394 156 394 158 394 c 2
EndSplineSet
EndChar

StartChar: t
Encoding: 116 116 85
Width: 368
Flags: MW
HStem: 0 26<210 260 214 260 214 263> 27 26<315 322> 368 26<48.5 53 52 53 53 118 145 237> 559 20G<131 132 132 135.5>
VStem: 118 27<120 368 394 566>
LayerCount: 2
Fore
SplineSet
131 579 m 2
 132 579 l 2
 139 579 145 573 145 566 c 2
 145 394 l 1
 237 394 l 2
 244 394 250 388 250 381 c 0
 250 374 244 368 237 368 c 2
 145 368 l 1
 145 120 l 1
 169 49 l 1
 214 26 l 1
 260 26 l 1
 310 51 l 2
 312 52 314 53 316 53 c 0
 323 53 329 46 329 39 c 0
 329 34 326 29 322 27 c 2
 269 1 l 2
 267 0 265 0 263 0 c 2
 211 0 l 2
 209 0 207 0 205 1 c 2
 152 27 l 2
 149 28 146 32 145 35 c 2
 119 114 l 2
 119 115 118 117 118 118 c 2
 118 368 l 1
 53 368 l 1
 52 368 l 2
 45 368 39 374 39 381 c 0
 39 388 45 394 52 394 c 2
 53 394 l 1
 118 394 l 1
 118 566 l 2
 118 573 124 579 131 579 c 2
EndSplineSet
EndChar

StartChar: u
Encoding: 117 117 86
Width: 552
Flags: MW
HStem: 0 26<210 287 214 287 214 289 214 294 434 500> 368 26<48.5 53 52 53 53 118 316 408>
VStem: 118 27<95 368 368 368> 408 26<13 90 26 60 60 60 97 368 368 368>
LayerCount: 2
Fore
SplineSet
131 395 m 2
 132 395 l 2
 135 395 138 394 140 392 c 2
 141 391 l 1
 142 390 l 2
 144 388 145 384 145 381 c 2
 145 379 l 1
 145 95 l 1
 168 49 l 1
 214 26 l 1
 287 26 l 1
 361 51 l 1
 408 97 l 1
 408 368 l 1
 316 368 l 2
 309 368 302 374 302 381 c 0
 302 388 309 394 316 394 c 2
 419 394 l 2
 420 394 420 395 421 395 c 0
 424 395 427 394 429 392 c 2
 430 391 l 1
 431 390 l 2
 433 388 434 384 434 381 c 2
 434 379 l 1
 434 94 l 1
 434 92 l 1
 434 90 l 1
 434 26 l 1
 500 26 l 2
 507 26 513 20 513 13 c 0
 513 6 507 0 500 0 c 2
 423 0 l 1
 421 0 l 2
 418 0 415 0 413 2 c 2
 413 3 l 1
 412 3 l 1
 411 4 l 2
 409 6 408 10 408 13 c 2
 408 15 l 1
 408 60 l 1
 378 30 l 2
 377 29 375 28 373 27 c 2
 294 0 l 1
 289 0 l 1
 211 0 l 2
 209 0 207 0 205 1 c 2
 152 27 l 2
 150 28 147 31 146 33 c 2
 120 86 l 2
 119 88 118 90 118 92 c 2
 118 368 l 1
 53 368 l 1
 52 368 l 2
 45 368 39 374 39 381 c 0
 39 388 45 394 52 394 c 2
 53 394 l 1
 129 394 l 2
 130 394 130 395 131 395 c 2
EndSplineSet
EndChar

StartChar: v
Encoding: 118 118 87
Width: 473
Flags: MW
HStem: 0 21G<235 236 235 235 236 237 237 238 238 240 240 241> 368 26<22.5 77 26 70 99 158 99 99 316 375 403 403 403 447 447 448>
LayerCount: 2
Fore
SplineSet
79 395 m 2
 80 395 80 394 81 394 c 2
 158 394 l 2
 165 394 171 388 171 381 c 0
 171 374 165 368 158 368 c 2
 99 368 l 1
 237 46 l 1
 375 368 l 1
 316 368 l 2
 309 368 302 374 302 381 c 0
 302 388 309 394 316 394 c 2
 393 394 l 2
 394 394 394 395 395 395 c 0
 396 395 396 394 397 394 c 2
 447 394 l 1
 448 394 l 2
 455 394 461 388 461 381 c 0
 461 374 455 368 448 368 c 2
 447 368 l 1
 403 368 l 1
 250 9 l 2
 249 5 245 1 241 0 c 2
 240 0 l 1
 238 0 l 1
 237 0 l 1
 236 0 l 1
 235 0 l 2
 230 1 225 4 224 9 c 2
 70 368 l 1
 26 368 l 2
 19 368 13 374 13 381 c 0
 13 388 19 394 26 394 c 2
 77 394 l 1
 79 395 l 2
EndSplineSet
EndChar

StartChar: w
Encoding: 119 119 88
Width: 631
Flags: MW
HStem: 0 21G<207 208 207 207 208 209 209 210 210 211 211 212 212 215 417 418 417 417 418 420 420 421 421 422 422 423 423 425> 368 26<22.5 103 26 95 123 184 123 123 447 509 536 536 536 605>
LayerCount: 2
Fore
SplineSet
105 395 m 0
 106 395 106 394 107 394 c 2
 184 394 l 2
 191 394 198 388 198 381 c 0
 198 374 191 368 184 368 c 2
 123 368 l 1
 211 61 l 1
 303 384 l 2
 304 387 306 391 309 393 c 0
 310 393 310 394 311 394 c 0
 312 394 313 395 314 395 c 2
 315 395 l 1
 316 395 l 1
 317 395 l 1
 318 394 l 1
 320 394 l 1
 321 394 l 2
 322 393 324 392 325 391 c 0
 327 389 329 385 329 383 c 2
 421 61 l 1
 509 368 l 1
 447 368 l 2
 440 368 434 374 434 381 c 0
 434 388 440 394 447 394 c 2
 524 394 l 2
 525 394 525 395 526 395 c 0
 527 395 528 394 529 394 c 2
 605 394 l 2
 612 394 619 388 619 381 c 0
 619 374 612 368 605 368 c 2
 536 368 l 1
 434 11 l 2
 433 8 431 3 428 1 c 0
 427 1 426 0 425 0 c 2
 423 0 l 1
 422 0 l 1
 421 0 l 1
 420 0 l 1
 418 0 l 1
 417 0 l 1
 416 1 l 2
 415 2 413 3 412 4 c 0
 410 6 408 9 408 11 c 2
 316 333 l 1
 224 11 l 2
 223 8 220 3 217 1 c 0
 216 1 216 0 215 0 c 2
 212 0 l 1
 211 0 l 1
 210 0 l 1
 209 0 l 1
 208 0 l 1
 207 0 l 1
 205 1 l 2
 204 2 202 3 201 4 c 0
 199 6 197 9 197 11 c 2
 95 368 l 1
 26 368 l 2
 19 368 13 374 13 381 c 0
 13 388 19 394 26 394 c 2
 103 394 l 2
 104 394 104 395 105 395 c 0
EndSplineSet
EndChar

StartChar: x
Encoding: 120 120 89
Width: 499
Flags: MW
HStem: 0 26<48.5 53 52 53 53 99 132 184 316 368 401 447 447 448> 368 26<48.5 53 52 53 53 99 132 184 132 132 316 368 401 401 401 447 447 448>
LayerCount: 2
Fore
SplineSet
105 395 m 2
 107 394 l 1
 184 394 l 2
 191 394 198 388 198 381 c 0
 198 374 191 368 184 368 c 2
 132 368 l 1
 250 218 l 1
 368 368 l 1
 316 368 l 2
 309 368 302 374 302 381 c 0
 302 388 309 394 316 394 c 2
 393 394 l 2
 394 394 394 395 395 395 c 0
 396 395 396 394 397 394 c 2
 447 394 l 1
 448 394 l 2
 455 394 461 388 461 381 c 0
 461 374 455 368 448 368 c 2
 447 368 l 1
 401 368 l 1
 267 197 l 1
 401 26 l 1
 447 26 l 1
 448 26 l 2
 455 26 461 20 461 13 c 0
 461 6 455 0 448 0 c 2
 447 0 l 1
 397 0 l 1
 395 0 l 1
 393 0 l 1
 316 0 l 2
 309 0 302 6 302 13 c 0
 302 20 309 26 316 26 c 2
 368 26 l 1
 250 176 l 1
 132 26 l 1
 184 26 l 2
 191 26 198 20 198 13 c 0
 198 6 191 0 184 0 c 2
 107 0 l 1
 105 0 l 1
 103 0 l 1
 53 0 l 1
 52 0 l 2
 45 0 39 6 39 13 c 0
 39 20 45 26 52 26 c 2
 53 26 l 1
 99 26 l 1
 233 197 l 1
 99 368 l 1
 53 368 l 1
 52 368 l 2
 45 368 39 374 39 381 c 0
 39 388 45 394 52 394 c 2
 53 394 l 1
 103 394 l 2
 104 394 104 395 105 395 c 2
EndSplineSet
EndChar

StartChar: y
Encoding: 121 121 90
Width: 473
Flags: MW
HStem: -184 26<77.5 102 84 102 84 105> -184 78<77.5 79 79 82.5 77.5 105> 368 26<48.5 53 52 53 53 97 125 184 125 125 342 401 430 430 430 474>
VStem: 39 45<-158 -143.5>
LayerCount: 2
Fore
SplineSet
105 395 m 2xb0
 106 395 106 394 107 394 c 2
 184 394 l 2
 191 394 198 388 198 381 c 0
 198 374 191 368 184 368 c 2
 125 368 l 1
 263 46 l 1
 401 368 l 1
 342 368 l 2
 335 368 329 374 329 381 c 0
 329 388 335 394 342 394 c 2
 419 394 l 2
 420 394 420 395 421 395 c 0
 422 395 422 394 423 394 c 2
 474 394 l 2
 481 394 487 388 487 381 c 0
 487 374 481 368 474 368 c 2
 430 368 l 1
 276 9 l 2
 276 8 275 6 274 5 c 2
 222 -98 l 2
 221 -99 221 -101 220 -102 c 2
 167 -154 l 1
 164 -157 l 1
 111 -183 l 2
 109 -184 107 -184 105 -184 c 2xb0
 79 -184 l 2
 76 -184 72 -183 70 -181 c 2
 43 -154 l 2
 41 -152 39 -148 39 -145 c 0
 39 -142 41 -138 43 -136 c 2
 70 -109 l 2
 72 -107 76 -106 79 -106 c 0x70
 86 -106 92 -112 92 -119 c 2
 92 -145 l 2
 92 -150 89 -155 84 -157 c 1
 84 -158 l 1
 102 -158 l 1
 150 -134 l 1
 200 -85 l 1
 249 13 l 1
 97 368 l 1
 53 368 l 1
 52 368 l 2
 45 368 39 374 39 381 c 0
 39 388 45 394 52 394 c 2
 53 394 l 1
 103 394 l 1
 105 395 l 2xb0
EndSplineSet
EndChar

StartChar: z
Encoding: 122 122 91
Width: 394
Flags: MW
HStem: 0 26<80 329 80 342> 0 79<338.5 342> 315 79<53 56.5> 368 26<66 315 66 66>
VStem: 39 27<329 368> 329 26<26 66>
LayerCount: 2
Fore
SplineSet
342 395 m 2x1c
 346 395 351 392 353 389 c 2
 354 388 l 1
 354 387 l 1
 355 386 l 1
 355 381 l 2
 355 378 353 374 351 372 c 2
 80 26 l 1
 329 26 l 1x9c
 329 66 l 2
 329 73 335 79 342 79 c 0
 349 79 355 73 355 66 c 2
 355 13 l 2
 355 6 349 0 342 0 c 2x4c
 54 0 l 1
 53 0 l 2
 49 0 44 2 42 5 c 2
 41 6 l 1
 41 7 l 1
 40 9 l 2
 40 10 39 12 39 13 c 0
 39 16 41 21 43 23 c 2
 315 368 l 1
 66 368 l 1x9c
 66 329 l 2
 66 322 60 315 53 315 c 0
 46 315 39 322 39 329 c 2
 39 381 l 2
 39 388 46 394 53 394 c 2x2c
 340 394 l 1
 342 395 l 2x1c
EndSplineSet
EndChar

StartChar: braceleft
Encoding: 123 123 92
Width: 368
Flags: MW
HStem: -185 25<236 243> 659 25<236 243>
VStem: 118 27<-63 -17 -63 -13 -63 -12 516 562> 197 27<121 165 165 165 334 378 378 378>
LayerCount: 2
Fore
SplineSet
237 684 m 0
 244 684 250 678 250 671 c 0
 250 666 247 661 243 659 c 2
 192 634 l 1
 169 610 l 1
 145 562 l 1
 145 516 l 1
 169 468 l 1
 194 443 l 2
 195 442 195 441 196 440 c 2
 222 387 l 2
 223 385 224 383 224 381 c 2
 224 329 l 2
 224 326 222 321 220 319 c 2
 168 268 l 1
 168 267 l 1
 166 265 l 1
 165 265 l 2
 164 265 164 264 163 264 c 2
 135 250 l 1
 163 236 l 1
 165 235 l 1
 165 234 l 2
 166 234 167 233 167 233 c 1
 168 232 l 1
 169 231 l 1
 220 180 l 2
 222 178 224 174 224 171 c 2
 224 118 l 2
 224 116 223 114 222 112 c 2
 196 60 l 2
 195 59 195 57 194 56 c 2
 169 31 l 1
 145 -17 l 1
 145 -63 l 1
 169 -111 l 1
 192 -134 l 1
 243 -160 l 2
 247 -162 250 -167 250 -172 c 0
 250 -179 244 -185 237 -185 c 0
 235 -185 233 -184 231 -183 c 2
 178 -157 l 1
 175 -154 l 1
 149 -128 l 1
 146 -125 l 1
 120 -72 l 2
 119 -70 118 -68 118 -66 c 2
 118 -13 l 2
 118 -11 119 -10 120 -8 c 2
 146 45 l 2
 147 46 148 48 149 49 c 2
 173 73 l 1
 197 121 l 1
 197 165 l 1
 150 213 l 1
 99 238 l 2
 95 240 92 246 92 250 c 0
 92 254 95 260 99 262 c 2
 150 287 l 1
 197 334 l 1
 197 378 l 1
 173 426 l 1
 149 451 l 1
 146 454 l 1
 120 507 l 2
 119 509 118 511 118 513 c 2
 118 566 l 2
 118 568 119 569 120 571 c 2
 146 624 l 1
 149 627 l 1
 175 654 l 2
 176 655 177 655 178 656 c 2
 231 683 l 2
 233 684 235 684 237 684 c 0
EndSplineSet
EndChar

StartChar: bar
Encoding: 124 124 93
Width: 210
Flags: MW
HStem: -185 21G<101.5 108.5>
VStem: 92 26<-171 671>
LayerCount: 2
Fore
SplineSet
105 684 m 0
 112 684 118 678 118 671 c 2
 118 -171 l 2
 118 -178 112 -185 105 -185 c 0
 98 -185 92 -178 92 -171 c 2
 92 671 l 2
 92 678 98 684 105 684 c 0
EndSplineSet
EndChar

StartChar: braceright
Encoding: 125 125 94
Width: 368
Flags: MW
HStem: -185 21G<127.5 132> 659 25<126 132>
VStem: 145 26<121 165 121 171 121 172.5 334 378> 224 26<-63 -17 -17 -17 516 562 562 562>
LayerCount: 2
Fore
SplineSet
131 684 m 0
 133 684 135 684 137 683 c 2
 190 656 l 2
 191 655 193 655 194 654 c 2
 220 627 l 2
 221 626 221 625 222 624 c 2
 249 571 l 2
 250 569 250 568 250 566 c 2
 250 513 l 2
 250 511 250 509 249 507 c 2
 222 454 l 2
 221 453 221 452 220 451 c 2
 195 426 l 1
 171 378 l 1
 171 334 l 1
 218 287 l 1
 269 262 l 2
 273 260 276 254 276 250 c 0
 276 246 273 240 269 238 c 2
 218 213 l 1
 171 165 l 1
 171 121 l 1
 195 73 l 1
 220 49 l 2
 221 48 221 46 222 45 c 2
 249 -8 l 2
 250 -10 250 -11 250 -13 c 2
 250 -66 l 2
 250 -68 250 -70 249 -72 c 2
 222 -125 l 2
 221 -126 221 -127 220 -128 c 2
 194 -154 l 2
 193 -155 191 -156 190 -157 c 2
 137 -183 l 2
 135 -184 133 -185 131 -185 c 0
 124 -185 118 -179 118 -172 c 0
 118 -167 122 -162 126 -160 c 2
 176 -134 l 1
 200 -111 l 1
 224 -63 l 1
 224 -17 l 1
 200 31 l 1
 175 56 l 2
 174 57 173 59 172 60 c 2
 146 112 l 2
 145 114 145 116 145 118 c 2
 145 171 l 2
 145 174 147 178 149 180 c 2
 200 232 l 2
 201 233 202 233 203 234 c 2
 204 235 l 2
 205 235 205 236 206 236 c 2
 234 250 l 1
 206 264 l 1
 204 265 l 1
 203 265 l 2
 202 265 201 267 201 267 c 1
 200 268 l 1
 149 319 l 2
 147 321 145 326 145 329 c 2
 145 381 l 2
 145 383 145 385 146 387 c 2
 172 440 l 1
 175 443 l 1
 200 468 l 1
 224 516 l 1
 224 562 l 1
 200 610 l 1
 176 634 l 1
 126 659 l 2
 122 661 118 666 118 671 c 0
 118 678 124 684 131 684 c 0
EndSplineSet
EndChar

StartChar: asciitilde
Encoding: 126 126 95
Width: 631
Flags: MW
HStem: 184 26<420 471 424 471 424 474> 316 26<161 207 161 161>
VStem: 66 26<171 221> 539 27<279 329>
LayerCount: 2
Fore
SplineSet
552 342 m 2
 553 342 l 2
 560 342 566 336 566 329 c 2
 566 278 l 1
 566 276 l 2
 566 275 565 274 565 273 c 2
 565 271 l 2
 565 270 564 270 564 269 c 2
 538 218 l 2
 537 216 534 213 532 212 c 2
 480 185 l 2
 478 184 476 184 474 184 c 2
 421 184 l 2
 419 184 417 184 415 185 c 2
 363 212 l 2
 362 212 362 213 361 213 c 2
 256 291 l 1
 207 316 l 1
 161 316 l 1
 116 293 l 1
 92 221 l 1
 92 171 l 2
 92 164 86 157 79 157 c 0
 72 157 66 164 66 171 c 2
 66 223 l 1
 66 228 l 1
 93 307 l 2
 94 310 96 313 99 314 c 2
 152 340 l 2
 154 341 156 342 158 342 c 2
 211 342 l 2
 213 342 214 341 216 340 c 2
 269 314 l 2
 270 314 270 313 271 313 c 2
 375 235 l 1
 424 210 l 1
 471 210 l 1
 516 233 l 1
 539 279 l 1
 539 329 l 2
 539 336 545 342 552 342 c 2
EndSplineSet
EndChar

StartChar: uni007F
Encoding: 127 127 96
Width: 421
Flags: MW
HStem: 0 21G<-3.5 0 0 26 49.5 53 53 79 101.5 105 105 132 154.5 158 158 184 207.5 211 211 237 259.5 263 263 289 312.5 316 316 342 364.5 368 368 395 417.5 424.5> 559 20G<-3.5 3.5 26 53 53 56.5 79 105 105 108.5 132 158 158 161.5 184 211 211 214.5 237 263 263 266.5 289 316 316 319.5 342 368 368 371.5 395 421 421 424.5>
VStem: -13 26<13 569.5 566 569.5> -13 52<9.5 566> 13 53<569.5 569.5> 39 53<9.5 9.5> 66 52<569.5 569.5> 92 53<9.5 9.5> 118 53<569.5 569.5> 145 52<9.5 9.5> 171 53<569.5 569.5> 197 53<9.5 9.5> 224 52<569.5 569.5> 250 53<9.5 9.5> 276 53<569.5 569.5> 303 52<9.5 9.5> 329 53<569.5 569.5> 355 53<9.5 9.5> 382 52<566 566> 408 26<9.5 13>
LayerCount: 2
Fore
SplineSet
0 579 m 0xe0
 7 579 13 573 13 566 c 1xe0
 13 573 19 579 26 579 c 2
 53 579 l 2
 60 579 66 573 66 566 c 1xc8
 66 573 72 579 79 579 c 2
 105 579 l 2
 112 579 118 573 118 566 c 1xc2
 118 573 125 579 132 579 c 2
 158 579 l 2
 165 579 171 573 171 566 c 1xc080
 171 573 177 579 184 579 c 2
 211 579 l 2
 218 579 224 573 224 566 c 1xc020
 224 573 230 579 237 579 c 2
 263 579 l 2
 270 579 276 573 276 566 c 1xc008
 276 573 282 579 289 579 c 2
 316 579 l 2
 323 579 329 573 329 566 c 1xc002
 329 573 335 579 342 579 c 2
 368 579 l 2
 375 579 382 573 382 566 c 1xc00080
 382 573 388 579 395 579 c 2
 421 579 l 2
 428 579 434 573 434 566 c 2xc00020
 434 13 l 2xc00010
 434 6 428 0 421 0 c 0
 414 0 408 6 408 13 c 1xc00040
 408 6 402 0 395 0 c 2
 368 0 l 2
 361 0 355 6 355 13 c 1xc001
 355 6 349 0 342 0 c 2
 316 0 l 2
 309 0 303 6 303 13 c 1xc004
 303 6 296 0 289 0 c 2
 263 0 l 2
 256 0 250 6 250 13 c 1xc010
 250 6 244 0 237 0 c 2
 211 0 l 2
 204 0 197 6 197 13 c 1xc040
 197 6 191 0 184 0 c 2
 158 0 l 2
 151 0 145 6 145 13 c 1xc1
 145 6 139 0 132 0 c 2
 105 0 l 2
 98 0 92 6 92 13 c 1xc4
 92 6 86 0 79 0 c 2
 53 0 l 2
 46 0 39 6 39 13 c 1
 39 6 33 0 26 0 c 2
 0 0 l 2
 -7 0 -13 6 -13 13 c 2xd0
 -13 566 l 2
 -13 573 -7 579 0 579 c 0xe0
EndSplineSet
EndChar

StartChar: dieresis
Encoding: 168 168 97
Width: 394
Flags: MW
HStem: 447 79<103.5 106.5 287.5 290.5>
VStem: 66 79<485.5 488.5> 250 79<485.5 488.5>
LayerCount: 2
Fore
SplineSet
289 494 m 1
 282 487 l 1
 289 479 l 1
 297 487 l 1
 289 494 l 1
105 494 m 1
 98 487 l 1
 105 479 l 1
 113 487 l 1
 105 494 l 1
289 526 m 0
 292 526 297 524 299 522 c 2
 325 496 l 2
 327 494 329 490 329 487 c 0
 329 484 327 479 325 477 c 2
 299 451 l 2
 297 449 292 447 289 447 c 0
 286 447 282 449 280 451 c 2
 254 477 l 2
 252 479 250 484 250 487 c 0
 250 490 252 494 254 496 c 2
 280 522 l 2
 282 524 286 526 289 526 c 0
105 526 m 0
 108 526 113 524 115 522 c 2
 141 496 l 2
 143 494 145 490 145 487 c 0
 145 484 143 479 141 477 c 2
 115 451 l 2
 113 449 108 447 105 447 c 0
 102 447 98 449 96 451 c 2
 70 477 l 2
 68 479 66 484 66 487 c 0
 66 490 68 494 70 496 c 2
 96 522 l 2
 98 524 102 526 105 526 c 0
EndSplineSet
EndChar

StartChar: copyright
Encoding: 169 169 98
Width: 631
Flags: MW
HStem: -53 26<262.5 366 265 366 265 368> 52 27<288 339 293 339 293 342> 394 27<293 339 293 293> 500 26<265 265 265 366>
VStem: 66 26<194 274 199 274 199 276 199 279 199 279> 434 27<175 298 298 298> 539 27<199 274 274 274>
LayerCount: 2
Fore
SplineSet
289 421 m 2
 342 421 l 2
 344 421 346 420 348 419 c 2
 401 393 l 2
 403 392 405 391 406 389 c 2
 458 310 l 2
 459 308 461 304 461 302 c 2
 461 171 l 2
 461 169 459 165 458 163 c 2
 406 85 l 2
 405 83 403 81 401 80 c 2
 348 54 l 2
 346 53 344 52 342 52 c 2
 289 52 l 2
 287 52 286 53 284 54 c 2
 231 80 l 1
 228 83 l 1
 201 109 l 2
 199 111 197 115 197 118 c 0
 197 125 203 131 210 131 c 0
 213 131 218 129 220 127 c 2
 245 103 l 1
 293 79 l 1
 339 79 l 1
 386 102 l 1
 434 175 l 1
 434 298 l 1
 386 371 l 1
 339 394 l 1
 293 394 l 1
 247 371 l 1
 222 323 l 2
 220 319 215 315 210 315 c 0
 203 315 197 321 197 328 c 0
 197 330 198 333 199 335 c 2
 225 387 l 2
 226 389 229 392 231 393 c 2
 284 419 l 2
 286 420 287 421 289 421 c 2
265 500 m 1
 191 475 l 1
 142 426 l 1
 118 377 l 1
 92 274 l 1
 92 199 l 1
 118 96 l 1
 142 47 l 1
 191 -2 l 1
 265 -27 l 1
 366 -27 l 1
 440 -2 l 1
 489 47 l 1
 514 96 l 1
 539 199 l 1
 539 274 l 1
 514 377 l 1
 489 426 l 1
 440 475 l 1
 366 500 l 1
 265 500 l 1
367 526 m 1
 368 526 l 1
 369 526 l 1
 370 526 l 1
 371 526 l 2
 372 526 373 525 374 525 c 2
 452 499 l 2
 454 498 456 497 457 496 c 2
 509 443 l 1
 512 440 l 1
 538 387 l 2
 538 386 539 386 539 385 c 2
 565 279 l 2
 565 278 566 277 566 276 c 2
 566 197 l 2
 566 196 565 195 565 194 c 2
 539 89 l 2
 539 88 538 87 538 86 c 2
 512 33 l 1
 509 30 l 1
 457 -23 l 2
 456 -24 454 -25 452 -26 c 2
 373 -52 l 2
 372 -52 369 -53 368 -53 c 2
 263 -53 l 2
 262 -53 260 -52 259 -52 c 2
 180 -26 l 2
 178 -25 176 -24 175 -23 c 2
 122 30 l 2
 121 31 121 32 120 33 c 2
 93 86 l 1
 93 89 l 1
 66 194 l 1
 66 197 l 1
 66 276 l 1
 66 279 l 1
 93 385 l 1
 93 387 l 1
 120 440 l 2
 121 441 121 442 122 443 c 2
 175 496 l 2
 176 497 178 498 180 499 c 2
 259 525 l 2
 260 525 262 526 263 526 c 2
 367 526 l 1
EndSplineSet
EndChar

StartChar: guillemotleft
Encoding: 171 171 99
Width: 368
Flags: MW
HStem: 375 20G<182.5 187.5 340.5 345.5>
LayerCount: 2
Fore
SplineSet
342 395 m 0
 349 395 355 388 355 381 c 0
 355 378 353 374 351 372 c 2
 203 223 l 1
 351 75 l 2
 353 73 355 68 355 65 c 0
 355 58 349 52 342 52 c 0
 339 52 335 54 333 56 c 2
 175 214 l 2
 173 216 171 220 171 223 c 0
 171 226 173 231 175 233 c 2
 333 391 l 2
 335 393 339 395 342 395 c 0
184 395 m 0
 191 395 197 388 197 381 c 0
 197 378 196 374 194 372 c 2
 45 223 l 1
 194 75 l 2
 196 73 198 68 198 65 c 0
 198 58 191 52 184 52 c 0
 181 52 177 54 175 56 c 2
 17 214 l 2
 15 216 13 220 13 223 c 0
 13 226 15 231 17 233 c 2
 175 391 l 2
 177 393 181 395 184 395 c 0
EndSplineSet
EndChar

StartChar: acute
Encoding: 180 180 100
Width: 315
Flags: MW
HStem: 394 158<75.5 237>
VStem: 66 184<404.5 542.5>
LayerCount: 2
Fore
SplineSet
236 552 m 2
 237 552 l 2
 244 552 250 546 250 539 c 0
 250 536 248 531 245 529 c 2
 87 398 l 2
 85 396 82 394 79 394 c 0
 72 394 66 401 66 408 c 0
 66 411 68 416 71 418 c 2
 228 549 l 2
 230 551 233 552 236 552 c 2
EndSplineSet
EndChar

StartChar: cedilla
Encoding: 184 184 101
Width: 131
Flags: MW
HStem: -106 27<48.5 53 52 53 53 73 52 79>
VStem: 39 79<-95.5 -64.5 -67.5 -38.5>
LayerCount: 2
Fore
SplineSet
105 26 m 0
 112 26 119 20 119 13 c 0
 119 10 117 6 115 4 c 2
 84 -27 l 2
 85 -28 87 -29 88 -30 c 2
 115 -57 l 2
 117 -59 118 -63 118 -66 c 0
 118 -69 117 -73 115 -75 c 2
 88 -102 l 2
 86 -104 82 -106 79 -106 c 2
 53 -106 l 1
 52 -106 l 2
 45 -106 39 -99 39 -92 c 0
 39 -85 45 -79 52 -79 c 2
 53 -79 l 1
 73 -79 l 1
 87 -66 l 1
 73 -53 l 1
 53 -53 l 2
 46 -53 39 -47 39 -40 c 0
 39 -37 41 -32 43 -30 c 2
 96 22 l 2
 98 24 102 26 105 26 c 0
EndSplineSet
EndChar

StartChar: guillemotright
Encoding: 187 187 102
Width: 368
Flags: MW
HStem: 375 20G<22.5 27.5 180.5 185.5>
LayerCount: 2
Fore
SplineSet
184 395 m 0
 187 395 192 393 194 391 c 2
 351 233 l 2
 353 231 355 226 355 223 c 0
 355 220 353 216 351 214 c 2
 194 56 l 2
 192 54 187 52 184 52 c 0
 177 52 171 58 171 65 c 0
 171 68 173 73 175 75 c 2
 323 223 l 1
 175 372 l 2
 173 374 171 378 171 381 c 0
 171 388 177 395 184 395 c 0
26 395 m 0
 29 395 34 393 36 391 c 2
 194 233 l 2
 196 231 197 226 197 223 c 0
 197 220 196 216 194 214 c 2
 36 56 l 2
 34 54 29 52 26 52 c 0
 19 52 13 58 13 65 c 0
 13 68 15 73 17 75 c 2
 166 223 l 1
 17 372 l 2
 15 374 13 378 13 381 c 0
 13 388 19 395 26 395 c 0
EndSplineSet
EndChar

StartChar: igrave
Encoding: 236 236 135
Width: 263
Flags: HMW
HStem: 0 26<48.5 53 52 53 53 118 145 211> 368 26<48.5 53 52 53 53 118> 500 79<104 105 105 106 106 106.5> 631 158<180.5 345.5>
VStem: 66 79<537.5 540.5> 118 27<26 368 368 368> 171 184<641.5 779.5>
LayerCount: 2
Fore
SplineSet
131 395 m 2xe8
 132 395 l 2
 135 395 138 394 140 392 c 2
 141 391 l 1
 142 390 l 2
 144 388 145 384 145 381 c 2
 145 379 l 1
 145 26 l 1
 211 26 l 2
 218 26 224 20 224 13 c 0
 224 6 218 0 211 0 c 2
 134 0 l 1
 132 0 l 1
 129 0 l 1
 53 0 l 1
 52 0 l 2
 45 0 39 6 39 13 c 0
 39 20 45 26 52 26 c 2
 53 26 l 1
 118 26 l 1
 118 368 l 1
 53 368 l 1
 52 368 l 2
 45 368 39 374 39 381 c 0
 39 388 45 394 52 394 c 2
 53 394 l 1
 129 394 l 2
 130 394 130 395 131 395 c 2xe8
EndSplineSet
Refer: 65 96 N 1 0 0 1 -66.5 106 2
EndChar

StartChar: iacute
Encoding: 237 237 136
Width: 263
Flags: HMW
HStem: 0 26<48.5 53 52 53 53 118 145 211> 368 26<48.5 53 52 53 53 118> 500 79<104 105 105 106 106 106.5> 631 158<180.5 342>
VStem: 66 79<537.5 540.5> 118 27<26 368 368 368> 171 184<641.5 779.5>
LayerCount: 2
Fore
SplineSet
131 395 m 2xe8
 132 395 l 2
 135 395 138 394 140 392 c 2
 141 391 l 1
 142 390 l 2
 144 388 145 384 145 381 c 2
 145 379 l 1
 145 26 l 1
 211 26 l 2
 218 26 224 20 224 13 c 0
 224 6 218 0 211 0 c 2
 134 0 l 1
 132 0 l 1
 129 0 l 1
 53 0 l 1
 52 0 l 2
 45 0 39 6 39 13 c 0
 39 20 45 26 52 26 c 2
 53 26 l 1
 118 26 l 1
 118 368 l 1
 53 368 l 1
 52 368 l 2
 45 368 39 374 39 381 c 0
 39 388 45 394 52 394 c 2
 53 394 l 1
 129 394 l 2
 130 394 130 395 131 395 c 2xe8
EndSplineSet
Refer: 100 180 N 1 0 0 1 -45 106 2
EndChar

StartChar: icircumflex
Encoding: 238 238 137
Width: 263
Flags: HMW
HStem: 0 26<48.5 53 52 53 53 118 145 211> 368 26<48.5 53 52 53 53 118> 500 79<104 105 105 106 106 106.5> 631 184<-57.5 103 102 266.5>
VStem: 66 79<537.5 540.5> 118 27<26 368 368 368>
LayerCount: 2
Fore
SplineSet
131 395 m 2xe8
 132 395 l 2
 135 395 138 394 140 392 c 2
 141 391 l 1
 142 390 l 2
 144 388 145 384 145 381 c 2
 145 379 l 1
 145 26 l 1
 211 26 l 2
 218 26 224 20 224 13 c 0
 224 6 218 0 211 0 c 2
 134 0 l 1
 132 0 l 1
 129 0 l 1
 53 0 l 1
 52 0 l 2
 45 0 39 6 39 13 c 0
 39 20 45 26 52 26 c 2
 53 26 l 1
 118 26 l 1
 118 368 l 1
 53 368 l 1
 52 368 l 2
 45 368 39 374 39 381 c 0
 39 388 45 394 52 394 c 2
 53 394 l 1
 129 394 l 2
 130 394 130 395 131 395 c 2xe8
EndSplineSet
Refer: 63 94 N 1 0 0 1 -104.5 211 2
EndChar

StartChar: idieresis
Encoding: 239 239 138
Width: 263
Flags: HMW
HStem: 0 26<48.5 53 52 53 53 118 145 211> 368 26<48.5 53 52 53 53 118> 500 79<104 105 105 106 106 106.5> 631 79<10.5 13.5 194.5 197.5>
VStem: -27 79<669.5 672.5> 66 79<537.5 540.5> 118 27<26 368 368 368> 157 79<669.5 672.5>
LayerCount: 2
Fore
SplineSet
131 394 m 2xe8
 132 394 l 2
 135 394 138 393 140 391 c 2
 141 390 l 1
 142 389 l 2
 144 387 145 383 145 380 c 2
 145 378 l 1
 145 25 l 1
 211 25 l 2
 218 25 224 19 224 12 c 0
 224 5 218 -1 211 -1 c 2
 134 -1 l 1
 132 -1 l 1
 129 -1 l 1
 53 -1 l 1
 52 -1 l 2
 45 -1 39 5 39 12 c 0
 39 19 45 25 52 25 c 2
 53 25 l 1
 118 25 l 1
 118 367 l 1
 53 367 l 1
 52 367 l 2
 45 367 39 373 39 380 c 0
 39 387 45 393 52 393 c 2
 53 393 l 1
 129 393 l 2
 130 393 130 394 131 394 c 2xe8
EndSplineSet
Refer: 97 168 N 1 0 0 1 -66.5 53 2
EndChar

StartChar: glyph10
Encoding: 339 339 146
Width: 789
Flags: MW
HStem: 0 26<206 261 206 261 213 261 213 263 213 267 556 628> 210 27<439 724 439 737 434 724> 368 26<213 213 213 261 556 556 556 628>
VStem: 39 27<173 221> 408 26<173 210 173 221 173 221> 724 26<237 273 273 273>
LayerCount: 2
Fore
SplineSet
556 368 m 1
 508 344 l 1
 459 295 l 1
 439 237 l 1
 724 237 l 1
 724 273 l 1
 700 321 l 1
 676 344 l 1
 628 368 l 1
 556 368 l 1
213 368 m 1
 139 343 l 1
 90 295 l 1
 66 221 l 1
 66 173 l 1
 90 99 l 1
 139 51 l 1
 213 26 l 1
 261 26 l 1
 335 51 l 1
 383 99 l 1
 408 173 l 1
 408 221 l 1
 383 295 l 1
 335 343 l 1
 261 368 l 1
 213 368 l 1
210 395 m 1
 211 395 l 1
 212 394 l 1
 263 394 l 1
 267 394 l 1
 346 367 l 2
 348 366 350 365 351 364 c 2
 404 312 l 2
 405 311 406 309 407 307 c 2
 421 265 l 1
 435 307 l 2
 436 309 437 311 438 312 c 2
 491 364 l 1
 494 367 l 1
 547 393 l 2
 549 394 551 394 553 394 c 2
 632 394 l 2
 634 394 635 394 637 393 c 2
 690 367 l 2
 691 366 693 365 694 364 c 2
 720 338 l 2
 721 337 721 336 722 335 c 2
 749 282 l 2
 750 280 750 278 750 276 c 2
 750 223 l 2
 750 216 744 210 737 210 c 2
 434 210 l 1
 434 173 l 1
 459 99 l 1
 508 50 l 1
 556 26 l 1
 628 26 l 1
 676 50 l 1
 728 101 l 2
 730 103 734 105 737 105 c 0
 744 105 750 99 750 92 c 0
 750 89 748 85 746 83 c 2
 694 30 l 2
 693 29 691 28 690 27 c 2
 637 1 l 2
 635 0 634 0 632 0 c 2
 553 0 l 2
 551 0 549 0 547 1 c 2
 494 27 l 1
 491 30 l 1
 438 83 l 2
 437 84 436 86 435 88 c 2
 421 129 l 1
 407 88 l 2
 406 86 405 84 404 83 c 2
 351 30 l 2
 350 29 348 28 346 27 c 2
 267 0 l 1
 263 0 l 1
 211 0 l 1
 206 0 l 1
 127 27 l 2
 125 28 123 29 122 30 c 2
 70 83 l 2
 69 84 67 86 66 88 c 2
 40 167 l 2
 40 168 39 170 39 171 c 2
 39 223 l 2
 39 224 40 227 40 228 c 2
 66 307 l 2
 67 309 69 311 70 312 c 2
 122 364 l 2
 123 365 125 366 127 367 c 2
 205 393 l 2
 206 393 207 394 208 394 c 2
 209 394 l 1
 210 395 l 1
EndSplineSet
EndChar

StartChar: glyph21
Encoding: 338 338 147
Width: 736
Flags: MW
HStem: 0 26<233 289 233 289 239 289 239 289 289 290 290 355 382 671> 289 27<382 513 382 513> 375 20G<522.5 529.5> 394 21G<680.5 687.5> 552 27<239 239 239 289 289 290 290 355 382 382 382 671>
VStem: 39 27<251 327> 355 27<26 289 26 300 26 302 26 304 316 552> 513 26<223 289 289 289 316 381> 671 26<26 144 144 145 407 408 408 552 552 552>
LayerCount: 2
Fore
SplineSet
239 552 m 1xcf80
 165 528 l 1
 116 479 l 1
 91 429 l 1
 66 327 l 1
 66 251 l 1
 91 149 l 1
 116 100 l 1
 165 51 l 1
 239 26 l 1
 289 26 l 1
 290 26 l 1
 355 26 l 1
 355 300 l 1
 355 302 l 1
 355 304 l 1
 355 552 l 1
 289 552 l 1
 239 552 l 1xcf80
368 579 m 1
 371 579 l 1
 684 579 l 2
 691 579 697 573 697 566 c 2
 697 408 l 1
 697 407 l 2
 697 400 691 394 684 394 c 0xdf80
 677 394 671 400 671 407 c 2
 671 408 l 1
 671 552 l 1
 382 552 l 1
 382 316 l 1
 513 316 l 1
 513 381 l 2
 513 388 519 395 526 395 c 0xef80
 533 395 539 388 539 381 c 2
 539 305 l 2
 539 304 540 303 540 302 c 0
 540 301 539 301 539 300 c 2
 539 223 l 2
 539 216 533 210 526 210 c 0
 519 210 513 216 513 223 c 2
 513 289 l 1
 382 289 l 1
 382 26 l 1
 671 26 l 1
 671 144 l 1
 671 145 l 2
 671 152 677 158 684 158 c 0
 691 158 697 152 697 145 c 2
 697 144 l 1
 697 13 l 2
 697 6 691 0 684 0 c 2
 371 0 l 1
 368 0 l 1
 366 0 l 1
 289 0 l 1
 237 0 l 1
 233 0 l 1
 154 27 l 2
 152 28 150 29 149 30 c 2
 96 83 l 1
 93 86 l 1
 67 139 l 2
 67 140 66 140 66 141 c 2
 40 247 l 2
 40 248 39 249 39 250 c 2
 39 329 l 2
 39 330 40 331 40 332 c 2
 66 437 l 2
 66 438 67 439 67 440 c 2
 93 492 l 2
 94 493 95 495 96 496 c 2
 149 549 l 2
 150 550 152 551 154 552 c 2
 232 578 l 2
 233 578 234 579 235 579 c 2
 236 579 l 1
 237 579 l 1
 238 579 l 1
 289 579 l 1
 290 579 l 1
 366 579 l 1
 368 579 l 1
EndSplineSet
EndChar

StartChar: glyph23
Encoding: 8220 8220 148
Width: 368
Flags: MW
HStem: 368 79<103.5 106.5 261.5 264.5>
VStem: 66 26<439 455 439 460 439 461.5> 66 79<408 409 409 409.5 406.5 460 406.5 461.5> 224 26<439 455 439 460 439 461.5> 224 79<408 409 409 409.5 406.5 460 406.5 461.5>
LayerCount: 2
Fore
SplineSet
263 415 m 1x80
 255 408 l 1
 263 400 l 1
 271 408 l 1
 263 415 l 1x80
105 415 m 1
 98 408 l 1
 105 400 l 1
 113 408 l 1
 105 415 l 1
289 526 m 2
 290 526 l 2
 297 526 303 520 303 513 c 0x88
 303 510 301 506 299 504 c 2
 250 455 l 1
 250 439 l 1x90
 254 443 l 2
 256 445 260 447 263 447 c 0
 266 447 270 445 272 443 c 2
 299 417 l 2
 301 415 303 411 303 408 c 0
 303 405 301 400 299 398 c 2
 272 372 l 2
 270 370 266 368 263 368 c 0
 260 368 256 370 254 372 c 2
 229 397 l 2
 226 399 224 404 224 408 c 2
 224 409 l 1x88
 224 460 l 2x90
 224 463 226 468 228 470 c 2
 280 522 l 2
 282 524 286 526 289 526 c 2
131 526 m 2
 132 526 l 2
 139 526 145 520 145 513 c 0xa0
 145 510 143 506 141 504 c 2
 92 455 l 1
 92 439 l 1xc0
 96 443 l 2
 98 445 102 447 105 447 c 0
 108 447 113 445 115 443 c 2
 141 417 l 2
 143 415 145 411 145 408 c 0
 145 405 143 400 141 398 c 2
 115 372 l 2
 113 370 108 368 105 368 c 0
 102 368 98 370 96 372 c 2
 71 397 l 2
 68 399 66 404 66 408 c 2
 66 409 l 1xa0
 66 460 l 2xc0
 66 463 68 468 70 470 c 2
 122 522 l 2
 124 524 128 526 131 526 c 2
EndSplineSet
EndChar

StartChar: glyph24
Encoding: 8217 8217 149
Width: 184
Flags: MW
HStem: 447 79<103.5 106.5>
VStem: 66 79<377.5 434 485.5 487 432.5 488.5> 118 27<439 455 455 455>
LayerCount: 2
Fore
SplineSet
105 494 m 1x80
 98 487 l 1
 105 479 l 1
 113 487 l 1
 105 494 l 1x80
105 526 m 0
 108 526 113 524 115 522 c 2
 139 497 l 2
 142 495 145 491 145 487 c 2
 145 485 l 1xc0
 145 434 l 2xa0
 145 431 143 427 141 425 c 2
 88 372 l 2
 86 370 82 368 79 368 c 0
 72 368 66 374 66 381 c 0xc0
 66 384 68 389 70 391 c 2
 118 439 l 1
 118 455 l 1xa0
 115 451 l 2
 113 449 108 447 105 447 c 0
 102 447 98 449 96 451 c 2
 70 477 l 2
 68 479 66 484 66 487 c 0xc0
 66 490 68 494 70 496 c 2
 96 522 l 2
 98 524 102 526 105 526 c 0
EndSplineSet
EndChar

StartChar: glyph38
Encoding: 8221 8221 150
Width: 368
Flags: MW
HStem: 447 79<103.5 106.5 261.5 264.5>
VStem: 66 79<377.5 434 485.5 487 432.5 488.5> 118 27<439 455 455 455> 224 79<377.5 434 485.5 487 432.5 488.5> 276 27<439 455 455 455>
LayerCount: 2
Fore
SplineSet
263 494 m 1x80
 255 487 l 1
 263 479 l 1
 271 487 l 1
 263 494 l 1x80
105 494 m 1
 98 487 l 1
 105 479 l 1
 113 487 l 1
 105 494 l 1
263 526 m 0
 266 526 270 524 272 522 c 2
 297 497 l 2
 300 495 303 491 303 487 c 2
 303 485 l 1x90
 303 434 l 2x88
 303 431 301 427 299 425 c 2
 246 372 l 2
 244 370 240 368 237 368 c 0
 230 368 224 374 224 381 c 0x90
 224 384 226 389 228 391 c 2
 276 439 l 1
 276 455 l 1x88
 272 451 l 2
 270 449 266 447 263 447 c 0
 260 447 256 449 254 451 c 2
 228 477 l 2
 226 479 224 484 224 487 c 0x90
 224 490 226 494 228 496 c 2
 254 522 l 2
 256 524 260 526 263 526 c 0
105 526 m 0
 108 526 113 524 115 522 c 2
 139 497 l 2
 142 495 145 491 145 487 c 2
 145 485 l 1xc0
 145 434 l 2xa0
 145 431 143 427 141 425 c 2
 88 372 l 2
 86 370 82 368 79 368 c 0
 72 368 66 374 66 381 c 0xc0
 66 384 68 389 70 391 c 2
 118 439 l 1
 118 455 l 1xa0
 115 451 l 2
 113 449 108 447 105 447 c 0
 102 447 98 449 96 451 c 2
 70 477 l 2
 68 479 66 484 66 487 c 0xc0
 66 490 68 494 70 496 c 2
 96 522 l 2
 98 524 102 526 105 526 c 0
EndSplineSet
EndChar

StartChar: glyph39
Encoding: 8208 8208 151
Width: 684
Flags: MW
HStem: 210 27<101.5 579 105 579>
LayerCount: 2
Fore
SplineSet
105 237 m 2
 579 237 l 2
 586 237 592 230 592 223 c 0
 592 216 586 210 579 210 c 2
 105 210 l 2
 98 210 92 216 92 223 c 0
 92 230 98 237 105 237 c 2
EndSplineSet
EndChar

StartChar: glyph46
Encoding: 8201 8201 152
Width: 105
Flags: W
LayerCount: 2
Fore
SplineSet
0 592 m 1024,0,0
EndSplineSet
EndChar

StartChar: glyph55
Encoding: 8212 8212 153
Width: 526
Flags: MW
HStem: 210 27<-3.5 526 0 526>
LayerCount: 2
Fore
SplineSet
0 237 m 2
 526 237 l 2
 533 237 540 230 540 223 c 0
 540 216 533 210 526 210 c 2
 0 210 l 2
 -7 210 -13 216 -13 223 c 0
 -13 230 -7 237 0 237 c 2
EndSplineSet
EndChar

StartChar: glyph73
Encoding: 8230 8230 154
Width: 368
Flags: MW
HStem: 79 79<77.5 79 79 80.5 183 184 184 185 185 185.5 288 289 289 290 290 290.5>
VStem: 39 79<116.5 119.5> 145 79<116.5 119.5> 250 79<116.5 119.5>
LayerCount: 2
Fore
SplineSet
289 126 m 1
 282 118 l 1
 289 110 l 1
 297 118 l 1
 289 126 l 1
184 126 m 1
 177 118 l 1
 184 110 l 1
 192 118 l 1
 184 126 l 1
79 126 m 1
 71 118 l 1
 79 110 l 1
 87 118 l 1
 79 126 l 1
289 158 m 1
 290 158 l 1
 292 158 l 2
 295 157 298 154 300 152 c 2
 325 127 l 2
 327 125 329 121 329 118 c 0
 329 115 327 111 325 109 c 2
 299 83 l 2
 297 81 292 79 289 79 c 0
 286 79 282 81 280 83 c 2
 254 109 l 2
 252 111 250 115 250 118 c 0
 250 121 252 125 254 127 c 2
 279 152 l 2
 281 154 284 156 287 157 c 2
 288 158 l 1
 289 158 l 1
184 158 m 1
 185 158 l 1
 187 158 l 2
 190 157 193 154 195 152 c 2
 220 127 l 2
 222 125 224 121 224 118 c 0
 224 115 222 111 220 109 c 2
 194 83 l 2
 192 81 187 79 184 79 c 0
 181 79 177 81 175 83 c 2
 149 109 l 2
 147 111 145 115 145 118 c 0
 145 121 147 125 149 127 c 2
 173 152 l 2
 175 154 178 156 181 157 c 2
 183 158 l 1
 184 158 l 1
79 158 m 1
 81 158 l 2
 84 157 88 154 90 152 c 2
 115 127 l 2
 117 125 118 121 118 118 c 0
 118 115 117 111 115 109 c 2
 88 83 l 2
 86 81 82 79 79 79 c 0
 76 79 72 81 70 83 c 2
 43 109 l 2
 41 111 39 115 39 118 c 0
 39 121 41 125 43 127 c 2
 68 152 l 2
 70 154 73 156 76 157 c 2
 77 158 l 1
 79 158 l 1
EndSplineSet
EndChar

StartChar: glyph98
Encoding: 8216 8216 155
Width: 184
Flags: MW
HStem: 368 79<103.5 106.5>
VStem: 66 26<439 455 439 460 439 461.5> 66 79<408 409 409 409.5 406.5 460 406.5 461.5>
LayerCount: 2
Fore
SplineSet
105 415 m 1x80
 98 408 l 1
 105 400 l 1
 113 408 l 1
 105 415 l 1x80
131 526 m 2
 132 526 l 2
 139 526 145 520 145 513 c 0xa0
 145 510 143 506 141 504 c 2
 92 455 l 1
 92 439 l 1xc0
 96 443 l 2
 98 445 102 447 105 447 c 0
 108 447 113 445 115 443 c 2
 141 417 l 2
 143 415 145 411 145 408 c 0
 145 405 143 400 141 398 c 2
 115 372 l 2
 113 370 108 368 105 368 c 0
 102 368 98 370 96 372 c 2
 71 397 l 2
 68 399 66 404 66 408 c 2
 66 409 l 1xa0
 66 460 l 2xc0
 66 463 68 468 70 470 c 2
 122 522 l 2
 124 524 128 526 131 526 c 2
EndSplineSet
EndChar

StartChar: glyph108
Encoding: 8211 8211 156
Width: 368
Flags: MW
HStem: 210 27<48.5 53 52 53 53 316>
VStem: 39 290<219.5 226.5>
LayerCount: 2
Fore
SplineSet
53 237 m 1
 316 237 l 2
 323 237 329 230 329 223 c 0
 329 216 323 210 316 210 c 2
 53 210 l 1
 52 210 l 2
 45 210 39 216 39 223 c 0
 39 230 45 237 52 237 c 2
 53 237 l 1
EndSplineSet
EndChar

