<?xml version="1.0" standalone="no"?>
<!DOCTYPE svg PUBLIC "-//W3C//DTD SVG 1.1//EN" "http://www.w3.org/Graphics/SVG/1.1/DTD/svg11.dtd" >
<svg xmlns="http://www.w3.org/2000/svg" xmlns:xlink="http://www.w3.org/1999/xlink" version="1.1">
<metadata></metadata>
<defs>
<font id="biorhymelight" horiz-adv-x="1818" >
<font-face units-per-em="2048" ascent="1638" descent="-410" />
<missing-glyph horiz-adv-x="589" />
<glyph unicode="fi" horiz-adv-x="1533" d="M414 1122v-157h323v-97h-323v-772h299v-96h-647v96h237v772h-237v97h237v151q0 190 92 287.5t244 97.5q57 0 119.5 -16.5t103 -34.5t101.5 -49l-43 -90q-152 92 -273 92q-103 0 -168 -68.5t-65 -212.5zM1165 1241q-53 0 -88 26.5t-35 67.5t35.5 70t87.5 29 q56 0 91.5 -28.5t35.5 -70.5q0 -41 -35 -67.5t-92 -26.5zM1249 96h240v-96h-590v96h238v774h-238v95h350v-869z" />
<glyph unicode="fl" horiz-adv-x="1521" d="M1235 96h242v-96h-592v96h237v1213h-235v20q-131 74 -240 74q-103 0 -168 -68.5t-65 -212.5v-157h323v-97h-323v-772h299v-96h-647v96h237v772h-237v97h237v151q0 190 92 287.5t244 97.5q56 0 116.5 -16t99 -33t99.5 -47h281v-1309z" />
<glyph unicode="&#xd;" horiz-adv-x="1622" />
<glyph unicode=" "  horiz-adv-x="589" />
<glyph unicode="&#x09;" horiz-adv-x="589" />
<glyph unicode="&#xa0;" horiz-adv-x="589" />
<glyph unicode="!" horiz-adv-x="657" d="M301 401l-14 328q-9 169 -24 334.5t-25.5 260.5t-10.5 116q0 48 25.5 79t75.5 31t75 -31t25 -79q0 -21 -10.5 -116.5t-25 -260.5t-21.5 -334l-15 -328h-55zM326 182q59 0 96 -30t37 -76q0 -44 -37 -73.5t-96 -29.5q-54 0 -91.5 30t-37.5 73q0 45 37.5 75.5t91.5 30.5z " />
<glyph unicode="&#x22;" horiz-adv-x="843" d="M215 1516l137 -19l-114 -532l-70 6zM547 1516l135 -19l-113 -534l-71 6z" />
<glyph unicode="#" horiz-adv-x="1568" d="M1550 874h-364l-144 -391h377v-94h-409l-144 -389h-100l141 389h-450l-142 -389h-102l141 389h-336v94h371l141 391h-378v95h413l129 356h105l-129 -356h450l129 356h103l-131 -356h329v-95zM942 483l143 391h-450l-143 -391h450z" />
<glyph unicode="$" horiz-adv-x="1439" d="M782 676q109 -29 186.5 -55t148 -60.5t113 -73t67 -89.5t24.5 -113q0 -139 -121.5 -225.5t-316.5 -86.5q-43 0 -97 7v-279h-96v295q-250 57 -424 256v-252h-102v434l47 4q195 -282 481 -352v496q-265 71 -395.5 166.5t-130.5 230.5q0 145 114 232t298 87q63 0 112 -8v264 h96v-286q225 -66 369 -250v254h98v-434l-45 -2q-163 269 -426 342v-502zM279 989q0 -97 100.5 -162.5t312.5 -126.5v498q-49 6 -100 6q-144 0 -228.5 -56.5t-84.5 -158.5zM877 66q148 0 240.5 57t92.5 151q0 99 -101.5 161.5t-326.5 121.5v-485q46 -6 95 -6z" />
<glyph unicode="%" horiz-adv-x="1824" d="M272 -72l-63 62l1339 1368l62 -62zM442 647q-136 0 -238 96.5t-102 243.5q0 150 101 244t239 94q137 0 237.5 -96t100.5 -244q0 -150 -100 -244t-238 -94zM444 735q98 0 170 70.5t72 179.5q0 106 -72 178t-170 72q-101 0 -172 -69t-71 -179q0 -106 72 -179t171 -73z M1382 -39q-136 0 -237 97.5t-101 244.5q0 150 100.5 245t237.5 95q136 0 238 -98.5t102 -245.5q0 -150 -101 -244t-239 -94zM1380 53q101 0 172.5 69t71.5 177q0 107 -72 179.5t-172 72.5q-98 0 -169.5 -70.5t-71.5 -177.5t71.5 -178.5t169.5 -71.5z" />
<glyph unicode="&#x26;" horiz-adv-x="1501" d="M1473 18q-110 -43 -228 -43q-144 0 -284 76q-165 -79 -371 -82q-133 -3 -244 38.5t-179.5 125.5t-68.5 195q0 136 90.5 229t286.5 180q-26 130 -26 248q0 193 108.5 317.5t263.5 124.5q135 0 219 -80t84 -194q0 -139 -113 -244.5t-354 -197.5q-9 -4 -27.5 -11.5 t-27.5 -11.5q50 -167 145 -305.5t216 -220.5q97 59 153 144.5t62 180.5q9 117 -56 234l92 43q84 -133 74 -279q-6 -103 -65.5 -202.5t-163.5 -173.5q89 -39 182 -39q113 0 203 41zM559 985q0 -86 21 -205q5 2 57 23q195 73 286 160t91 180q0 86 -53 137t-138 51 q-46 0 -91 -20.5t-84.5 -61t-64 -109t-24.5 -155.5zM590 63q148 0 274 50q-121 90 -215 228.5t-147 301.5q-155 -70 -224 -140.5t-69 -170.5q0 -118 107 -193.5t274 -75.5z" />
<glyph unicode="'" horiz-adv-x="524" d="M225 1518l137 -25l-124 -530l-70 10z" />
<glyph unicode="(" horiz-adv-x="722" d="M629 -250q-69 60 -130.5 128.5t-124 162t-107.5 193t-73 224.5t-28 255q0 129 27.5 252.5t72 222.5t106.5 192t124 162t133 131l37 -51q-390 -417 -390 -909q0 -499 390 -912z" />
<glyph unicode=")" horiz-adv-x="722" d="M94 -250l-37 51q389 411 389 912q0 497 -389 909l37 51q68 -60 129.5 -128.5t123.5 -161.5t107 -192.5t73 -224t28 -253.5q0 -130 -27.5 -254t-71.5 -223.5t-106.5 -192.5t-124 -162t-131.5 -131z" />
<glyph unicode="*" horiz-adv-x="1013" d="M489 1325l-8 72q-6 45 -24.5 119t-18.5 96q0 32 18.5 54t51.5 22t51.5 -22t18.5 -54q0 -21 -19 -94.5t-24 -120.5l-9 -72h-37zM131 1255q-27 6 -44 25t-17 45q0 30 19.5 50t47.5 20q26 0 55.5 -14.5t76 -42.5t89.5 -46l68 -26l-8 -35l-76 12q-45 6 -117.5 6.5t-93.5 5.5z M885 1255q-22 -5 -94.5 -5.5t-118.5 -6.5l-74 -12l-8 35l67 26q47 19 93.5 46.5t74.5 42t54 14.5q29 0 49 -20.5t20 -51.5q0 -25 -18 -43.5t-45 -24.5zM262 852q-27 0 -48 20.5t-21 47.5q0 31 24 55q14 16 73 59.5t93 73.5l55 51l29 -22l-41 -62q-26 -40 -59 -107t-43 -81 q-21 -35 -62 -35zM752 852q-41 0 -62 35q-11 15 -43.5 81.5t-58.5 106.5l-41 62l28 22l56 -51q36 -33 95 -77t71 -56q24 -24 24 -55q0 -27 -21 -47.5t-48 -20.5z" />
<glyph unicode="+" horiz-adv-x="1206" d="M1055 686v-98h-402v-420h-102v420h-401v98h401v416h102v-416h402z" />
<glyph unicode="," horiz-adv-x="583" d="M195 -406l-39 41q98 103 150 186t61 165q-47 -13 -88 -13q-45 0 -79 28t-34 73q0 44 36.5 75t88.5 31q69 0 110 -45t41 -117q0 -96 -65 -208.5t-182 -215.5z" />
<glyph unicode="-" horiz-adv-x="636" d="M573 535v-103h-507v103h507z" />
<glyph unicode="." horiz-adv-x="540" d="M268 -27q-54 0 -91.5 30t-37.5 73q0 45 37.5 75.5t91.5 30.5q60 0 97.5 -30t37.5 -76q0 -43 -38 -73t-97 -30z" />
<glyph unicode="/" horiz-adv-x="876" d="M154 -215h-105l660 1731h104z" />
<glyph unicode="0" horiz-adv-x="1374" d="M688 -27q-116 0 -221 47.5t-184 132t-125.5 210t-46.5 272.5q0 149 44.5 274.5t122 210t183.5 131.5t227 47q115 0 219.5 -47t183.5 -131.5t126 -210.5t47 -274t-45 -273t-123 -209.5t-183.5 -132t-224.5 -47.5zM688 72q206 0 333.5 157t127.5 406q0 248 -131 406.5 t-330 158.5q-208 0 -335.5 -157t-127.5 -408q0 -246 131.5 -404.5t331.5 -158.5z" />
<glyph unicode="1" horiz-adv-x="890" d="M563 98h240v-98h-660v98h310v1004q-50 -74 -138 -120.5t-188 -55.5l-21 98q118 8 220.5 81.5t126.5 176.5v10h110v-1194z" />
<glyph unicode="2" horiz-adv-x="1290" d="M1055 381h100v-381h-1055v98q2 67 21.5 124t52.5 101.5t77 83t97 70.5t110.5 62t119.5 60q16 7 24 11q201 97 265 141q110 74 127 162q3 21 3 43q-1 111 -95 178.5t-234 67.5q-264 0 -494 -233l-59 73q247 258 557 258q82 0 158.5 -22t140 -64t101.5 -110t38 -152 q0 -62 -22.5 -115t-58 -91.5t-95.5 -78t-118 -69t-143 -70.5q-17 -8 -26 -12q-182 -86 -241 -122q-136 -85 -174 -195q-17 -46 -19 -101h842v283z" />
<glyph unicode="3" horiz-adv-x="1155" d="M698 625q168 -28 260.5 -107.5t92.5 -202.5q0 -149 -134 -245.5t-346 -96.5q-162 0 -292 55.5t-250 147.5l55 82q114 -87 232.5 -137.5t258.5 -50.5q155 0 258 71t103 181q0 115 -117 184t-348 69h-178v93h178q198 0 308 78t110 196q0 113 -99 186.5t-233 73.5 q-127 0 -226.5 -44t-205.5 -126l-59 78q114 89 232.5 139.5t262.5 50.5q80 0 157.5 -23.5t142 -66t104 -111.5t39.5 -151q0 -114 -81.5 -199.5t-224.5 -123.5z" />
<glyph unicode="4" horiz-adv-x="1259" d="M1233 397v-98h-295v-326h-111v326h-776v98l748 901h139v-901h295zM170 397h657v791z" />
<glyph unicode="5" horiz-adv-x="1243" d="M678 756q96 -3 179 -28t147 -71.5t100.5 -119t36.5 -164.5q0 -116 -67.5 -210.5t-181.5 -146t-249 -49.5q-83 1 -160 18t-145.5 48.5t-113.5 57t-103 63.5l41 94q258 -180 485 -180q96 0 181.5 34.5t141.5 106t56 164.5q1 134 -102.5 207.5t-280.5 76.5 q-105 3 -209.5 -20.5t-238.5 -75.5v21h-2v688h897v-99h-789v-475q201 66 377 60z" />
<glyph unicode="6" horiz-adv-x="1263" d="M713 766q68 -1 131.5 -14t122 -42t102 -71t69 -104.5t25.5 -139.5q0 -123 -70.5 -221t-182.5 -149.5t-240 -51.5q-116 0 -217 40.5t-177.5 116.5t-120.5 193.5t-44 262.5q0 159 50 294t134.5 226.5t198.5 142.5t241 51q204 0 404 -112l-39 -90q-87 49 -170.5 75.5 t-192.5 26.5q-102 0 -193.5 -40.5t-161.5 -113.5t-113 -183t-48 -242q131 75 248 111.5t244 33.5zM1049 393q3 134 -101 207.5t-260 73.5q-121 0 -232 -34.5t-233 -107.5q8 -108 50 -196.5t104.5 -144.5t138.5 -86.5t156 -30.5q160 0 267 90.5t110 228.5z" />
<glyph unicode="7" horiz-adv-x="1198" d="M100 1262h1037v-99l-731 -1190l-95 50l705 1140h-815v-299h-101v398z" />
<glyph unicode="8" horiz-adv-x="1363" d="M997 596q132 -54 187 -123t55 -158q0 -143 -143.5 -242.5t-390.5 -99.5q-138 0 -251 34.5t-182.5 91.5t-107 126t-37.5 142q0 102 61 187.5t156 143.5q-164 98 -164 242q0 152 136 255t352 103q117 0 217.5 -33t166.5 -87.5t103 -122.5t37 -140q0 -167 -195 -319z M662 1200q-152 0 -260.5 -70.5t-108.5 -177.5q0 -97 96.5 -163.5t296.5 -106.5q132 -26 215 -53q82 67 130 133t48 147q0 119 -116.5 205t-300.5 86zM709 72q185 0 301 70t116 184q0 96 -97.5 150.5t-346.5 105.5q-154 29 -262 77q-182 -125 -182 -286q0 -120 130 -210.5 t341 -90.5z" />
<glyph unicode="9" horiz-adv-x="1263" d="M594 1300q114 0 215 -40.5t177 -116.5t120.5 -193.5t44.5 -261.5q0 -159 -50 -295t-135.5 -227t-198.5 -142t-239 -51q-211 0 -405 113l41 90q82 -49 166.5 -75.5t193.5 -26.5q210 0 357 158t159 421q-129 -76 -246 -112t-247 -35q-85 1 -162 22.5t-142 64t-104 115 t-39 166.5q0 125 70.5 224t182.5 150.5t241 51.5zM213 881q-1 -136 102.5 -208.5t259.5 -72.5q122 0 232.5 34t230.5 105q-7 108 -48 196.5t-103.5 145t-139 87t-157.5 30.5q-159 0 -265.5 -90t-111.5 -227z" />
<glyph unicode=":" horiz-adv-x="612" d="M305 780q-55 0 -92 30.5t-37 74.5q0 43 37 73.5t92 30.5q59 0 96 -30t37 -74q0 -45 -37 -75t-96 -30zM305 -27q-55 0 -92 30t-37 73q0 46 36.5 76t92.5 30q59 0 96 -30t37 -76q0 -44 -37 -73.5t-96 -29.5z" />
<glyph unicode=";" horiz-adv-x="649" d="M326 778q-54 0 -91.5 30t-37.5 73q0 45 37.5 75.5t91.5 30.5q59 0 96 -30t37 -76q0 -44 -37 -73.5t-96 -29.5zM227 -406l-39 41q97 100 149 184t62 167q-47 -13 -86 -13q-46 0 -80 28t-34 73q0 44 36.5 75t88.5 31q69 0 110 -45t41 -117q0 -95 -65.5 -207.5 t-182.5 -216.5z" />
<glyph unicode="&#x3c;" horiz-adv-x="1038" d="M907 1163v-110l-690 -418l690 -416v-110l-846 512v28z" />
<glyph unicode="=" horiz-adv-x="1116" d="M989 874v-98h-866v98h866zM989 494v-99h-866v99h866z" />
<glyph unicode="&#x3e;" horiz-adv-x="1038" d="M129 1163l846 -512v-28l-846 -514v110l692 418l-692 416v110z" />
<glyph unicode="?" horiz-adv-x="937" d="M92 1362q197 72 371 72q81 0 155 -20.5t133 -58.5t94.5 -99t35.5 -136q0 -50 -16.5 -94.5t-41 -77t-66.5 -66.5t-77.5 -56.5t-89.5 -53.5q-147 -78 -186 -106q-79 -60 -80 -127q0 -39 13 -76.5t42 -95.5l-49 -17q-41 66 -54.5 90t-29 63.5t-15.5 71.5q0 44 17.5 80 t67 73.5t78.5 55t109 60.5q17 9 25 14q60 34 95 57t71 55.5t52 68.5t16 81q0 95 -89 154t-214 59q-93 0 -169 -17t-163 -54zM399 -27q-52 0 -89.5 30t-37.5 71q0 44 37 73t90 29q57 0 94 -29t37 -73q0 -42 -37.5 -71.5t-93.5 -29.5z" />
<glyph unicode="@" horiz-adv-x="1935" d="M993 1366q177 0 333 -60.5t267 -165.5t175.5 -252.5t64.5 -316.5q0 -124 -31.5 -223.5t-83.5 -159t-113.5 -91t-125.5 -31.5q-80 0 -141 39.5t-93 105.5q-198 -158 -375 -158q-120 0 -203 65.5t-83 182.5q0 119 97.5 189.5t246.5 70.5q143 0 291 -51v90 q0 108 -63.5 158.5t-164.5 50.5q-158 0 -338 -80l-22 88q198 86 370 86q146 0 233 -74.5t87 -230.5v-260q0 -85 47.5 -139t120.5 -54q104 0 181 111t77 315q0 149 -58 281.5t-157.5 228.5t-240 151.5t-298.5 55.5q-165 0 -313 -61t-256.5 -168t-172 -260t-63.5 -328 q0 -141 42 -265.5t113 -215t164 -156.5t196.5 -98.5t207.5 -32.5q220 0 430 119l29 -68q-209 -129 -457 -129q-115 0 -230.5 35t-220 107t-185 171.5t-128 238t-47.5 296.5q0 196 71.5 365t193.5 283.5t284 179.5t342 65zM893 145q151 0 332 131q-6 27 -6 56v100 q-142 44 -279 47q-66 0 -121 -18t-91 -59t-36 -99q0 -74 57 -116t144 -42z" />
<glyph unicode="A" horiz-adv-x="1773" d="M1522 98h258v-98h-633v98h252l-178 426h-678l-178 -426h264v-98h-637v98h262l522 1211h-264v96h743v-96h-262zM582 616h600l-287 693h-27z" />
<glyph unicode="B" horiz-adv-x="1546" d="M1059 723q165 -30 259.5 -115.5t94.5 -234.5q0 -182 -136 -277.5t-382 -95.5h-815v98h291v1209h-291v98h792q211 0 329 -96t118 -258q0 -121 -68 -206t-192 -122zM862 1307h-377v-543h359q165 0 261.5 70.5t96.5 207.5q0 134 -94 199.5t-246 65.5zM877 98q419 0 419 281 q0 76 -33.5 132.5t-94.5 90t-138.5 50t-173.5 18.5h-371v-572h392z" />
<glyph unicode="C" horiz-adv-x="1546" d="M825 1335q-115 0 -219 -45.5t-182 -126t-124 -200.5t-46 -261q0 -139 44.5 -257t121.5 -199.5t182.5 -127.5t226.5 -46q318 0 510 268l76 -66q-41 -60 -92.5 -109.5t-122.5 -95.5t-166.5 -72t-204.5 -26q-143 0 -270 52.5t-221 146.5t-148.5 232t-54.5 300q0 163 56 302 t150.5 232t217.5 145.5t256 52.5q169 0 294.5 -70.5t201.5 -187.5l2 229h106l-4 -430l-65 -4q-160 364 -525 364z" />
<glyph unicode="D" horiz-adv-x="1673" d="M756 1405q228 0 404 -81t278 -242t102 -380q0 -218 -102 -378.5t-278 -242t-404 -81.5h-676v98h291v1209h-291v98h676zM750 98q304 0 487.5 159t183.5 445q0 287 -183 446t-488 159h-265v-1209h265z" />
<glyph unicode="E" horiz-adv-x="1587" d="M1419 1010h-108v297h-826v-557h410v213h100v-519h-100v211h-410v-557h826v297h108v-395h-1339v98h291v1209h-291v98h1339v-395z" />
<glyph unicode="F" horiz-adv-x="1507" d="M80 1405h1347v-397h-106v299h-836v-576h449v211h98v-518h-98v213h-449v-539h306v-98h-711v98h291v1209h-291v98z" />
<glyph unicode="G" horiz-adv-x="1622" d="M821 1335q-117 0 -222.5 -45.5t-184.5 -126t-125.5 -200.5t-46.5 -261q0 -140 45.5 -258.5t125 -199.5t188.5 -126.5t233 -45.5q155 0 279 46t206 120v344h-512v96h620v-483q-103 -99 -256.5 -161.5t-336.5 -62.5q-198 0 -359.5 89.5t-256.5 257.5t-95 384 q0 161 56.5 300t150.5 232.5t217.5 146.5t257.5 53q179 0 311 -70t209 -178v219h102v-414l-65 -6q-178 350 -541 350z" />
<glyph unicode="H" horiz-adv-x="1937" d="M1858 1307h-293v-1209h293v-98h-699v98h289v566h-959v-566h287v-98h-696v98h293v1209h-293v98h696v-98h-287v-547h959v547h-289v98h699v-98z" />
<glyph unicode="I" horiz-adv-x="858" d="M778 1307h-293v-1209h293v-98h-698v98h291v1209h-291v98h698v-98z" />
<glyph unicode="J" horiz-adv-x="1206" d="M1192 1405v-98h-291v-850q0 -227 -122.5 -355.5t-317.5 -128.5q-240 0 -449 166l58 86q190 -151 389 -151q146 2 235.5 98.5t89.5 278.5v856h-383v98h791z" />
<glyph unicode="K" horiz-adv-x="1753" d="M1511 98h215v-98h-618v98h258l-522 625l-359 -313v-312h289v-98h-694v98h291v1209h-291v98h694v-98h-289v-783l881 783h-285v98h619v-98h-193l-583 -512z" />
<glyph unicode="L" horiz-adv-x="1470" d="M1251 408h109v-408h-1280v98h291v1209h-291v98h698v-98h-293v-1209h766v310z" />
<glyph unicode="M" horiz-adv-x="2232" d="M2154 1307h-288v-1209h288v-98h-671v98h268v994q0 41 8 139l-620 -1256h-47l-621 1248q6 -71 6 -131v-994h268v-98h-665v98h287v1209h-287v98h416l622 -1251l617 1251h419v-98z" />
<glyph unicode="N" horiz-adv-x="1910" d="M1880 1405v-98h-289v-1321h-45l-1063 1243v-1131h271v-98h-674v98h291v1209h-291v98h403v-2l998 -1178v1082h-291v98h690z" />
<glyph unicode="O" horiz-adv-x="1665" d="M834 -27q-146 0 -273.5 51t-222 143.5t-149 231t-54.5 303.5q0 166 54.5 305t149 231.5t222 144t273.5 51.5q144 0 271.5 -51.5t222 -144t149.5 -231.5t55 -305q0 -165 -55 -303.5t-149.5 -231t-222 -143.5t-271.5 -51zM834 74q164 0 294.5 76t206.5 220t76 332 q0 142 -44 261t-121.5 200t-183.5 125.5t-228 44.5q-125 0 -232 -44.5t-184.5 -125.5t-121.5 -200t-44 -261q0 -284 163.5 -456t418.5 -172z" />
<glyph unicode="P" horiz-adv-x="1497" d="M858 1405q243 0 388 -111.5t145 -310.5q0 -202 -143.5 -313t-389.5 -111h-373v-461h306v-98h-711v98h291v1209h-291v98h778zM856 657q71 0 132.5 11.5t115 36.5t91.5 62.5t59.5 92.5t21.5 123q0 109 -58 184t-150.5 107.5t-213.5 32.5h-369v-648z" />
<glyph unicode="Q" horiz-adv-x="1665" d="M1546 -135l15 -90q-45 -19 -138 -19q-124 0 -222.5 58.5t-188.5 179.5q-100 -21 -178 -21q-146 0 -273.5 51t-222 143.5t-149 231t-54.5 303.5q0 166 54.5 305t149 231.5t222 144t273.5 51.5q144 0 271.5 -51.5t222 -144t149.5 -231.5t55 -305q0 -242 -112 -417 t-300 -254q68 -88 143 -131t169 -43q83 0 114 8zM834 1335q-238 0 -398 -153.5t-182 -411.5h74q118 0 202.5 -20.5t153 -71.5t120.5 -121.5t114 -185.5l59 -113q39 -72 84 -143q163 66 258.5 219.5t95.5 367.5q0 142 -44 261.5t-121.5 200.5t-184.5 126t-231 45zM834 72 q56 0 118 10q-11 18 -78 139l-61 117q-30 56 -49.5 89.5t-47.5 74.5t-52 63.5t-59 47t-74 36.5t-90 19.5t-113 7.5h-76q9 -275 171.5 -439.5t410.5 -164.5z" />
<glyph unicode="R" horiz-adv-x="1585" d="M1505 111l29 -99q-76 -39 -178 -39q-148 0 -244 85t-174 298l-100 271h-353v-529h291v-98l-696 -2v98h291v1211h-291v98h792q228 0 357 -109.5t129 -283.5q0 -146 -109.5 -254.5t-302.5 -126.5l101 -258q65 -165 138.5 -229t178.5 -64q73 0 141 31zM485 1307v-592h389 q167 0 268 85.5t101 211.5q0 127 -98.5 211t-270.5 84h-389z" />
<glyph unicode="S" horiz-adv-x="1396" d="M725 750q274 -74 401 -171t127 -257q0 -154 -128.5 -251.5t-323.5 -97.5q-157 0 -297 72.5t-242 200.5v-246h-104v444l51 2q109 -180 262 -277t326 -97q146 0 242 66.5t96 176.5q0 115 -104.5 192t-348.5 138q-510 126 -510 440q0 156 119 252.5t299 96.5q312 0 489 -260 v231h105v-440l-49 -4q-101 192 -230 283t-299 91q-138 0 -227.5 -65.5t-89.5 -175.5q0 -118 106 -201t330 -143z" />
<glyph unicode="T" horiz-adv-x="1574" d="M98 1405h1379v-397h-107v299h-524v-1209h303v-98h-719v98h301v1209h-524v-299h-109v397z" />
<glyph unicode="U" d="M1804 1405v-98h-291v-779q0 -118 -42 -220t-119 -176.5t-191 -117.5t-252 -43t-252 43t-191 117.5t-119 176.5t-42 220v779h-291v98h695v-98h-287l-2 -783q0 -197 135.5 -324.5t353.5 -127.5q216 0 353 127.5t137 322.5l-2 785h-289v98h696z" />
<glyph unicode="V" horiz-adv-x="1738" d="M1739 1405v-98h-256l-590 -1336h-49l-586 1336h-258v98h635v-98h-250l492 -1145l485 1145h-281v98h658z" />
<glyph unicode="W" horiz-adv-x="2433" d="M2423 1405v-98h-250l-469 -1336h-45l-445 1155l-440 -1155h-49l-467 1336h-246v98h637v-98h-264l375 -1108l434 1173h53l439 -1173l364 1108h-285v98h658z" />
<glyph unicode="X" horiz-adv-x="1683" d="M1391 98h266v-98h-656v94h244l-407 518l-414 -518h248v-94h-645v98h276l469 578l-516 631h-229v98h657v-94h-283l447 -553l448 553h-288v94h647v-98h-236l-504 -613z" />
<glyph unicode="Y" horiz-adv-x="1667" d="M1417 1307l-524 -791v-418h303v-98h-721v98h303v412l-530 797h-232v98h623v-98h-258l461 -707l456 707h-268v98h623v-98h-236z" />
<glyph unicode="Z" horiz-adv-x="1476" d="M131 0v72l999 1185q16 19 42 35t45 21l-3 4q-40 -8 -90 -8h-872v-301h-109v397h1203v-70l-1006 -1190q-27 -36 -84 -51l2 -6q33 10 92 10h897v299h109v-397h-1225z" />
<glyph unicode="[" horiz-adv-x="675" d="M639 1556h-260v-1691h260v-96h-367v1888h367v-101z" />
<glyph unicode="\" horiz-adv-x="892" d="M739 -215l-680 1731h107l678 -1731h-105z" />
<glyph unicode="]" horiz-adv-x="675" d="M403 1657v-1888h-364v96h258v1691h-258v101h364z" />
<glyph unicode="^" horiz-adv-x="1146" d="M995 879h-112l-297 628l-320 -628h-114l413 786h45z" />
<glyph unicode="_" horiz-adv-x="782" d="M809 -180v-103h-836v103h836z" />
<glyph unicode="a" horiz-adv-x="1208" d="M1143 106l26 -86q-53 -34 -125 -34q-68 0 -111.5 43.5t-53.5 122.5q-232 -179 -418 -179q-146 0 -247 79.5t-101 219.5t115.5 226t289.5 86q160 0 356 -70v113q0 72 -21.5 124.5t-60.5 82.5t-87 43.5t-107 13.5q-179 0 -401 -96l-27 94q234 102 436 102q171 0 274 -90 t103 -278v-406q0 -133 84 -133q32 0 76 22zM225 274q0 -96 73 -149t179 -53q177 0 397 166v190q-172 61 -346 64q-80 1 -147.5 -22.5t-111.5 -74.5t-44 -121z" />
<glyph unicode="b" horiz-adv-x="1304" d="M750 989q91 0 172.5 -34.5t143 -96.5t97 -155t35.5 -203q0 -116 -39.5 -216t-106 -168t-156 -106.5t-187.5 -38.5q-192 0 -365 158l-29 -129h-73v1309h-230v96h338v-2h2v-606q79 86 182.5 139t215.5 53zM694 70q164 0 276.5 121.5t112.5 308.5q0 179 -100.5 286 t-253.5 105q-205 -3 -377 -197v-477q164 -147 342 -147z" />
<glyph unicode="c" horiz-adv-x="1167" d="M979 233l59 -73q-89 -88 -191 -138.5t-237 -50.5q-93 0 -181.5 34.5t-160 96.5t-115.5 159t-44 212q0 221 142.5 370t344.5 146q232 -3 350 -180v156h90v-326l-49 -6q-52 132 -144 195t-229 63q-169 0 -280 -116.5t-111 -299.5q0 -120 58 -214t146.5 -142t186.5 -49 q114 -3 200 40.5t165 122.5z" />
<glyph unicode="d" horiz-adv-x="1318" d="M1225 100l24 -92q-57 -33 -123 -33q-71 0 -116.5 43.5t-55.5 124.5q-196 -172 -391 -172q-191 0 -322.5 136.5t-131.5 355.5q0 117 39.5 216.5t106.5 166.5t156 105t187 38q192 0 352 -143v463h-237v96h348v-1200q0 -127 82 -127q54 0 82 22zM223 465q0 -180 102.5 -289 t254.5 -106q186 2 370 168v514q-160 139 -338 139q-164 0 -276.5 -120.5t-112.5 -305.5z" />
<glyph unicode="e" horiz-adv-x="1130" d="M973 211l53 -74q-187 -166 -410 -166q-97 0 -187 32t-161.5 91t-115 152.5t-43.5 206.5q0 102 30 190.5t81 151t117.5 107t140.5 66t149 21.5q168 0 279.5 -84.5t111.5 -214.5q0 -87 -57 -151t-143 -93.5t-187 -29.5q-178 0 -412 88q-2 -16 -2 -49q0 -115 57.5 -205 t148.5 -136t195 -44q196 2 355 141zM631 893q-133 0 -247.5 -83.5t-152.5 -231.5q203 -72 385 -72q117 0 203 48t86 136q0 93 -75.5 148t-198.5 55z" />
<glyph unicode="f" horiz-adv-x="833" d="M647 1403q-103 0 -168 -68.5t-65 -212.5v-157h323v-97h-323v-772h299v-96h-647v96h237v772h-237v97h237v151q0 190 92 287.5t244 97.5q57 0 119.5 -16.5t103 -34.5t101.5 -49l-43 -90q-152 92 -273 92z" />
<glyph unicode="g" horiz-adv-x="1189" d="M868 160q116 0 189 -60t73 -166q0 -117 -87.5 -207t-224.5 -135t-296 -45q-207 0 -340 81t-133 214q0 117 113 203q-88 61 -88 160q0 145 164 244q-64 84 -64 190q0 83 36.5 151.5t96.5 110.5t132 65t147 23q125 0 229 -55q80 222 307 231v-100q-92 -5 -150 -42.5 t-102 -123.5q129 -94 129 -254q0 -109 -59 -191t-151.5 -121.5t-202.5 -39.5q-184 0 -303 104q-105 -74 -105 -166q0 -64 49 -104.5t148 -40.5q78 0 241 37t252 37zM586 899q-120 0 -210.5 -70t-90.5 -190t89.5 -188t211.5 -68q132 0 217.5 69t85.5 193q0 120 -90.5 187 t-212.5 67zM539 -356q126 0 235.5 33t179.5 99.5t70 153.5q0 67 -49 101.5t-131 34.5q-76 0 -233.5 -38t-248.5 -38q-78 0 -139 22q-71 -64 -71 -151q0 -98 107 -157.5t280 -59.5z" />
<glyph unicode="h" horiz-adv-x="1441" d="M1196 96h211v-96h-518v96h194v504q0 289 -245 289q-103 0 -216 -68t-221 -186v-539h193v-96h-543v96h238v1215h-238v94h350v-674q239 258 473 258q152 0 237 -95t85 -284v-514z" />
<glyph unicode="i" horiz-adv-x="700" d="M332 1241q-53 0 -88 26.5t-35 67.5t35.5 70t87.5 29q56 0 91.5 -28.5t35.5 -70.5q0 -41 -35 -67.5t-92 -26.5zM416 96h239v-96h-589v96h237v774h-237v95h350v-869z" />
<glyph unicode="j" horiz-adv-x="630" d="M330 1434q56 0 91.5 -28.5t35.5 -70.5q0 -41 -35 -67.5t-92 -26.5q-53 0 -88 26.5t-35 67.5t35.5 70t87.5 29zM416 965v-1115q0 -154 -87 -245.5t-227 -91.5q-51 0 -104 11.5t-76 20.5t-67 27l28 96q101 -53 217 -53q91 0 147 60.5t56 172.5v1020h-240v97h353z" />
<glyph unicode="k" horiz-adv-x="1355" d="M1286 106l31 -86q-80 -47 -178 -47q-127 0 -216.5 97.5t-127.5 287.5q-12 -2 -35 -2q-167 0 -361 82v-342h236v-96h-584v96h238v1213h-238v96h348v-617q102 91 215.5 146t223.5 55q142 0 236.5 -84t94.5 -223q0 -116 -80 -199t-206 -112q73 -298 262 -301q77 0 141 36z M737 446q129 0 223.5 62.5t94.5 171.5q0 96 -64.5 153.5t-169.5 57.5q-192 0 -422 -195v-172q178 -75 338 -78z" />
<glyph unicode="l" horiz-adv-x="688" d="M401 96h242v-96h-592v96h238v1213h-236l-2 96h350v-1309z" />
<glyph unicode="m" horiz-adv-x="2129" d="M1884 96h215v-96h-518v96h193v516q0 275 -218 275q-97 0 -201.5 -65t-201.5 -179v-18v-529h193v-96h-500v96h194v516q0 132 -55 203.5t-164 71.5q-97 0 -202 -66t-203 -182v-543h194v-96h-544v96h237v772h-237v97h350v-226q214 252 438 252q116 0 192 -66.5t99 -193.5 q214 260 444 260q138 0 216.5 -93.5t78.5 -272.5v-529z" />
<glyph unicode="n" horiz-adv-x="1456" d="M1210 96h211v-96h-518v96h195v504q0 285 -244 285q-104 0 -217 -67t-221 -183v-539h194v-96h-544v96h237v772h-237v97h350v-234q116 123 230.5 190.5t240.5 67.5q152 0 237.5 -95t85.5 -284v-514z" />
<glyph unicode="o" horiz-adv-x="1239" d="M621 -31q-140 1 -256 63t-186 179.5t-70 267.5q0 151 70 268.5t186 179t256 62.5q138 -1 253 -62.5t185.5 -179t70.5 -268.5q0 -150 -69 -267.5t-184.5 -179.5t-255.5 -63zM621 66q173 0 284 114.5t111 298.5q0 185 -111 299.5t-284 114.5q-175 0 -286.5 -114.5 t-111.5 -299.5t111.5 -299t286.5 -114z" />
<glyph unicode="p" horiz-adv-x="1347" d="M793 989q91 0 172.5 -34.5t143 -96.5t97 -155t35.5 -203q0 -116 -39.5 -216t-106.5 -168t-156 -106.5t-187 -38.5q-191 0 -359 154v-475h250v-96h-596v96h236v1218h-236v97h346v-172q78 88 181.5 142t218.5 54zM737 70q164 0 276.5 121.5t112.5 308.5q0 179 -101 286 t-253 105q-205 -3 -379 -199v-473q163 -149 344 -149z" />
<glyph unicode="q" horiz-adv-x="1349" d="M1290 592q-128 112 -260 188v-1130h234v-96h-602v96h258v459q-151 -138 -338 -138q-201 0 -337 138t-136 344q0 244 151 390t385 146q152 0 301 -63l33 69h51v-108q136 -72 260 -180v-115zM920 207v629q-132 55 -263 55q-193 0 -313.5 -120t-120.5 -316q0 -168 107 -278 t272 -107q178 3 318 137z" />
<glyph unicode="r" horiz-adv-x="1093" d="M920 991h61v-381h-104v273q-118 -3 -229 -72.5t-232 -202.5v-512h239v-96h-589v96h237v772h-237v97h350v-260q252 286 504 286z" />
<glyph unicode="s" horiz-adv-x="1114" d="M565 535q72 -18 123.5 -34.5t108.5 -44t92.5 -59t58.5 -77.5t23 -103q0 -116 -97 -180t-235 -64q-115 0 -233 51.5t-193 129.5v-154h-94v305l49 8q79 -110 206 -182t257 -72q93 0 159 40t66 110q0 38 -17.5 69t-44.5 52.5t-73 41.5t-88 33t-105 29q-68 17 -122 34.5 t-108 44t-89.5 57.5t-57.5 73.5t-22 93.5q0 109 92.5 181.5t239.5 72.5q112 0 214 -47.5t169 -124.5v146h94v-306l-53 -6q-60 118 -172 185t-236 67q-100 0 -166.5 -42.5t-66.5 -114.5q0 -33 17.5 -61t44.5 -49t71.5 -40.5t86.5 -33t101 -29.5z" />
<glyph unicode="t" horiz-adv-x="911" d="M834 139l38 -88q-140 -80 -284 -80q-135 0 -220 86t-85 258v553h-236v97h236v268h112v-268h359v-97h-359v-557q0 -67 17.5 -115t48 -73.5t64 -37t73.5 -11.5q120 0 236 65z" />
<glyph unicode="u" horiz-adv-x="1368" d="M1266 96l32 -88q-68 -33 -124 -33q-84 0 -131.5 59t-47.5 167v18q-107 -119 -213.5 -183.5t-224.5 -64.5q-145 0 -226 95.5t-81 277.5v524h-213v97h325v-609q0 -280 228 -280q98 0 202 63t203 174v555h-192v97h305v-760q0 -131 82 -131q48 0 76 22z" />
<glyph unicode="v" horiz-adv-x="1304" d="M1296 965v-97h-188l-438 -897h-45l-445 897h-172v97h488v-93h-193l352 -737l349 737h-187v93h479z" />
<glyph unicode="w" horiz-adv-x="1794" d="M1778 963v-97h-172l-318 -895h-45l-346 774l-344 -774h-45l-320 895h-170v97h478v-91h-193l242 -706l338 772h45l338 -776l241 710h-196v91h467z" />
<glyph unicode="x" horiz-adv-x="1323" d="M1102 868l-371 -381l371 -391h153v-96h-520v90h230l-308 334l-319 -334h237v-90h-507v96h153l375 383l-375 389h-153v97h522v-93h-228l308 -331l313 331h-233v93h505v-97h-153z" />
<glyph unicode="y" horiz-adv-x="1341" d="M1335 965v-97h-186l-442 -1018q-147 -337 -392 -337q-54 0 -107 17t-84 34.5t-77 48.5l51 86q115 -84 217 -84q88 0 162 61.5t127 182.5l33 78l-426 931h-199v97h510v-93h-190l358 -815l352 815h-180v93h473z" />
<glyph unicode="z" horiz-adv-x="1198" d="M1038 328l99 -23q-15 -149 -117 -241.5t-250 -92.5q-237 0 -475 252q-76 -102 -119 -250l-92 31q26 94 65 171t80 128.5t100.5 98t108 74.5t119.5 63q15 8 56 28t60.5 30t50.5 27t54.5 33t44.5 33q-137 101 -281.5 150t-322.5 49v-281h-98v381h88q214 0 364 -56.5 t310 -184.5q82 95 104 241l96 -28q-8 -51 -22 -96.5t-30.5 -81t-43 -70t-48 -58.5t-58.5 -51t-61 -43.5t-69 -39.5t-70 -35t-75 -35q-174 -82 -260 -168q101 -100 209 -156.5t207 -56.5q106 0 182.5 68.5t93.5 189.5z" />
<glyph unicode="{" horiz-adv-x="966" d="M596 -242q127 0 283 62l32 -90q-86 -36 -159 -54t-164 -18q-68 0 -131.5 17.5t-117 51.5t-86 92t-32.5 132q0 58 26.5 113t66.5 95t86.5 83t86.5 78.5t66.5 79.5t26.5 87q0 83 -76.5 132.5t-222.5 48.5h-105v88h105q146 0 222.5 49t76.5 129q0 40 -20 78.5t-51.5 70.5 t-69.5 64.5t-76.5 67.5t-70 72t-51.5 85t-20 101q0 74 32.5 132t86.5 92t117 51t131 17q92 0 166 -17t157 -52l-32 -92q-127 59 -283 59q-38 0 -74 -6t-71 -20.5t-61 -36t-42 -56t-16 -76.5q0 -56 36 -109t87.5 -97t103 -90t87.5 -106.5t36 -127.5q0 -84 -58 -143t-163 -84 q104 -23 162.5 -83t58.5 -145q0 -49 -19.5 -94.5t-50 -81t-68 -69t-75 -66t-68 -65t-50 -72t-19.5 -80.5q0 -69 42 -115.5t99 -64t123 -17.5z" />
<glyph unicode="|" horiz-adv-x="659" d="M274 1714h109v-2109h-109v2109z" />
<glyph unicode="}" horiz-adv-x="966" d="M686 668q-147 0 -223 -49t-76 -132q0 -50 37 -101t89.5 -97t105 -94t89.5 -111.5t37 -132.5q0 -74 -32.5 -132t-85.5 -92t-116 -51.5t-130 -17.5q-94 0 -168 18t-158 54l31 90q159 -62 285 -62q48 0 92 10.5t84 32.5t64 61.5t24 92.5q0 56 -36.5 109t-88 97t-103 89.5 t-88 105.5t-36.5 127q0 84 59 144.5t164 83.5q-105 25 -164 84t-59 143q0 67 36.5 127.5t88 106.5t103 90t88 97t36.5 109q0 69 -42.5 115t-99 63t-122.5 17q-155 0 -285 -59l-31 92q160 69 326 69q67 0 130 -17t116.5 -51t85.5 -92t32 -132q0 -72 -37 -135.5t-89.5 -110.5 t-105 -91t-89.5 -96t-37 -106q0 -80 76 -129t223 -49h102v-88h-102z" />
<glyph unicode="~" horiz-adv-x="1433" d="M999 373q-91 0 -166 60t-155 179q-37 55 -62 88t-56.5 65.5t-62.5 47t-65 14.5q-200 0 -203 -411l-100 2q0 109 16.5 198t51 159.5t94.5 109.5t141 39q89 0 163.5 -59t158.5 -177q40 -59 63 -90t55 -65.5t62.5 -49t64.5 -14.5q203 0 203 414l103 -2q-1 -110 -18 -199.5 t-52 -160t-95 -109.5t-141 -39z" />
<glyph unicode="&#xa1;" horiz-adv-x="657" d="M332 1251q-59 0 -96 30.5t-37 76.5q0 44 37 73t96 29q54 0 91.5 -29.5t37.5 -72.5q0 -46 -37.5 -76.5t-91.5 -30.5zM356 1032l15 -327q9 -169 23.5 -335t25 -260t10.5 -116q0 -48 -25 -79.5t-75 -31.5t-75.5 31.5t-25.5 79.5q0 20 11 116t25.5 261t21.5 334l14 327h55z " />
<glyph unicode="&#xa2;" horiz-adv-x="1165" d="M991 770q-50 120 -128.5 184t-194.5 74v-786q96 6 169 42.5t148 100.5l55 -76q-77 -70 -164 -111t-206 -48v-177h-95v177q-90 9 -172 46t-146.5 96.5t-103 147.5t-38.5 191q0 101 37.5 191t100.5 154t146.5 103.5t175.5 44.5v174h95v-178q183 -23 284 -174v160h90v-334z M227 631q0 -152 102.5 -260.5t248.5 -126.5v784q-148 -15 -249.5 -125.5t-101.5 -271.5z" />
<glyph unicode="&#xa3;" horiz-adv-x="1349" d="M1198 330l92 -25q-15 -149 -109 -240.5t-235 -91.5q-109 0 -204 48t-193 131q-49 -83 -150.5 -131t-244.5 -48h-31v95h31q140 0 230.5 64.5t90.5 174.5q0 60 -29 129h-321v82h285q-90 166 -103 195h-178v80h150q-21 72 -21 131q0 169 112.5 271.5t293.5 102.5 q258 0 442 -223v195h100v-385l-45 -4q-207 321 -489 321q-129 0 -215 -74t-86 -204q0 -63 22 -131h611v-80h-578q17 -36 52.5 -102t49.5 -93h471v-82h-436q25 -77 25 -135q0 -33 -6 -63q196 -166 366 -166q100 0 169 67t81 191z" />
<glyph unicode="&#xa4;" horiz-adv-x="1179" d="M946 657q0 -137 -96 -233l192 -229l-61 -54l-195 234q-86 -53 -198 -53q-110 0 -193 53l-194 -234l-64 54l193 229q-99 99 -99 233q0 140 99 236l-193 231l64 52l194 -232q88 51 193 51q110 0 198 -51l195 232l61 -52l-192 -231q96 -93 96 -236zM332 662 q0 -109 75.5 -179.5t180.5 -70.5q110 0 185 70t75 180q0 107 -75.5 175t-184.5 68q-104 0 -180 -68.5t-76 -174.5z" />
<glyph unicode="&#xa5;" horiz-adv-x="1757" d="M1665 1174h-281l-194 -314h348v-78h-397l-183 -293h580v-77h-600v-314h293v-98h-703v98h297v314h-602v77h572l-185 293h-387v78h336l-199 314h-268v96h637v-96h-246l195 -314h407l191 314h-242v96h631v-96zM885 528l153 254h-311z" />
<glyph unicode="&#xa6;" horiz-adv-x="659" d="M274 1714h109v-891h-109v891zM274 498h109v-893h-109v893z" />
<glyph unicode="&#xa7;" horiz-adv-x="1482" d="M1393 344q0 -125 -101.5 -215.5t-283.5 -122.5q268 -129 268 -334q0 -150 -115 -245t-299 -95q-151 0 -291 72.5t-252 210.5v-254h-104v436l47 6q126 -185 278 -278.5t316 -93.5q135 0 218 64t83 167q0 115 -111.5 187t-359.5 143q-111 31 -194.5 61t-157.5 69t-121 82 t-73.5 98t-26.5 120q0 125 102 214.5t287 123.5q-273 127 -273 332q0 151 115 246.5t299 95.5q151 0 291 -72.5t252 -210.5v254h104v-440l-47 -4q-124 185 -277 279.5t-317 94.5q-135 0 -218 -64.5t-83 -168.5q0 -114 112 -186.5t359 -141.5q112 -32 195 -62t157.5 -68.5 t121 -81.5t73.5 -98t27 -120zM901 49q168 15 271.5 92.5t103.5 188.5q0 113 -121.5 190t-370.5 142q-79 20 -176 53q-171 -15 -275 -92.5t-104 -186.5q0 -114 121 -190t371 -140q104 -28 180 -57z" />
<glyph unicode="&#xa9;" horiz-adv-x="2093" d="M1044 1434q152 0 294.5 -43.5t260.5 -125.5t206 -194t137 -257t49 -306q0 -199 -76 -372.5t-205 -293.5t-302.5 -189t-363.5 -69q-189 0 -361.5 69t-300.5 189t-204 293.5t-76 372.5q0 200 76 374.5t204.5 294.5t300.5 188.5t361 68.5zM1044 -336q174 0 332 64.5t274 175 t184.5 268.5t68.5 336q0 143 -44 274.5t-123.5 235t-186 180t-236.5 117.5t-269 41q-172 0 -329 -64.5t-272.5 -176t-184 -270t-68.5 -337.5q0 -178 68.5 -336t184 -268.5t272.5 -175t329 -64.5zM1339 791v133h88v-303l-59 -5q-88 240 -328 240q-147 0 -246.5 -104 t-99.5 -265q0 -103 51 -186t129.5 -126.5t165.5 -43.5q188 -3 328 156l59 -72q-161 -176 -387 -176q-86 0 -166 31t-143 86.5t-101 141.5t-38 189q0 201 127 332t311 125q100 -3 180.5 -43.5t128.5 -109.5z" />
<glyph unicode="&#xaa;" horiz-adv-x="948" d="M780 991h62v-39q0 -55 -32.5 -91t-84.5 -36q-53 0 -87.5 26.5t-43.5 72.5q-55 -50 -120.5 -78.5t-123.5 -28.5q-82 0 -144.5 46.5t-62.5 135.5t68 139t162 50q90 0 219 -39v82q0 58 -42 92.5t-128 34.5q-91 0 -236 -51l-20 69q142 56 260 56q120 0 185 -54.5t65 -146.5 v-275q0 -30 14.5 -46.5t38.5 -16.5t37.5 16t13.5 43v39zM229 1001q0 -56 38.5 -84t94.5 -28q117 0 230 96v102q-89 31 -201 31q-71 0 -116.5 -31t-45.5 -86zM141 571v72h645v-72h-645z" />
<glyph unicode="&#xab;" horiz-adv-x="1486" d="M256 500q195 -34 341 -174.5t179 -337.5l-86 -27q-28 143 -119 256t-216.5 173.5t-260.5 60.5h-31v98h31q208 0 381 137t215 350l86 -24q-33 -196 -179 -336t-341 -176zM823 500q195 -34 341 -174.5t179 -337.5l-88 -27q-28 143 -116.5 256t-213.5 173.5t-263 60.5h-31 v98h28q211 0 382.5 136.5t213.5 350.5l88 -24q-33 -196 -179 -336t-341 -176z" />
<glyph unicode="&#xac;" horiz-adv-x="1286" d="M1104 836v-603h-103v504h-907v99h1010z" />
<glyph unicode="&#xad;" horiz-adv-x="636" d="M573 535v-103h-507v103h507z" />
<glyph unicode="&#xae;" horiz-adv-x="2093" d="M1044 1434q152 0 294.5 -43.5t260.5 -125.5t206 -194t137 -257t49 -306q0 -199 -76 -372.5t-205 -293.5t-302.5 -189t-363.5 -69q-189 0 -361.5 69t-300.5 189t-204 293.5t-76 372.5q0 200 76 374.5t204.5 294.5t300.5 188.5t361 68.5zM1044 -336q174 0 332 64.5t274 175 t184.5 268.5t68.5 336q0 143 -44 274.5t-123.5 235t-186 180t-236.5 117.5t-269 41q-172 0 -329 -64.5t-272.5 -176t-184 -270t-68.5 -337.5q0 -178 68.5 -336t184 -268.5t272.5 -175t329 -64.5zM1470 246v39h89v-39q0 -82 -49 -140.5t-130 -58.5q-82 0 -132 55t-89 164 q-34 92 -85 139.5t-83 47.5h-168v-314h160v-78h-416v78h168v711h-168v78h553q142 0 220.5 -66.5t78.5 -171.5q0 -96 -79.5 -166.5t-219.5 -70.5h-12q83 -42 125 -150q40 -99 69 -137.5t76 -38.5q44 0 68 34.5t24 84.5zM1120 850h-297v-320h297q94 0 150.5 43.5t56.5 116.5 t-55 116.5t-152 43.5z" />
<glyph unicode="&#xb0;" horiz-adv-x="929" d="M465 977q-138 0 -238 99.5t-100 242.5q0 146 99 242t239 96t238 -98t98 -244q0 -145 -98 -241.5t-238 -96.5zM467 1061q102 0 174 73.5t72 180.5t-72.5 182.5t-173.5 75.5q-104 0 -176 -73t-72 -181q0 -106 73 -182t175 -76z" />
<glyph unicode="&#xb1;" horiz-adv-x="1208" d="M653 899h334v-96h-334v-314h-102v314h-330v96h330v311h102v-311zM221 102v97h764v-97h-764z" />
<glyph unicode="&#xb2;" horiz-adv-x="808" d="M612 1100h76v-240h-618v58q1 48 16.5 88.5t37.5 67.5t61.5 54.5t70 43.5t81.5 41q17 8 25 12q124 62 170.5 103.5t45.5 94.5q-1 57 -50.5 90t-126.5 33q-143 0 -274 -114l-45 57q153 131 321 131q115 1 185.5 -55t70.5 -144q0 -35 -12 -64.5t-29.5 -51.5t-56.5 -49.5 t-72.5 -47.5t-97.5 -55q-9 -5 -26 -14q-46 -25 -68.5 -37.5t-55 -34.5t-47 -39t-26 -41t-12.5 -51h456v164z" />
<glyph unicode="&#xb3;" horiz-adv-x="757" d="M465 1225q207 -40 207 -185q0 -87 -81 -143.5t-212 -56.5q-99 0 -178 35t-154 92l45 65q135 -114 291 -114q89 0 145 33.5t56 92.5q0 62 -68 102t-194 40h-113v69h113q105 0 167 46t62 110q0 62 -51.5 98.5t-134.5 36.5q-139 0 -250 -100l-43 61q133 113 295 113 q112 0 193 -54.5t81 -150.5q0 -67 -46 -117t-130 -73z" />
<glyph unicode="&#xb5;" horiz-adv-x="1366" d="M1266 96l32 -88q-64 -33 -122 -33q-85 0 -132 59t-47 167v20q-213 -248 -415 -248q-173 0 -234 146q2 -17 8 -62t8.5 -70t5.5 -63.5t3 -70.5v-299h-109v1312h-217v99h328v-609q0 -278 223 -278q188 0 399 237v650h113v-760q0 -129 82 -129q45 0 74 20z" />
<glyph unicode="&#xb6;" horiz-adv-x="1552" d="M1223 1405h108v-1395q0 -119 -34.5 -214t-95.5 -155.5t-142 -92t-176 -31.5q-235 0 -488 166l51 92q215 -158 431 -158h18v911q-144 -114 -320 -114q-137 0 -249.5 61t-178 174t-65.5 256q0 235 155 382t394 147q297 0 592 -230v201zM586 512q175 0 309 115v661 q-130 49 -260 49q-189 0 -311.5 -121.5t-122.5 -310.5q0 -176 109.5 -285.5t275.5 -107.5zM999 -362q102 34 163 126.5t61 237.5v1092q-115 91 -224 149v-1605z" />
<glyph unicode="&#xb7;" horiz-adv-x="542" d="M268 573q-53 0 -91 29.5t-38 73.5t38 75t91 31q59 0 97 -30.5t38 -75.5t-37.5 -74t-97.5 -29z" />
<glyph unicode="&#xb9;" horiz-adv-x="626" d="M393 938h137v-78h-424v78h195v535q-31 -40 -78 -65.5t-100 -29.5l-23 82q68 3 127 45.5t74 102.5v10h92v-680z" />
<glyph unicode="&#xba;" horiz-adv-x="839" d="M420 836q-129 0 -217 83t-88 218q0 134 88 216.5t217 82.5q127 0 216 -83t89 -216q0 -135 -88 -218t-217 -83zM420 907q96 0 157.5 65.5t61.5 164.5q0 96 -61.5 160.5t-157.5 64.5t-156.5 -64.5t-60.5 -160.5q0 -99 60.5 -164.5t156.5 -65.5zM143 643h553v-72h-553v72z " />
<glyph unicode="&#xbb;" horiz-adv-x="1486" d="M854 453h-31q-135 0 -260 -61.5t-214.5 -175.5t-117.5 -257l-90 23q35 199 183 341.5t344 176.5q-196 35 -344 175.5t-183 338.5l88 24q42 -215 213.5 -352t380.5 -137h31v-96zM1389 549h32v-96h-32q-134 0 -259 -61.5t-215 -175.5t-118 -257l-88 23q35 199 182.5 341.5 t343.5 176.5q-197 35 -345 175.5t-181 338.5l86 24q29 -143 119 -255.5t215 -173t260 -60.5z" />
<glyph unicode="&#xbc;" horiz-adv-x="1732" d="M1212 1507l93 -43l-381 -819l-351 -833l-92 41l379 819zM106 616h195v535q-31 -40 -77.5 -65t-100.5 -29l-23 84q68 2 127 43.5t74 103.5v10h92v-682h137v-77h-424v77zM1665 229v-73h-160v-185h-92v185h-471v73l453 519h110v-519h160zM1032 229h381v428z" />
<glyph unicode="&#xbd;" horiz-adv-x="1851" d="M1212 1507l93 -43l-381 -819l-351 -833l-92 41l379 819zM106 616h195v535q-31 -40 -77.5 -65t-100.5 -29l-23 84q68 2 127 43.5t74 103.5v10h92v-682h137v-77h-424v77zM1657 240h76v-240h-619v57q1 60 20 105t66.5 82.5t79 55.5t103.5 53q6 3 8.5 4.5t7 3.5t8.5 4 q123 62 169.5 103.5t45.5 94.5q-1 57 -50 90t-126 33q-143 0 -275 -115l-45 58q153 131 322 131q115 1 185.5 -55t70.5 -144q0 -35 -12 -64.5t-29.5 -51.5t-56.5 -49.5t-72.5 -47.5t-97.5 -55q-127 -69 -161 -94q-73 -56 -75 -123h457v164z" />
<glyph unicode="&#xbe;" horiz-adv-x="1783" d="M1264 1507l92 -43l-381 -819l-350 -833l-93 41l379 819zM672 721q0 -88 -81 -144.5t-212 -56.5q-168 0 -332 125l45 66q136 -115 291 -115q89 0 145 34.5t56 94.5q0 62 -67.5 101.5t-194.5 39.5h-113v68h113q105 0 167 46t62 110q0 63 -51.5 99t-134.5 36 q-132 0 -250 -99l-43 60q128 114 295 114q112 0 193 -55t81 -151q0 -69 -48.5 -120t-135.5 -71q103 -17 159 -64t56 -118zM1716 229v-73h-160v-185h-92v185h-471v73l453 519h110v-519h160zM1083 229h381v428z" />
<glyph unicode="&#xbf;" horiz-adv-x="958" d="M559 1454q52 0 89.5 -29.5t37.5 -70.5q0 -44 -37 -73.5t-90 -29.5q-57 0 -94 29.5t-37 73.5q0 42 37.5 71t93.5 29zM866 66q-197 -72 -370 -72q-109 0 -202 34t-154.5 107t-61.5 172q0 50 16.5 94.5t41 77t66.5 66.5t77.5 56.5t89.5 53.5q147 78 188 109q78 58 78 125 q0 39 -13 76.5t-42 95.5l49 16q39 -63 54 -89.5t29.5 -65t14.5 -70.5q0 -44 -17.5 -80t-67 -73.5t-78.5 -55t-109 -60.5q-17 -9 -25 -14q-60 -34 -95 -57t-70.5 -55.5t-51.5 -68.5t-16 -81q0 -95 89 -154t214 -59q92 0 167 17.5t164 54.5z" />
<glyph unicode="&#xc0;" horiz-adv-x="1773" d="M971 1612l-41 -47l-453 346l70 88zM1522 98h258v-98h-633v98h252l-178 426h-678l-178 -426h264v-98h-637v98h262l522 1211h-264v96h743v-96h-262zM582 616h600l-287 693h-27z" />
<glyph unicode="&#xc1;" horiz-adv-x="1773" d="M1286 1913l-452 -346l-41 47l424 387zM1522 98h258v-98h-633v98h252l-178 426h-678l-178 -426h264v-98h-637v98h262l522 1211h-264v96h743v-96h-262zM582 616h600l-287 693h-27z" />
<glyph unicode="&#xc2;" horiz-adv-x="1773" d="M881 1845l-316 -297l-43 39l324 365h72l325 -365l-41 -39zM1522 98h258v-98h-633v98h252l-178 426h-678l-178 -426h264v-98h-637v98h262l522 1211h-264v96h743v-96h-262zM582 616h600l-287 693h-27z" />
<glyph unicode="&#xc3;" horiz-adv-x="1773" d="M690 1864q-130 0 -147 -254l-76 8q6 153 62.5 238.5t160.5 85.5q69 0 119.5 -37.5t108.5 -116.5q52 -72 87 -101.5t82 -29.5q137 0 148 252l80 -8q-8 -151 -67 -238.5t-161 -87.5q-67 0 -115.5 38t-107.5 118q-58 75 -92 104t-82 29zM1522 98h258v-98h-633v98h252 l-178 426h-678l-178 -426h264v-98h-637v98h262l522 1211h-264v96h743v-96h-262zM582 616h600l-287 693h-27z" />
<glyph unicode="&#xc4;" horiz-adv-x="1773" d="M670 1657q-50 0 -83.5 26t-33.5 66t34 67t83 27q52 0 85 -27t33 -67t-33 -66t-85 -26zM1094 1657q-48 0 -82.5 26.5t-34.5 65.5t34.5 66.5t82.5 27.5q52 0 85 -27t33 -67t-33 -66t-85 -26zM1522 98h258v-98h-633v98h252l-178 426h-678l-178 -426h264v-98h-637v98h262 l522 1211h-264v96h743v-96h-262zM582 616h600l-287 693h-27z" />
<glyph unicode="&#xc5;" horiz-adv-x="1773" d="M883 1554q-120 0 -206.5 83.5t-86.5 203.5q0 125 86 205t207 80q124 0 206 -80t82 -205q0 -123 -82.5 -205t-205.5 -82zM883 2048q-90 0 -151.5 -59t-61.5 -148q0 -87 62 -149t151 -62q91 0 150 61.5t59 149.5q0 90 -58.5 148.5t-150.5 58.5zM1522 98h258v-98h-633v98 h252l-178 426h-678l-178 -426h264v-98h-637v98h262l522 1211h-264v96h743v-96h-262zM582 616h600l-287 693h-27z" />
<glyph unicode="&#xc6;" horiz-adv-x="2535" d="M2367 1012h-108v297h-1010l154 -559h436v213h100v-519h-100v211h-409l153 -557h678v297h106v-395h-1167v98h260l-112 426h-701l-266 -426h246v-98h-627v98h260l766 1211h-256v96h1597v-393zM1323 616l-184 693l-434 -693h618z" />
<glyph unicode="&#xc7;" horiz-adv-x="1546" d="M825 1335q-115 0 -219 -45.5t-182 -126t-124 -200.5t-46 -261q0 -139 44.5 -257t121.5 -199.5t182.5 -127.5t226.5 -46q318 0 510 268l76 -66q-41 -60 -92.5 -109.5t-122.5 -95.5t-166.5 -72t-204.5 -26h-6l-57 -147q36 4 63 4q94 0 149.5 -47.5t55.5 -120.5 q0 -79 -67.5 -127.5t-173.5 -48.5q-141 0 -279 88l39 70q116 -80 240 -80q70 0 112.5 26t42.5 72q0 49 -37.5 74.5t-105.5 25.5q-67 0 -125 -10l-10 17l84 208q-130 13 -243 70.5t-196.5 150t-131.5 223.5t-48 283q0 163 56 302t150.5 232t217.5 145.5t256 52.5 q169 0 294.5 -70.5t201.5 -187.5l2 229h106l-4 -430l-65 -4q-160 364 -525 364z" />
<glyph unicode="&#xc8;" horiz-adv-x="1587" d="M928 1612l-41 -47l-453 346l70 88zM1419 1010h-108v297h-826v-557h410v213h100v-519h-100v211h-410v-557h826v297h108v-395h-1339v98h291v1209h-291v98h1339v-395z" />
<glyph unicode="&#xc9;" horiz-adv-x="1587" d="M1243 1913l-452 -346l-41 47l424 387zM1419 1010h-108v297h-826v-557h410v213h100v-519h-100v211h-410v-557h826v297h108v-395h-1339v98h291v1209h-291v98h1339v-395z" />
<glyph unicode="&#xca;" horiz-adv-x="1587" d="M838 1845l-316 -297l-43 39l324 365h71l326 -365l-41 -39zM1419 1010h-108v297h-826v-557h410v213h100v-519h-100v211h-410v-557h826v297h108v-395h-1339v98h291v1209h-291v98h1339v-395z" />
<glyph unicode="&#xcb;" horiz-adv-x="1587" d="M627 1657q-50 0 -83.5 26t-33.5 66t34 67t83 27q52 0 85 -27t33 -67t-33 -66t-85 -26zM1051 1657q-48 0 -82.5 26.5t-34.5 65.5t34.5 66.5t82.5 27.5q52 0 85 -27t33 -67t-33 -66t-85 -26zM1419 1010h-108v297h-826v-557h410v213h100v-519h-100v211h-410v-557h826v297 h108v-395h-1339v98h291v1209h-291v98h1339v-395z" />
<glyph unicode="&#xcc;" horiz-adv-x="858" d="M518 1612l-41 -47l-452 346l69 88zM778 1307h-293v-1209h293v-98h-698v98h291v1209h-291v98h698v-98z" />
<glyph unicode="&#xcd;" horiz-adv-x="858" d="M834 1913l-453 -346l-41 47l424 387zM80 1307v98h698v-98h-293v-1209h293v-98h-698v98h291v1209h-291z" />
<glyph unicode="&#xce;" horiz-adv-x="858" d="M428 1845l-315 -297l-43 39l323 365h72l326 -365l-41 -39zM80 1307v98h698v-98h-293v-1209h293v-98h-698v98h291v1209h-291z" />
<glyph unicode="&#xcf;" horiz-adv-x="858" d="M217 1657q-50 0 -83.5 26t-33.5 66t34 67t83 27q52 0 85.5 -27t33.5 -67t-33.5 -66t-85.5 -26zM641 1657q-48 0 -82.5 26.5t-34.5 65.5t34.5 66.5t82.5 27.5q52 0 85.5 -27t33.5 -67t-33.5 -66t-85.5 -26zM778 1307h-293v-1209h293v-98h-698v98h291v1209h-291v98h698v-98 z" />
<glyph unicode="&#xd0;" horiz-adv-x="1671" d="M756 1405q228 0 404 -81t278 -242t102 -380q0 -218 -102 -378.5t-278 -242t-404 -81.5h-676v98h291v557h-285v84h285v568h-291v98h676zM750 98q304 0 487.5 159t183.5 445q0 287 -183 446t-488 159h-265v-568h523v-84h-523v-557h265z" />
<glyph unicode="&#xd1;" horiz-adv-x="1910" d="M754 1864q-131 0 -148 -254l-76 8q6 153 63 238.5t161 85.5q69 0 119 -37.5t108 -116.5q51 -72 87 -101.5t83 -29.5q136 0 147 252l80 -8q-8 -151 -66.5 -238.5t-160.5 -87.5q-67 0 -115.5 38t-107.5 118q-58 75 -92 104t-82 29zM1880 1405v-98h-289v-1321h-45 l-1063 1243v-1131h271v-98h-674v98h291v1209h-291v98h403v-2l998 -1178v1082h-291v98h690z" />
<glyph unicode="&#xd2;" horiz-adv-x="1665" d="M922 1640l-424 388l-70 -89l453 -346zM834 -27q-146 0 -273.5 51t-222 143.5t-149 231t-54.5 303.5q0 166 54.5 305t149 231.5t222 144t273.5 51.5q144 0 271.5 -51.5t222 -144t149.5 -231.5t55 -305q0 -165 -55 -303.5t-149.5 -231t-222 -143.5t-271.5 -51zM834 74 q164 0 294.5 76t206.5 220t76 332q0 142 -44 261t-121.5 200t-183.5 125.5t-228 44.5q-125 0 -232 -44.5t-184.5 -125.5t-121.5 -200t-44 -261q0 -284 163.5 -456t418.5 -172z" />
<glyph unicode="&#xd3;" horiz-adv-x="1665" d="M743 1642l41 -47l453 347l-70 88zM834 -27q-146 0 -273.5 51t-222 143.5t-149 231t-54.5 303.5q0 166 54.5 305t149 231.5t222 144t273.5 51.5q144 0 271.5 -51.5t222 -144t149.5 -231.5t55 -305q0 -165 -55 -303.5t-149.5 -231t-222 -143.5t-271.5 -51zM834 74 q164 0 294.5 76t206.5 220t76 332q0 142 -44 261t-121.5 200t-183.5 125.5t-228 44.5q-125 0 -232 -44.5t-184.5 -125.5t-121.5 -200t-44 -261q0 -284 163.5 -456t418.5 -172z" />
<glyph unicode="&#xd4;" horiz-adv-x="1665" d="M516 1577l-43 39l324 364h71l326 -364l-41 -39l-322 297zM834 -27q-146 0 -273.5 51t-222 143.5t-149 231t-54.5 303.5q0 166 54.5 305t149 231.5t222 144t273.5 51.5q144 0 271.5 -51.5t222 -144t149.5 -231.5t55 -305q0 -165 -55 -303.5t-149.5 -231t-222 -143.5 t-271.5 -51zM834 74q164 0 294.5 76t206.5 220t76 332q0 142 -44 261t-121.5 200t-183.5 125.5t-228 44.5q-125 0 -232 -44.5t-184.5 -125.5t-121.5 -200t-44 -261q0 -284 163.5 -456t418.5 -172z" />
<glyph unicode="&#xd5;" horiz-adv-x="1665" d="M1038 1604q-68 0 -116 37.5t-107 117.5q-58 75 -92 104t-82 29q-130 0 -147 -254l-76 9q6 153 62.5 238t160.5 85q69 0 119 -37.5t108 -115.5q51 -72 87 -101.5t83 -29.5q137 0 148 251l80 -8q-8 -151 -67 -238t-161 -87zM834 -27q-146 0 -273.5 51t-222 143.5t-149 231 t-54.5 303.5q0 166 54.5 305t149 231.5t222 144t273.5 51.5q144 0 271.5 -51.5t222 -144t149.5 -231.5t55 -305q0 -165 -55 -303.5t-149.5 -231t-222 -143.5t-271.5 -51zM834 74q164 0 294.5 76t206.5 220t76 332q0 142 -44 261t-121.5 200t-183.5 125.5t-228 44.5 q-125 0 -232 -44.5t-184.5 -125.5t-121.5 -200t-44 -261q0 -284 163.5 -456t418.5 -172z" />
<glyph unicode="&#xd6;" horiz-adv-x="1665" d="M621 1686q-50 0 -83.5 26t-33.5 66t34 67t83 27q52 0 85 -27t33 -67t-33 -66t-85 -26zM1044 1686q-48 0 -82 26.5t-34 65.5t34 66.5t82 27.5q52 0 85.5 -27t33.5 -67t-33.5 -66t-85.5 -26zM834 -27q-146 0 -273.5 51t-222 143.5t-149 231t-54.5 303.5q0 166 54.5 305 t149 231.5t222 144t273.5 51.5q144 0 271.5 -51.5t222 -144t149.5 -231.5t55 -305q0 -165 -55 -303.5t-149.5 -231t-222 -143.5t-271.5 -51zM834 74q164 0 294.5 76t206.5 220t76 332q0 142 -44 261t-121.5 200t-183.5 125.5t-228 44.5q-125 0 -232 -44.5t-184.5 -125.5 t-121.5 -200t-44 -261q0 -284 163.5 -456t418.5 -172z" />
<glyph unicode="&#xd7;" horiz-adv-x="1134" d="M924 918l-285 -283l285 -283l-72 -71l-283 282l-286 -284l-74 75l287 285l-285 285l70 67l284 -282l283 282z" />
<glyph unicode="&#xd8;" horiz-adv-x="1665" d="M1139 1368q179 -82 286 -256t107 -410q0 -165 -55 -303.5t-149.5 -231t-222 -143.5t-271.5 -51q-111 0 -216 31l-63 -164h-104l77 197q-181 85 -287 257t-106 408q0 166 54.5 305t149 231.5t222 144t273.5 51.5q108 0 210 -31l66 168h104zM252 702q0 -200 84.5 -348.5 t232.5 -220.5l443 1174q-79 26 -178 26q-125 0 -232 -44.5t-184.5 -125.5t-121.5 -200t-44 -261zM834 74q164 0 294.5 76t206.5 220t76 332q0 201 -84.5 350.5t-230.5 221.5l-445 -1174q82 -26 183 -26z" />
<glyph unicode="&#xd9;" d="M1008 1612l-41 -47l-453 346l70 88zM1804 1405v-98h-291v-779q0 -118 -42 -220t-119 -176.5t-191 -117.5t-252 -43t-252 43t-191 117.5t-119 176.5t-42 220v779h-291v98h695v-98h-287l-2 -783q0 -197 135.5 -324.5t353.5 -127.5q216 0 353 127.5t137 322.5l-2 785h-289 v98h696z" />
<glyph unicode="&#xda;" d="M1323 1913l-453 -346l-41 47l424 387zM1804 1405v-98h-291v-779q0 -118 -42 -220t-119 -176.5t-191 -117.5t-252 -43t-252 43t-191 117.5t-119 176.5t-42 220v779h-291v98h695v-98h-287l-2 -783q0 -197 135.5 -324.5t353.5 -127.5q216 0 353 127.5t137 322.5l-2 785h-289 v98h696z" />
<glyph unicode="&#xdb;" d="M918 1845l-316 -297l-43 39l324 365h71l326 -365l-41 -39zM1804 1405v-98h-291v-779q0 -118 -42 -220t-119 -176.5t-191 -117.5t-252 -43t-252 43t-191 117.5t-119 176.5t-42 220v779h-291v98h695v-98h-287l-2 -783q0 -197 135.5 -324.5t353.5 -127.5q216 0 353 127.5 t137 322.5l-2 785h-289v98h696z" />
<glyph unicode="&#xdc;" d="M707 1657q-50 0 -83.5 26t-33.5 66t34 67t83 27q52 0 85 -27t33 -67t-33 -66t-85 -26zM1130 1657q-48 0 -82 26.5t-34 65.5t34 66.5t82 27.5q52 0 85.5 -27t33.5 -67t-33.5 -66t-85.5 -26zM1804 1405v-98h-291v-779q0 -118 -42 -220t-119 -176.5t-191 -117.5t-252 -43 t-252 43t-191 117.5t-119 176.5t-42 220v779h-291v98h695v-98h-287l-2 -783q0 -197 135.5 -324.5t353.5 -127.5q216 0 353 127.5t137 322.5l-2 785h-289v98h696z" />
<glyph unicode="&#xdd;" horiz-adv-x="1667" d="M1239 1913l-453 -346l-41 47l424 387zM1417 1307l-524 -791v-418h303v-98h-721v98h303v412l-530 797h-232v98h623v-98h-258l461 -707l456 707h-268v98h623v-98h-236z" />
<glyph unicode="&#xde;" horiz-adv-x="1454" d="M944 1020q201 0 320.5 -83.5t119.5 -238.5t-119 -237t-321 -82h-465v-285h305v-94h-704v98h289v1211h-289v96h704v-92h-305v-293h465zM934 471q154 0 245 58.5t91 170.5q0 111 -90.5 169.5t-245.5 58.5h-455v-457h455z" />
<glyph unicode="&#xdf;" horiz-adv-x="1499" d="M1090 500q55 -15 90.5 -25.5t85 -28.5t80.5 -38t61 -47t44.5 -62.5t14.5 -77.5q0 -119 -94.5 -183.5t-228.5 -64.5q-105 0 -219.5 53.5t-186.5 131.5v-158h-94v305l51 8q72 -109 196.5 -180.5t244.5 -71.5q99 0 158 38t59 110q0 23 -8 42.5t-19.5 34t-36 28.5t-43.5 23 t-57 20.5t-62.5 18.5t-72.5 19q-61 16 -103 28t-92.5 30.5t-83.5 39.5t-63 47.5t-44 61.5t-14 76q0 44 15.5 80.5t38.5 63t63.5 51.5t76.5 42t91 39q203 85 203 220q0 93 -98 161t-273 68q-162 0 -259 -83t-97 -241v-1079h-348v96h237v774h-237v95h237v108q0 204 124 316 t343 112q214 0 350.5 -97t136.5 -235q0 -99 -66.5 -166.5t-193.5 -123.5q-124 -55 -154 -74q-75 -48 -75 -119q0 -24 9 -43.5t31.5 -36.5t43 -28.5t62.5 -25.5t70.5 -22.5t83.5 -23.5q15 -4 22 -6z" />
<glyph unicode="&#xe0;" horiz-adv-x="1208" d="M682 1198l-41 -47l-453 346l70 88zM1143 106l26 -86q-53 -34 -125 -34q-68 0 -111.5 43.5t-53.5 122.5q-232 -179 -418 -179q-146 0 -247 79.5t-101 219.5t115.5 226t289.5 86q160 0 356 -70v113q0 72 -21.5 124.5t-60.5 82.5t-87 43.5t-107 13.5q-179 0 -401 -96l-27 94 q234 102 436 102q171 0 274 -90t103 -278v-406q0 -133 84 -133q32 0 76 22zM225 274q0 -96 73 -149t179 -53q177 0 397 166v190q-172 61 -346 64q-80 1 -147.5 -22.5t-111.5 -74.5t-44 -121z" />
<glyph unicode="&#xe1;" horiz-adv-x="1208" d="M997 1499l-452 -346l-41 47l424 387zM1143 106l26 -86q-53 -34 -125 -34q-68 0 -111.5 43.5t-53.5 122.5q-232 -179 -418 -179q-146 0 -247 79.5t-101 219.5t115.5 226t289.5 86q160 0 356 -70v113q0 72 -21.5 124.5t-60.5 82.5t-87 43.5t-107 13.5q-179 0 -401 -96 l-27 94q234 102 436 102q171 0 274 -90t103 -278v-406q0 -133 84 -133q32 0 76 22zM225 274q0 -96 73 -149t179 -53q177 0 397 166v190q-172 61 -346 64q-80 1 -147.5 -22.5t-111.5 -74.5t-44 -121z" />
<glyph unicode="&#xe2;" horiz-adv-x="1208" d="M592 1432l-316 -297l-43 39l324 364h72l325 -364l-41 -39zM1143 106l26 -86q-53 -34 -125 -34q-68 0 -111.5 43.5t-53.5 122.5q-232 -179 -418 -179q-146 0 -247 79.5t-101 219.5t115.5 226t289.5 86q160 0 356 -70v113q0 72 -21.5 124.5t-60.5 82.5t-87 43.5t-107 13.5 q-179 0 -401 -96l-27 94q234 102 436 102q171 0 274 -90t103 -278v-406q0 -133 84 -133q32 0 76 22zM225 274q0 -96 73 -149t179 -53q177 0 397 166v190q-172 61 -346 64q-80 1 -147.5 -22.5t-111.5 -74.5t-44 -121z" />
<glyph unicode="&#xe3;" horiz-adv-x="1208" d="M401 1450q-130 0 -147 -254l-76 8q6 153 62.5 238.5t160.5 85.5q69 0 119.5 -37.5t108.5 -116.5q51 -72 87 -101.5t83 -29.5q136 0 147 252l80 -8q-8 -151 -66.5 -238.5t-160.5 -87.5q-67 0 -116 38t-108 118q-58 75 -92 104t-82 29zM1143 106l26 -86q-53 -34 -125 -34 q-68 0 -111.5 43.5t-53.5 122.5q-232 -179 -418 -179q-146 0 -247 79.5t-101 219.5t115.5 226t289.5 86q160 0 356 -70v113q0 72 -21.5 124.5t-60.5 82.5t-87 43.5t-107 13.5q-179 0 -401 -96l-27 94q234 102 436 102q171 0 274 -90t103 -278v-406q0 -133 84 -133 q32 0 76 22zM225 274q0 -96 73 -149t179 -53q177 0 397 166v190q-172 61 -346 64q-80 1 -147.5 -22.5t-111.5 -74.5t-44 -121z" />
<glyph unicode="&#xe4;" horiz-adv-x="1208" d="M381 1243q-50 0 -83.5 26t-33.5 66t34 67.5t83 27.5q52 0 85.5 -27.5t33.5 -67.5t-33.5 -66t-85.5 -26zM805 1243q-48 0 -82.5 26.5t-34.5 65.5t34.5 67t82.5 28q52 0 85.5 -27.5t33.5 -67.5t-33.5 -66t-85.5 -26zM1143 106l26 -86q-53 -34 -125 -34q-68 0 -111.5 43.5 t-53.5 122.5q-232 -179 -418 -179q-146 0 -247 79.5t-101 219.5t115.5 226t289.5 86q160 0 356 -70v113q0 72 -21.5 124.5t-60.5 82.5t-87 43.5t-107 13.5q-179 0 -401 -96l-27 94q234 102 436 102q171 0 274 -90t103 -278v-406q0 -133 84 -133q32 0 76 22zM225 274 q0 -96 73 -149t179 -53q177 0 397 166v190q-172 61 -346 64q-80 1 -147.5 -22.5t-111.5 -74.5t-44 -121z" />
<glyph unicode="&#xe5;" horiz-adv-x="1208" d="M594 1141q-120 0 -206.5 83t-86.5 203q0 125 86 205t207 80q124 0 206.5 -80t82.5 -205q0 -123 -83 -204.5t-206 -81.5zM594 1634q-90 0 -151.5 -59t-61.5 -148q0 -87 62 -148.5t151 -61.5q91 0 150 61t59 149q0 90 -58.5 148.5t-150.5 58.5zM1143 106l26 -86 q-53 -34 -125 -34q-68 0 -111.5 43.5t-53.5 122.5q-232 -179 -418 -179q-146 0 -247 79.5t-101 219.5t115.5 226t289.5 86q160 0 356 -70v113q0 72 -21.5 124.5t-60.5 82.5t-87 43.5t-107 13.5q-179 0 -401 -96l-27 94q234 102 436 102q171 0 274 -90t103 -278v-406 q0 -133 84 -133q32 0 76 22zM225 274q0 -96 73 -149t179 -53q177 0 397 166v190q-172 61 -346 64q-80 1 -147.5 -22.5t-111.5 -74.5t-44 -121z" />
<glyph unicode="&#xe6;" horiz-adv-x="1896" d="M1739 213l53 -76q-185 -164 -410 -164q-132 0 -248.5 59t-183.5 169q-135 -116 -246.5 -172t-242.5 -56q-146 0 -247 79.5t-101 219.5t115.5 226t289.5 86q64 0 130 -8.5t111.5 -18t117.5 -27.5v23q0 99 -21 167t-61.5 104.5t-90 51.5t-116.5 15q-169 0 -391 -96l-27 94 q234 102 424 102q313 0 358 -293q57 140 182 215.5t265 75.5q163 0 274 -80t111 -211q0 -90 -57.5 -157.5t-146.5 -100t-194 -32.5q-176 0 -403 59v-12q0 -115 58 -204t149 -134t196 -43q111 1 194 37t159 102zM1399 895q-68 0 -134 -23.5t-122.5 -67t-97.5 -112t-56 -151.5 q203 -45 383 -45q124 0 211.5 54t87.5 148q0 93 -76.5 145t-195.5 52zM477 72q209 0 438 194q-32 73 -38 185q-184 38 -349 41q-80 1 -147.5 -22.5t-111.5 -74.5t-44 -121q0 -96 73 -149t179 -53z" />
<glyph unicode="&#xe7;" horiz-adv-x="1167" d="M614 -172q94 0 149.5 -47.5t55.5 -120.5q0 -79 -67.5 -127.5t-173.5 -48.5q-141 0 -279 88l39 70q116 -80 240 -80q70 0 112.5 26t42.5 72q0 49 -37.5 74.5t-105.5 25.5q-67 0 -125 -10l-10 17l86 208q-84 13 -161 52t-138 100.5t-97 151t-36 194.5q0 221 142.5 370 t344.5 146q232 -3 350 -180v156h90v-326l-49 -6q-52 132 -144 195t-229 63q-169 0 -280 -116.5t-111 -299.5q0 -120 58 -214t146.5 -142t186.5 -49q114 -3 200 40.5t165 122.5l59 -73q-89 -88 -191 -138.5t-237 -50.5h-2l-57 -147q36 4 63 4z" />
<glyph unicode="&#xe8;" horiz-adv-x="1130" d="M680 1196l-41 -47l-453 346l70 88zM973 211l53 -74q-187 -166 -410 -166q-97 0 -187 32t-161.5 91t-115 152.5t-43.5 206.5q0 102 30 190.5t81 151t117.5 107t140.5 66t149 21.5q168 0 279.5 -84.5t111.5 -214.5q0 -87 -57 -151t-143 -93.5t-187 -29.5q-178 0 -412 88 q-2 -16 -2 -49q0 -115 57.5 -205t148.5 -136t195 -44q196 2 355 141zM631 893q-133 0 -247.5 -83.5t-152.5 -231.5q203 -72 385 -72q117 0 203 48t86 136q0 93 -75.5 148t-198.5 55z" />
<glyph unicode="&#xe9;" horiz-adv-x="1130" d="M995 1497l-452 -346l-41 47l424 387zM973 211l53 -74q-187 -166 -410 -166q-97 0 -187 32t-161.5 91t-115 152.5t-43.5 206.5q0 102 30 190.5t81 151t117.5 107t140.5 66t149 21.5q168 0 279.5 -84.5t111.5 -214.5q0 -87 -57 -151t-143 -93.5t-187 -29.5q-178 0 -412 88 q-2 -16 -2 -49q0 -115 57.5 -205t148.5 -136t195 -44q196 2 355 141zM631 893q-133 0 -247.5 -83.5t-152.5 -231.5q203 -72 385 -72q117 0 203 48t86 136q0 93 -75.5 148t-198.5 55z" />
<glyph unicode="&#xea;" horiz-adv-x="1130" d="M590 1430l-316 -297l-43 38l324 365h72l325 -365l-41 -38zM973 211l53 -74q-187 -166 -410 -166q-97 0 -187 32t-161.5 91t-115 152.5t-43.5 206.5q0 102 30 190.5t81 151t117.5 107t140.5 66t149 21.5q168 0 279.5 -84.5t111.5 -214.5q0 -87 -57 -151t-143 -93.5 t-187 -29.5q-178 0 -412 88q-2 -16 -2 -49q0 -115 57.5 -205t148.5 -136t195 -44q196 2 355 141zM631 893q-133 0 -247.5 -83.5t-152.5 -231.5q203 -72 385 -72q117 0 203 48t86 136q0 93 -75.5 148t-198.5 55z" />
<glyph unicode="&#xeb;" horiz-adv-x="1130" d="M379 1241q-50 0 -83.5 26t-33.5 66t34 67t83 27q52 0 85.5 -27t33.5 -67t-33.5 -66t-85.5 -26zM803 1241q-48 0 -82.5 26.5t-34.5 65.5t34.5 66.5t82.5 27.5q52 0 85.5 -27t33.5 -67t-33.5 -66t-85.5 -26zM973 211l53 -74q-187 -166 -410 -166q-97 0 -187 32t-161.5 91 t-115 152.5t-43.5 206.5q0 102 30 190.5t81 151t117.5 107t140.5 66t149 21.5q168 0 279.5 -84.5t111.5 -214.5q0 -87 -57 -151t-143 -93.5t-187 -29.5q-178 0 -412 88q-2 -16 -2 -49q0 -115 57.5 -205t148.5 -136t195 -44q196 2 355 141zM631 893q-133 0 -247.5 -83.5 t-152.5 -231.5q203 -72 385 -72q117 0 203 48t86 136q0 93 -75.5 148t-198.5 55z" />
<glyph unicode="&#xec;" horiz-adv-x="700" d="M420 1171l-41 -47l-453 346l70 89zM416 96h239v-96h-589v96h237v774h-237v95h350v-869z" />
<glyph unicode="&#xed;" horiz-adv-x="700" d="M735 1473l-452 -347l-41 48l424 387zM416 965v-869h239v-96h-589v96h237v774h-237v95h350z" />
<glyph unicode="&#xee;" horiz-adv-x="700" d="M651 1108l-321 297l-316 -297l-43 39l324 364h72l325 -364zM416 965v-869h239v-96h-589v96h237v774h-237v95h350z" />
<glyph unicode="&#xef;" horiz-adv-x="700" d="M238 1309q0 -40 -33.5 -66t-85.5 -26q-50 0 -83.5 26t-33.5 66t34 67t83 27q52 0 85.5 -27t33.5 -67zM543 1217q-48 0 -82.5 26.5t-34.5 65.5t34.5 66.5t82.5 27.5q52 0 85.5 -27t33.5 -67t-33.5 -66t-85.5 -26zM416 965v-869h239v-96h-589v96h237v774h-237v95h350z" />
<glyph unicode="&#xf0;" horiz-adv-x="1232" d="M762 1341q175 -153 267.5 -333t92.5 -408q0 -142 -43.5 -261t-117.5 -199t-173 -124.5t-210 -44.5q-206 0 -350 124.5t-144 320.5q0 134 66 240t175.5 162t239.5 56q252 0 439 -172q-18 168 -98 304.5t-218 257.5l-205 -220l-65 58l200 217q-120 95 -299 197l54 92 q178 -101 319 -209l209 225l66 -61zM578 70q85 0 162.5 36t137.5 101.5t96 167t36 223.5v4q-86 82 -196.5 129t-231.5 47q-166 0 -272.5 -102t-106.5 -256q0 -151 106.5 -250.5t268.5 -99.5z" />
<glyph unicode="&#xf1;" horiz-adv-x="1456" d="M563 1448q-130 0 -147 -254l-76 8q6 153 62.5 238.5t160.5 85.5q69 0 119.5 -37.5t108.5 -116.5q51 -72 87 -101.5t83 -29.5q136 0 147 252l80 -8q-8 -151 -66.5 -238.5t-160.5 -87.5q-67 0 -116 38t-108 118q-58 75 -92 104t-82 29zM1210 96h211v-96h-518v96h195v504 q0 285 -244 285q-104 0 -217 -67t-221 -183v-539h194v-96h-544v96h237v772h-237v97h350v-234q116 123 230.5 190.5t240.5 67.5q152 0 237.5 -95t85.5 -284v-514z" />
<glyph unicode="&#xf2;" horiz-adv-x="1239" d="M709 1196l-424 387l-70 -88l453 -346zM621 -31q-140 1 -256 63t-186 179.5t-70 267.5q0 151 70 268.5t186 179t256 62.5q138 -1 253 -62.5t185.5 -179t70.5 -268.5q0 -150 -69 -267.5t-184.5 -179.5t-255.5 -63zM621 66q173 0 284 114.5t111 298.5q0 185 -111 299.5 t-284 114.5q-175 0 -286.5 -114.5t-111.5 -299.5t111.5 -299t286.5 -114z" />
<glyph unicode="&#xf3;" horiz-adv-x="1239" d="M530 1198l41 -47l453 346l-70 88zM621 -31q-140 1 -256 63t-186 179.5t-70 267.5q0 151 70 268.5t186 179t256 62.5q138 -1 253 -62.5t185.5 -179t70.5 -268.5q0 -150 -69 -267.5t-184.5 -179.5t-255.5 -63zM621 66q173 0 284 114.5t111 298.5q0 185 -111 299.5 t-284 114.5q-175 0 -286.5 -114.5t-111.5 -299.5t111.5 -299t286.5 -114z" />
<glyph unicode="&#xf4;" horiz-adv-x="1239" d="M303 1133l-43 38l324 365h71l326 -365l-41 -38l-322 297zM621 -31q-140 1 -256 63t-186 179.5t-70 267.5q0 151 70 268.5t186 179t256 62.5q138 -1 253 -62.5t185.5 -179t70.5 -268.5q0 -150 -69 -267.5t-184.5 -179.5t-255.5 -63zM621 66q173 0 284 114.5t111 298.5 q0 185 -111 299.5t-284 114.5q-175 0 -286.5 -114.5t-111.5 -299.5t111.5 -299t286.5 -114z" />
<glyph unicode="&#xf5;" horiz-adv-x="1239" d="M825 1159q-67 0 -115.5 38t-107.5 118q-58 75 -92 104t-82 29q-130 0 -147 -254l-76 8q6 153 62.5 238.5t160.5 85.5q69 0 119 -37.5t108 -116.5q51 -72 87 -101.5t83 -29.5q137 0 148 252l80 -8q-8 -151 -67 -238.5t-161 -87.5zM621 -31q-140 1 -256 63t-186 179.5 t-70 267.5q0 151 70 268.5t186 179t256 62.5q138 -1 253 -62.5t185.5 -179t70.5 -268.5q0 -150 -69 -267.5t-184.5 -179.5t-255.5 -63zM621 66q173 0 284 114.5t111 298.5q0 185 -111 299.5t-284 114.5q-175 0 -286.5 -114.5t-111.5 -299.5t111.5 -299t286.5 -114z" />
<glyph unicode="&#xf6;" horiz-adv-x="1239" d="M408 1241q-50 0 -83.5 26t-33.5 66t34 67t83 27q52 0 85 -27t33 -67t-33 -66t-85 -26zM831 1241q-48 0 -82 26.5t-34 65.5t34 66.5t82 27.5q52 0 85.5 -27t33.5 -67t-33.5 -66t-85.5 -26zM621 -31q-140 1 -256 63t-186 179.5t-70 267.5q0 151 70 268.5t186 179t256 62.5 q138 -1 253 -62.5t185.5 -179t70.5 -268.5q0 -150 -69 -267.5t-184.5 -179.5t-255.5 -63zM621 66q173 0 284 114.5t111 298.5q0 185 -111 299.5t-284 114.5q-175 0 -286.5 -114.5t-111.5 -299.5t111.5 -299t286.5 -114z" />
<glyph unicode="&#xf8;" horiz-adv-x="1239" d="M846 940q129 -59 206.5 -179.5t77.5 -281.5q0 -150 -69 -267.5t-184.5 -179.5t-255.5 -63q-69 0 -140 19l-57 -148h-102l69 180q-129 60 -205.5 180.5t-76.5 278.5q0 151 70 268.5t186 179t256 62.5q64 0 133 -16l59 147h102zM223 479q0 -127 55 -223.5t152 -144.5 l291 770q-47 12 -100 12q-175 0 -286.5 -114.5t-111.5 -299.5zM621 66q173 0 284 114.5t111 298.5q0 129 -56.5 227t-154.5 146l-291 -774q50 -12 107 -12z" />
<glyph unicode="&#xf9;" horiz-adv-x="1368" d="M731 1171l-41 -47l-452 346l69 89zM1266 96l32 -88q-68 -33 -124 -33q-84 0 -131.5 59t-47.5 167v18q-107 -119 -213.5 -183.5t-224.5 -64.5q-145 0 -226 95.5t-81 277.5v524h-213v97h325v-609q0 -280 228 -280q98 0 202 63t203 174v555h-192v97h305v-760q0 -131 82 -131 q48 0 76 22z" />
<glyph unicode="&#xfa;" horiz-adv-x="1368" d="M1047 1473l-453 -347l-41 48l424 387zM1266 96l32 -88q-68 -33 -124 -33q-84 0 -131.5 59t-47.5 167v18q-107 -119 -213.5 -183.5t-224.5 -64.5q-145 0 -226 95.5t-81 277.5v524h-213v97h325v-609q0 -280 228 -280q98 0 202 63t203 174v555h-192v97h305v-760 q0 -131 82 -131q48 0 76 22z" />
<glyph unicode="&#xfb;" horiz-adv-x="1368" d="M641 1405l-315 -297l-43 39l323 364h72l326 -364l-41 -39zM1266 96l32 -88q-68 -33 -124 -33q-84 0 -131.5 59t-47.5 167v18q-107 -119 -213.5 -183.5t-224.5 -64.5q-145 0 -226 95.5t-81 277.5v524h-213v97h325v-609q0 -280 228 -280q98 0 202 63t203 174v555h-192v97 h305v-760q0 -131 82 -131q48 0 76 22z" />
<glyph unicode="&#xfc;" horiz-adv-x="1368" d="M430 1217q-50 0 -83.5 26t-33.5 66t34 67t83 27q52 0 85.5 -27t33.5 -67t-33.5 -66t-85.5 -26zM854 1217q-48 0 -82.5 26.5t-34.5 65.5t34.5 66.5t82.5 27.5q52 0 85.5 -27t33.5 -67t-33.5 -66t-85.5 -26zM1266 96l32 -88q-68 -33 -124 -33q-84 0 -131.5 59t-47.5 167v18 q-107 -119 -213.5 -183.5t-224.5 -64.5q-145 0 -226 95.5t-81 277.5v524h-213v97h325v-609q0 -280 228 -280q98 0 202 63t203 174v555h-192v97h305v-760q0 -131 82 -131q48 0 76 22z" />
<glyph unicode="&#xfd;" horiz-adv-x="1341" d="M1094 1473l-453 -347l-41 48l424 387zM1335 965v-97h-186l-442 -1018q-147 -337 -392 -337q-54 0 -107 17t-84 34.5t-77 48.5l51 86q115 -84 217 -84q88 0 162 61.5t127 182.5l33 78l-426 931h-199v97h510v-93h-190l358 -815l352 815h-180v93h473z" />
<glyph unicode="&#xfe;" horiz-adv-x="1308" d="M754 991q188 0 317 -135.5t129 -355.5q0 -116 -39.5 -215.5t-106 -167t-155 -106t-186.5 -38.5q-189 0 -355 148v-471h256v-96h-602v96h238v1661h-238v94h346v-606q79 86 181.5 139t214.5 53zM698 66q163 0 276 123.5t113 310.5q0 179 -100.5 287t-253.5 106 q-203 -3 -375 -197v-487q160 -143 340 -143z" />
<glyph unicode="&#xff;" horiz-adv-x="1341" d="M477 1217q-50 0 -83.5 26t-33.5 66t34 67t83 27q52 0 85.5 -27t33.5 -67t-33.5 -66t-85.5 -26zM901 1217q-48 0 -82.5 26.5t-34.5 65.5t34.5 66.5t82.5 27.5q52 0 85.5 -27t33.5 -67t-33.5 -66t-85.5 -26zM1335 965v-97h-186l-442 -1018q-147 -337 -392 -337 q-54 0 -107 17t-84 34.5t-77 48.5l51 86q115 -84 217 -84q88 0 162 61.5t127 182.5l33 78l-426 931h-199v97h510v-93h-190l358 -815l352 815h-180v93h473z" />
<glyph unicode="&#x100;" horiz-adv-x="1773" d="M1276 1724v-92l-789 2v92zM1522 98h258v-98h-633v98h252l-178 426h-678l-178 -426h264v-98h-637v98h262l522 1211h-264v96h743v-96h-262zM582 616h600l-287 693h-27z" />
<glyph unicode="&#x101;" horiz-adv-x="1208" d="M987 1311v-92l-788 2v92zM1143 106l26 -86q-53 -34 -125 -34q-68 0 -111.5 43.5t-53.5 122.5q-232 -179 -418 -179q-146 0 -247 79.5t-101 219.5t115.5 226t289.5 86q160 0 356 -70v113q0 72 -21.5 124.5t-60.5 82.5t-87 43.5t-107 13.5q-179 0 -401 -96l-27 94 q234 102 436 102q171 0 274 -90t103 -278v-406q0 -133 84 -133q32 0 76 22zM225 274q0 -96 73 -149t179 -53q177 0 397 166v190q-172 61 -346 64q-80 1 -147.5 -22.5t-111.5 -74.5t-44 -121z" />
<glyph unicode="&#x102;" horiz-adv-x="1773" d="M883 1604q-83 0 -152 29.5t-112 77t-69 100t-34 106.5l78 14q28 -98 103.5 -162.5t185.5 -64.5q112 0 184.5 64t101.5 163l78 -14q-8 -54 -33.5 -106.5t-68.5 -100t-111.5 -77t-150.5 -29.5zM1522 98h258v-98h-633v98h252l-178 426h-678l-178 -426h264v-98h-637v98h262 l522 1211h-264v96h743v-96h-262zM582 616h600l-287 693h-27z" />
<glyph unicode="&#x103;" horiz-adv-x="1208" d="M594 1190q-83 0 -152 29.5t-112 77t-69 100t-34 106.5l78 15q28 -98 104 -163t185 -65q112 0 185 64.5t102 163.5l77 -15q-8 -54 -33.5 -106.5t-68.5 -100t-111.5 -77t-150.5 -29.5zM1143 106l26 -86q-53 -34 -125 -34q-68 0 -111.5 43.5t-53.5 122.5 q-232 -179 -418 -179q-146 0 -247 79.5t-101 219.5t115.5 226t289.5 86q160 0 356 -70v113q0 72 -21.5 124.5t-60.5 82.5t-87 43.5t-107 13.5q-179 0 -401 -96l-27 94q234 102 436 102q171 0 274 -90t103 -278v-406q0 -133 84 -133q32 0 76 22zM225 274q0 -96 73 -149 t179 -53q177 0 397 166v190q-172 61 -346 64q-80 1 -147.5 -22.5t-111.5 -74.5t-44 -121z" />
<glyph unicode="&#x104;" horiz-adv-x="1773" d="M1501 0q-123 -78 -185.5 -165t-62.5 -161q0 -66 40 -102.5t96 -36.5q104 0 174 109l53 -54q-35 -62 -99.5 -102.5t-136.5 -40.5q-91 0 -155 56.5t-64 150.5q0 91 64 181.5t180 164.5h-258v98h252l-178 426h-678l-178 -426h264v-98h-637v98h262l522 1211h-264v96h743v-96 h-262l529 -1211h258v-98h-279zM582 616h600l-287 693h-27z" />
<glyph unicode="&#x105;" horiz-adv-x="1208" d="M1126 -362l54 -54q-35 -62 -99.5 -102.5t-136.5 -40.5q-91 0 -155 56.5t-64 150.5q0 91 67 184t185 166q-83 39 -98 154q-232 -179 -418 -179q-146 0 -247 79.5t-101 219.5t115.5 226t289.5 86q160 0 356 -70v113q0 72 -21.5 124.5t-60.5 82.5t-87 43.5t-107 13.5 q-179 0 -401 -96l-27 94q234 102 436 102q171 0 274 -90t103 -278v-406q0 -133 84 -133q32 0 76 22l26 -86q-45 -31 -116 -34q-116 -76 -176 -161t-60 -157q0 -66 39.5 -102.5t95.5 -36.5q104 0 174 109zM225 274q0 -96 73 -149t179 -53q177 0 397 166v190q-172 61 -346 64 q-80 1 -147.5 -22.5t-111.5 -74.5t-44 -121z" />
<glyph unicode="&#x106;" horiz-adv-x="1546" d="M1223 1942l-453 -347l-41 47l424 388zM825 1335q-115 0 -219 -45.5t-182 -126t-124 -200.5t-46 -261q0 -139 44.5 -257t121.5 -199.5t182.5 -127.5t226.5 -46q318 0 510 268l76 -66q-41 -60 -92.5 -109.5t-122.5 -95.5t-166.5 -72t-204.5 -26q-143 0 -270 52.5 t-221 146.5t-148.5 232t-54.5 300q0 163 56 302t150.5 232t217.5 145.5t256 52.5q169 0 294.5 -70.5t201.5 -187.5l2 229h106l-4 -430l-65 -4q-160 364 -525 364z" />
<glyph unicode="&#x107;" horiz-adv-x="1167" d="M1004 1497l-453 -346l-41 47l424 387zM979 233l59 -73q-89 -88 -191 -138.5t-237 -50.5q-93 0 -181.5 34.5t-160 96.5t-115.5 159t-44 212q0 221 142.5 370t344.5 146q232 -3 350 -180v156h90v-326l-49 -6q-52 132 -144 195t-229 63q-169 0 -280 -116.5t-111 -299.5 q0 -120 58 -214t146.5 -142t186.5 -49q114 -3 200 40.5t165 122.5z" />
<glyph unicode="&#x10a;" horiz-adv-x="1546" d="M819 1710q-53 0 -88 26.5t-35 67.5t35.5 70t87.5 29q56 0 91.5 -28.5t35.5 -70.5q0 -41 -35 -67.5t-92 -26.5zM825 1335q-115 0 -219 -45.5t-182 -126t-124 -200.5t-46 -261q0 -139 44.5 -257t121.5 -199.5t182.5 -127.5t226.5 -46q318 0 510 268l76 -66 q-41 -60 -92.5 -109.5t-122.5 -95.5t-166.5 -72t-204.5 -26q-143 0 -270 52.5t-221 146.5t-148.5 232t-54.5 300q0 163 56 302t150.5 232t217.5 145.5t256 52.5q169 0 294.5 -70.5t201.5 -187.5l2 229h106l-4 -430l-65 -4q-160 364 -525 364z" />
<glyph unicode="&#x10b;" horiz-adv-x="1167" d="M600 1266q-53 0 -88 26.5t-35 67.5t35.5 69.5t87.5 28.5q56 0 91.5 -28t35.5 -70q0 -41 -35 -67.5t-92 -26.5zM979 233l59 -73q-89 -88 -191 -138.5t-237 -50.5q-93 0 -181.5 34.5t-160 96.5t-115.5 159t-44 212q0 221 142.5 370t344.5 146q232 -3 350 -180v156h90v-326 l-49 -6q-52 132 -144 195t-229 63q-169 0 -280 -116.5t-111 -299.5q0 -120 58 -214t146.5 -142t186.5 -49q114 -3 200 40.5t165 122.5z" />
<glyph unicode="&#x10c;" horiz-adv-x="1546" d="M854 1585h-72l-323 365l43 43l315 -299l322 299l41 -43zM825 1335q-115 0 -219 -45.5t-182 -126t-124 -200.5t-46 -261q0 -139 44.5 -257t121.5 -199.5t182.5 -127.5t226.5 -46q318 0 510 268l76 -66q-41 -60 -92.5 -109.5t-122.5 -95.5t-166.5 -72t-204.5 -26 q-143 0 -270 52.5t-221 146.5t-148.5 232t-54.5 300q0 163 56 302t150.5 232t217.5 145.5t256 52.5q169 0 294.5 -70.5t201.5 -187.5l2 229h106l-4 -430l-65 -4q-160 364 -525 364z" />
<glyph unicode="&#x10d;" horiz-adv-x="1167" d="M635 1141h-72l-323 364l43 43l315 -299l322 299l41 -43zM979 233l59 -73q-89 -88 -191 -138.5t-237 -50.5q-93 0 -181.5 34.5t-160 96.5t-115.5 159t-44 212q0 221 142.5 370t344.5 146q232 -3 350 -180v156h90v-326l-49 -6q-52 132 -144 195t-229 63q-169 0 -280 -116.5 t-111 -299.5q0 -120 58 -214t146.5 -142t186.5 -49q114 -3 200 40.5t165 122.5z" />
<glyph unicode="&#x10e;" horiz-adv-x="1673" d="M809 1556h-72l-323 365l43 43l315 -299l322 299l41 -43zM756 1405q228 0 404 -81t278 -242t102 -380q0 -218 -102 -378.5t-278 -242t-404 -81.5h-676v98h291v1209h-291v98h676zM750 98q304 0 487.5 159t183.5 445q0 287 -183 446t-488 159h-265v-1209h265z" />
<glyph unicode="&#x10f;" horiz-adv-x="1318" d="M1247 1034l-55 19q81 175 72 368l108 -16q-6 -197 -125 -371zM1143 78q54 0 82 22l24 -92q-57 -33 -123 -33q-71 0 -116.5 43.5t-55.5 124.5q-196 -172 -391 -172q-191 0 -322.5 136.5t-131.5 355.5q0 117 39.5 216.5t106.5 166.5t156 105t187 38q192 0 352 -143v463 h-237v96h348v-1200q0 -127 82 -127zM223 465q0 -180 102.5 -289t254.5 -106q186 2 370 168v514q-160 139 -338 139q-164 0 -276.5 -120.5t-112.5 -305.5z" />
<glyph unicode="&#x110;" horiz-adv-x="1671" d="M756 1405q228 0 404 -81t278 -242t102 -380q0 -218 -102 -378.5t-278 -242t-404 -81.5h-676v98h291v557h-285v84h285v568h-291v98h676zM750 98q304 0 487.5 159t183.5 445q0 287 -183 446t-488 159h-265v-568h523v-84h-523v-557h265z" />
<glyph unicode="&#x111;" horiz-adv-x="1316" d="M1272 1122h-211v-917q0 -129 82 -129q54 0 82 22l24 -90q-53 -33 -123 -33q-72 0 -116 43.5t-54 126.5q-196 -172 -393 -172q-93 0 -175.5 35t-144.5 97.5t-98 155.5t-36 202q0 155 68 277t179 186.5t242 64.5q189 0 354 -147v278h-428v84h428v105h-241v94h350v-199h211 v-84zM223 465q0 -179 102 -287.5t255 -105.5q184 2 372 168v514q-158 141 -340 141q-163 0 -276 -122.5t-113 -307.5z" />
<glyph unicode="&#x112;" horiz-adv-x="1587" d="M1233 1724v-92l-789 2v92zM1419 1010h-108v297h-826v-557h410v213h100v-519h-100v211h-410v-557h826v297h108v-395h-1339v98h291v1209h-291v98h1339v-395z" />
<glyph unicode="&#x113;" horiz-adv-x="1130" d="M985 1309v-92l-788 2v92zM973 211l53 -74q-187 -166 -410 -166q-97 0 -187 32t-161.5 91t-115 152.5t-43.5 206.5q0 102 30 190.5t81 151t117.5 107t140.5 66t149 21.5q168 0 279.5 -84.5t111.5 -214.5q0 -87 -57 -151t-143 -93.5t-187 -29.5q-178 0 -412 88 q-2 -16 -2 -49q0 -115 57.5 -205t148.5 -136t195 -44q196 2 355 141zM631 893q-133 0 -247.5 -83.5t-152.5 -231.5q203 -72 385 -72q117 0 203 48t86 136q0 93 -75.5 148t-198.5 55z" />
<glyph unicode="&#x116;" horiz-adv-x="1587" d="M840 1681q-53 0 -88 27t-35 68t35.5 69.5t87.5 28.5q56 0 91.5 -28t35.5 -70t-35 -68.5t-92 -26.5zM1419 1010h-108v297h-826v-557h410v213h100v-519h-100v211h-410v-557h826v297h108v-395h-1339v98h291v1209h-291v98h1339v-395z" />
<glyph unicode="&#x117;" horiz-adv-x="1130" d="M592 1266q-53 0 -88 26.5t-35 67.5t35.5 69.5t87.5 28.5q56 0 91.5 -28t35.5 -70q0 -41 -35 -67.5t-92 -26.5zM973 211l53 -74q-187 -166 -410 -166q-97 0 -187 32t-161.5 91t-115 152.5t-43.5 206.5q0 102 30 190.5t81 151t117.5 107t140.5 66t149 21.5 q168 0 279.5 -84.5t111.5 -214.5q0 -87 -57 -151t-143 -93.5t-187 -29.5q-178 0 -412 88q-2 -16 -2 -49q0 -115 57.5 -205t148.5 -136t195 -44q196 2 355 141zM631 893q-133 0 -247.5 -83.5t-152.5 -231.5q203 -72 385 -72q117 0 203 48t86 136q0 93 -75.5 148t-198.5 55z " />
<glyph unicode="&#x118;" horiz-adv-x="1587" d="M1427 -387l54 -53q-35 -62 -100 -103t-136 -41q-91 0 -155 56.5t-64 150.5q0 100 79 200.5t218 176.5h-1243v98h291v1209h-291v98h1339v-395h-108v297h-826v-557h410v213h100v-519h-100v211h-410v-557h826v297h108v-395h-2q-147 -82 -223 -178.5t-76 -177.5 q0 -66 39.5 -103t95.5 -37q104 0 174 109z" />
<glyph unicode="&#x119;" horiz-adv-x="1130" d="M707 -465q104 0 174 109l53 -54q-35 -62 -99.5 -102.5t-136.5 -40.5q-91 0 -155 56.5t-64 150.5q0 83 54.5 166.5t154.5 154.5q-46 -4 -72 -4q-97 0 -187 32t-161.5 91t-115 152.5t-43.5 206.5q0 102 30 190.5t81 151t117.5 107t140.5 66t149 21.5q168 0 279.5 -84.5 t111.5 -214.5q0 -87 -57 -151t-143 -93.5t-187 -29.5q-178 0 -412 88q-2 -16 -2 -49q0 -115 57.5 -205t148.5 -136t195 -44q196 2 355 141l53 -74q-85 -75 -170 -114q-140 -80 -212.5 -175t-72.5 -174q0 -66 40 -102.5t96 -36.5zM631 893q-133 0 -247.5 -83.5t-152.5 -231.5 q203 -72 385 -72q117 0 203 48t86 136q0 93 -75.5 148t-198.5 55z" />
<glyph unicode="&#x11a;" horiz-adv-x="1587" d="M874 1556h-71l-324 365l43 43l316 -299l321 299l41 -43zM1419 1010h-108v297h-826v-557h410v213h100v-519h-100v211h-410v-557h826v297h108v-395h-1339v98h291v1209h-291v98h1339v-395z" />
<glyph unicode="&#x11b;" horiz-adv-x="1130" d="M627 1141h-72l-324 364l43 43l316 -299l321 299l41 -43zM973 211l53 -74q-187 -166 -410 -166q-97 0 -187 32t-161.5 91t-115 152.5t-43.5 206.5q0 102 30 190.5t81 151t117.5 107t140.5 66t149 21.5q168 0 279.5 -84.5t111.5 -214.5q0 -87 -57 -151t-143 -93.5 t-187 -29.5q-178 0 -412 88q-2 -16 -2 -49q0 -115 57.5 -205t148.5 -136t195 -44q196 2 355 141zM631 893q-133 0 -247.5 -83.5t-152.5 -231.5q203 -72 385 -72q117 0 203 48t86 136q0 93 -75.5 148t-198.5 55z" />
<glyph unicode="&#x11e;" horiz-adv-x="1622" d="M815 1632q-83 0 -152 29.5t-112 77.5t-68.5 100.5t-33.5 106.5l77 14q28 -98 103.5 -162.5t185.5 -64.5q112 0 185 64t102 163l78 -14q-8 -54 -34 -106.5t-69 -100.5t-111.5 -77.5t-150.5 -29.5zM821 1335q-117 0 -222.5 -45.5t-184.5 -126t-125.5 -200.5t-46.5 -261 q0 -140 45.5 -258.5t125 -199.5t188.5 -126.5t233 -45.5q155 0 279 46t206 120v344h-512v96h620v-483q-103 -99 -256.5 -161.5t-336.5 -62.5q-198 0 -359.5 89.5t-256.5 257.5t-95 384q0 161 56.5 300t150.5 232.5t217.5 146.5t257.5 53q179 0 311 -70t209 -178v219h102 v-414l-65 -6q-178 350 -541 350z" />
<glyph unicode="&#x11f;" horiz-adv-x="1189" d="M586 1188q-83 0 -152 29.5t-112 77t-69 100t-34 106.5l78 15q28 -98 104 -163t185 -65q111 0 184 64.5t102 163.5l78 -15q-8 -54 -33.5 -106.5t-68.5 -100t-111.5 -77t-150.5 -29.5zM868 160q116 0 189 -60t73 -166q0 -117 -87.5 -207t-224.5 -135t-296 -45 q-207 0 -340 81t-133 214q0 117 113 203q-88 61 -88 160q0 145 164 244q-64 84 -64 190q0 83 36.5 151.5t96.5 110.5t132 65t147 23q125 0 229 -55q80 222 307 231v-100q-92 -5 -150 -42.5t-102 -123.5q129 -94 129 -254q0 -109 -59 -191t-151.5 -121.5t-202.5 -39.5 q-184 0 -303 104q-105 -74 -105 -166q0 -64 49 -104.5t148 -40.5q78 0 241 37t252 37zM586 899q-120 0 -210.5 -70t-90.5 -190t89.5 -188t211.5 -68q132 0 217.5 69t85.5 193q0 120 -90.5 187t-212.5 67zM539 -356q126 0 235.5 33t179.5 99.5t70 153.5q0 67 -49 101.5 t-131 34.5q-76 0 -233.5 -38t-248.5 -38q-78 0 -139 22q-71 -64 -71 -151q0 -98 107 -157.5t280 -59.5z" />
<glyph unicode="&#x120;" horiz-adv-x="1622" d="M815 1710q-53 0 -88 26.5t-35 67.5t35.5 70t87.5 29q56 0 91.5 -28.5t35.5 -70.5q0 -41 -35 -67.5t-92 -26.5zM821 1335q-117 0 -222.5 -45.5t-184.5 -126t-125.5 -200.5t-46.5 -261q0 -140 45.5 -258.5t125 -199.5t188.5 -126.5t233 -45.5q155 0 279 46t206 120v344 h-512v96h620v-483q-103 -99 -256.5 -161.5t-336.5 -62.5q-198 0 -359.5 89.5t-256.5 257.5t-95 384q0 161 56.5 300t150.5 232.5t217.5 146.5t257.5 53q179 0 311 -70t209 -178v219h102v-414l-65 -6q-178 350 -541 350z" />
<glyph unicode="&#x121;" horiz-adv-x="1189" d="M586 1266q-53 0 -88 26.5t-35 67.5t35.5 69.5t87.5 28.5q56 0 91.5 -28t35.5 -70q0 -41 -35 -67.5t-92 -26.5zM868 160q116 0 189 -60t73 -166q0 -117 -87.5 -207t-224.5 -135t-296 -45q-207 0 -340 81t-133 214q0 117 113 203q-88 61 -88 160q0 145 164 244 q-64 84 -64 190q0 83 36.5 151.5t96.5 110.5t132 65t147 23q125 0 229 -55q80 222 307 231v-100q-92 -5 -150 -42.5t-102 -123.5q129 -94 129 -254q0 -109 -59 -191t-151.5 -121.5t-202.5 -39.5q-184 0 -303 104q-105 -74 -105 -166q0 -64 49 -104.5t148 -40.5q78 0 241 37 t252 37zM586 899q-120 0 -210.5 -70t-90.5 -190t89.5 -188t211.5 -68q132 0 217.5 69t85.5 193q0 120 -90.5 187t-212.5 67zM539 -356q126 0 235.5 33t179.5 99.5t70 153.5q0 67 -49 101.5t-131 34.5q-76 0 -233.5 -38t-248.5 -38q-78 0 -139 22q-71 -64 -71 -151 q0 -98 107 -157.5t280 -59.5z" />
<glyph unicode="&#x122;" horiz-adv-x="1622" d="M821 1335q-117 0 -222.5 -45.5t-184.5 -126t-125.5 -200.5t-46.5 -261q0 -140 45.5 -258.5t125 -199.5t188.5 -126.5t233 -45.5q155 0 279 46t206 120v344h-512v96h620v-483q-103 -99 -256.5 -161.5t-336.5 -62.5q-198 0 -359.5 89.5t-256.5 257.5t-95 384 q0 161 56.5 300t150.5 232.5t217.5 146.5t257.5 53q179 0 311 -70t209 -178v219h102v-414l-65 -6q-178 350 -541 350zM815 -250q64 0 102.5 -41t38.5 -110q0 -87 -57 -186t-154 -181l-34 39q163 166 176 303q-36 -14 -84 -14q-44 0 -75.5 24.5t-31.5 65.5t35.5 70.5 t83.5 29.5z" />
<glyph unicode="&#x123;" horiz-adv-x="1189" d="M588 1196q-65 0 -104.5 41t-39.5 111q0 87 57.5 185.5t153.5 178.5l37 -39q-166 -166 -176 -301q38 14 82 14q43 0 76 -25t33 -65q0 -42 -35.5 -71t-83.5 -29zM868 160q116 0 189 -60t73 -166q0 -117 -87.5 -207t-224.5 -135t-296 -45q-207 0 -340 81t-133 214 q0 117 113 203q-88 61 -88 160q0 145 164 244q-64 84 -64 190q0 83 36.5 151.5t96.5 110.5t132 65t147 23q125 0 229 -55q80 222 307 231v-100q-92 -5 -150 -42.5t-102 -123.5q129 -94 129 -254q0 -109 -59 -191t-151.5 -121.5t-202.5 -39.5q-184 0 -303 104 q-105 -74 -105 -166q0 -64 49 -104.5t148 -40.5q78 0 241 37t252 37zM586 899q-120 0 -210.5 -70t-90.5 -190t89.5 -188t211.5 -68q132 0 217.5 69t85.5 193q0 120 -90.5 187t-212.5 67zM539 -356q126 0 235.5 33t179.5 99.5t70 153.5q0 67 -49 101.5t-131 34.5 q-76 0 -233.5 -38t-248.5 -38q-78 0 -139 22q-71 -64 -71 -151q0 -98 107 -157.5t280 -59.5z" />
<glyph unicode="&#x126;" horiz-adv-x="1937" d="M1858 1307h-293v-263h229v-81h-229v-865h293v-98h-699v98h289v520h-959v-520h287v-98h-696v98h293v865h-232v81h232v263h-293v98h696v-98h-287v-263h959v263h-289v98h699v-98zM1448 713v250h-959v-250h959z" />
<glyph unicode="&#x127;" horiz-adv-x="1441" d="M1196 96h211v-96h-518v96h194v504q0 289 -245 289q-103 0 -216 -68t-221 -186v-539h193v-96h-543v96h238v1016h-238v82h238v117h-238v94h350v-211h398v-82h-398v-381q239 258 473 258q152 0 237 -95t85 -284v-514z" />
<glyph unicode="&#x12a;" horiz-adv-x="858" d="M35 1726l788 -2v-92l-788 2v92zM80 1307v98h698v-98h-293v-1209h293v-98h-698v98h291v1209h-291z" />
<glyph unicode="&#x12b;" horiz-adv-x="700" d="M610 1284v-92l-559 2v92zM416 96h239v-96h-589v96h237v774h-237v95h350v-869z" />
<glyph unicode="&#x12e;" horiz-adv-x="858" d="M778 1307h-293v-1209h293v-98h-323q-81 -75 -121.5 -164t-40.5 -166q0 -74 37.5 -120t97.5 -46q109 0 186 162l68 -45q-44 -99 -111 -154t-153 -55q-95 0 -154 67t-59 169q0 91 44 184.5t126 167.5h-295v98h291v1209h-291v98h698v-98z" />
<glyph unicode="&#x12f;" horiz-adv-x="700" d="M332 1241q-53 0 -88 26.5t-35 67.5t35.5 70t87.5 29q56 0 91.5 -28.5t35.5 -70.5q0 -41 -35 -67.5t-92 -26.5zM399 0q-81 -75 -121 -164t-40 -166q0 -74 37.5 -120t97.5 -46q109 0 186 162l68 -45q-44 -99 -111.5 -154t-153.5 -55q-95 0 -153.5 67t-58.5 169 q0 91 43.5 184.5t125.5 167.5h-253v96h237v774h-237v95h350v-869h239v-96h-256z" />
<glyph unicode="&#x130;" horiz-adv-x="858" d="M430 1681q-53 0 -88 27t-35 68t35.5 69.5t87.5 28.5q56 0 91.5 -28t35.5 -70t-35 -68.5t-92 -26.5zM778 1307h-293v-1209h293v-98h-698v98h291v1209h-291v98h698v-98z" />
<glyph unicode="&#x131;" horiz-adv-x="700" d="M416 96h239v-96h-589v96h237v774h-237v95h350v-869z" />
<glyph unicode="&#x136;" horiz-adv-x="1753" d="M1511 98h215v-98h-618v98h258l-522 625l-359 -313v-312h289v-98h-694v98h291v1209h-291v98h694v-98h-289v-783l881 783h-285v98h619v-98h-193l-583 -512zM938 -221q64 0 102.5 -41.5t38.5 -110.5q0 -87 -57 -185.5t-154 -180.5l-34 39q163 166 176 303q-39 -15 -84 -15 q-44 0 -75.5 24.5t-31.5 65.5t35.5 71t83.5 30z" />
<glyph unicode="&#x137;" horiz-adv-x="1355" d="M1286 106l31 -86q-80 -47 -178 -47q-127 0 -216.5 97.5t-127.5 287.5q-12 -2 -35 -2q-167 0 -361 82v-342h236v-96h-584v96h238v1213h-238v96h348v-617q102 91 215.5 146t223.5 55q142 0 236.5 -84t94.5 -223q0 -116 -80 -199t-206 -112q73 -298 262 -301q77 0 141 36z M737 446q129 0 223.5 62.5t94.5 171.5q0 96 -64.5 153.5t-169.5 57.5q-192 0 -422 -195v-172q178 -75 338 -78zM758 -221q64 0 102.5 -41.5t38.5 -110.5q0 -87 -57 -185.5t-154 -180.5l-35 39q163 166 176 303q-39 -15 -84 -15q-43 0 -74.5 24.5t-31.5 65.5t35.5 71t83.5 30 z" />
<glyph unicode="&#x139;" horiz-adv-x="1470" d="M983 1913l-453 -346l-41 47l424 387zM1251 408h109v-408h-1280v98h291v1209h-291v98h698v-98h-293v-1209h766v310z" />
<glyph unicode="&#x13a;" horiz-adv-x="688" d="M752 1913l-453 -346l-41 47l424 387zM401 1405v-1309h242v-96h-592v96h238v1213h-236l-2 96h350z" />
<glyph unicode="&#x13b;" horiz-adv-x="1470" d="M1251 408h109v-408h-1280v98h291v1209h-291v98h698v-98h-293v-1209h766v310zM782 -221q64 0 103 -41.5t39 -110.5q0 -87 -57 -185.5t-154 -180.5l-35 39q163 166 176 303q-39 -15 -84 -15q-43 0 -74.5 24.5t-31.5 65.5t35.5 71t82.5 30z" />
<glyph unicode="&#x13c;" horiz-adv-x="688" d="M401 96h242v-96h-592v96h238v1213h-236l-2 96h350v-1309zM348 -221q64 0 102.5 -41.5t38.5 -110.5q0 -88 -56.5 -186t-153.5 -180l-35 39q163 166 176 303q-39 -15 -84 -15q-44 0 -75.5 24.5t-31.5 65.5t35.5 71t83.5 30z" />
<glyph unicode="&#x13d;" horiz-adv-x="1470" d="M991 1032l-55 19q81 175 72 368l108 -16q-6 -197 -125 -371zM1251 408h109v-408h-1280v98h291v1209h-291v98h698v-98h-293v-1209h766v310z" />
<glyph unicode="&#x13e;" horiz-adv-x="688" d="M588 1034l-56 19q81 175 72 368l109 -16q-6 -197 -125 -371zM401 1405v-1309h242v-96h-592v96h238v1213h-236l-2 96h350z" />
<glyph unicode="&#x13f;" horiz-adv-x="1470" d="M1251 408h109v-408h-1280v98h291v1209h-291v98h698v-98h-293v-1209h766v310zM1163 729q-53 0 -91 29t-38 73t38 75.5t91 31.5q59 0 97 -31t38 -76t-37.5 -73.5t-97.5 -28.5z" />
<glyph unicode="&#x140;" horiz-adv-x="686" d="M401 1405v-1309h242v-96h-592v96h238v1213h-236l-2 96h350zM684 776q56 0 92.5 -29t36.5 -71t-36 -69t-93 -27q-50 0 -85.5 27.5t-35.5 68.5t35.5 70.5t85.5 29.5z" />
<glyph unicode="&#x141;" horiz-adv-x="1458" d="M1251 408h109v-408h-1280v98h291v506l-299 -110v90l299 110v613h-291v98h698v-98h-293v-572l365 135v-88l-365 -135v-549h766v310z" />
<glyph unicode="&#x142;" horiz-adv-x="686" d="M401 96h242v-96h-592v96h238v516l-234 -98v84l234 98v613h-236l-2 96h350v-662l228 97v-84l-228 -97v-563z" />
<glyph unicode="&#x143;" horiz-adv-x="1910" d="M1350 1913l-453 -346l-41 47l424 387zM1880 1405v-98h-289v-1321h-45l-1063 1243v-1131h271v-98h-674v98h291v1209h-291v98h403v-2l998 -1178v1082h-291v98h690z" />
<glyph unicode="&#x144;" horiz-adv-x="1456" d="M1159 1497l-452 -346l-41 47l424 387zM1210 96h211v-96h-518v96h195v504q0 285 -244 285q-104 0 -217 -67t-221 -183v-539h194v-96h-544v96h237v772h-237v97h350v-234q116 123 230.5 190.5t240.5 67.5q152 0 237.5 -95t85.5 -284v-514z" />
<glyph unicode="&#x145;" horiz-adv-x="1910" d="M1880 1405v-98h-289v-1321h-45l-1063 1243v-1131h271v-98h-674v98h291v1209h-291v98h403v-2l998 -1178v1082h-291v98h690zM1044 -193q65 0 103.5 -41t38.5 -110q0 -87 -57 -186t-154 -181l-35 39q163 166 176 303q-36 -14 -84 -14q-43 0 -74.5 24.5t-31.5 65.5t35 70.5 t83 29.5z" />
<glyph unicode="&#x146;" horiz-adv-x="1456" d="M1210 96h211v-96h-518v96h195v504q0 285 -244 285q-104 0 -217 -67t-221 -183v-539h194v-96h-544v96h237v772h-237v97h350v-234q116 123 230.5 190.5t240.5 67.5q152 0 237.5 -95t85.5 -284v-514zM762 -221q64 0 102.5 -41.5t38.5 -110.5q0 -87 -57 -185.5t-154 -180.5 l-35 39q80 81 125 154.5t52 148.5q-39 -15 -84 -15q-44 0 -75.5 24.5t-31.5 65.5t35.5 71t83.5 30z" />
<glyph unicode="&#x147;" horiz-adv-x="1910" d="M981 1556h-72l-323 365l43 43l315 -299l322 299l41 -43zM1880 1405v-98h-289v-1321h-45l-1063 1243v-1131h271v-98h-674v98h291v1209h-291v98h403v-2l998 -1178v1082h-291v98h690z" />
<glyph unicode="&#x148;" horiz-adv-x="1456" d="M791 1141h-72l-324 364l43 43l316 -299l321 299l41 -43zM1210 96h211v-96h-518v96h195v504q0 285 -244 285q-104 0 -217 -67t-221 -183v-539h194v-96h-544v96h237v772h-237v97h350v-234q116 123 230.5 190.5t240.5 67.5q152 0 237.5 -95t85.5 -284v-514z" />
<glyph unicode="&#x14a;" horiz-adv-x="1910" d="M1880 1405v-98h-289v-1332q0 -227 -121 -356t-313 -129q-242 0 -448 168l57 86q191 -152 387 -152q148 2 238 98t90 277v94l-998 1168v-1131h271v-98h-674v98h291v1209h-291v98h403v-2l998 -1178v1082h-291v98h690z" />
<glyph unicode="&#x14b;" horiz-adv-x="1425" d="M887 989q152 0 237.5 -95t85.5 -284v-760q0 -154 -86 -245.5t-227 -91.5q-16 0 -32 1t-29.5 2.5t-29.5 5t-26 5.5t-26 7t-23 7t-22.5 8t-20 7.5t-20 8t-17.5 7.5l29 96q101 -53 217 -53q92 0 146.5 60t54.5 173v752q0 285 -244 285q-104 0 -217 -67t-221 -183v-539h194 v-96h-544v96h237v774h-237v95h350v-234q116 123 230.5 190.5t240.5 67.5z" />
<glyph unicode="&#x14c;" horiz-adv-x="1665" d="M1227 1753v-92l-789 2v92zM834 -27q-146 0 -273.5 51t-222 143.5t-149 231t-54.5 303.5q0 166 54.5 305t149 231.5t222 144t273.5 51.5q144 0 271.5 -51.5t222 -144t149.5 -231.5t55 -305q0 -165 -55 -303.5t-149.5 -231t-222 -143.5t-271.5 -51zM834 74q164 0 294.5 76 t206.5 220t76 332q0 142 -44 261t-121.5 200t-183.5 125.5t-228 44.5q-125 0 -232 -44.5t-184.5 -125.5t-121.5 -200t-44 -261q0 -284 163.5 -456t418.5 -172z" />
<glyph unicode="&#x14d;" horiz-adv-x="1239" d="M1014 1309v-92l-789 2v92zM621 -31q-140 1 -256 63t-186 179.5t-70 267.5q0 151 70 268.5t186 179t256 62.5q138 -1 253 -62.5t185.5 -179t70.5 -268.5q0 -150 -69 -267.5t-184.5 -179.5t-255.5 -63zM621 66q173 0 284 114.5t111 298.5q0 185 -111 299.5t-284 114.5 q-175 0 -286.5 -114.5t-111.5 -299.5t111.5 -299t286.5 -114z" />
<glyph unicode="&#x150;" horiz-adv-x="1665" d="M606 1604l-51 43l240 405l84 -63zM983 1604l-51 43l237 405l86 -63zM834 -27q-146 0 -273.5 51t-222 143.5t-149 231t-54.5 303.5q0 166 54.5 305t149 231.5t222 144t273.5 51.5q144 0 271.5 -51.5t222 -144t149.5 -231.5t55 -305q0 -165 -55 -303.5t-149.5 -231 t-222 -143.5t-271.5 -51zM834 74q164 0 294.5 76t206.5 220t76 332q0 142 -44 261t-121.5 200t-183.5 125.5t-228 44.5q-125 0 -232 -44.5t-184.5 -125.5t-121.5 -200t-44 -261q0 -284 163.5 -456t418.5 -172z" />
<glyph unicode="&#x151;" horiz-adv-x="1239" d="M393 1159l-51 43l240 406l84 -64zM770 1159l-51 43l237 406l86 -64zM621 -31q-140 1 -256 63t-186 179.5t-70 267.5q0 151 70 268.5t186 179t256 62.5q138 -1 253 -62.5t185.5 -179t70.5 -268.5q0 -150 -69 -267.5t-184.5 -179.5t-255.5 -63zM621 66q173 0 284 114.5 t111 298.5q0 185 -111 299.5t-284 114.5q-175 0 -286.5 -114.5t-111.5 -299.5t111.5 -299t286.5 -114z" />
<glyph unicode="&#x152;" horiz-adv-x="2267" d="M2099 1012h-108v297h-760v-533h362v211h103v-520h-103v211h-362v-580h762v295h106v-393h-1179q-171 0 -314 45.5t-248 131.5t-164 218t-59 297q0 220 102 383t279 246.5t404 83.5h1179v-393zM1116 98v1211h-182q-200 0 -353 -72t-240 -212.5t-87 -332.5 q0 -191 87.5 -326.5t239 -201.5t353.5 -66h182z" />
<glyph unicode="&#x153;" horiz-adv-x="2013" d="M1858 209l53 -72q-185 -164 -406 -164q-146 0 -269.5 71.5t-182.5 199.5q-61 -126 -181 -198.5t-264 -74.5q-134 1 -247 63t-182.5 179.5t-69.5 267.5q0 151 69.5 268.5t182.5 179t247 62.5q148 -2 270 -78.5t181 -210.5q64 135 190.5 211t266.5 76q166 0 276.5 -84.5 t110.5 -214.5q0 -87 -57.5 -151t-143.5 -93.5t-186 -29.5q-171 0 -410 86q-2 -14 -2 -47q0 -115 58 -205t150 -136t197 -44q110 1 192 36.5t157 102.5zM610 63q165 0 274 117t109 301t-109 300t-274 116q-166 0 -274.5 -116t-108.5 -300t108.5 -301t274.5 -117zM1516 895 q-85 0 -165 -35t-144 -109t-89 -173q200 -72 383 -72q117 0 203 48t86 136q0 93 -76.5 149t-197.5 56z" />
<glyph unicode="&#x154;" horiz-adv-x="1585" d="M1212 1913l-452 -346l-41 47l424 387zM1505 111l29 -99q-76 -39 -178 -39q-148 0 -244 85t-174 298l-100 271h-353v-529h291v-98l-696 -2v98h291v1211h-291v98h792q228 0 357 -109.5t129 -283.5q0 -146 -109.5 -254.5t-302.5 -126.5l101 -258q65 -165 138.5 -229 t178.5 -64q73 0 141 31zM485 1307v-592h389q167 0 268 85.5t101 211.5q0 127 -98.5 211t-270.5 84h-389z" />
<glyph unicode="&#x155;" horiz-adv-x="1093" d="M987 1473l-452 -347l-41 48l424 387zM416 705q252 286 504 286h61v-381h-104v273q-118 -3 -229 -72.5t-232 -202.5v-512h239v-96h-589v96h237v772h-237v97h350v-260z" />
<glyph unicode="&#x156;" horiz-adv-x="1585" d="M1505 111l29 -99q-76 -39 -178 -39q-148 0 -244 85t-174 298l-100 271h-353v-529h291v-98l-696 -2v98h291v1211h-291v98h792q228 0 357 -109.5t129 -283.5q0 -146 -109.5 -254.5t-302.5 -126.5l101 -258q65 -165 138.5 -229t178.5 -64q73 0 141 31zM485 1307v-592h389 q167 0 268 85.5t101 211.5q0 127 -98.5 211t-270.5 84h-389zM918 -221q64 0 102.5 -41.5t38.5 -110.5q0 -87 -57 -185.5t-154 -180.5l-35 39q163 166 176 303q-39 -15 -84 -15q-43 0 -74.5 24.5t-31.5 65.5t35.5 71t83.5 30z" />
<glyph unicode="&#x157;" horiz-adv-x="1093" d="M920 991h61v-381h-104v273q-118 -3 -229 -72.5t-232 -202.5v-512h239v-96h-589v96h237v772h-237v97h350v-260q252 286 504 286zM350 -221q64 0 103 -41.5t39 -110.5q0 -87 -57 -185.5t-154 -180.5l-35 39q163 166 176 303q-39 -15 -84 -15q-44 0 -75.5 24.5t-31.5 65.5 t35.5 71t83.5 30z" />
<glyph unicode="&#x158;" horiz-adv-x="1585" d="M844 1556h-72l-323 365l43 43l315 -299l321 299l41 -43zM1505 111l29 -99q-76 -39 -178 -39q-148 0 -244 85t-174 298l-100 271h-353v-529h291v-98l-696 -2v98h291v1211h-291v98h792q228 0 357 -109.5t129 -283.5q0 -146 -109.5 -254.5t-302.5 -126.5l101 -258 q65 -165 138.5 -229t178.5 -64q73 0 141 31zM485 1307v-592h389q167 0 268 85.5t101 211.5q0 127 -98.5 211t-270.5 84h-389z" />
<glyph unicode="&#x159;" horiz-adv-x="1093" d="M618 1116h-71l-324 365l43 43l316 -299l321 299l41 -43zM920 991h61v-381h-104v273q-118 -3 -229 -72.5t-232 -202.5v-512h239v-96h-589v96h237v772h-237v97h350v-260q252 286 504 286z" />
<glyph unicode="&#x15a;" horiz-adv-x="1396" d="M1092 1942l-453 -347l-41 47l424 388zM725 750q274 -74 401 -171t127 -257q0 -154 -128.5 -251.5t-323.5 -97.5q-157 0 -297 72.5t-242 200.5v-246h-104v444l51 2q109 -180 262 -277t326 -97q146 0 242 66.5t96 176.5q0 115 -104.5 192t-348.5 138q-510 126 -510 440 q0 156 119 252.5t299 96.5q312 0 489 -260v231h105v-440l-49 -4q-101 192 -230 283t-299 91q-138 0 -227.5 -65.5t-89.5 -175.5q0 -118 106 -201t330 -143z" />
<glyph unicode="&#x15b;" horiz-adv-x="1114" d="M938 1499l-453 -346l-41 47l424 387zM565 535q72 -18 123.5 -34.5t108.5 -44t92.5 -59t58.5 -77.5t23 -103q0 -116 -97 -180t-235 -64q-115 0 -233 51.5t-193 129.5v-154h-94v305l49 8q79 -110 206 -182t257 -72q93 0 159 40t66 110q0 38 -17.5 69t-44.5 52.5t-73 41.5 t-88 33t-105 29q-68 17 -122 34.5t-108 44t-89.5 57.5t-57.5 73.5t-22 93.5q0 109 92.5 181.5t239.5 72.5q112 0 214 -47.5t169 -124.5v146h94v-306l-53 -6q-60 118 -172 185t-236 67q-100 0 -166.5 -42.5t-66.5 -114.5q0 -33 17.5 -61t44.5 -49t71.5 -40.5t86.5 -33 t101 -29.5z" />
<glyph unicode="&#x15e;" horiz-adv-x="1396" d="M801 -27q-40 0 -60 2l-59 -151q36 4 63 4q94 0 149.5 -47.5t55.5 -120.5q0 -79 -67.5 -127.5t-173.5 -48.5q-141 0 -279 88l39 70q116 -80 240 -80q70 0 112.5 26t42.5 72q0 49 -37.5 74.5t-105.5 25.5q-67 0 -125 -10l-10 17l90 219q-246 50 -414 260v-246h-104v444 l51 2q109 -180 262 -277t326 -97q146 0 242 66.5t96 176.5q0 115 -104.5 192t-348.5 138q-510 126 -510 440q0 156 119 252.5t299 96.5q312 0 489 -260v231h105v-440l-49 -4q-101 192 -230 283t-299 91q-138 0 -227.5 -65.5t-89.5 -175.5q0 -118 106 -201t330 -143 q274 -74 401 -171t127 -257q0 -154 -128.5 -251.5t-323.5 -97.5z" />
<glyph unicode="&#x15f;" horiz-adv-x="1114" d="M639 -27q-33 0 -49 2l-58 -147q36 4 64 4q94 0 149.5 -47.5t55.5 -120.5q0 -79 -67.5 -127.5t-174.5 -48.5q-140 0 -278 88l38 70q116 -80 240 -80q71 0 113.5 26t42.5 72q0 49 -38 74.5t-106 25.5q-67 0 -125 -10l-10 17l88 215q-91 20 -173 64.5t-138 103.5v-154h-94 v305l49 8q79 -110 206 -182t257 -72q93 0 159 40t66 110q0 38 -17.5 69t-44.5 52.5t-73 41.5t-88 33t-105 29q-68 17 -122 34.5t-108 44t-89.5 57.5t-57.5 73.5t-22 93.5q0 109 92.5 181.5t239.5 72.5q112 0 214 -47.5t169 -124.5v146h94v-306l-53 -6q-60 118 -172 185 t-236 67q-100 0 -166.5 -42.5t-66.5 -114.5q0 -33 17.5 -61t44.5 -49t71.5 -40.5t86.5 -33t101 -29.5q72 -18 123.5 -34.5t108.5 -44t92.5 -59t58.5 -77.5t23 -103q0 -116 -97 -180t-235 -64z" />
<glyph unicode="&#x160;" horiz-adv-x="1396" d="M723 1585h-72l-323 365l43 43l315 -299l322 299l41 -43zM725 750q274 -74 401 -171t127 -257q0 -154 -128.5 -251.5t-323.5 -97.5q-157 0 -297 72.5t-242 200.5v-246h-104v444l51 2q109 -180 262 -277t326 -97q146 0 242 66.5t96 176.5q0 115 -104.5 192t-348.5 138 q-510 126 -510 440q0 156 119 252.5t299 96.5q312 0 489 -260v231h105v-440l-49 -4q-101 192 -230 283t-299 91q-138 0 -227.5 -65.5t-89.5 -175.5q0 -118 106 -201t330 -143z" />
<glyph unicode="&#x161;" horiz-adv-x="1114" d="M569 1143h-71l-324 364l43 43l315 -299l322 299l41 -43zM565 535q72 -18 123.5 -34.5t108.5 -44t92.5 -59t58.5 -77.5t23 -103q0 -116 -97 -180t-235 -64q-115 0 -233 51.5t-193 129.5v-154h-94v305l49 8q79 -110 206 -182t257 -72q93 0 159 40t66 110q0 38 -17.5 69 t-44.5 52.5t-73 41.5t-88 33t-105 29q-68 17 -122 34.5t-108 44t-89.5 57.5t-57.5 73.5t-22 93.5q0 109 92.5 181.5t239.5 72.5q112 0 214 -47.5t169 -124.5v146h94v-306l-53 -6q-60 118 -172 185t-236 67q-100 0 -166.5 -42.5t-66.5 -114.5q0 -33 17.5 -61t44.5 -49 t71.5 -40.5t86.5 -33t101 -29.5z" />
<glyph unicode="&#x162;" horiz-adv-x="1574" d="M98 1405h1379v-397h-107v299h-524v-1209h303v-98h-340l-57 -147q36 4 63 4q94 0 149.5 -47.5t55.5 -120.5q0 -79 -67.5 -127.5t-174.5 -48.5q-140 0 -278 88l39 69q116 -80 239 -80q70 0 113 26.5t43 72.5q0 49 -37.5 74.5t-105.5 25.5q-67 0 -125 -10l-11 16l84 205 h-309v98h301v1209h-524v-299h-109v397z" />
<glyph unicode="&#x163;" horiz-adv-x="911" d="M592 -172q94 0 149.5 -47.5t55.5 -120.5q0 -79 -67.5 -127.5t-174.5 -48.5q-141 0 -279 88l39 70q116 -80 240 -80q71 0 113.5 26t42.5 72q0 49 -38 74.5t-106 25.5q-67 0 -125 -10l-10 17l86 210q-107 21 -171 105.5t-64 232.5v553h-236v97h236v268h112v-268h359v-97 h-359v-557q0 -67 17.5 -115t48 -73.5t64 -37t73.5 -11.5q120 0 236 65l38 -88q-140 -80 -284 -80h-2l-58 -147q36 4 64 4z" />
<glyph unicode="&#x164;" horiz-adv-x="1574" d="M811 1583h-72l-323 365l43 43l315 -299l322 299l41 -43zM98 1405h1379v-397h-107v299h-524v-1209h303v-98h-719v98h301v1209h-524v-299h-109v397z" />
<glyph unicode="&#x165;" horiz-adv-x="911" d="M582 1122l-56 19q81 175 72 368l109 -16q-6 -197 -125 -371zM834 139l38 -88q-140 -80 -284 -80q-135 0 -220 86t-85 258v553h-236v97h236v268h112v-268h359v-97h-359v-557q0 -67 17.5 -115t48 -73.5t64 -37t73.5 -11.5q120 0 236 65z" />
<glyph unicode="&#x166;" horiz-adv-x="1574" d="M98 1405h1379v-397h-107v299h-524v-645h450v-84h-450v-480h303v-98h-719v98h301v480h-455v84h455v645h-524v-299h-109v397z" />
<glyph unicode="&#x167;" horiz-adv-x="911" d="M834 139l38 -88q-140 -80 -284 -80q-135 0 -220 86t-85 258v306h-236v84h236v163h-236v97h236v268h112v-268h359v-97h-359v-163h361v-84h-361v-310q0 -67 17.5 -115t48 -73.5t64 -37t73.5 -11.5q120 0 236 65z" />
<glyph unicode="&#x16a;" d="M1313 1724v-92l-789 2v92zM1804 1405v-98h-291v-779q0 -118 -42 -220t-119 -176.5t-191 -117.5t-252 -43t-252 43t-191 117.5t-119 176.5t-42 220v779h-291v98h695v-98h-287l-2 -783q0 -197 135.5 -324.5t353.5 -127.5q216 0 353 127.5t137 322.5l-2 785h-289v98h696z " />
<glyph unicode="&#x16b;" horiz-adv-x="1368" d="M1036 1284v-92l-788 2v92zM1266 96l32 -88q-68 -33 -124 -33q-84 0 -131.5 59t-47.5 167v18q-107 -119 -213.5 -183.5t-224.5 -64.5q-145 0 -226 95.5t-81 277.5v524h-213v97h325v-609q0 -280 228 -280q98 0 202 63t203 174v555h-192v97h305v-760q0 -131 82 -131 q48 0 76 22z" />
<glyph unicode="&#x16e;" d="M920 1554q-120 0 -206.5 83.5t-86.5 203.5q0 125 86 205t207 80q124 0 206 -80t82 -205q0 -123 -82.5 -205t-205.5 -82zM920 2048q-90 0 -151.5 -59t-61.5 -148q0 -87 62 -149t151 -62q91 0 149.5 61.5t58.5 149.5q0 90 -58 148.5t-150 58.5zM1804 1405v-98h-291v-779 q0 -118 -42 -220t-119 -176.5t-191 -117.5t-252 -43t-252 43t-191 117.5t-119 176.5t-42 220v779h-291v98h695v-98h-287l-2 -783q0 -197 135.5 -324.5t353.5 -127.5q216 0 353 127.5t137 322.5l-2 785h-289v98h696z" />
<glyph unicode="&#x16f;" horiz-adv-x="1368" d="M643 1114q-120 0 -206.5 83.5t-86.5 203.5q0 125 86 205t207 80q124 0 206.5 -80t82.5 -205q0 -123 -83 -205t-206 -82zM643 1608q-90 0 -151.5 -59t-61.5 -148q0 -87 62 -149t151 -62q91 0 150 61.5t59 149.5q0 90 -58.5 148.5t-150.5 58.5zM1266 96l32 -88 q-68 -33 -124 -33q-84 0 -131.5 59t-47.5 167v18q-107 -119 -213.5 -183.5t-224.5 -64.5q-145 0 -226 95.5t-81 277.5v524h-213v97h325v-609q0 -280 228 -280q98 0 202 63t203 174v555h-192v97h305v-760q0 -131 82 -131q48 0 76 22z" />
<glyph unicode="&#x170;" d="M965 1960l-273 -385l-51 43l240 405zM1341 1960l-272 -385l-51 43l237 405zM1804 1405v-98h-291v-779q0 -118 -42 -220t-119 -176.5t-191 -117.5t-252 -43t-252 43t-191 117.5t-119 176.5t-42 220v779h-291v98h695v-98h-287l-2 -783q0 -197 135.5 -324.5t353.5 -127.5 q216 0 353 127.5t137 322.5l-2 785h-289v98h696z" />
<glyph unicode="&#x171;" horiz-adv-x="1368" d="M688 1520l-272 -385l-51 43l239 405zM1065 1520l-272 -385l-52 43l238 405zM1266 96l32 -88q-68 -33 -124 -33q-84 0 -131.5 59t-47.5 167v18q-107 -119 -213.5 -183.5t-224.5 -64.5q-145 0 -226 95.5t-81 277.5v524h-213v97h325v-609q0 -280 228 -280q98 0 202 63 t203 174v555h-192v97h305v-760q0 -131 82 -131q48 0 76 22z" />
<glyph unicode="&#x172;" d="M1804 1405v-98h-291v-779q0 -115 -40 -215t-113.5 -174t-182.5 -119t-241 -49q-60 -68 -89.5 -143t-29.5 -141q0 -74 37.5 -120t97.5 -46q110 0 187 162l67 -45q-44 -99 -111 -154t-153 -55q-95 0 -154 67t-59 168q0 77 32.5 157.5t94.5 151.5q-252 15 -401.5 170 t-149.5 385v779h-291v98h695v-98h-287l-2 -783q0 -197 135.5 -324.5t353.5 -127.5q216 0 353 127.5t137 322.5l-2 785h-289v98h696z" />
<glyph unicode="&#x173;" horiz-adv-x="1368" d="M1061 -477q105 0 174 108l53 -53q-35 -62 -99.5 -102.5t-135.5 -40.5q-91 0 -155 56.5t-64 150.5q0 93 67.5 186t188.5 166q-95 53 -95 207v18q-107 -119 -213.5 -183.5t-224.5 -64.5q-145 0 -226 95.5t-81 277.5v524h-213v97h325v-609q0 -280 228 -280q98 0 202 63 t203 174v555h-192v97h305v-760q0 -131 82 -131q48 0 76 22l32 -88q-68 -33 -124 -33h-19q-113 -74 -171 -158t-58 -155q0 -66 39.5 -102.5t95.5 -36.5z" />
<glyph unicode="&#x174;" horiz-adv-x="2433" d="M1214 1845l-315 -297l-43 39l324 365h71l326 -365l-41 -39zM2423 1405v-98h-250l-469 -1336h-45l-445 1155l-440 -1155h-49l-467 1336h-246v98h637v-98h-264l375 -1108l434 1173h53l439 -1173l364 1108h-285v98h658z" />
<glyph unicode="&#x175;" horiz-adv-x="1794" d="M897 1405l-315 -297l-43 39l323 364h72l326 -364l-41 -39zM1778 963v-97h-172l-318 -895h-45l-346 774l-344 -774h-45l-320 895h-170v97h478v-91h-193l242 -706l338 772h45l338 -776l241 710h-196v91h467z" />
<glyph unicode="&#x176;" horiz-adv-x="1667" d="M834 1845l-316 -297l-43 39l324 365h71l326 -365l-41 -39zM1417 1307l-524 -791v-418h303v-98h-721v98h303v412l-530 797h-232v98h623v-98h-258l461 -707l456 707h-268v98h623v-98h-236z" />
<glyph unicode="&#x177;" horiz-adv-x="1341" d="M688 1405l-315 -297l-43 39l323 364h72l326 -364l-41 -39zM1335 965v-97h-186l-442 -1018q-147 -337 -392 -337q-54 0 -107 17t-84 34.5t-77 48.5l51 86q115 -84 217 -84q88 0 162 61.5t127 182.5l33 78l-426 931h-199v97h510v-93h-190l358 -815l352 815h-180v93h473z " />
<glyph unicode="&#x178;" horiz-adv-x="1667" d="M623 1657q-50 0 -83.5 26t-33.5 66t34 67t83 27q52 0 85 -27t33 -67t-33 -66t-85 -26zM1047 1657q-48 0 -82.5 26.5t-34.5 65.5t34.5 66.5t82.5 27.5q52 0 85 -27t33 -67t-33 -66t-85 -26zM1417 1307l-524 -791v-418h303v-98h-721v98h303v412l-530 797h-232v98h623v-98 h-258l461 -707l456 707h-268v98h623v-98h-236z" />
<glyph unicode="&#x179;" horiz-adv-x="1476" d="M674 1614l41 -47l452 346l-69 88zM131 0v72l999 1185q16 19 42 35t45 21l-3 4q-40 -8 -90 -8h-872v-301h-109v397h1203v-70l-1006 -1190q-27 -36 -84 -51l2 -6q33 10 92 10h897v299h109v-397h-1225z" />
<glyph unicode="&#x17a;" horiz-adv-x="1198" d="M1001 1497l-452 -346l-41 47l424 387zM1038 328l99 -23q-15 -149 -117 -241.5t-250 -92.5q-237 0 -475 252q-76 -102 -119 -250l-92 31q26 94 65 171t80 128.5t100.5 98t108 74.5t119.5 63q15 8 56 28t60.5 30t50.5 27t54.5 33t44.5 33q-137 101 -281.5 150t-322.5 49 v-281h-98v381h88q214 0 364 -56.5t310 -184.5q82 95 104 241l96 -28q-8 -51 -22 -96.5t-30.5 -81t-43 -70t-48 -58.5t-58.5 -51t-61 -43.5t-69 -39.5t-70 -35t-75 -35q-174 -82 -260 -168q101 -100 209 -156.5t207 -56.5q106 0 182.5 68.5t93.5 189.5z" />
<glyph unicode="&#x17b;" horiz-adv-x="1476" d="M764 1681q-53 0 -88 27t-35 68t35.5 69.5t87.5 28.5q56 0 91.5 -28t35.5 -70t-35 -68.5t-92 -26.5zM131 0v72l999 1185q16 19 42 35t45 21l-3 4q-40 -8 -90 -8h-872v-301h-109v397h1203v-70l-1006 -1190q-27 -36 -84 -51l2 -6q33 10 92 10h897v299h109v-397h-1225z" />
<glyph unicode="&#x17c;" horiz-adv-x="1198" d="M598 1266q-53 0 -88 26.5t-35 67.5t35.5 69.5t87.5 28.5q56 0 91.5 -28t35.5 -70q0 -41 -35 -67.5t-92 -26.5zM1038 328l99 -23q-15 -149 -117 -241.5t-250 -92.5q-237 0 -475 252q-76 -102 -119 -250l-92 31q26 94 65 171t80 128.5t100.5 98t108 74.5t119.5 63 q15 8 56 28t60.5 30t50.5 27t54.5 33t44.5 33q-137 101 -281.5 150t-322.5 49v-281h-98v381h88q214 0 364 -56.5t310 -184.5q82 95 104 241l96 -28q-8 -51 -22 -96.5t-30.5 -81t-43 -70t-48 -58.5t-58.5 -51t-61 -43.5t-69 -39.5t-70 -35t-75 -35q-174 -82 -260 -168 q101 -100 209 -156.5t207 -56.5q106 0 182.5 68.5t93.5 189.5z" />
<glyph unicode="&#x17d;" horiz-adv-x="1476" d="M1083 1964l41 -43l-325 -365h-72l-324 365l43 43l316 -299zM131 0v72l999 1185q16 19 42 35t45 21l-3 4q-40 -8 -90 -8h-872v-301h-109v397h1203v-70l-1006 -1190q-27 -36 -84 -51l2 -6q33 10 92 10h897v299h109v-397h-1225z" />
<glyph unicode="&#x17e;" horiz-adv-x="1198" d="M633 1141h-72l-323 364l43 43l315 -299l322 299l40 -43zM1038 328l99 -23q-15 -149 -117 -241.5t-250 -92.5q-237 0 -475 252q-76 -102 -119 -250l-92 31q26 94 65 171t80 128.5t100.5 98t108 74.5t119.5 63q15 8 56 28t60.5 30t50.5 27t54.5 33t44.5 33 q-137 101 -281.5 150t-322.5 49v-281h-98v381h88q214 0 364 -56.5t310 -184.5q82 95 104 241l96 -28q-8 -51 -22 -96.5t-30.5 -81t-43 -70t-48 -58.5t-58.5 -51t-61 -43.5t-69 -39.5t-70 -35t-75 -35q-174 -82 -260 -168q101 -100 209 -156.5t207 -56.5q106 0 182.5 68.5 t93.5 189.5z" />
<glyph unicode="&#x192;" horiz-adv-x="860" d="M672 1399q-102 0 -167 -66.5t-65 -210.5v-155h324v-95h-324v-849q0 -193 -78 -293.5t-247 -100.5q-48 0 -111 13l16 96q44 -6 86 -6q120 0 172 72.5t52 213.5v854h-238v95h238v149q0 191 91.5 288t244.5 97q57 0 119 -16.5t101 -34t99 -47.5l-43 -92q-144 88 -270 88z " />
<glyph unicode="&#x218;" horiz-adv-x="1396" d="M725 750q274 -74 401 -171t127 -257q0 -154 -128.5 -251.5t-323.5 -97.5q-157 0 -297 72.5t-242 200.5v-246h-104v444l51 2q109 -180 262 -277t326 -97q146 0 242 66.5t96 176.5q0 115 -104.5 192t-348.5 138q-510 126 -510 440q0 156 119 252.5t299 96.5q312 0 489 -260 v231h105v-440l-49 -4q-101 192 -230 283t-299 91q-138 0 -227.5 -65.5t-89.5 -175.5q0 -118 106 -201t330 -143zM741 -250q65 0 103.5 -41t38.5 -110q0 -87 -57 -186t-154 -181l-35 39q163 166 176 303q-36 -14 -84 -14q-43 0 -74.5 24.5t-31.5 65.5t35 70.5t83 29.5z" />
<glyph unicode="&#x219;" horiz-adv-x="1114" d="M565 535q72 -18 123.5 -34.5t108.5 -44t92.5 -59t58.5 -77.5t23 -103q0 -116 -97 -180t-235 -64q-115 0 -233 51.5t-193 129.5v-154h-94v305l49 8q79 -110 206 -182t257 -72q93 0 159 40t66 110q0 38 -17.5 69t-44.5 52.5t-73 41.5t-88 33t-105 29q-68 17 -122 34.5 t-108 44t-89.5 57.5t-57.5 73.5t-22 93.5q0 109 92.5 181.5t239.5 72.5q112 0 214 -47.5t169 -124.5v146h94v-306l-53 -6q-60 118 -172 185t-236 67q-100 0 -166.5 -42.5t-66.5 -114.5q0 -33 17.5 -61t44.5 -49t71.5 -40.5t86.5 -33t101 -29.5zM592 -246q64 0 102.5 -41 t38.5 -110q0 -87 -57 -186t-154 -181l-35 39q80 81 125 154.5t52 148.5q-36 -14 -84 -14q-44 0 -75.5 24.5t-31.5 65.5t35.5 70.5t83.5 29.5z" />
<glyph unicode="&#x21a;" horiz-adv-x="1574" d="M98 1405h1379v-397h-107v299h-524v-1209h303v-98h-719v98h301v1209h-524v-299h-109v397zM811 -221q64 0 102.5 -41.5t38.5 -110.5q0 -87 -57 -185.5t-154 -180.5l-34 39q163 166 176 303q-39 -15 -84 -15q-44 0 -75.5 24.5t-31.5 65.5t35.5 71t83.5 30z" />
<glyph unicode="&#x21b;" horiz-adv-x="911" d="M872 51q-140 -80 -284 -80q-135 0 -220 86t-85 258v553h-236v97h236v268h112v-268h359v-97h-359v-557q0 -67 17.5 -115t48 -73.5t64 -37t73.5 -11.5q120 0 236 65zM588 -250q64 0 102.5 -41t38.5 -110q0 -87 -57 -186t-154 -181l-35 39q163 166 176 303q-36 -14 -84 -14 q-43 0 -74.5 24.5t-31.5 65.5t35.5 70.5t83.5 29.5z" />
<glyph unicode="&#x237;" horiz-adv-x="630" d="M416 965v-1115q0 -154 -87 -245.5t-227 -91.5q-51 0 -104 11.5t-76 20.5t-67 27l28 96q101 -53 217 -53q91 0 147 60.5t56 172.5v1020h-240v97h353z" />
<glyph unicode="&#x259;" horiz-adv-x="1130" d="M514 993q97 0 187 -32t162 -90.5t115.5 -152t43.5 -206.5q0 -102 -30 -190.5t-81 -151t-117.5 -107.5t-140.5 -66.5t-149 -21.5q-168 0 -279.5 84.5t-111.5 214.5q0 87 57 151t143 94t187 30q177 0 411 -88q2 16 2 49q0 115 -57.5 205t-148.5 136t-195 44 q-110 -1 -193.5 -37.5t-160.5 -103.5l-54 73q187 166 410 166zM500 72q133 0 247 83.5t152 231.5q-203 72 -385 72q-117 0 -203 -48.5t-86 -136.5q0 -93 76 -147.5t199 -54.5z" />
<glyph unicode="&#x2b9;" horiz-adv-x="645" d="M332 1507l123 -28l-158 -523l-66 13z" />
<glyph unicode="&#x2ba;" horiz-adv-x="999" d="M322 1505l122 -22l-145 -525l-68 9zM686 1505l125 -22l-147 -527l-68 11z" />
<glyph unicode="&#x2bb;" horiz-adv-x="548" d="M143 -541q0 88 57.5 187.5t153.5 177.5l37 -39q-166 -162 -176 -301q38 14 82 14q43 0 76 -25t33 -65q0 -42 -35.5 -71t-83.5 -29q-65 0 -104.5 40.5t-39.5 110.5z" />
<glyph unicode="&#x300;" horiz-adv-x="946" d="M686 1604l-424 387l-69 -88l452 -347z" />
<glyph unicode="&#x301;" horiz-adv-x="946" d="M193 1604l40 -48l453 347l-70 88z" />
<glyph unicode="&#x302;" horiz-adv-x="897" d="M131 1548l-43 39l324 365h71l326 -365l-41 -39l-322 297z" />
<glyph unicode="&#x303;" horiz-adv-x="1134" d="M764 1575q-67 0 -115.5 38t-107.5 118q-58 75 -92 104t-82 29q-131 0 -148 -254l-76 8q6 153 63 238.5t161 85.5q69 0 119 -37.5t108 -116.5q51 -72 87 -101.5t83 -29.5q136 0 147 252l80 -8q-8 -151 -66.5 -238.5t-160.5 -87.5z" />
<glyph unicode="&#x304;" horiz-adv-x="1085" d="M936 1806v-92l-789 2v92z" />
<glyph unicode="&#x306;" horiz-adv-x="1036" d="M518 1604q-83 0 -152 29.5t-112 77t-68.5 100t-33.5 106.5l77 14q28 -98 103.5 -162.5t185.5 -64.5q112 0 185 64t102 163l78 -14q-8 -54 -34 -106.5t-69 -100t-111.5 -77t-150.5 -29.5z" />
<glyph unicode="&#x307;" horiz-adv-x="561" d="M279 1896q-53 0 -88 27t-35 68t35.5 69.5t87.5 28.5q56 0 91.5 -28t35.5 -70t-35 -68.5t-92 -26.5z" />
<glyph unicode="&#x308;" horiz-adv-x="1206" d="M379 1657q-50 0 -83.5 26t-33.5 66t34 67t83 27q52 0 85.5 -27t33.5 -67t-33.5 -66t-85.5 -26zM803 1657q-48 0 -82.5 26.5t-34.5 65.5t34.5 66.5t82.5 27.5q52 0 85.5 -27t33.5 -67t-33.5 -66t-85.5 -26z" />
<glyph unicode="&#x309;" horiz-adv-x="991" d="M557 1509q8 14 32 49.5t34.5 53.5t21 49t10.5 61q0 62 -42 99t-115 37q-93 0 -215 -72l-37 69q127 84 258 84q102 0 170.5 -54.5t68.5 -143.5q0 -68 -36 -127.5t-107 -130.5z" />
<glyph unicode="&#x30a;" horiz-adv-x="868" d="M436 1554q-120 0 -206.5 83.5t-86.5 203.5q0 125 86 205t207 80q124 0 206.5 -80t82.5 -205q0 -123 -83 -205t-206 -82zM436 1630q91 0 150 61.5t59 149.5q0 90 -58.5 148.5t-150.5 58.5q-90 0 -151.5 -59t-61.5 -148q0 -87 62 -149t151 -62z" />
<glyph unicode="&#x30b;" horiz-adv-x="1216" d="M330 1569l-51 43l239 405l84 -63zM707 1569l-52 43l238 405l86 -63z" />
<glyph unicode="&#x30c;" horiz-adv-x="897" d="M768 1964l41 -43l-326 -365h-71l-324 365l43 43l315 -299z" />
<glyph unicode="&#x312;" horiz-adv-x="548" d="M143 1595q0 87 57.5 186t153.5 179l37 -39q-166 -166 -176 -301q38 14 82 14q43 0 76 -25t33 -65q0 -42 -35.5 -71t-83.5 -29q-65 0 -104.5 40.5t-39.5 110.5z" />
<glyph unicode="&#x326;" horiz-adv-x="557" d="M406 -373q0 -87 -57 -185.5t-154 -180.5l-35 39q163 166 176 303q-39 -15 -84 -15q-44 0 -75.5 24.5t-31.5 65.5t35.5 71t83.5 30q64 0 103 -41.5t39 -110.5z" />
<glyph unicode="&#x327;" horiz-adv-x="616" d="M313 -487q-140 0 -278 88l39 69q116 -80 239 -80q70 0 113 26.5t43 72.5q0 49 -37.5 74.5t-105.5 25.5q-67 0 -125 -10l-11 16l99 242h69l-71 -184q36 4 63 4q94 0 149.5 -47.5t55.5 -120.5q0 -79 -67.5 -127.5t-174.5 -48.5z" />
<glyph unicode="&#x328;" horiz-adv-x="653" d="M305 -584q-91 0 -155 56.5t-64 150.5q0 103 84 207t231 180l76 -10q-147 -82 -223 -178.5t-76 -177.5q0 -66 39.5 -103t95.5 -37q104 0 174 109l54 -53q-35 -62 -100 -103t-136 -41z" />
<glyph unicode="&#x335;" horiz-adv-x="729" d="M10 621v84h709v-84h-709z" />
<glyph unicode="&#x337;" horiz-adv-x="950" d="M301 180h-106l456 877h107z" />
<glyph unicode="&#x338;" horiz-adv-x="876" d="M154 -215h-105l660 1731h104z" />
<glyph unicode="&#x394;" horiz-adv-x="1536" d="M207 0l538 1251h48l534 -1251h-1120zM358 92h820l-410 979z" />
<glyph unicode="&#x3a9;" horiz-adv-x="1849" d="M1655 410h100v-410h-698l-13 43q70 77 122 147t97.5 153.5t69 175.5t23.5 190q0 144 -60.5 258t-158.5 174.5t-213 60.5t-213 -60.5t-158.5 -174.5t-60.5 -258q0 -98 23.5 -190t69 -175.5t97 -153.5t121.5 -147l-12 -43h-697v410h101v-316h454q-122 126 -198 284.5 t-76 330.5q0 166 73 301.5t198.5 211.5t277.5 76q153 0 278.5 -76t198 -211.5t72.5 -301.5q0 -172 -76 -330.5t-199 -284.5h457v316z" />
<glyph unicode="&#x3bc;" horiz-adv-x="1366" d="M1266 96l32 -88q-64 -33 -122 -33q-85 0 -132 59t-47 167v20q-213 -248 -415 -248q-173 0 -234 146q2 -17 8 -62t8.5 -70t5.5 -63.5t3 -70.5v-299h-109v1312h-217v99h328v-609q0 -278 223 -278q188 0 399 237v650h113v-760q0 -129 82 -129q45 0 74 20z" />
<glyph unicode="&#x3c0;" horiz-adv-x="1400" d="M1288 866h-190v-661q0 -129 84 -129q44 0 73 20l33 -88q-64 -33 -123 -33q-86 0 -133 58.5t-47 167.5v665h-608v-866h-113v866h-217v99h1241v-99z" />
<glyph unicode="&#x1e80;" horiz-adv-x="2433" d="M1305 1612l-41 -47l-453 346l70 88zM2423 1405v-98h-250l-469 -1336h-45l-445 1155l-440 -1155h-49l-467 1336h-246v98h637v-98h-264l375 -1108l434 1173h53l439 -1173l364 1108h-285v98h658z" />
<glyph unicode="&#x1e81;" horiz-adv-x="1794" d="M987 1171l-41 -47l-452 346l69 89zM1778 963v-97h-172l-318 -895h-45l-346 774l-344 -774h-45l-320 895h-170v97h478v-91h-193l242 -706l338 772h45l338 -776l241 710h-196v91h467z" />
<glyph unicode="&#x1e82;" horiz-adv-x="2433" d="M1620 1913l-453 -346l-41 47l424 387zM2423 1405v-98h-250l-469 -1336h-45l-445 1155l-440 -1155h-49l-467 1336h-246v98h637v-98h-264l375 -1108l434 1173h53l439 -1173l364 1108h-285v98h658z" />
<glyph unicode="&#x1e83;" horiz-adv-x="1794" d="M1303 1473l-453 -347l-41 48l424 387zM1778 963v-97h-172l-318 -895h-45l-346 774l-344 -774h-45l-320 895h-170v97h478v-91h-193l242 -706l338 772h45l338 -776l241 710h-196v91h467z" />
<glyph unicode="&#x1e84;" horiz-adv-x="2433" d="M1004 1657q-50 0 -83.5 26t-33.5 66t34 67t83 27q52 0 85 -27t33 -67t-33 -66t-85 -26zM1427 1657q-48 0 -82 26.5t-34 65.5t34 66.5t82 27.5q52 0 85.5 -27t33.5 -67t-33.5 -66t-85.5 -26zM2423 1405v-98h-250l-469 -1336h-45l-445 1155l-440 -1155h-49l-467 1336h-246 v98h637v-98h-264l375 -1108l434 1173h53l439 -1173l364 1108h-285v98h658z" />
<glyph unicode="&#x1e85;" horiz-adv-x="1794" d="M686 1217q-50 0 -83.5 26t-33.5 66t34 67t83 27q52 0 85.5 -27t33.5 -67t-33.5 -66t-85.5 -26zM1110 1217q-48 0 -82.5 26.5t-34.5 65.5t34.5 66.5t82.5 27.5q52 0 85.5 -27t33.5 -67t-33.5 -66t-85.5 -26zM1778 963v-97h-172l-318 -895h-45l-346 774l-344 -774h-45 l-320 895h-170v97h478v-91h-193l242 -706l338 772h45l338 -776l241 710h-196v91h467z" />
<glyph unicode="&#x1e9e;" horiz-adv-x="1695" d="M1067 748q282 -68 415.5 -173.5t133.5 -261.5q0 -148 -117.5 -244t-286.5 -96q-136 0 -257.5 65.5t-213.5 190.5v-229h-106v422l53 4q103 -175 235 -264.5t279 -89.5q125 0 212 67.5t87 173.5q0 56 -27 104.5t-91.5 98t-183.5 95t-290 85.5l328 434q-247 209 -473 209 q-157 0 -253.5 -102t-96.5 -295v-942h-404v98h289v840q0 238 124.5 370t338.5 132q266 0 536 -228l168 224l78 -58z" />
<glyph unicode="&#x1ea8;" horiz-adv-x="1773" d="M1145 2163q-93 0 -215 -72l-37 70q127 84 258 84q102 0 171 -55t69 -144q0 -68 -36 -127t-108 -131l-43 27q9 15 32.5 49.5t34.5 53.5t21.5 49.5t10.5 60.5q0 62 -42.5 98.5t-115.5 36.5zM881 1845l-316 -297l-43 39l324 365h72l325 -365l-41 -39zM1522 98h258v-98h-633 v98h252l-178 426h-678l-178 -426h264v-98h-637v98h262l522 1211h-264v96h743v-96h-262zM582 616h600l-287 693h-27z" />
<glyph unicode="&#x1ef2;" horiz-adv-x="1667" d="M924 1612l-41 -47l-453 346l70 88zM1417 1307l-524 -791v-418h303v-98h-721v98h303v412l-530 797h-232v98h623v-98h-258l461 -707l456 707h-268v98h623v-98h-236z" />
<glyph unicode="&#x1ef3;" horiz-adv-x="1341" d="M778 1171l-41 -47l-452 346l69 89zM1335 965v-97h-186l-442 -1018q-147 -337 -392 -337q-54 0 -107 17t-84 34.5t-77 48.5l51 86q115 -84 217 -84q88 0 162 61.5t127 182.5l33 78l-426 931h-199v97h510v-93h-190l358 -815l352 815h-180v93h473z" />
<glyph unicode="&#x2000;" horiz-adv-x="1138" />
<glyph unicode="&#x2001;" horiz-adv-x="2277" />
<glyph unicode="&#x2002;" horiz-adv-x="1138" />
<glyph unicode="&#x2003;" horiz-adv-x="2277" />
<glyph unicode="&#x2004;" horiz-adv-x="759" />
<glyph unicode="&#x2005;" horiz-adv-x="569" />
<glyph unicode="&#x2006;" horiz-adv-x="379" />
<glyph unicode="&#x2007;" horiz-adv-x="379" />
<glyph unicode="&#x2008;" horiz-adv-x="284" />
<glyph unicode="&#x2009;" horiz-adv-x="455" />
<glyph unicode="&#x200a;" horiz-adv-x="126" />
<glyph unicode="&#x2010;" horiz-adv-x="636" d="M573 535v-103h-507v103h507z" />
<glyph unicode="&#x2011;" horiz-adv-x="636" d="M573 535v-103h-507v103h507z" />
<glyph unicode="&#x2012;" horiz-adv-x="636" d="M573 535v-103h-507v103h507z" />
<glyph unicode="&#x2013;" horiz-adv-x="1177" d="M1114 532v-100h-1048v100h1048z" />
<glyph unicode="&#x2014;" horiz-adv-x="1720" d="M1657 532v-100h-1591v100h1591z" />
<glyph unicode="&#x2018;" horiz-adv-x="583" d="M293 971q-69 0 -109.5 42t-40.5 115q0 93 65 205t181 213l39 -41q-99 -102 -150.5 -184.5t-58.5 -165.5q47 14 86 14q46 0 79.5 -27t33.5 -69q0 -44 -36.5 -73t-88.5 -29z" />
<glyph unicode="&#x2019;" horiz-adv-x="583" d="M195 950l-39 39q100 105 151.5 187.5t57.5 164.5q-41 -14 -86 -14q-46 0 -79.5 26.5t-33.5 69.5q0 44 36.5 73.5t90.5 29.5q67 0 108 -43.5t41 -116.5q0 -92 -65 -203.5t-182 -212.5z" />
<glyph unicode="&#x201a;" horiz-adv-x="583" d="M195 -406l-39 41q100 105 151.5 187t57.5 164q-47 -13 -86 -13q-46 0 -79.5 27t-33.5 68q0 44 36.5 74t90.5 30q66 0 107.5 -43t41.5 -115q0 -93 -65 -205t-182 -215z" />
<glyph unicode="&#x201b;" horiz-adv-x="583" d="M389 944q-117 103 -181.5 214t-64.5 204q0 72 40.5 114t109.5 42q52 0 88.5 -28.5t36.5 -72.5q0 -42 -33.5 -69t-79.5 -27q-32 0 -86 12q7 -81 59 -165t150 -185z" />
<glyph unicode="&#x201c;" horiz-adv-x="983" d="M293 971q-69 0 -109.5 42t-40.5 115q0 93 65 205t181 213l39 -41q-99 -102 -150.5 -184.5t-58.5 -165.5q47 14 86 14q46 0 79.5 -27t33.5 -69q0 -44 -36.5 -73t-88.5 -29zM692 969q-69 0 -109 42t-40 115q0 93 65.5 205t182.5 215l38 -41q-101 -106 -152.5 -187 t-58.5 -165q43 14 87 14q46 0 80 -27t34 -67q0 -44 -37.5 -74t-89.5 -30z" />
<glyph unicode="&#x201d;" horiz-adv-x="983" d="M195 946l-39 41q100 104 151.5 186.5t57.5 163.5q-44 -12 -86 -12q-46 0 -79.5 26.5t-33.5 69.5t36.5 73t90.5 30q67 0 108 -43.5t41 -116.5q0 -92 -65 -203.5t-182 -214.5zM594 946l-39 39q100 101 151.5 184.5t57.5 167.5q-38 -14 -84 -14q-47 0 -81 26.5t-34 69.5 q0 44 37 73.5t90 29.5q68 0 109 -43t41 -117q0 -92 -65.5 -203.5t-182.5 -212.5z" />
<glyph unicode="&#x201e;" horiz-adv-x="983" d="M195 -403l-39 38q99 104 151 187.5t58 165.5q-54 -15 -86 -15q-46 0 -79.5 27t-33.5 70q0 44 36.5 73t90.5 29q67 0 108 -42.5t41 -115.5q0 -93 -65 -204.5t-182 -212.5zM594 -406l-39 41q100 102 151.5 185t57.5 166q-44 -13 -84 -13q-47 0 -81 26.5t-34 68.5 q0 44 37 74t90 30q68 0 109 -43t41 -115q0 -93 -65.5 -205t-182.5 -215z" />
<glyph unicode="&#x2020;" horiz-adv-x="1095" d="M530 1325l-8 72q-6 45 -24.5 119t-18.5 96q0 33 18 54.5t52 21.5q32 0 50.5 -22t18.5 -54q0 -21 -19.5 -95.5t-25.5 -119.5l-6 -72h-37zM145 1141q-30 0 -52.5 19t-22.5 52q0 32 22.5 51t52.5 19q21 0 95.5 -19t119.5 -24l72 -10v-35l-72 -10q-45 -6 -119 -24.5 t-96 -18.5zM952 1141q-23 0 -97 18.5t-118 24.5l-73 10v35l73 10q45 5 119 24t96 19q30 0 52 -19t22 -51q0 -33 -22 -52t-52 -19zM549 330q-33 0 -51.5 22t-18.5 54q0 20 21 238.5t24 270.5l6 183h37l6 -183q3 -38 14.5 -161.5t21 -226.5t9.5 -121q0 -31 -18.5 -53.5 t-50.5 -22.5z" />
<glyph unicode="&#x2021;" horiz-adv-x="1095" d="M530 1325l-8 72q-6 45 -24.5 119t-18.5 96q0 33 18 54.5t52 21.5q32 0 50.5 -22t18.5 -54q0 -21 -19.5 -95.5t-25.5 -119.5l-6 -72h-37zM145 1141q-30 0 -52.5 19t-22.5 52q0 32 22.5 51t52.5 19q21 0 95.5 -19t119.5 -24l72 -10v-35l-72 -10q-45 -6 -119 -24.5 t-96 -18.5zM952 1141q-23 0 -97 18.5t-118 24.5l-73 10v35l73 10q45 5 119 24t96 19q30 0 52 -19t22 -51q0 -33 -22 -52t-52 -19zM530 770q-1 16 -11.5 75.5t-10.5 86.5t10.5 86.5t11.5 75.5h37q1 -16 12 -75.5t11 -86.5t-11 -86.5t-12 -75.5h-37zM145 580q-30 0 -52.5 18.5 t-22.5 50.5q0 34 22 52t53 18q21 0 95 -18t120 -23l72 -10v-37l-72 -6q-44 -6 -118.5 -25.5t-96.5 -19.5zM952 580q-23 0 -97.5 19.5t-117.5 25.5l-73 6v37l73 10q46 5 119.5 23t95.5 18q31 0 52.5 -18t21.5 -52q0 -32 -22 -50.5t-52 -18.5zM549 176q-34 0 -52 21.5 t-18 54.5q0 22 18.5 95t24.5 118l8 74h37l6 -74q6 -44 25.5 -117.5t19.5 -95.5q0 -32 -18.5 -54t-50.5 -22z" />
<glyph unicode="&#x2022;" horiz-adv-x="757" d="M379 510q-88 0 -148.5 47.5t-60.5 116.5q0 73 60 120.5t149 47.5q92 0 151.5 -47.5t59.5 -120.5q0 -70 -60 -117t-151 -47z" />
<glyph unicode="&#x2026;" horiz-adv-x="1626" d="M268 -27q-53 0 -91 30t-38 73q0 45 38 75.5t91 30.5q60 0 97.5 -30t37.5 -76q0 -43 -38 -73t-97 -30zM811 -27q-54 0 -91.5 30t-37.5 73q0 45 37.5 75.5t91.5 30.5q59 0 96 -30t37 -76q0 -44 -37 -73.5t-96 -29.5zM1352 -27q-54 0 -91.5 30t-37.5 73q0 45 37.5 75.5 t91.5 30.5q60 0 97.5 -30t37.5 -76q0 -43 -38 -73t-97 -30z" />
<glyph unicode="&#x202f;" horiz-adv-x="455" />
<glyph unicode="&#x2030;" horiz-adv-x="2637" d="M223 -76l-63 64l1534 1431l63 -63zM442 647q-136 0 -238 96.5t-102 243.5q0 150 101 244t239 94q137 0 237.5 -96t100.5 -244q0 -150 -100 -244t-238 -94zM444 735q98 0 170 70.5t72 179.5q0 106 -72 178t-170 72q-101 0 -172 -69t-71 -179q0 -106 72 -179t171 -73z M1382 -39q-136 0 -237 97.5t-101 244.5q0 150 100.5 245t237.5 95q136 0 238 -98.5t102 -245.5q0 -150 -101 -244t-239 -94zM2195 -39q-136 0 -236.5 97.5t-100.5 244.5q0 150 100 245t237 95q136 0 238 -98.5t102 -245.5q0 -150 -101 -244t-239 -94zM1380 53 q101 0 172.5 69t71.5 177q0 107 -72 179.5t-172 72.5q-98 0 -169.5 -70.5t-71.5 -177.5t71.5 -178.5t169.5 -71.5zM2193 53q101 0 172.5 69t71.5 177q0 107 -72 179.5t-172 72.5q-98 0 -169.5 -70.5t-71.5 -177.5t72 -178.5t169 -71.5z" />
<glyph unicode="&#x2039;" horiz-adv-x="950" d="M270 500q200 -35 349 -175.5t182 -338.5l-86 -27q-28 143 -120.5 257t-220.5 174.5t-265 60.5h-46v98h43q212 0 388.5 137t218.5 350l88 -24q-35 -199 -183.5 -339t-347.5 -173z" />
<glyph unicode="&#x203a;" horiz-adv-x="950" d="M840 549h45v-98h-45q-137 0 -264.5 -60.5t-219 -174.5t-118.5 -257l-91 27q35 199 183.5 339t347.5 173q-200 35 -349 175.5t-182 338.5l89 24q28 -142 119.5 -254.5t219 -172.5t265.5 -60z" />
<glyph unicode="&#x2044;" horiz-adv-x="391" d="M154 672l352 835l92 -43l-381 -819l-350 -833l-92 41z" />
<glyph unicode="&#x205f;" horiz-adv-x="569" />
<glyph unicode="&#x20ac;" horiz-adv-x="1454" d="M856 66q149 0 250.5 51.5t193.5 150.5l62 -75q-204 -222 -506 -222q-215 0 -378 126.5t-218 342.5h-192v84h178q-8 47 -8 111q0 28 4 82h-170v82h182q46 228 208 363.5t363 135.5q281 0 437 -225l2 197h98l-4 -371l-55 -4q-57 104 -119 169t-148 101.5t-196 36.5 q-167 0 -297 -109t-172 -294h737v-82h-752q-4 -54 -4 -82q0 -64 8 -111h742v-84h-723q49 -173 177.5 -273.5t299.5 -100.5z" />
<glyph unicode="&#x20ba;" horiz-adv-x="1351" d="M1149 569l90 -26q-38 -251 -221 -397t-445 -146h-231v512l-225 -115v88l225 115v205l-221 -113v88l221 113v405h111v-348l516 262v-88l-516 -262v-205l512 261v-89l-512 -260v-473h116q222 0 381 120t199 353z" />
<glyph unicode="&#x20bd;" horiz-adv-x="1476" d="M901 629h-358v-213h530v-82h-530v-236h307v-98h-711v98h291v236h-291v82h291v213h-291v88h291v483h-291v98h762q237 0 363.5 -85.5t126.5 -249.5q0 -165 -126.5 -249.5t-363.5 -84.5zM543 1206v-489h356q115 0 196.5 23.5t131 80t49.5 142.5q0 126 -100.5 184.5 t-276.5 58.5h-356z" />
<glyph unicode="&#x2113;" horiz-adv-x="1101" d="M471 76q181 0 346 135l60 -78q-208 -160 -420 -160q-133 0 -217 88t-84 236q0 94 22 172l133 567q54 223 162.5 345t253.5 122q140 0 211.5 -87t71.5 -234q0 -129 -47.5 -246t-120.5 -195.5t-159.5 -125t-166.5 -46.5q-110 0 -188 74l-47 -192q-19 -78 -19 -138 q0 -107 58.5 -172t150.5 -65zM721 1407q-99 0 -178.5 -98.5t-120.5 -272.5l-72 -297q60 -75 160 -75q65 0 135 41.5t127 109.5t94 166.5t37 202.5q0 111 -43 167t-139 56z" />
<glyph unicode="&#x2120;" horiz-adv-x="1687" d="M397 1151q126 -33 192 -77t66 -118t-57 -114.5t-154 -40.5q-68 0 -133 28.5t-114 75.5v-94h-74v221l29 2q127 -164 288 -164q59 0 95 21t36 57q0 38 -44 63t-152 54q-121 30 -184.5 75t-63.5 117q0 74 54.5 117t142.5 43q134 0 231 -104v92h74v-221l-27 -2 q-120 164 -272 164q-54 0 -87.5 -21.5t-33.5 -60.5q0 -35 42.5 -59.5t145.5 -53.5zM1556 1335h-100v-452h100v-72h-272v72h92v370l-225 -452h-23l-225 454v-372h92v-72h-272v72h102v452h-102v70h192l230 -467l227 467h184v-70z" />
<glyph unicode="&#x2122;" horiz-adv-x="1703" d="M96 1210v195h586v-195h-72v127h-178v-454h117v-72h-318v72h119v454h-178v-127h-76zM1475 883h102v-72h-274v72h90v368l-224 -450h-22l-227 456v-374h92v-72h-271v72h101v452h-101v70h193l227 -465l228 465h186v-70h-100v-452z" />
<glyph unicode="&#x2126;" horiz-adv-x="1849" d="M1655 410h100v-410h-698l-13 43q70 77 122 147t97.5 153.5t69 175.5t23.5 190q0 144 -60.5 258t-158.5 174.5t-213 60.5t-213 -60.5t-158.5 -174.5t-60.5 -258q0 -98 23.5 -190t69 -175.5t97 -153.5t121.5 -147l-12 -43h-697v410h101v-316h454q-122 126 -198 284.5 t-76 330.5q0 166 73 301.5t198.5 211.5t277.5 76q153 0 278.5 -76t198 -211.5t72.5 -301.5q0 -172 -76 -330.5t-199 -284.5h457v316z" />
<glyph unicode="&#x212e;" horiz-adv-x="1449" d="M1309 621h-828v-476q119 -75 248 -75q143 0 271.5 59.5t224.5 163.5l57 -78q-108 -116 -249.5 -179t-307.5 -63q-88 0 -175 26.5t-165.5 81.5t-138.5 132t-95.5 185t-35.5 233q0 133 38 245.5t101.5 189t147.5 130.5t174.5 79t183.5 25q156 0 284 -82t199.5 -219 t71.5 -297q0 -46 -6 -81zM760 1206q-149 3 -279 -80v-413h492v432q-96 58 -213 61zM1202 713q0 97 -34.5 187.5t-96.5 160.5v-348h131zM373 1036q-121 -131 -144 -323h144v323zM373 238v383h-148q3 -224 148 -383z" />
<glyph unicode="&#x2202;" horiz-adv-x="1460" d="M856 1556q93 0 171.5 -35.5t141.5 -106.5t98.5 -191t35.5 -277q0 -145 -30 -280.5t-82 -244t-124 -199t-155 -151t-175.5 -93.5t-185.5 -33q-209 0 -328 119.5t-119 302.5q0 139 73.5 250.5t194.5 172t263 60.5q152 0 275.5 -60.5t238.5 -173.5q45 155 45 332 q0 257 -95.5 382.5t-248.5 125.5q-190 0 -381 -145l-51 88q218 157 438 157zM553 43q164 0 321 130t244 351q-109 112 -216.5 171t-246.5 59q-116 0 -214 -49t-157 -138t-59 -198q0 -144 88.5 -235t239.5 -91z" />
<glyph unicode="&#x2206;" horiz-adv-x="1536" d="M207 0l538 1251h48l534 -1251h-1120zM358 92h820l-410 979z" />
<glyph unicode="&#x220f;" horiz-adv-x="1507" d="M1204 1423v-1423h-102v1325h-696v-1325h-103v1423h901z" />
<glyph unicode="&#x2211;" horiz-adv-x="1380" d="M70 1665l1085 -4v-490h-104v392h-807l530 -842v-25l-536 -856h813v389h104v-485l-1085 -6l-7 26l592 943l-592 931z" />
<glyph unicode="&#x2212;" horiz-adv-x="1208" d="M1036 686v-98h-866v98h866z" />
<glyph unicode="&#x2215;" horiz-adv-x="956" d="M154 -350h-105l737 2001h107z" />
<glyph unicode="&#x2219;" horiz-adv-x="757" d="M379 510q-88 0 -148.5 47.5t-60.5 116.5q0 73 60 120.5t149 47.5q92 0 151.5 -47.5t59.5 -120.5q0 -70 -60 -117t-151 -47z" />
<glyph unicode="&#x221a;" horiz-adv-x="1329" d="M1122 1726l105 -26l-498 -1702h-35l-291 854l-319 -127l-35 88l428 164l232 -719z" />
<glyph unicode="&#x221e;" horiz-adv-x="1933" d="M1427 1059q94 0 172.5 -36t128.5 -94.5t77.5 -131t27.5 -148.5q0 -101 -50 -194t-145 -154t-211 -61q-99 0 -179.5 39t-142 104t-140.5 180q-50 -70 -86 -114.5t-81 -88.5t-86 -68t-93 -39t-111 -15q-94 0 -173 36t-130 94.5t-79 131t-28 147.5q0 101 51 194t147 154.5 t212 61.5q74 0 137 -22.5t119.5 -70.5t101.5 -100.5t103 -134.5q62 84 106 135t101 100.5t118.5 72t132.5 22.5zM1427 334q120 0 212 93t92 222q0 134 -89 225t-219 91q-58 0 -109 -21.5t-101.5 -70t-89 -96t-97.5 -130.5q61 -86 99.5 -133.5t88.5 -94t101 -66t112 -19.5z M512 332q59 0 109 19t99 64t89 94.5t100 135.5q-43 64 -74 105.5t-71 86t-76 69.5t-81.5 41t-94.5 16q-124 0 -216.5 -93.5t-92.5 -222.5q0 -133 89 -224t220 -91z" />
<glyph unicode="&#x222b;" horiz-adv-x="815" d="M98 -494q-150 0 -323 103l39 88q54 -30 88.5 -46.5t86 -30t103.5 -13.5q128 0 194 95t66 271v1284q0 234 104 354t271 120q85 0 156.5 -26.5t154.5 -76.5l-39 -88q-55 31 -86 46.5t-80.5 29.5t-99.5 14q-130 0 -200 -96t-70 -270v-1284q0 -236 -100 -355t-265 -119z" />
<glyph unicode="&#x2248;" horiz-adv-x="1298" d="M877 696q-64 0 -119.5 23t-128.5 74q-70 52 -109.5 71t-95.5 19q-130 0 -219 -176l-82 43q48 102 123.5 165.5t173.5 63.5q63 0 119 -24t127 -74q72 -53 111 -71.5t93 -18.5q133 0 222 174l79 -43q-47 -101 -121.5 -163.5t-172.5 -62.5zM877 274q-63 0 -118 23t-130 74 q-68 51 -108 69.5t-97 18.5q-131 0 -219 -174l-82 45q48 101 123 163t174 62q63 0 118.5 -23.5t127.5 -72.5q73 -52 111.5 -70t92.5 -18q134 0 222 174l79 -47q-46 -100 -121 -162t-173 -62z" />
<glyph unicode="&#x2260;" horiz-adv-x="1116" d="M989 776h-295l-178 -282h473v-99h-534l-148 -233h-102l147 233h-229v99h291l178 282h-469v98h530l148 236h102l-147 -236h233v-98z" />
<glyph unicode="&#x2264;" horiz-adv-x="1038" d="M913 557v-111l-776 414v29l776 416v-109l-614 -319zM117 221h848v-98h-848v98z" />
<glyph unicode="&#x2265;" horiz-adv-x="1038" d="M901 891v-29l-774 -416v111l614 320l-614 319v109zM74 221h846v-98h-846v98z" />
<glyph unicode="&#x25ca;" horiz-adv-x="1619" d="M797 -205l-449 850l455 846h43l430 -846l-434 -850h-45zM817 -55l344 700l-340 698l-360 -698z" />
<glyph unicode="&#x25fc;" horiz-adv-x="962" d="M0 963h963v-963h-963v963z" />
<glyph unicode="&#x1f60a;" horiz-adv-x="2093" d="M1044 -446q-189 0 -361 68.5t-300.5 188.5t-204.5 293.5t-76 372.5q0 200 76 374.5t204.5 294.5t300.5 188.5t361 68.5q152 0 294.5 -43.5t260.5 -125.5t206 -194t137 -257t49 -306q0 -160 -49 -304t-137.5 -256t-206 -194t-260 -125.5t-294.5 -43.5zM1044 -367 q174 0 332 64.5t274 175t184.5 268.5t68.5 336q0 143 -44 274.5t-123.5 235t-186 180t-236.5 117.5t-269 41q-172 0 -329 -64.5t-272.5 -176t-184 -270t-68.5 -337.5q0 -178 68.5 -336t184 -268.5t272.5 -175t329 -64.5zM510 713l-25 51q155 126 359 147l24 -96 q-199 -6 -358 -102zM1579 713q-159 96 -360 102l26 96q205 -22 357 -147zM682 350q-38 0 -63 26t-25 64q0 36 25 61t63 25q35 0 61.5 -25.5t26.5 -60.5q0 -38 -26 -64t-62 -26zM1411 350q-37 0 -62.5 26t-25.5 64q0 35 25.5 60.5t62.5 25.5q38 0 63 -25t25 -61 q0 -38 -25 -64t-63 -26zM1044 -66q-176 0 -346 132l9 43q99 -45 173.5 -64.5t163.5 -19.5q92 0 167.5 19.5t172.5 64.5l11 -43q-173 -132 -351 -132z" />
<glyph unicode="&#x1f610;" horiz-adv-x="2093" d="M1044 -446q-189 0 -361 68.5t-300.5 188.5t-204.5 293.5t-76 372.5q0 200 76 374.5t204.5 294.5t300.5 188.5t361 68.5q152 0 294.5 -43.5t260.5 -125.5t206 -194t137 -257t49 -306q0 -160 -49 -304t-137.5 -256t-206 -194t-260 -125.5t-294.5 -43.5zM1044 -367 q174 0 332 64.5t274 175t184.5 268.5t68.5 336q0 143 -44 274.5t-123.5 235t-186 180t-236.5 117.5t-269 41q-172 0 -329 -64.5t-272.5 -176t-184 -270t-68.5 -337.5q0 -178 68.5 -336t184 -268.5t272.5 -175t329 -64.5zM508 748l-14 49q164 92 380 86l5 -101 q-200 26 -371 -34zM1583 748q-171 60 -371 34l7 101q214 6 378 -86zM682 350q-38 0 -63 26t-25 64q0 36 25 61t63 25q35 0 61.5 -25.5t26.5 -60.5q0 -38 -26 -64t-62 -26zM1411 350q-37 0 -62.5 26t-25.5 64q0 35 25.5 60.5t62.5 25.5q38 0 63 -25t25 -61q0 -38 -25 -64 t-63 -26zM1044 -12q-128 0 -346 24v43q209 23 346 23q142 0 351 -23v-43q-218 -24 -351 -24z" />
<glyph unicode="&#x1f61e;" horiz-adv-x="2093" d="M1044 -446q-189 0 -361 68.5t-300.5 188.5t-204.5 293.5t-76 372.5q0 200 76 374.5t204.5 294.5t300.5 188.5t361 68.5q152 0 294.5 -43.5t260.5 -125.5t206 -194t137 -257t49 -306q0 -160 -49 -304t-137.5 -256t-206 -194t-260 -125.5t-294.5 -43.5zM1044 -367 q174 0 332 64.5t274 175t184.5 268.5t68.5 336q0 143 -44 274.5t-123.5 235t-186 180t-236.5 117.5t-269 41q-172 0 -329 -64.5t-272.5 -176t-184 -270t-68.5 -337.5q0 -178 68.5 -336t184 -268.5t272.5 -175t329 -64.5zM510 713l-25 51q155 126 359 147l24 -96 q-199 -6 -358 -102zM1579 713q-159 96 -360 102l26 96q205 -22 357 -147zM682 350q-38 0 -63 26t-25 64q0 36 25 61t63 25q35 0 61.5 -25.5t26.5 -60.5q0 -38 -26 -64t-62 -26zM1411 350q-37 0 -62.5 26t-25.5 64q0 35 25.5 60.5t62.5 25.5q38 0 63 -25t25 -61 q0 -38 -25 -64t-63 -26zM1044 129q178 0 351 -129l-11 -45q-96 46 -172 66t-168 20q-89 0 -164 -20t-173 -66l-9 45q170 129 346 129z" />
<glyph unicode="&#x1f620;" horiz-adv-x="2093" d="M1044 -446q-189 0 -361 68.5t-300.5 188.5t-204.5 293.5t-76 372.5q0 200 76 374.5t204.5 294.5t300.5 188.5t361 68.5q152 0 294.5 -43.5t260.5 -125.5t206 -194t137 -257t49 -306q0 -160 -49 -304t-137.5 -256t-206 -194t-260 -125.5t-294.5 -43.5zM1044 -367 q174 0 332 64.5t274 175t184.5 268.5t68.5 336q0 143 -44 274.5t-123.5 235t-186 180t-236.5 117.5t-269 41q-172 0 -329 -64.5t-272.5 -176t-184 -270t-68.5 -337.5q0 -178 68.5 -336t184 -268.5t272.5 -175t329 -64.5zM510 956q154 -90 358 -100l-24 -94q-210 22 -359 145 zM1579 956l23 -49q-146 -123 -357 -145l-26 94q205 10 360 100zM682 350q-38 0 -63 26t-25 64q0 36 25 61t63 25q35 0 61.5 -25.5t26.5 -60.5q0 -38 -26 -64t-62 -26zM1411 350q-37 0 -62.5 26t-25.5 64q0 35 25.5 60.5t62.5 25.5q38 0 63 -25t25 -61q0 -38 -25 -64t-63 -26 zM1044 129q178 0 351 -129l-11 -45q-96 46 -172 66t-168 20q-89 0 -164 -20t-173 -66l-9 45q170 129 346 129z" />
<glyph unicode="&#x1f621;" horiz-adv-x="2093" d="M1044 -446q-189 0 -361 68.5t-300.5 188.5t-204.5 293.5t-76 372.5q0 200 76 374.5t204.5 294.5t300.5 188.5t361 68.5q152 0 294.5 -43.5t260.5 -125.5t206 -194t137 -257t49 -306q0 -160 -49 -304t-137.5 -256t-206 -194t-260 -125.5t-294.5 -43.5zM1044 -367 q174 0 332 64.5t274 175t184.5 268.5t68.5 336q0 143 -44 274.5t-123.5 235t-186 180t-236.5 117.5t-269 41q-172 0 -329 -64.5t-272.5 -176t-184 -270t-68.5 -337.5q0 -178 68.5 -336t184 -268.5t272.5 -175t329 -64.5zM1540 676q-132 127 -326 186l48 88q200 -78 313 -229 zM498 778l-4 56q179 61 387 14l-9 -100q-198 61 -374 30zM682 340q-41 0 -69.5 28.5t-28.5 71.5q0 40 28.5 68.5t69.5 28.5q40 0 68 -28.5t28 -68.5q0 -42 -28 -71t-68 -29zM1413 340q-40 0 -69 29t-29 71q0 40 29 68.5t69 28.5q41 0 69.5 -28.5t28.5 -68.5 q0 -43 -28.5 -71.5t-69.5 -28.5zM991 129q100 0 210.5 -33.5t193.5 -95.5l-11 -45q-179 86 -393 86q-179 0 -284 -86l-9 45q43 63 120.5 96t172.5 33z" />
<glyph unicode="&#x1f628;" horiz-adv-x="2093" d="M1044 -446q-189 0 -361 68.5t-300.5 188.5t-204.5 293.5t-76 372.5q0 200 76 374.5t204.5 294.5t300.5 188.5t361 68.5q152 0 294.5 -43.5t260.5 -125.5t206 -194t137 -257t49 -306q0 -160 -49 -304t-137.5 -256t-206 -194t-260 -125.5t-294.5 -43.5zM1044 -367 q174 0 332 64.5t274 175t184.5 268.5t68.5 336q0 143 -44 274.5t-123.5 235t-186 180t-236.5 117.5t-269 41q-172 0 -329 -64.5t-272.5 -176t-184 -270t-68.5 -337.5q0 -178 68.5 -336t184 -268.5t272.5 -175t329 -64.5zM522 715l-24 51q156 123 360 147l23 -96 q-201 -10 -359 -102zM1567 713q-156 94 -359 104l23 96q204 -24 360 -147zM682 350q-38 0 -63 26t-25 64q0 36 25 61t63 25q35 0 61.5 -25.5t26.5 -60.5q0 -38 -26 -64t-62 -26zM1411 350q-37 0 -62.5 26t-25.5 64q0 35 25.5 60.5t62.5 25.5q38 0 63 -25t25 -61 q0 -38 -25 -64t-63 -26zM1044 -12q-128 0 -346 24v43q209 23 346 23q142 0 351 -23v-43q-218 -24 -351 -24z" />
<glyph unicode="&#x1f632;" horiz-adv-x="2093" d="M1044 -446q-189 0 -361 68.5t-300.5 188.5t-204.5 293.5t-76 372.5q0 200 76 374.5t204.5 294.5t300.5 188.5t361 68.5q152 0 294.5 -43.5t260.5 -125.5t206 -194t137 -257t49 -306q0 -160 -49 -304t-137.5 -256t-206 -194t-260 -125.5t-294.5 -43.5zM1044 -367 q174 0 332 64.5t274 175t184.5 268.5t68.5 336q0 143 -44 274.5t-123.5 235t-186 180t-236.5 117.5t-269 41q-172 0 -329 -64.5t-272.5 -176t-184 -270t-68.5 -337.5q0 -178 68.5 -336t184 -268.5t272.5 -175t329 -64.5zM522 715l-24 51q156 123 360 147l23 -96 q-201 -10 -359 -102zM1567 713q-156 94 -359 104l23 96q204 -24 360 -147zM682 346q-40 0 -66 27t-26 67q0 37 26.5 63.5t65.5 26.5q37 0 63.5 -26.5t26.5 -63.5q0 -39 -26.5 -66.5t-63.5 -27.5zM1413 346q-38 0 -65 27t-27 67q0 37 27 63.5t65 26.5t64 -26.5t26 -63.5 q0 -40 -26 -67t-64 -27zM1044 156q33 0 50 -25t34 -84v-37q-17 -60 -34 -85t-50 -25q-32 0 -48 25t-33 85v37q17 59 33.5 84t47.5 25z" />
<glyph d="M1559 98h256v-98h-674v98h289l-173 383h-702l-172 -383h293v-98h-672v98h260l623 1336h45zM598 575h616l-307 680z" />
<glyph d="M1311 1944l-453 -347l-41 48l424 387zM1559 98h256v-98h-674v98h289l-173 383h-702l-172 -383h293v-98h-672v98h260l623 1336h45zM598 575h616l-307 680z" />
<glyph d="M907 1634q-83 0 -152 29.5t-112 77.5t-68.5 100.5t-33.5 106.5l77 14q28 -98 103.5 -162.5t185.5 -64.5q112 0 185 64t102 163l78 -14q-8 -54 -34 -106.5t-69 -100.5t-111.5 -77.5t-150.5 -29.5zM1559 98h256v-98h-674v98h289l-173 383h-702l-172 -383h293v-98h-672v98 h260l623 1336h45zM598 575h616l-307 680z" />
<glyph d="M905 1876l-315 -297l-43 39l323 364h72l326 -364l-41 -39zM1559 98h256v-98h-674v98h289l-173 383h-702l-172 -383h293v-98h-672v98h260l623 1336h45zM598 575h616l-307 680z" />
<glyph d="M1196 2195q-95 0 -215 -71l-37 69q127 84 258 84q102 0 171 -54.5t69 -143.5q0 -68 -36 -127t-108 -131l-43 26q9 15 32.5 49.5t34.5 53.5t21.5 49.5t10.5 60.5q0 62 -42.5 98.5t-115.5 36.5zM905 1876l-315 -297l-43 39l323 364h72l326 -364l-41 -39zM1559 98h256v-98 h-674v98h289l-173 383h-702l-172 -383h293v-98h-672v98h260l623 1336h45zM598 575h616l-307 680z" />
<glyph d="M694 1688q-50 0 -83 26t-33 66t33.5 67t82.5 27q52 0 85.5 -27t33.5 -67t-33.5 -66t-85.5 -26zM1118 1688q-48 0 -82.5 26.5t-34.5 65.5t34.5 66.5t82.5 27.5q52 0 85.5 -27t33.5 -67t-33.5 -66t-85.5 -26zM1559 98h256v-98h-674v98h289l-173 383h-702l-172 -383h293v-98 h-672v98h260l623 1336h45zM598 575h616l-307 680z" />
<glyph d="M995 1642l-41 -47l-452 347l69 88zM1559 98h256v-98h-674v98h289l-173 383h-702l-172 -383h293v-98h-672v98h260l623 1336h45zM598 575h616l-307 680z" />
<glyph d="M1300 1755v-92l-788 2v92zM1559 98h256v-98h-674v98h289l-173 383h-702l-172 -383h293v-98h-672v98h260l623 1336h45zM598 575h616l-307 680z" />
<glyph d="M1524 0q-123 -78 -185.5 -165t-62.5 -161q0 -66 39.5 -102.5t95.5 -36.5q104 0 174 109l53 -54q-35 -62 -99.5 -102.5t-135.5 -40.5q-91 0 -155 56.5t-64 150.5q0 91 64 182t179 164h-286v98h289l-173 383h-702l-172 -383h293v-98h-672v98h260l623 1336h45l627 -1336h256 v-98h-291zM598 575h616l-307 680z" />
<glyph d="M907 1585q-120 0 -206.5 83.5t-86.5 203.5q0 125 86 205t207 80q124 0 206.5 -80t82.5 -205q0 -123 -83 -205t-206 -82zM907 2079q-90 0 -151.5 -59t-61.5 -148q0 -87 62 -149t151 -62q91 0 150 61.5t59 149.5q0 90 -58.5 148.5t-150.5 58.5zM1559 98h256v-98h-674v98 h289l-173 383h-702l-172 -383h293v-98h-672v98h260l623 1336h45zM598 575h616l-307 680z" />
<glyph d="M715 1894q-131 0 -148 -254l-75 9q6 153 62.5 238t160.5 85q69 0 119 -37.5t108 -115.5q51 -72 87 -101.5t83 -29.5q137 0 148 251l79 -8q-8 -151 -66.5 -238t-160.5 -87q-68 0 -116 37.5t-107 117.5q-58 75 -92 104t-82 29zM1559 98h256v-98h-674v98h289l-173 383h-702 l-172 -383h293v-98h-672v98h260l623 1336h45zM598 575h616l-307 680z" />
<glyph horiz-adv-x="1622" d="M807 678h657v-35q0 -135 -46.5 -257t-129.5 -214t-208.5 -146.5t-274.5 -54.5q-141 0 -266 52.5t-217 146.5t-145.5 232t-53.5 300q0 161 56.5 300t150.5 232.5t217.5 146.5t257.5 53q178 0 309.5 -69.5t208.5 -176.5v217h104v-414l-65 -6q-178 350 -541 350 q-117 0 -222.5 -46t-184.5 -127.5t-125.5 -201t-46.5 -258.5q0 -140 43 -258.5t118.5 -200t179.5 -127.5t224 -46q123 0 226 42.5t170.5 113.5t105 162.5t39.5 191.5h-541v98z" />
<glyph horiz-adv-x="1622" d="M815 1632q-83 0 -152 29.5t-112 77.5t-68.5 100.5t-33.5 106.5l77 14q28 -98 103.5 -162.5t185.5 -64.5q112 0 185 64t102 163l78 -14q-8 -54 -34 -106.5t-69 -100.5t-111.5 -77.5t-150.5 -29.5zM807 678h657v-35q0 -135 -46.5 -257t-129.5 -214t-208.5 -146.5 t-274.5 -54.5q-141 0 -266 52.5t-217 146.5t-145.5 232t-53.5 300q0 161 56.5 300t150.5 232.5t217.5 146.5t257.5 53q178 0 309.5 -69.5t208.5 -176.5v217h104v-414l-65 -6q-178 350 -541 350q-117 0 -222.5 -46t-184.5 -127.5t-125.5 -201t-46.5 -258.5q0 -140 43 -258.5 t118.5 -200t179.5 -127.5t224 -46q123 0 226 42.5t170.5 113.5t105 162.5t39.5 191.5h-541v98z" />
<glyph horiz-adv-x="1622" d="M807 678h657v-35q0 -135 -46.5 -257t-129.5 -214t-208.5 -146.5t-274.5 -54.5q-141 0 -266 52.5t-217 146.5t-145.5 232t-53.5 300q0 161 56.5 300t150.5 232.5t217.5 146.5t257.5 53q178 0 309.5 -69.5t208.5 -176.5v217h104v-414l-65 -6q-178 350 -541 350 q-117 0 -222.5 -46t-184.5 -127.5t-125.5 -201t-46.5 -258.5q0 -140 43 -258.5t118.5 -200t179.5 -127.5t224 -46q123 0 226 42.5t170.5 113.5t105 162.5t39.5 191.5h-541v98zM815 -250q64 0 102.5 -41t38.5 -110q0 -87 -57 -186t-154 -181l-34 39q163 166 176 303 q-36 -14 -84 -14q-44 0 -75.5 24.5t-31.5 65.5t35.5 70.5t83.5 29.5z" />
<glyph horiz-adv-x="1622" d="M815 1710q-53 0 -88 26.5t-35 67.5t35.5 70t87.5 29q56 0 91.5 -28.5t35.5 -70.5q0 -41 -35 -67.5t-92 -26.5zM807 678h657v-35q0 -135 -46.5 -257t-129.5 -214t-208.5 -146.5t-274.5 -54.5q-141 0 -266 52.5t-217 146.5t-145.5 232t-53.5 300q0 161 56.5 300 t150.5 232.5t217.5 146.5t257.5 53q178 0 309.5 -69.5t208.5 -176.5v217h104v-414l-65 -6q-178 350 -541 350q-117 0 -222.5 -46t-184.5 -127.5t-125.5 -201t-46.5 -258.5q0 -140 43 -258.5t118.5 -200t179.5 -127.5t224 -46q123 0 226 42.5t170.5 113.5t105 162.5 t39.5 191.5h-541v98z" />
<glyph horiz-adv-x="1683" d="M2648 -283l51 -84q-216 -149 -479 -149q-242 0 -465.5 141.5t-507.5 474.5q-181 -127 -413 -127q-146 0 -273.5 51t-222 143.5t-149 231t-54.5 303.5q0 166 54.5 305t149 231.5t222 144t273.5 51.5q144 0 271.5 -51.5t222 -144t149.5 -231.5t55 -305q0 -329 -205 -534 l4 -4q261 -314 464 -447t425 -133q237 0 428 133zM834 1333q-125 0 -232 -44.5t-185 -125.5t-122.5 -200t-44.5 -261v-4h29q131 0 225.5 -9.5t192.5 -36.5t183 -77t178 -129.5t197 -195.5q162 177 162 452q0 142 -44.5 261t-122.5 200t-185 125.5t-231 44.5zM256 606 q27 -244 186.5 -388t391.5 -144q199 0 344 108q-95 110 -178.5 184.5t-161 122.5t-167 73t-178 34.5t-212.5 9.5h-25z" />
<glyph horiz-adv-x="1611" d="M2607 -303l51 -82q-216 -156 -493 -156q-172 0 -311 61.5t-279.5 209.5t-294.5 403q-81 132 -144.5 220.5t-114.5 145t-99 86.5t-90 41t-97 11h-248v-539h291v-98l-698 -2v98h291v1211h-291v98h874q228 0 354 -109t126 -280q0 -72 -29.5 -138t-85 -119t-144 -86 t-198.5 -36q92 -40 183.5 -144.5t219.5 -314.5q141 -234 268.5 -370t249 -192t267.5 -56q127 0 243 38t199 99zM487 731h463q170 0 269.5 79.5t99.5 205.5q0 127 -98 209t-271 82h-463v-576z" />
<glyph horiz-adv-x="1611" d="M1253 1913l-452 -346l-41 47l424 387zM2607 -303l51 -82q-216 -156 -493 -156q-172 0 -311 61.5t-279.5 209.5t-294.5 403q-81 132 -144.5 220.5t-114.5 145t-99 86.5t-90 41t-97 11h-248v-539h291v-98l-698 -2v98h291v1211h-291v98h874q228 0 354 -109t126 -280 q0 -72 -29.5 -138t-85 -119t-144 -86t-198.5 -36q92 -40 183.5 -144.5t219.5 -314.5q141 -234 268.5 -370t249 -192t267.5 -56q127 0 243 38t199 99zM487 731h463q170 0 269.5 79.5t99.5 205.5q0 127 -98 209t-271 82h-463v-576z" />
<glyph horiz-adv-x="1611" d="M885 1556h-72l-324 365l43 43l316 -299l321 299l41 -43zM2607 -303l51 -82q-216 -156 -493 -156q-172 0 -311 61.5t-279.5 209.5t-294.5 403q-81 132 -144.5 220.5t-114.5 145t-99 86.5t-90 41t-97 11h-248v-539h291v-98l-698 -2v98h291v1211h-291v98h874q228 0 354 -109 t126 -280q0 -72 -29.5 -138t-85 -119t-144 -86t-198.5 -36q92 -40 183.5 -144.5t219.5 -314.5q141 -234 268.5 -370t249 -192t267.5 -56q127 0 243 38t199 99zM487 731h463q170 0 269.5 79.5t99.5 205.5q0 127 -98 209t-271 82h-463v-576z" />
<glyph horiz-adv-x="1611" d="M2607 -303l51 -82q-216 -156 -493 -156q-172 0 -311 61.5t-279.5 209.5t-294.5 403q-81 132 -144.5 220.5t-114.5 145t-99 86.5t-90 41t-97 11h-248v-539h291v-98l-698 -2v98h291v1211h-291v98h874q228 0 354 -109t126 -280q0 -72 -29.5 -138t-85 -119t-144 -86 t-198.5 -36q92 -40 183.5 -144.5t219.5 -314.5q141 -234 268.5 -370t249 -192t267.5 -56q127 0 243 38t199 99zM487 731h463q170 0 269.5 79.5t99.5 205.5q0 127 -98 209t-271 82h-463v-576zM954 -221q64 0 103 -41.5t39 -110.5q0 -87 -57 -185.5t-154 -180.5l-35 39 q163 166 176 303q-39 -15 -84 -15q-43 0 -74.5 24.5t-31.5 65.5t35.5 71t82.5 30z" />
<glyph horiz-adv-x="1259" d="M1176 262h79v-67q0 -94 -51.5 -151.5t-134.5 -57.5q-76 0 -127 45t-63 121q-232 -179 -418 -179q-146 0 -247 79.5t-101 219.5t115.5 226t289.5 86q160 0 356 -70v113q0 72 -21 124.5t-59 82.5t-84.5 43.5t-103.5 13.5q-105 0 -199 -25t-206 -73l-27 94q238 104 436 104 q168 0 270.5 -90t102.5 -278v-424q0 -60 26 -92.5t72 -32.5t70.5 33.5t24.5 87.5v67zM225 274q0 -96 73.5 -149t180.5 -53q175 0 395 166v190q-172 61 -346 64q-80 1 -147.5 -22.5t-111.5 -74.5t-44 -121z" />
<glyph horiz-adv-x="1316" d="M1225 98l24 -90q-61 -33 -125 -33q-71 0 -115.5 43.5t-54.5 124.5q-198 -170 -391 -170q-93 0 -175.5 35t-144.5 97.5t-98 155.5t-36 202q0 155 68 277t179 186.5t242 64.5q193 0 356 -149l35 153h72v-788q0 -131 84 -131q52 0 80 22zM223 465q0 -179 102 -287.5 t255 -105.5q188 3 370 166v514q-158 141 -338 141q-163 0 -276 -121.5t-113 -306.5z" />
<glyph horiz-adv-x="1259" d="M997 1499l-452 -346l-41 47l424 387zM1176 262h79v-67q0 -94 -51.5 -151.5t-134.5 -57.5q-76 0 -127 45t-63 121q-232 -179 -418 -179q-146 0 -247 79.5t-101 219.5t115.5 226t289.5 86q160 0 356 -70v113q0 72 -21 124.5t-59 82.5t-84.5 43.5t-103.5 13.5 q-105 0 -199 -25t-206 -73l-27 94q238 104 436 104q168 0 270.5 -90t102.5 -278v-424q0 -60 26 -92.5t72 -32.5t70.5 33.5t24.5 87.5v67zM225 274q0 -96 73.5 -149t180.5 -53q175 0 395 166v190q-172 61 -346 64q-80 1 -147.5 -22.5t-111.5 -74.5t-44 -121z" />
<glyph horiz-adv-x="1316" d="M1047 1522l-453 -346l-41 47l424 387zM1225 98l24 -90q-61 -33 -125 -33q-71 0 -115.5 43.5t-54.5 124.5q-198 -170 -391 -170q-93 0 -175.5 35t-144.5 97.5t-98 155.5t-36 202q0 155 68 277t179 186.5t242 64.5q193 0 356 -149l35 153h72v-788q0 -131 84 -131 q52 0 80 22zM223 465q0 -179 102 -287.5t255 -105.5q188 3 370 166v514q-158 141 -338 141q-163 0 -276 -121.5t-113 -306.5z" />
<glyph horiz-adv-x="1259" d="M594 1190q-83 0 -152 29.5t-112 77t-69 100t-34 106.5l78 15q28 -98 104 -163t185 -65q112 0 185 64.5t102 163.5l77 -15q-8 -54 -33.5 -106.5t-68.5 -100t-111.5 -77t-150.5 -29.5zM1176 262h79v-67q0 -94 -51.5 -151.5t-134.5 -57.5q-76 0 -127 45t-63 121 q-232 -179 -418 -179q-146 0 -247 79.5t-101 219.5t115.5 226t289.5 86q160 0 356 -70v113q0 72 -21 124.5t-59 82.5t-84.5 43.5t-103.5 13.5q-105 0 -199 -25t-206 -73l-27 94q238 104 436 104q168 0 270.5 -90t102.5 -278v-424q0 -60 26 -92.5t72 -32.5t70.5 33.5 t24.5 87.5v67zM225 274q0 -96 73.5 -149t180.5 -53q175 0 395 166v190q-172 61 -346 64q-80 1 -147.5 -22.5t-111.5 -74.5t-44 -121z" />
<glyph horiz-adv-x="1316" d="M643 1212q-83 0 -152 29.5t-112 77.5t-69 100.5t-34 106.5l78 14q28 -98 103.5 -162.5t185.5 -64.5q112 0 185 64t102 163l78 -14q-8 -54 -34 -106.5t-69 -100.5t-111.5 -77.5t-150.5 -29.5zM1225 98l24 -90q-61 -33 -125 -33q-71 0 -115.5 43.5t-54.5 124.5 q-198 -170 -391 -170q-93 0 -175.5 35t-144.5 97.5t-98 155.5t-36 202q0 155 68 277t179 186.5t242 64.5q193 0 356 -149l35 153h72v-788q0 -131 84 -131q52 0 80 22zM223 465q0 -179 102 -287.5t255 -105.5q188 3 370 166v514q-158 141 -338 141q-163 0 -276 -121.5 t-113 -306.5z" />
<glyph horiz-adv-x="1259" d="M592 1432l-316 -297l-43 39l324 364h72l325 -364l-41 -39zM1176 262h79v-67q0 -94 -51.5 -151.5t-134.5 -57.5q-76 0 -127 45t-63 121q-232 -179 -418 -179q-146 0 -247 79.5t-101 219.5t115.5 226t289.5 86q160 0 356 -70v113q0 72 -21 124.5t-59 82.5t-84.5 43.5 t-103.5 13.5q-105 0 -199 -25t-206 -73l-27 94q238 104 436 104q168 0 270.5 -90t102.5 -278v-424q0 -60 26 -92.5t72 -32.5t70.5 33.5t24.5 87.5v67zM225 274q0 -96 73.5 -149t180.5 -53q175 0 395 166v190q-172 61 -346 64q-80 1 -147.5 -22.5t-111.5 -74.5t-44 -121z" />
<glyph horiz-adv-x="1316" d="M641 1454l-315 -297l-43 39l323 365h72l326 -365l-41 -39zM1225 98l24 -90q-61 -33 -125 -33q-71 0 -115.5 43.5t-54.5 124.5q-198 -170 -391 -170q-93 0 -175.5 35t-144.5 97.5t-98 155.5t-36 202q0 155 68 277t179 186.5t242 64.5q193 0 356 -149l35 153h72v-788 q0 -131 84 -131q52 0 80 22zM223 465q0 -179 102 -287.5t255 -105.5q188 3 370 166v514q-158 141 -338 141q-163 0 -276 -121.5t-113 -306.5z" />
<glyph horiz-adv-x="1259" d="M381 1243q-50 0 -83.5 26t-33.5 66t34 67.5t83 27.5q52 0 85.5 -27.5t33.5 -67.5t-33.5 -66t-85.5 -26zM805 1243q-48 0 -82.5 26.5t-34.5 65.5t34.5 67t82.5 28q52 0 85.5 -27.5t33.5 -67.5t-33.5 -66t-85.5 -26zM1176 262h79v-67q0 -94 -51.5 -151.5t-134.5 -57.5 q-76 0 -127 45t-63 121q-232 -179 -418 -179q-146 0 -247 79.5t-101 219.5t115.5 226t289.5 86q160 0 356 -70v113q0 72 -21 124.5t-59 82.5t-84.5 43.5t-103.5 13.5q-105 0 -199 -25t-206 -73l-27 94q238 104 436 104q168 0 270.5 -90t102.5 -278v-424q0 -60 26 -92.5 t72 -32.5t70.5 33.5t24.5 87.5v67zM225 274q0 -96 73.5 -149t180.5 -53q175 0 395 166v190q-172 61 -346 64q-80 1 -147.5 -22.5t-111.5 -74.5t-44 -121z" />
<glyph horiz-adv-x="1316" d="M430 1266q-50 0 -83.5 26t-33.5 66t34 67t83 27q52 0 85.5 -27t33.5 -67t-33.5 -66t-85.5 -26zM854 1266q-48 0 -82.5 26.5t-34.5 65.5t34.5 66.5t82.5 27.5q52 0 85.5 -27t33.5 -67t-33.5 -66t-85.5 -26zM1225 98l24 -90q-61 -33 -125 -33q-71 0 -115.5 43.5 t-54.5 124.5q-198 -170 -391 -170q-93 0 -175.5 35t-144.5 97.5t-98 155.5t-36 202q0 155 68 277t179 186.5t242 64.5q193 0 356 -149l35 153h72v-788q0 -131 84 -131q52 0 80 22zM223 465q0 -179 102 -287.5t255 -105.5q188 3 370 166v514q-158 141 -338 141 q-163 0 -276 -121.5t-113 -306.5z" />
<glyph horiz-adv-x="1259" d="M682 1198l-41 -47l-453 346l70 88zM1176 262h79v-67q0 -94 -51.5 -151.5t-134.5 -57.5q-76 0 -127 45t-63 121q-232 -179 -418 -179q-146 0 -247 79.5t-101 219.5t115.5 226t289.5 86q160 0 356 -70v113q0 72 -21 124.5t-59 82.5t-84.5 43.5t-103.5 13.5q-105 0 -199 -25 t-206 -73l-27 94q238 104 436 104q168 0 270.5 -90t102.5 -278v-424q0 -60 26 -92.5t72 -32.5t70.5 33.5t24.5 87.5v67zM225 274q0 -96 73.5 -149t180.5 -53q175 0 395 166v190q-172 61 -346 64q-80 1 -147.5 -22.5t-111.5 -74.5t-44 -121z" />
<glyph horiz-adv-x="1316" d="M731 1221l-41 -47l-452 346l69 88zM1225 98l24 -90q-61 -33 -125 -33q-71 0 -115.5 43.5t-54.5 124.5q-198 -170 -391 -170q-93 0 -175.5 35t-144.5 97.5t-98 155.5t-36 202q0 155 68 277t179 186.5t242 64.5q193 0 356 -149l35 153h72v-788q0 -131 84 -131q52 0 80 22z M223 465q0 -179 102 -287.5t255 -105.5q188 3 370 166v514q-158 141 -338 141q-163 0 -276 -121.5t-113 -306.5z" />
<glyph horiz-adv-x="1259" d="M987 1311v-92l-788 2v92zM1176 262h79v-67q0 -94 -51.5 -151.5t-134.5 -57.5q-76 0 -127 45t-63 121q-232 -179 -418 -179q-146 0 -247 79.5t-101 219.5t115.5 226t289.5 86q160 0 356 -70v113q0 72 -21 124.5t-59 82.5t-84.5 43.5t-103.5 13.5q-105 0 -199 -25t-206 -73 l-27 94q238 104 436 104q168 0 270.5 -90t102.5 -278v-424q0 -60 26 -92.5t72 -32.5t70.5 33.5t24.5 87.5v67zM225 274q0 -96 73.5 -149t180.5 -53q175 0 395 166v190q-172 61 -346 64q-80 1 -147.5 -22.5t-111.5 -74.5t-44 -121z" />
<glyph horiz-adv-x="1316" d="M1036 1333v-92l-788 2v92zM1225 98l24 -90q-61 -33 -125 -33q-71 0 -115.5 43.5t-54.5 124.5q-198 -170 -391 -170q-93 0 -175.5 35t-144.5 97.5t-98 155.5t-36 202q0 155 68 277t179 186.5t242 64.5q193 0 356 -149l35 153h72v-788q0 -131 84 -131q52 0 80 22zM223 465 q0 -179 102 -287.5t255 -105.5q188 3 370 166v514q-158 141 -338 141q-163 0 -276 -121.5t-113 -306.5z" />
<glyph horiz-adv-x="1259" d="M1112 -10q-122 -78 -185 -165.5t-63 -160.5q0 -66 39.5 -102.5t95.5 -36.5q106 0 175 108l53 -53q-35 -62 -99.5 -102.5t-136.5 -40.5q-91 0 -155 56.5t-64 150.5q0 91 65.5 182.5t182.5 165.5q-57 13 -93.5 55t-47.5 105q-232 -179 -418 -179q-146 0 -247 79.5 t-101 219.5t115.5 226t289.5 86q160 0 356 -70v113q0 72 -21 124.5t-59 82.5t-84.5 43.5t-103.5 13.5q-105 0 -199 -25t-206 -73l-27 94q238 104 436 104q168 0 270.5 -90t102.5 -278v-424q0 -60 26 -92.5t72 -32.5t70.5 33.5t24.5 87.5v67h79v-67q0 -81 -39 -135.5 t-104 -69.5zM225 274q0 -96 73.5 -149t180.5 -53q175 0 395 166v190q-172 61 -346 64q-80 1 -147.5 -22.5t-111.5 -74.5t-44 -121z" />
<glyph horiz-adv-x="1316" d="M1014 -475q105 0 174 108l53 -53q-35 -62 -99.5 -102.5t-135.5 -40.5q-91 0 -155.5 56.5t-64.5 150.5q0 92 67 184.5t187 167.5q-71 41 -86 147q-198 -170 -391 -170q-93 0 -175.5 35t-144.5 97.5t-98 155.5t-36 202q0 155 68 277t179 186.5t242 64.5q193 0 356 -149 l35 153h72v-788q0 -131 84 -131q52 0 80 22l24 -90q-61 -33 -125 -33h-18q-113 -74 -170 -157t-57 -154q0 -66 39.5 -102.5t95.5 -36.5zM223 465q0 -179 102 -287.5t255 -105.5q188 3 370 166v514q-158 141 -338 141q-163 0 -276 -121.5t-113 -306.5z" />
<glyph horiz-adv-x="1259" d="M594 1141q-120 0 -206.5 83t-86.5 203q0 125 86 205t207 80q124 0 206.5 -80t82.5 -205q0 -123 -83 -204.5t-206 -81.5zM594 1634q-90 0 -151.5 -59t-61.5 -148q0 -87 62 -148.5t151 -61.5q91 0 150 61t59 149q0 90 -58.5 148.5t-150.5 58.5zM1176 262h79v-67 q0 -94 -51.5 -151.5t-134.5 -57.5q-76 0 -127 45t-63 121q-232 -179 -418 -179q-146 0 -247 79.5t-101 219.5t115.5 226t289.5 86q160 0 356 -70v113q0 72 -21 124.5t-59 82.5t-84.5 43.5t-103.5 13.5q-105 0 -199 -25t-206 -73l-27 94q238 104 436 104q168 0 270.5 -90 t102.5 -278v-424q0 -60 26 -92.5t72 -32.5t70.5 33.5t24.5 87.5v67zM225 274q0 -96 73.5 -149t180.5 -53q175 0 395 166v190q-172 61 -346 64q-80 1 -147.5 -22.5t-111.5 -74.5t-44 -121z" />
<glyph horiz-adv-x="1316" d="M643 1163q-120 0 -206.5 83.5t-86.5 203.5q0 125 86 205t207 80q124 0 206.5 -80t82.5 -205q0 -123 -83 -205t-206 -82zM643 1657q-90 0 -151.5 -59t-61.5 -148q0 -87 62 -149t151 -62q91 0 150 61.5t59 149.5q0 90 -58.5 148.5t-150.5 58.5zM1225 98l24 -90 q-61 -33 -125 -33q-71 0 -115.5 43.5t-54.5 124.5q-198 -170 -391 -170q-93 0 -175.5 35t-144.5 97.5t-98 155.5t-36 202q0 155 68 277t179 186.5t242 64.5q193 0 356 -149l35 153h72v-788q0 -131 84 -131q52 0 80 22zM223 465q0 -179 102 -287.5t255 -105.5q188 3 370 166 v514q-158 141 -338 141q-163 0 -276 -121.5t-113 -306.5z" />
<glyph horiz-adv-x="1259" d="M401 1450q-130 0 -147 -254l-76 8q6 153 62.5 238.5t160.5 85.5q69 0 119.5 -37.5t108.5 -116.5q51 -72 87 -101.5t83 -29.5q136 0 147 252l80 -8q-8 -151 -66.5 -238.5t-160.5 -87.5q-67 0 -116 38t-108 118q-58 75 -92 104t-82 29zM1176 262h79v-67q0 -94 -51.5 -151.5 t-134.5 -57.5q-76 0 -127 45t-63 121q-232 -179 -418 -179q-146 0 -247 79.5t-101 219.5t115.5 226t289.5 86q160 0 356 -70v113q0 72 -21 124.5t-59 82.5t-84.5 43.5t-103.5 13.5q-105 0 -199 -25t-206 -73l-27 94q238 104 436 104q168 0 270.5 -90t102.5 -278v-424 q0 -60 26 -92.5t72 -32.5t70.5 33.5t24.5 87.5v67zM225 274q0 -96 73.5 -149t180.5 -53q175 0 395 166v190q-172 61 -346 64q-80 1 -147.5 -22.5t-111.5 -74.5t-44 -121z" />
<glyph horiz-adv-x="1316" d="M451 1473q-131 0 -148 -254l-76 8q6 152 63 237.5t161 85.5q69 0 119 -37.5t108 -115.5q51 -72 87 -101.5t83 -29.5q136 0 147 252l80 -9q-8 -151 -66.5 -238t-160.5 -87q-68 0 -116 37.5t-107 117.5q-58 76 -92 105t-82 29zM1225 98l24 -90q-61 -33 -125 -33 q-71 0 -115.5 43.5t-54.5 124.5q-198 -170 -391 -170q-93 0 -175.5 35t-144.5 97.5t-98 155.5t-36 202q0 155 68 277t179 186.5t242 64.5q193 0 356 -149l35 153h72v-788q0 -131 84 -131q52 0 80 22zM223 465q0 -179 102 -287.5t255 -105.5q188 3 370 166v514 q-158 141 -338 141q-163 0 -276 -121.5t-113 -306.5z" />
<glyph horiz-adv-x="1351" d="M1253 260h78v-67q0 -94 -50.5 -151.5t-133.5 -57.5q-76 0 -126.5 43.5t-64.5 117.5q-194 -174 -393 -174q-191 0 -322.5 136.5t-131.5 355.5q0 117 39.5 216.5t106.5 166.5t156 105t187 38q191 0 354 -145v467h-239v94h348v-1210q0 -58 26 -90.5t72 -32.5q45 0 69.5 33.5 t24.5 87.5v67zM223 465q0 -180 102.5 -289t254.5 -106q186 2 372 170v510q-158 141 -340 141q-164 0 -276.5 -120.5t-112.5 -305.5z" />
<glyph horiz-adv-x="1351" d="M1247 1034l-55 19q81 175 72 368l108 -16q-6 -197 -125 -371zM1253 193v67h78v-67q0 -94 -50.5 -151.5t-133.5 -57.5q-76 0 -126.5 43.5t-64.5 117.5q-194 -174 -393 -174q-191 0 -322.5 136.5t-131.5 355.5q0 117 39.5 216.5t106.5 166.5t156 105t187 38q191 0 354 -145 v467h-239v94h348v-1210q0 -58 26 -90.5t72 -32.5q45 0 69.5 33.5t24.5 87.5zM223 465q0 -180 102.5 -289t254.5 -106q186 2 372 170v510q-158 141 -340 141q-164 0 -276.5 -120.5t-112.5 -305.5z" />
<glyph horiz-adv-x="1351" d="M1253 260h78v-67q0 -94 -50.5 -151.5t-133.5 -57.5q-76 0 -126.5 43.5t-64.5 117.5q-192 -172 -393 -172q-93 0 -175.5 35t-144.5 97.5t-98 155.5t-36 202q0 155 68 277t179 186.5t242 64.5q189 0 354 -147v278h-428v84h428v105h-239v94h348v-199h211v-84h-211v-927 q0 -58 26 -90.5t72 -32.5q45 0 69.5 33.5t24.5 87.5v67zM223 465q0 -179 102 -287.5t255 -105.5q184 2 372 168v514q-158 141 -340 141q-163 0 -276 -122.5t-113 -307.5z" />
<glyph horiz-adv-x="794" d="M487 1403q-100 0 -165.5 -49t-65.5 -127q0 -112 137 -262h303v-97h-282v-772h258v-96h-606v96h237v772h-237v97h221q-146 149 -146 280q0 110 94 183t234 73q182 0 365 -86l-41 -88q-145 76 -306 76z" />
<glyph horiz-adv-x="1277" d="M989 993h72v-1067q0 -202 -121.5 -319t-314.5 -117q-119 0 -218 32t-231 95l35 92q121 -58 214 -87.5t196 -29.5q146 0 237.5 86t91.5 244v217q-192 -168 -387 -168q-191 0 -322.5 136.5t-131.5 355.5q0 117 39.5 216.5t106.5 166.5t156 105t187 38q191 0 356 -147z M580 70q186 2 370 168v514q-160 139 -338 139q-164 0 -276.5 -120.5t-112.5 -305.5q0 -180 102.5 -289t254.5 -106z" />
<glyph horiz-adv-x="1277" d="M618 1188q-83 0 -152 29.5t-112 77t-68.5 100t-33.5 106.5l78 15q28 -98 103.5 -163t184.5 -65q112 0 185 64.5t102 163.5l78 -15q-8 -54 -34 -106.5t-69 -100t-111.5 -77t-150.5 -29.5zM989 993h72v-1067q0 -202 -121.5 -319t-314.5 -117q-119 0 -218 32t-231 95l35 92 q121 -58 214 -87.5t196 -29.5q146 0 237.5 86t91.5 244v217q-192 -168 -387 -168q-191 0 -322.5 136.5t-131.5 355.5q0 117 39.5 216.5t106.5 166.5t156 105t187 38q191 0 356 -147zM580 70q186 2 370 168v514q-160 139 -338 139q-164 0 -276.5 -120.5t-112.5 -305.5 q0 -180 102.5 -289t254.5 -106z" />
<glyph horiz-adv-x="1277" d="M621 1196q-65 0 -104.5 41t-39.5 111q0 87 57.5 185.5t153.5 178.5l37 -39q-166 -166 -176 -301q38 14 82 14q43 0 75.5 -25t32.5 -65q0 -42 -35 -71t-83 -29zM989 993h72v-1067q0 -202 -121.5 -319t-314.5 -117q-119 0 -218 32t-231 95l35 92q121 -58 214 -87.5 t196 -29.5q146 0 237.5 86t91.5 244v217q-192 -168 -387 -168q-191 0 -322.5 136.5t-131.5 355.5q0 117 39.5 216.5t106.5 166.5t156 105t187 38q191 0 356 -147zM580 70q186 2 370 168v514q-160 139 -338 139q-164 0 -276.5 -120.5t-112.5 -305.5q0 -180 102.5 -289 t254.5 -106z" />
<glyph horiz-adv-x="1277" d="M618 1266q-53 0 -87.5 26.5t-34.5 67.5t35 69.5t87 28.5q56 0 91.5 -28t35.5 -70q0 -41 -35 -67.5t-92 -26.5zM989 993h72v-1067q0 -202 -121.5 -319t-314.5 -117q-119 0 -218 32t-231 95l35 92q121 -58 214 -87.5t196 -29.5q146 0 237.5 86t91.5 244v217 q-192 -168 -387 -168q-191 0 -322.5 136.5t-131.5 355.5q0 117 39.5 216.5t106.5 166.5t156 105t187 38q191 0 356 -147zM580 70q186 2 370 168v514q-160 139 -338 139q-164 0 -276.5 -120.5t-112.5 -305.5q0 -180 102.5 -289t254.5 -106z" />
<glyph horiz-adv-x="700" d="M332 1241q-53 0 -88 26.5t-35 67.5t35.5 70t87.5 29q56 0 91.5 -28.5t35.5 -70.5q0 -41 -35 -67.5t-92 -26.5zM416 96h239v-96h-589v96h237v774h-237v95h350v-869z" />
<glyph horiz-adv-x="1339" d="M1145 96h168v-96h-520v96h219l-373 383l-238 -213v-170h197v-96h-547v96h238v1213h-238v96h350v-1034l545 499h-211v95h502v-95h-160l-366 -327z" />
<glyph horiz-adv-x="1339" d="M1145 96h168v-96h-520v96h219l-373 383l-238 -213v-170h197v-96h-547v96h238v1213h-238v96h350v-1034l545 499h-211v95h502v-95h-160l-366 -327zM700 -221q64 0 103 -41.5t39 -110.5q0 -87 -57 -185.5t-154 -180.5l-35 39q163 166 176 303q-39 -15 -84 -15 q-43 0 -74.5 24.5t-31.5 65.5t35.5 71t82.5 30z" />
<glyph horiz-adv-x="901" d="M797 135l39 -88q-132 -76 -275 -76q-147 0 -240.5 93.5t-93.5 267.5q0 82 20 192t35 165t50 179h-228v97h238v268h111v-268h321v-97h-336q-30 -110 -46.5 -175.5t-34 -169.5t-17.5 -181q0 -132 65 -200t160 -68q119 0 232 61z" />
<glyph horiz-adv-x="915" d="M811 135l39 -88q-132 -76 -275 -76q-147 0 -240 93.5t-93 267.5q0 126 39 289h-177v84h197q8 34 26 96.5t19 66.5h-227v97h237v268h111v-268h321v-97h-335q-28 -103 -43 -163h354v-84h-375q-35 -164 -35 -279q0 -132 65.5 -200t160.5 -68q118 0 231 61z" />
<glyph horiz-adv-x="901" d="M631 1122l-56 19q81 175 72 368l109 -16q-6 -197 -125 -371zM797 135l39 -88q-132 -76 -275 -76q-147 0 -240.5 93.5t-93.5 267.5q0 82 20 192t35 165t50 179h-228v97h238v268h111v-268h321v-97h-336q-30 -110 -46.5 -175.5t-34 -169.5t-17.5 -181q0 -132 65 -200 t160 -68q119 0 232 61z" />
<glyph horiz-adv-x="901" d="M543 -172q94 0 149.5 -47.5t55.5 -120.5q0 -79 -67.5 -127.5t-174.5 -48.5q-141 0 -279 88l39 70q116 -80 240 -80q71 0 113.5 26t42.5 72q0 49 -38 74.5t-106 25.5q-67 0 -125 -10l-10 17l88 215q-111 26 -177.5 115.5t-66.5 234.5q0 82 20 192t35 165t50 179h-228v97 h238v268h111v-268h321v-97h-336q-30 -110 -46.5 -175.5t-34 -169.5t-17.5 -181q0 -132 65 -200t160 -68q119 0 232 61l39 -88q-132 -76 -275 -76h-24l-58 -147q36 4 64 4z" />
<glyph horiz-adv-x="901" d="M836 47q-132 -76 -275 -76q-147 0 -240.5 93.5t-93.5 267.5q0 82 20 192t35 165t50 179h-228v97h238v268h111v-268h321v-97h-336q-30 -110 -46.5 -175.5t-34 -169.5t-17.5 -181q0 -132 65 -200t160 -68q119 0 232 61zM539 -250q64 0 102.5 -41t38.5 -110q0 -87 -57 -186 t-154 -181l-35 39q163 166 176 303q-36 -14 -84 -14q-43 0 -74.5 24.5t-31.5 65.5t35.5 70.5t83.5 29.5z" />
<glyph horiz-adv-x="1404" d="M1305 260h77v-67q0 -94 -51.5 -151.5t-134.5 -57.5q-87 0 -139.5 58.5t-52.5 154.5v30q-108 -123 -216 -189.5t-229 -66.5q-145 0 -226 95.5t-81 277.5v526h-215v95h328v-609q0 -280 227 -280q99 0 205 64.5t207 178.5v551h-199v95h307v-770q0 -58 25.5 -90.5t70.5 -32.5 q46 0 71.5 33.5t25.5 87.5v67z" />
<glyph horiz-adv-x="1404" d="M1047 1473l-453 -347l-41 48l424 387zM1305 260h77v-67q0 -94 -51.5 -151.5t-134.5 -57.5q-87 0 -139.5 58.5t-52.5 154.5v30q-108 -123 -216 -189.5t-229 -66.5q-145 0 -226 95.5t-81 277.5v526h-215v95h328v-609q0 -280 227 -280q99 0 205 64.5t207 178.5v551h-199v95 h307v-770q0 -58 25.5 -90.5t70.5 -32.5q46 0 71.5 33.5t25.5 87.5v67z" />
<glyph horiz-adv-x="1404" d="M641 1405l-315 -297l-43 39l323 364h72l326 -364l-41 -39zM1305 260h77v-67q0 -94 -51.5 -151.5t-134.5 -57.5q-87 0 -139.5 58.5t-52.5 154.5v30q-108 -123 -216 -189.5t-229 -66.5q-145 0 -226 95.5t-81 277.5v526h-215v95h328v-609q0 -280 227 -280q99 0 205 64.5 t207 178.5v551h-199v95h307v-770q0 -58 25.5 -90.5t70.5 -32.5q46 0 71.5 33.5t25.5 87.5v67z" />
<glyph horiz-adv-x="1404" d="M430 1217q-50 0 -83.5 26t-33.5 66t34 67t83 27q52 0 85.5 -27t33.5 -67t-33.5 -66t-85.5 -26zM854 1217q-48 0 -82.5 26.5t-34.5 65.5t34.5 66.5t82.5 27.5q52 0 85.5 -27t33.5 -67t-33.5 -66t-85.5 -26zM1305 260h77v-67q0 -94 -51.5 -151.5t-134.5 -57.5 q-87 0 -139.5 58.5t-52.5 154.5v30q-108 -123 -216 -189.5t-229 -66.5q-145 0 -226 95.5t-81 277.5v526h-215v95h328v-609q0 -280 227 -280q99 0 205 64.5t207 178.5v551h-199v95h307v-770q0 -58 25.5 -90.5t70.5 -32.5q46 0 71.5 33.5t25.5 87.5v67z" />
<glyph horiz-adv-x="1404" d="M731 1171l-41 -47l-452 346l69 89zM1305 260h77v-67q0 -94 -51.5 -151.5t-134.5 -57.5q-87 0 -139.5 58.5t-52.5 154.5v30q-108 -123 -216 -189.5t-229 -66.5q-145 0 -226 95.5t-81 277.5v526h-215v95h328v-609q0 -280 227 -280q99 0 205 64.5t207 178.5v551h-199v95h307 v-770q0 -58 25.5 -90.5t70.5 -32.5q46 0 71.5 33.5t25.5 87.5v67z" />
<glyph horiz-adv-x="1404" d="M688 1520l-272 -385l-51 43l239 405zM1065 1520l-272 -385l-52 43l238 405zM1305 260h77v-67q0 -94 -51.5 -151.5t-134.5 -57.5q-87 0 -139.5 58.5t-52.5 154.5v30q-108 -123 -216 -189.5t-229 -66.5q-145 0 -226 95.5t-81 277.5v526h-215v95h328v-609q0 -280 227 -280 q99 0 205 64.5t207 178.5v551h-199v95h307v-770q0 -58 25.5 -90.5t70.5 -32.5q46 0 71.5 33.5t25.5 87.5v67z" />
<glyph horiz-adv-x="1404" d="M1036 1284v-92l-788 2v92zM1305 260h77v-67q0 -94 -51.5 -151.5t-134.5 -57.5q-87 0 -139.5 58.5t-52.5 154.5v30q-108 -123 -216 -189.5t-229 -66.5q-145 0 -226 95.5t-81 277.5v526h-215v95h328v-609q0 -280 227 -280q99 0 205 64.5t207 178.5v551h-199v95h307v-770 q0 -58 25.5 -90.5t70.5 -32.5q46 0 71.5 33.5t25.5 87.5v67z" />
<glyph horiz-adv-x="1404" d="M1305 260h77v-67q0 -94 -51.5 -151.5t-134.5 -57.5h-12q-117 -76 -177.5 -162t-60.5 -158q0 -66 39.5 -102.5t95.5 -36.5q105 0 174 108l54 -53q-35 -62 -99.5 -102.5t-136.5 -40.5q-91 0 -155 56.5t-64 150.5t68.5 187.5t191.5 168.5q-52 23 -81 74.5t-29 122.5v30 q-108 -123 -216 -189.5t-229 -66.5q-145 0 -226 95.5t-81 277.5v526h-215v95h328v-609q0 -280 227 -280q99 0 205 64.5t207 178.5v551h-199v95h307v-770q0 -58 25.5 -90.5t70.5 -32.5q46 0 71.5 33.5t25.5 87.5v67z" />
<glyph horiz-adv-x="1404" d="M643 1114q-120 0 -206.5 83.5t-86.5 203.5q0 125 86 205t207 80q124 0 206.5 -80t82.5 -205q0 -123 -83 -205t-206 -82zM643 1608q-90 0 -151.5 -59t-61.5 -148q0 -87 62 -149t151 -62q91 0 150 61.5t59 149.5q0 90 -58.5 148.5t-150.5 58.5zM1305 260h77v-67 q0 -94 -51.5 -151.5t-134.5 -57.5q-87 0 -139.5 58.5t-52.5 154.5v30q-108 -123 -216 -189.5t-229 -66.5q-145 0 -226 95.5t-81 277.5v526h-215v95h328v-609q0 -280 227 -280q99 0 205 64.5t207 178.5v551h-199v95h307v-770q0 -58 25.5 -90.5t70.5 -32.5q46 0 71.5 33.5 t25.5 87.5v67z" />
<glyph horiz-adv-x="1368" d="M1321 868h-186l-396 -401q86 -215 148 -304t145 -89q80 0 126 67t46 178l103 -4q-1 -64 -18 -123.5t-49.5 -109.5t-86 -79.5t-121.5 -29.5q-64 0 -118 30.5t-99.5 93t-82 136t-77.5 179.5l-297 -316h205v-96h-518v96h182l391 398q-86 220 -147.5 309.5t-146.5 89.5 q-82 0 -124 -68t-42 -180l-105 6q2 65 17.5 123t46 108t84 79.5t123.5 29.5q64 0 118.5 -30.5t100.5 -92t82.5 -136t76.5 -179.5l302 315h-203v97h520v-97z" />
<glyph horiz-adv-x="1206" d="M125 0v59l741 762q40 40 86 56v2q-68 -15 -100 -15h-612v-233h-99v330h949v-62l-744 -766q-32 -29 -82 -51v-4q52 18 105 18h618v234h98v-330h-960z" />
<glyph horiz-adv-x="1206" d="M522 1174l41 -48l453 347l-70 88zM125 0v59l741 762q40 40 86 56v2q-68 -15 -100 -15h-612v-233h-99v330h949v-62l-744 -766q-32 -29 -82 -51v-4q52 18 105 18h618v234h98v-330h-960z" />
<glyph horiz-adv-x="1206" d="M932 1524l41 -43l-326 -365h-72l-323 365l43 43l315 -299zM125 0v59l741 762q40 40 86 56v2q-68 -15 -100 -15h-612v-233h-99v330h949v-62l-744 -766q-32 -29 -82 -51v-4q52 18 105 18h618v234h98v-330h-960z" />
<glyph horiz-adv-x="1206" d="M612 1241q-53 0 -88 26.5t-35 67.5t35.5 70t87.5 29q56 0 91.5 -28.5t35.5 -70.5q0 -41 -35 -67.5t-92 -26.5zM125 0v59l741 762q40 40 86 56v2q-68 -15 -100 -15h-612v-233h-99v330h949v-62l-744 -766q-32 -29 -82 -51v-4q52 18 105 18h618v234h98v-330h-960z" />
<glyph horiz-adv-x="1298" d="M1061 381h100v-381h-1077v96l-2 2l541 406q59 44 90 67.5t76 60t68 59.5t50.5 55t40.5 58.5t22 58.5t9 65q0 127 -100 199.5t-246 72.5q-132 0 -245 -64t-226 -178l-66 74q120 124 251 195t290 71q67 0 131.5 -13.5t124 -42.5t104 -71.5t71 -104.5t26.5 -136 q0 -140 -127 -271q-70 -72 -253 -208h-1l-1 -1l-1 -1h-1l-1 -1l-1 -1l-1 -1h-1l-1 -1l-1 -1l-1 -1h-1l-1 -1l-1 -1l-1 -1h-1l-1 -1l-1 -1h-1l-1 -1l-1 -1l-2 -1l-1 -1h-1l-1 -1l-1 -1l-1 -1h-1l-1 -1l-1 -1l-1 -1l-449 -330h828v283z" />
<glyph horiz-adv-x="1187" d="M92 1264h1032v-90q0 -108 -21.5 -188.5t-73 -150.5t-123 -128t-187.5 -129q-187 -117 -256.5 -248.5t-69.5 -329.5h-106q0 226 84 377.5t282 275.5q148 94 222 162t108.5 149.5t34.5 200.5h-825v-301h-101v400z" />
<glyph horiz-adv-x="1423" d="M711 -27q-121 0 -230.5 47.5t-191.5 132t-130 210t-48 272.5q0 149 46.5 274.5t127.5 210t190.5 131.5t235.5 47q121 0 230.5 -47t191.5 -131.5t130 -210.5t48 -274t-46.5 -273t-127.5 -209.5t-191 -132t-235 -47.5zM713 72q217 0 351 157t134 406q0 248 -137.5 406.5 t-347.5 158.5q-219 0 -353.5 -157.5t-134.5 -407.5q0 -246 138 -404.5t350 -158.5zM713 537q-46 0 -79.5 28.5t-33.5 69.5q0 43 33 71.5t80 28.5q51 0 83.5 -28t32.5 -72q0 -42 -33 -70t-83 -28z" />
<glyph horiz-adv-x="808" d="M614 240h76v-240h-618v57q1 60 20 105t66.5 82.5t79 55.5t103.5 53q6 3 8.5 4.5t7 3.5t8.5 4q123 62 169.5 103.5t45.5 94.5q-1 57 -50.5 90t-126.5 33q-142 0 -274 -115l-45 58q153 131 322 131q115 1 185.5 -55t70.5 -144q0 -35 -12.5 -64.5t-29.5 -51.5t-56.5 -50 t-72.5 -47t-98 -55q-9 -5 -26 -14q-46 -25 -68.5 -37.5t-55 -34.5t-47 -39t-26 -41t-12.5 -51h456v164z" />
<glyph horiz-adv-x="825" d="M758 229v-73h-160v-185h-92v185h-471v73l452 519h111v-519h160zM125 229h381v428z" />
<glyph horiz-adv-x="626" d="M393 616h137v-77h-424v77h195v535q-31 -40 -77.5 -65t-100.5 -29l-23 84q68 2 127 43.5t74 103.5v10h92v-682z" />
<glyph horiz-adv-x="757" d="M457 903q103 -17 159 -64t56 -118q0 -88 -81 -144.5t-212 -56.5q-168 0 -332 125l45 66q136 -115 291 -115q89 0 145 34.5t56 94.5q0 62 -67.5 101.5t-194.5 39.5h-113v68h113q105 0 167 46t62 110q0 63 -51.5 99t-134.5 36q-132 0 -250 -99l-43 60q128 114 295 114 q112 0 193 -55t81 -151q0 -69 -48.5 -120t-135.5 -71z" />
<glyph horiz-adv-x="1665" d="M2189 -254l49 -88q-103 -78 -218 -124t-273 -46q-239 0 -469.5 129.5t-400.5 359.5q-49 -8 -117 -8q-189 -4 -338.5 42t-236.5 138.5t-87 215.5q0 159 122.5 254t359.5 157q-7 93 -7 162q0 214 106.5 351.5t276.5 137.5q138 0 224 -81.5t86 -194.5q0 -89 -40.5 -160 t-120 -123t-174.5 -89t-226 -70q48 -351 235 -629q199 40 322.5 155t123.5 263q0 76 -19 130.5t-60 116.5l90 46q100 -138 100 -297q0 -165 -136.5 -302t-359.5 -194q151 -190 348 -297t398 -107q141 0 243.5 39.5t198.5 112.5zM956 1331q-114 0 -191 -102.5t-77 -290.5 q0 -68 6 -133q220 54 340.5 134t120.5 200q0 85 -55 138.5t-144 53.5zM760 63q30 0 57 3q-173 271 -225 614q-73 -20 -127 -39.5t-104 -46.5t-81 -58.5t-49 -73.5t-18 -93q0 -137 150.5 -221.5t396.5 -84.5z" />
<glyph horiz-adv-x="557" d="M260 1712l109 -16q-6 -197 -125 -371l-56 18q81 176 72 369z" />
<glyph horiz-adv-x="731" d="M373 -588q-95 0 -154 67t-59 169q0 94 47 190t135 172l68 -10q-81 -75 -121.5 -164t-40.5 -166q0 -74 37.5 -120t97.5 -46q109 0 186 162l68 -45q-44 -99 -111 -154t-153 -55z" />
<glyph horiz-adv-x="2093" d="M1044 -446q152 0 294.5 43.5t260 125.5t206 194t137.5 256t49 304q0 161 -49 306t-137 257t-206 194t-260.5 125.5t-294.5 43.5q-189 0 -361 -68.5t-300.5 -188.5t-204.5 -294.5t-76 -374.5q0 -199 76 -372.5t204.5 -293.5t300.5 -188.5t361 -68.5zM508 748l-14 49 q164 92 380 86l5 -101q-200 26 -371 -34zM1583 748q-171 60 -371 34l7 101q214 6 378 -86zM682 350q-38 0 -63 26t-25 64q0 36 25 61t63 25q35 0 61.5 -25.5t26.5 -60.5q0 -38 -26 -64t-62 -26zM1411 350q-37 0 -62.5 26t-25.5 64q0 35 25.5 60.5t62.5 25.5q38 0 63 -25 t25 -61q0 -38 -25 -64t-63 -26zM1044 -12q-128 0 -346 24v43q209 23 346 23q142 0 351 -23v-43q-218 -24 -351 -24z" />
<glyph horiz-adv-x="2093" d="M1044 -446q152 0 294.5 43.5t260 125.5t206 194t137.5 256t49 304q0 161 -49 306t-137 257t-206 194t-260.5 125.5t-294.5 43.5q-189 0 -361 -68.5t-300.5 -188.5t-204.5 -294.5t-76 -374.5q0 -199 76 -372.5t204.5 -293.5t300.5 -188.5t361 -68.5zM510 713l-25 51 q155 126 359 147l24 -96q-199 -6 -358 -102zM1579 713q-159 96 -360 102l26 96q205 -22 357 -147zM682 350q-38 0 -63 26t-25 64q0 36 25 61t63 25q35 0 61.5 -25.5t26.5 -60.5q0 -38 -26 -64t-62 -26zM1411 350q-37 0 -62.5 26t-25.5 64q0 35 25.5 60.5t62.5 25.5 q38 0 63 -25t25 -61q0 -38 -25 -64t-63 -26zM1044 -66q-176 0 -346 132l9 43q99 -45 173.5 -64.5t163.5 -19.5q92 0 167.5 19.5t172.5 64.5l11 -43q-173 -132 -351 -132z" />
<glyph horiz-adv-x="2093" d="M1044 -446q152 0 294.5 43.5t260 125.5t206 194t137.5 256t49 304q0 161 -49 306t-137 257t-206 194t-260.5 125.5t-294.5 43.5q-189 0 -361 -68.5t-300.5 -188.5t-204.5 -294.5t-76 -374.5q0 -199 76 -372.5t204.5 -293.5t300.5 -188.5t361 -68.5zM510 713l-25 51 q155 126 359 147l24 -96q-199 -6 -358 -102zM1579 713q-159 96 -360 102l26 96q205 -22 357 -147zM682 350q-38 0 -63 26t-25 64q0 36 25 61t63 25q35 0 61.5 -25.5t26.5 -60.5q0 -38 -26 -64t-62 -26zM1411 350q-37 0 -62.5 26t-25.5 64q0 35 25.5 60.5t62.5 25.5 q38 0 63 -25t25 -61q0 -38 -25 -64t-63 -26zM1044 129q178 0 351 -129l-11 -45q-96 46 -172 66t-168 20q-89 0 -164 -20t-173 -66l-9 45q170 129 346 129z" />
<glyph horiz-adv-x="2093" d="M1044 -446q152 0 294.5 43.5t260 125.5t206 194t137.5 256t49 304q0 161 -49 306t-137 257t-206 194t-260.5 125.5t-294.5 43.5q-189 0 -361 -68.5t-300.5 -188.5t-204.5 -294.5t-76 -374.5q0 -199 76 -372.5t204.5 -293.5t300.5 -188.5t361 -68.5zM510 956 q154 -90 358 -100l-24 -94q-210 22 -359 145zM1579 956l23 -49q-146 -123 -357 -145l-26 94q205 10 360 100zM682 350q-38 0 -63 26t-25 64q0 36 25 61t63 25q35 0 61.5 -25.5t26.5 -60.5q0 -38 -26 -64t-62 -26zM1411 350q-37 0 -62.5 26t-25.5 64q0 35 25.5 60.5 t62.5 25.5q38 0 63 -25t25 -61q0 -38 -25 -64t-63 -26zM1044 129q178 0 351 -129l-11 -45q-96 46 -172 66t-168 20q-89 0 -164 -20t-173 -66l-9 45q170 129 346 129z" />
<glyph horiz-adv-x="2093" d="M1044 -446q152 0 294.5 43.5t260 125.5t206 194t137.5 256t49 304q0 161 -49 306t-137 257t-206 194t-260.5 125.5t-294.5 43.5q-189 0 -361 -68.5t-300.5 -188.5t-204.5 -294.5t-76 -374.5q0 -199 76 -372.5t204.5 -293.5t300.5 -188.5t361 -68.5zM522 715l-24 51 q156 123 360 147l23 -96q-201 -10 -359 -102zM1567 713q-156 94 -359 104l23 96q204 -24 360 -147zM682 346q-40 0 -66 27t-26 67q0 37 26.5 63.5t65.5 26.5q37 0 63.5 -26.5t26.5 -63.5q0 -39 -26.5 -66.5t-63.5 -27.5zM1413 346q-38 0 -65 27t-27 67q0 37 27 63.5t65 26.5 t64 -26.5t26 -63.5q0 -40 -26 -67t-64 -27zM1044 156q33 0 50 -25t34 -84v-37q-17 -60 -34 -85t-50 -25q-32 0 -48 25t-33 85v37q17 59 33.5 84t47.5 25z" />
<glyph horiz-adv-x="2093" d="M1044 -446q152 0 294.5 43.5t260 125.5t206 194t137.5 256t49 304q0 161 -49 306t-137 257t-206 194t-260.5 125.5t-294.5 43.5q-189 0 -361 -68.5t-300.5 -188.5t-204.5 -294.5t-76 -374.5q0 -199 76 -372.5t204.5 -293.5t300.5 -188.5t361 -68.5zM522 715l-24 51 q156 123 360 147l23 -96q-201 -10 -359 -102zM1567 713q-156 94 -359 104l23 96q204 -24 360 -147zM682 350q-38 0 -63 26t-25 64q0 36 25 61t63 25q35 0 61.5 -25.5t26.5 -60.5q0 -38 -26 -64t-62 -26zM1411 350q-37 0 -62.5 26t-25.5 64q0 35 25.5 60.5t62.5 25.5 q38 0 63 -25t25 -61q0 -38 -25 -64t-63 -26zM1044 -12q-128 0 -346 24v43q209 23 346 23q142 0 351 -23v-43q-218 -24 -351 -24z" />
<glyph horiz-adv-x="2093" d="M1044 -446q152 0 294.5 43.5t260 125.5t206 194t137.5 256t49 304q0 161 -49 306t-137 257t-206 194t-260.5 125.5t-294.5 43.5q-189 0 -361 -68.5t-300.5 -188.5t-204.5 -294.5t-76 -374.5q0 -199 76 -372.5t204.5 -293.5t300.5 -188.5t361 -68.5zM1540 676 q-132 127 -326 186l48 88q200 -78 313 -229zM498 778l-4 56q179 61 387 14l-9 -100q-198 61 -374 30zM682 340q-41 0 -69.5 28.5t-28.5 71.5q0 40 28.5 68.5t69.5 28.5q40 0 68 -28.5t28 -68.5q0 -42 -28 -71t-68 -29zM1413 340q-40 0 -69 29t-29 71q0 40 29 68.5t69 28.5 q41 0 69.5 -28.5t28.5 -68.5q0 -43 -28.5 -71.5t-69.5 -28.5zM991 129q100 0 210.5 -33.5t193.5 -95.5l-11 -45q-179 86 -393 86q-179 0 -284 -86l-9 45q43 63 120.5 96t172.5 33z" />
</font>
</defs>
</svg>
